osu file format v14

[General]
AudioFilename: audio.mp3
AudioLeadIn: 0
PreviewTime: 124588
Countdown: 1
SampleSet: Normal
StackLeniency: 0.7
Mode: 0
LetterboxInBreaks: 0
WidescreenStoryboard: 1

[Editor]
Bookmarks: 9923
DistanceSpacing: 0.4
BeatDivisor: 4
GridSize: 32
TimelineZoom: 3.499999

[Metadata]
Title:Papercut
TitleUnicode:Papercut
Artist:Linkin Park
ArtistUnicode:Linkin Park
Creator:Veridian
Version:Insane
Source:
Tags:
BeatmapID:1782978
BeatmapSetID:853133

[Difficulty]
HPDrainRate:6.2
CircleSize:4.4
OverallDifficulty:7.5
ApproachRate:9
SliderMultiplier:2
SliderTickRate:1

[Events]
//Background and Video events
0,0,"night-rain-artwork-cities-1366x768-wallpaper.jpg",0,0
//Break Periods
2,61652,66846
2,112798,114195
2,115994,117392
2,119191,120589
//Storyboard Layer 0 (Background)
//Storyboard Layer 1 (Fail)
//Storyboard Layer 2 (Pass)
//Storyboard Layer 3 (Foreground)
//Storyboard Sound Samples

[TimingPoints]
318,399.57378795951,4,1,1,70,1,0
22194,-100,4,1,1,5,0,0
22294,-100,4,1,1,70,0,0
22394,-100,4,1,1,5,0,0
22494,-100,4,1,1,70,0,0
22594,-100,4,1,1,5,0,0
22694,-100,4,2,2,70,0,0
38077,-100,4,2,2,5,0,0
38677,-100,4,2,2,70,0,0
41274,-100,4,1,4,100,0,0
42672,-100,4,1,4,70,0,0
42772,-100,4,2,2,5,0,0
42872,-100,4,2,2,70,0,0
47292,-100,4,2,2,5,0,0
47667,-100,4,2,2,70,0,0
48266,-100,4,1,3,85,0,1
48666,-100,4,1,6,85,0,1
48766,-100,4,1,3,85,0,1
49066,-100,4,1,6,85,0,1
49165,-100,4,1,3,85,0,1
49465,-100,4,1,6,85,0,1
49565,-100,4,1,3,85,0,1
49865,-100,4,1,6,85,0,1
49965,-100,4,1,3,85,0,1
50064,-100,4,1,6,85,0,1
50164,-100,4,1,3,85,0,1
50464,-100,4,1,6,85,0,1
50564,-100,4,1,3,85,0,1
50764,-100,4,1,3,5,0,1
50864,-100,4,1,3,85,0,1
51063,-100,4,1,6,85,0,1
51163,-100,4,1,3,85,0,1
51863,-100,4,1,6,85,0,1
51962,-100,4,1,3,85,0,1
52262,-100,4,1,6,85,0,1
52362,-100,4,1,3,85,0,1
52562,-100,4,1,3,5,0,1
52662,-100,4,1,3,85,0,1
53061,-100,4,1,6,85,0,1
53161,-100,4,1,3,85,0,1
53261,-100,4,1,6,85,0,1
53361,-100,4,1,3,85,0,1
53661,-100,4,1,6,85,0,1
53760,-100,4,1,3,85,0,1
54260,-100,4,1,6,85,0,1
54360,-100,4,1,3,85,0,1
54460,-100,4,1,6,85,0,1
54560,-100,4,1,3,85,0,1
55059,-100,4,1,6,85,0,1
55159,-100,4,1,3,85,0,1
55359,-100,4,1,3,5,0,1
55459,-100,4,1,3,85,0,1
55858,-100,4,1,6,85,0,1
55958,-100,4,1,3,85,0,1
56258,-100,4,1,6,85,0,1
56358,-100,4,1,3,85,0,1
56458,-100,4,1,6,85,0,1
56558,-100,4,1,3,85,0,1
56857,-100,4,1,6,85,0,1
56957,-100,4,1,3,85,0,1
57157,-100,4,1,3,5,0,1
57257,-100,4,1,3,85,0,1
57457,-100,4,1,6,85,0,1
57556,-100,4,1,3,85,0,1
57656,-100,4,1,6,85,0,1
57756,-100,4,1,3,85,0,1
57856,-100,4,1,6,85,0,1
57956,-100,4,1,3,85,0,1
58156,-100,4,1,6,85,0,1
58256,-100,4,1,3,85,0,1
59954,-100,4,1,3,5,0,1
60054,-100,4,1,4,100,0,1
60254,-100,4,1,3,85,0,1
60453,-100,4,1,4,85,0,1
61053,-100,4,1,4,100,0,0
61452,-100,4,1,4,85,0,1
62052,-100,4,2,2,75,0,0
76439,-100,4,2,2,5,0,0
77036,-100,4,1,4,100,0,0
77039,-100,4,2,2,70,0,0
81031,-100,4,1,4,70,0,0
81131,-100,4,2,2,5,0,0
81231,-100,4,2,2,75,0,0
85627,-100,4,1,0,75,0,0
85651,-100,4,1,3,5,0,0
85926,-100,4,1,3,75,0,0
85951,-100,4,1,3,5,0,0
86226,-100,4,1,3,75,0,0
86625,-100,4,1,3,85,0,1
87025,-100,4,1,6,85,0,1
87125,-100,4,1,3,85,0,1
87425,-100,4,1,6,85,0,1
87524,-100,4,1,3,85,0,1
87824,-100,4,1,6,85,0,1
87924,-100,4,1,3,85,0,1
88224,-100,4,1,6,85,0,1
88324,-100,4,1,3,85,0,1
88424,-100,4,1,6,85,0,1
88523,-100,4,1,3,85,0,1
88823,-100,4,1,6,85,0,1
88923,-100,4,1,3,85,0,1
89123,-100,4,1,3,5,0,1
89223,-100,4,1,3,85,0,1
89422,-100,4,1,6,85,0,1
89522,-100,4,1,3,85,0,1
90222,-100,4,1,6,85,0,1
90621,-100,4,1,6,85,0,1
90721,-100,4,1,3,85,0,1
90921,-100,4,1,3,5,0,1
91021,-100,4,1,3,85,0,1
91420,-100,4,1,6,85,0,1
91520,-100,4,1,3,85,0,1
91620,-100,4,1,6,85,0,1
91720,-100,4,1,3,85,0,1
92020,-100,4,1,6,85,0,1
92120,-100,4,1,3,85,0,1
92319,-100,4,1,3,5,0,1
92419,-100,4,1,3,85,0,1
92619,-100,4,1,6,85,0,1
92719,-100,4,1,3,85,0,1
92819,-100,4,1,6,85,0,1
92919,-100,4,1,3,85,0,1
93418,-100,4,1,6,85,0,1
93518,-100,4,1,3,85,0,1
93718,-100,4,1,3,5,0,1
93818,-100,4,1,3,85,0,1
94117,-100,4,1,3,5,0,1
94217,-100,4,1,6,85,0,1
94317,-100,4,1,3,85,0,1
94617,-100,4,1,6,85,0,1
94717,-100,4,1,3,85,0,1
94817,-100,4,1,6,85,0,1
94917,-100,4,1,3,85,0,1
95216,-100,4,1,6,85,0,1
95316,-100,4,1,3,85,0,1
95516,-100,4,1,3,5,0,1
95616,-100,4,1,3,85,0,1
95816,-100,4,1,6,85,0,1
95916,-100,4,1,3,85,0,1
96015,-100,4,1,6,85,0,1
96115,-100,4,1,3,85,0,1
96215,-100,4,1,6,85,0,1
96315,-100,4,1,3,85,0,1
96515,-100,4,1,6,85,0,1
96615,-100,4,1,3,85,0,1
97714,-100,4,1,3,5,0,1
97815,-100,4,1,3,85,0,1
98313,-100,4,1,3,85,0,1
98812,-100,4,1,4,100,0,1
99412,-100,4,1,4,100,0,0
99811,-100,4,1,4,85,0,1
99836,-100,4,1,4,85,0,1
100211,-100,4,1,3,85,0,1
100611,-100,4,1,6,85,0,1
100710,-100,4,1,3,85,0,1
101010,-100,4,1,6,85,0,1
101110,-100,4,1,3,85,0,1
101210,-100,4,1,6,85,0,1
101310,-100,4,1,3,85,0,1
101609,-100,4,1,6,85,0,1
101709,-100,4,1,3,85,0,1
101909,-100,4,1,3,5,0,1
102009,-100,4,1,3,85,0,1
102209,-100,4,1,6,85,0,1
102309,-100,4,1,3,85,0,1
103008,-100,4,1,6,85,0,1
103108,-100,4,1,3,85,0,1
103408,-100,4,1,6,85,0,1
103507,-100,4,1,3,85,0,1
103707,-100,4,1,3,5,0,1
103807,-100,4,1,3,85,0,1
104207,-100,4,1,6,85,0,1
104307,-100,4,1,3,85,0,1
104406,-100,4,1,6,85,0,1
104506,-100,4,1,3,85,0,1
104806,-100,4,1,6,85,0,1
104906,-100,4,1,3,85,0,1
105405,-100,4,1,6,85,0,1
105505,-100,4,1,3,85,0,1
105605,-100,4,1,6,85,0,1
105705,-100,4,1,3,85,0,1
106205,-100,4,1,6,85,0,1
106304,-100,4,1,3,85,0,1
106504,-100,4,1,3,5,0,1
106604,-100,4,1,3,85,0,1
107004,-100,4,1,6,85,0,1
107104,-100,4,1,3,85,0,1
107403,-100,4,1,6,85,0,1
107503,-100,4,1,3,85,0,1
107603,-100,4,1,6,85,0,1
107703,-100,4,1,3,85,0,1
108003,-100,4,1,6,85,0,1
108103,-100,4,1,3,85,0,1
108302,-100,4,1,3,5,0,1
108402,-100,4,1,3,85,0,1
108602,-100,4,1,6,85,0,1
108702,-100,4,1,3,85,0,1
108802,-100,4,1,6,85,0,1
108902,-100,4,1,3,85,0,1
109002,-100,4,1,6,85,0,1
109101,-100,4,1,3,85,0,1
109301,-100,4,1,6,85,0,1
109401,-100,4,1,3,85,0,1
111099,-100,4,1,3,5,0,1
111199,-100,4,1,4,85,0,1
111399,-100,4,1,3,85,0,1
111599,-100,4,1,4,100,0,1
112198,-100,4,1,4,100,0,0
112598,-100,4,1,4,100,0,0
121788,-100,4,1,4,45,0,0
122587,-100,4,1,4,50,0,0
123386,-100,4,1,4,70,0,0
124185,-100,4,1,4,90,0,0
124985,-100,4,1,1,70,0,1
125784,-100,4,1,1,70,0,0
131378,-66.6666666666667,4,1,4,70,0,0
131478,-66.6666666666667,4,1,4,5,0,0
131577,-66.6666666666667,4,1,4,70,0,0
131977,-66.6666666666667,4,1,4,5,0,0
132177,-66.6666666666667,4,1,4,70,0,0
132277,-66.6666666666667,4,1,4,5,0,0
132377,-66.6666666666667,4,1,4,70,0,0
132477,-66.6666666666667,4,1,4,5,0,0
132576,-66.6666666666667,4,1,4,70,0,0
132676,-66.6666666666667,4,1,4,5,0,0
132776,-66.6666666666667,4,1,4,70,0,0
133475,-66.6666666666667,4,1,4,5,0,0
133575,-66.6666666666667,4,1,4,70,0,0
133675,-66.6666666666667,4,1,4,5,0,0
133775,-66.6666666666667,4,1,4,70,0,0
134075,-66.6666666666667,4,1,4,5,0,0
134175,-66.6666666666667,4,1,4,70,0,0
134275,-66.6666666666667,4,1,4,5,0,0
134375,-66.6666666666667,4,1,4,70,0,0
134474,-66.6666666666667,4,1,4,5,0,0
134574,-100,4,1,3,70,0,0
137771,-100,4,1,1,70,0,1
138570,-100,4,1,1,70,0,0
144164,-66.6666666666667,4,1,4,70,0,0
144264,-66.6666666666667,4,1,4,5,0,0
144364,-66.6666666666667,4,1,4,70,0,0
144763,-66.6666666666667,4,1,4,5,0,0
144863,-66.6666666666667,4,1,4,70,0,0
145063,-66.6666666666667,4,1,4,5,0,0
145163,-66.6666666666667,4,1,4,70,0,0
145263,-66.6666666666667,4,1,4,5,0,0
145363,-66.6666666666667,4,1,4,70,0,0
145463,-66.6666666666667,4,1,4,5,0,0
145563,-66.6666666666667,4,1,4,70,0,0
145662,-66.6666666666667,4,1,4,5,0,0
145762,-66.6666666666667,4,1,4,70,0,0
146462,-66.6666666666667,4,1,4,5,0,0
146562,-66.6666666666667,4,1,4,70,0,0
146661,-66.6666666666667,4,1,4,5,0,0
146761,-66.6666666666667,4,1,4,70,0,0
146861,-66.6666666666667,4,1,4,5,0,0
146961,-66.6666666666667,4,1,4,70,0,0
147361,-100,4,1,1,70,0,0
150557,-100,4,1,3,85,0,1
151157,-100,4,1,6,85,0,1
151256,-100,4,1,3,85,0,1
151756,-100,4,1,6,85,0,1
151856,-100,4,1,3,85,0,1
152355,-100,4,1,6,85,0,1
152455,-100,4,1,3,85,0,1
152755,-100,4,1,6,85,0,1
152855,-100,4,1,3,85,0,1
153354,-100,4,1,6,85,0,1
153454,-100,4,1,3,85,0,1
153554,-100,4,1,6,85,0,1
153654,-100,4,1,3,85,0,1
154853,-100,4,1,3,5,0,1
154953,-100,4,1,6,85,0,1
155052,-100,4,1,3,85,0,1
155352,-100,4,1,6,85,0,1
155452,-100,4,1,3,85,0,1
155951,-100,4,1,6,85,0,1
156051,-100,4,1,3,85,0,1
156551,-100,4,1,6,85,0,1
156651,-100,4,1,3,85,0,1
156751,-100,4,1,6,85,0,1
156851,-100,4,1,3,85,0,1
157750,-100,4,1,6,85,0,1
157849,-100,4,1,3,85,0,1
158149,-100,4,1,6,85,0,1
158249,-100,4,1,3,85,0,1
158349,-100,4,1,6,85,0,1
158449,-100,4,1,3,85,0,1
158749,-100,4,1,6,85,0,1
158848,-100,4,1,3,85,0,1
159148,-100,4,1,6,85,0,1
159248,-100,4,1,3,85,0,1
159448,-100,4,1,3,5,0,1
159548,-100,4,1,6,85,0,1
159648,-100,4,1,3,85,0,1
159947,-100,4,1,6,85,0,1
160047,-100,4,1,3,85,0,1
160147,-100,4,1,6,85,0,1
160247,-100,4,1,3,85,0,1
160447,-100,4,1,6,85,0,1
160547,-100,4,1,3,85,0,1
160746,-100,4,1,6,85,0,1
160846,-100,4,1,3,85,0,1
161146,-100,4,1,6,85,0,1
161246,-100,4,1,3,85,0,1
161546,-100,4,1,6,85,0,1
161645,-100,4,1,3,85,0,1
161845,-100,4,1,3,5,0,1
162145,-100,4,1,6,85,0,1
162245,-100,4,1,3,85,0,1
162345,-100,4,1,6,85,0,1
162445,-100,4,1,3,85,0,1
162944,-100,4,1,3,85,0,0
163344,-100,4,1,3,85,0,1
163943,-100,4,1,6,85,0,1
164542,-100,4,1,6,85,0,1
164642,-100,4,1,3,85,0,1
165142,-100,4,1,6,85,0,1
165242,-100,4,1,3,85,0,1
165541,-100,4,1,6,85,0,1
165641,-100,4,1,3,85,0,1
165841,-100,4,1,3,5,0,1
165941,-100,4,1,3,85,0,1
166141,-100,4,1,6,85,0,1
166241,-100,4,1,3,85,0,1
166340,-100,4,1,6,85,0,1
166440,-100,4,1,3,85,0,1
167639,-100,4,1,3,5,0,1
167739,-100,4,1,6,85,0,1
167839,-100,4,1,3,85,0,1
168039,-100,4,1,3,5,0,1
168138,-100,4,1,6,85,0,1
168238,-100,4,1,3,85,0,1
168738,-100,4,1,6,85,0,1
168838,-100,4,1,3,85,0,1
169337,-100,4,1,6,85,0,1
169437,-100,4,1,3,85,0,1
169537,-100,4,1,6,85,0,1
169637,-100,4,1,3,85,0,1
170536,-100,4,1,6,85,0,1
170636,-100,4,1,3,85,0,1
170936,-100,4,1,6,85,0,1
171035,-100,4,1,3,85,0,1
171135,-100,4,1,6,85,0,1
171235,-100,4,1,3,85,0,1
171535,-100,4,1,6,85,0,1
171635,-100,4,1,3,85,0,1
171934,-100,4,1,6,85,0,1
172034,-100,4,1,3,85,0,1
172234,-100,4,1,3,5,0,1
172334,-100,4,1,6,85,0,1
172434,-100,4,1,3,85,0,1
172734,-100,4,1,6,85,0,1
172833,-100,4,1,3,85,0,1
172933,-100,4,1,6,85,0,1
173033,-100,4,1,3,85,0,1
173333,-100,4,1,6,85,0,1
173433,-100,4,1,3,85,0,1
173533,-100,4,1,6,85,0,1
173633,-100,4,1,3,85,0,1
173932,-100,4,1,6,85,0,1
174032,-100,4,1,3,85,0,1
174332,-100,4,1,6,85,0,1
174432,-100,4,1,3,85,0,1
174532,-100,4,1,6,85,0,1
174632,-100,4,1,3,5,0,1
174931,-100,4,1,6,85,0,1
175031,-100,4,1,3,85,0,1
175131,-100,4,1,6,85,0,1
175231,-100,4,1,3,85,0,1
175531,-100,4,1,6,85,0,1
175630,-100,4,1,3,85,0,1
175730,-100,4,1,6,85,0,0
175830,-100,4,1,3,85,0,0
176130,-100,4,1,3,87,0,1
181524,-100,4,1,4,87,0,1
181724,-100,4,1,4,100,0,1
182923,-100,4,1,5,50,0,0

[Colours]
Combo1 : 142,125,240
Combo2 : 92,152,146
Combo3 : 252,225,135
Combo4 : 102,157,124

[HitObjects]
60,32,9907,5,14,3:1:0:0:
256,96,10107,1,0,3:1:0:0:
60,176,10307,1,8,3:1:0:0:
174,52,10507,2,0,B|162:100|162:100|178:163,1,100,2|8,0:1|2:1,0:0:0:0:
336,148,10906,2,0,B|348:99|348:99|336:51,1,100,2|8,3:1|0:1,0:0:0:0:
256,212,11306,1,2,3:1:0:0:
336,268,11506,5,8,0:1:0:0:
355,264,11605,1,0,0:1:0:0:
375,261,11705,1,0,0:1:0:0:
236,216,11905,2,0,L|137:233,1,100,8|0,3:1|0:1,0:0:0:0:
208,316,12305,1,8,2:1:0:0:
97,154,12505,2,0,P|57:194|117:322,1,200,0|0,3:1|3:1,0:0:0:0:
212,67,13104,5,12,3:1:0:0:
137,232,13304,1,0,3:1:0:0:
60,67,13503,1,8,3:1:0:0:
176,156,13703,2,0,L|285:137,1,100,2|8,0:1|2:1,0:0:0:0:
444,56,14103,2,0,L|334:37,1,100,2|8,3:1|0:1,0:0:0:0:
392,216,14502,1,2,3:1:0:0:
411,136,14702,5,8,0:1:0:0:
394,131,14802,1,0,0:1:0:0:
375,136,14902,1,0,3:1:0:0:
346,281,15102,2,0,P|394:297|451:267,1,100,8|0,3:1|0:1,0:0:0:0:
276,216,15501,1,8,2:1:0:0:
212,368,15701,2,0,L|174:155,1,200,0|0,3:1|3:1,0:0:0:0:
76,68,16300,5,12,3:1:0:0:
272,132,16500,1,0,3:1:0:0:
76,212,16700,1,8,3:1:0:0:
224,52,16900,2,0,B|272:40|272:40|321:52,1,100,2|8,0:1|2:1,0:0:0:0:
321,213,17299,2,0,B|272:225|272:225|224:213,1,100,2|8,3:1|0:1,0:0:0:0:
396,128,17699,1,2,3:1:0:0:
464,216,17899,5,8,0:1:0:0:
460,235,17999,1,0,0:1:0:0:
457,255,18099,1,0,3:1:0:0:
400,112,18298,2,0,L|417:13,1,100,8|0,3:1|0:1,0:0:0:0:
508,76,18698,1,8,2:1:0:0:
304,152,18898,2,0,B|208:180|208:180|96:148,1,200,0|0,3:1|3:1,0:0:0:0:
208,88,19497,5,12,3:1:0:0:
108,256,19697,1,0,3:1:0:0:
16,88,19897,1,8,3:1:0:0:
216,8,20096,2,0,P|272:32|288:92,1,100,2|8,0:1|2:1,0:0:0:0:
200,168,20496,2,0,P|144:144|128:84,1,100,2|8,3:1|0:1,0:0:0:0:
316,168,20896,1,2,3:1:0:0:
256,252,21095,5,8,0:1:0:0:
260,271,21195,1,0,0:1:0:0:
263,291,21295,1,0,0:1:0:0:
380,348,21495,2,0,L|398:245,1,100,8|0,3:1|0:1,0:0:0:0:
432,52,21894,1,8,2:1:0:0:
408,136,22094,6,0,L|484:136,1,50,0|0,3:0|0:0,0:0:0:0:
292,72,22294,2,0,L|368:72,1,50,0|0,3:0|0:0,0:0:0:0:
192,164,22494,2,0,L|268:164,1,50,0|0,3:0|0:0,0:0:0:0:
128,72,22694,5,6,3:2:0:0:
52,284,22893,1,0,3:2:0:0:
0,208,23093,2,0,B|52:196|52:196|120:212,1,100,0|0,3:2|0:2,0:0:0:0:
283,245,23493,1,2,1:2:0:0:
239,326,23693,2,0,P|188:245|237:164,1,200,0|0,3:2|3:2,0:0:0:0:
368,228,24292,5,2,0:2:0:0:
372,248,24392,1,0,0:2:0:0:
368,264,24492,1,0,3:2:0:0:
332,140,24692,2,0,L|435:122,1,100,2|0,3:2|0:2,0:0:0:0:
498,191,25091,1,2,1:2:0:0:
384,48,25291,2,0,P|433:35|494:61,2,100,0|0|0,3:2|0:2|0:2,0:0:0:0:
116,48,25890,5,2,3:2:0:0:
284,144,26090,1,0,3:2:0:0:
200,96,26290,2,0,P|186:143|201:190,1,100,0|0,3:2|0:2,0:0:0:0:
320,320,26689,1,2,1:2:0:0:
400,276,26889,2,0,P|318:227|238:278,1,200,0|0,3:2|3:2,0:0:0:0:
128,348,27489,5,2,0:2:0:0:
147,344,27588,1,0,0:2:0:0:
167,341,27688,1,0,3:2:0:0:
168,220,27888,2,0,L|65:202,1,100,0|0,3:2|0:2,0:0:0:0:
0,280,28288,1,0,1:2:0:0:
116,124,28487,2,0,P|68:110|21:125,2,100,2|0|0,3:2|0:2|0:2,0:0:0:0:
192,32,29087,5,6,3:2:0:0:
384,140,29287,1,0,3:2:0:0:
276,176,29486,2,0,L|296:61,1,100,0|0,3:2|0:2,0:0:0:0:
384,32,29886,1,2,1:2:0:0:
480,128,30086,2,0,L|441:344,1,200,0|0,3:2|3:2,0:0:0:0:
304,272,30685,5,0,0:0:0:0:
323,268,30785,1,0,0:2:0:0:
343,265,30885,1,0,3:2:0:0:
344,380,31085,2,0,L|245:362,1,100,0|0,3:2|0:2,0:0:0:0:
140,332,31484,1,2,1:2:0:0:
192,228,31684,2,0,P|142:244|95:226,2,100,0|0|0,3:2|0:2|0:2,0:0:0:0:
40,40,32283,5,2,3:2:0:0:
144,164,32483,1,0,3:2:0:0:
292,76,32683,2,0,L|193:93,1,100,0|0,3:2|0:2,0:0:0:0:
360,236,33083,1,2,1:2:0:0:
440,192,33282,2,0,P|358:143|278:194,1,200,0|0,3:2|0:2,0:0:0:0:
340,320,33882,5,2,0:2:0:0:
356,324,33982,1,0,0:2:0:0:
376,320,34081,1,0,3:2:0:0:
232,280,34281,2,0,L|249:378,1,100,2|0,3:2|0:2,0:0:0:0:
360,236,34681,1,2,1:2:0:0:
280,100,34881,2,0,P|264:146|280:193,2,100,0|0|0,3:2|0:2|3:2,0:0:0:0:
504,32,35480,5,6,3:2:0:0:
364,144,35680,1,0,3:2:0:0:
432,292,35880,2,0,L|449:193,1,100,2|0,3:2|0:2,0:0:0:0:
364,52,36279,1,2,1:2:0:0:
272,108,36479,2,0,L|56:69,1,200,0|0,3:2|3:2,0:0:0:0:
144,272,37078,1,2,3:2:0:0:
336,196,37278,1,0,3:2:0:0:
212,198,37478,2,0,P|244:246|240:294,1,100,2|0,3:2|0:2,0:0:0:0:
80,346,37877,2,0,P|48:298|52:250,1,100,2|0,1:2|0:2,0:0:0:0:
68,244,38677,5,2,3:2:0:0:
276,128,38876,1,0,3:2:0:0:
192,52,39076,2,0,L|93:69,1,100,2|0,3:2|0:2,0:0:0:0:
296,148,39476,1,2,1:2:0:0:
340,68,39676,2,0,P|390:148|341:229,1,200,0|0,3:2|3:2,0:0:0:0:
256,348,40275,1,2,3:2:0:0:
161,205,40475,1,0,3:2:0:0:
115,275,40674,2,0,P|160:291|217:264,1,100,2|0,3:2|0:2,0:0:0:0:
164,44,41074,1,2,1:2:0:0:
72,184,41274,5,0,3:0:0:0:
268,12,41474,1,0,3:0:0:0:
256,184,41673,1,0,3:0:0:0:
60,12,41873,1,0,3:0:0:0:
360,64,42073,1,0,3:0:0:0:
164,144,42273,1,0,3:0:0:0:
160,160,42672,6,0,B|155:188|155:188|168:236,1,50,4|0,0:0|0:2,0:0:0:0:
68,240,42872,2,0,L|292:279,1,200,0|0,3:2|3:2,0:0:0:0:
396,208,43471,5,2,0:2:0:0:
376,211,43571,1,0,0:2:0:0:
357,215,43671,1,0,3:2:0:0:
352,344,43871,2,0,L|454:325,1,100,2|0,3:2|0:2,0:0:0:0:
496,236,44271,1,2,1:2:0:0:
396,112,44470,2,0,P|380:158|396:205,2,100,0|0|0,3:2|0:2|0:2,0:0:0:0:
316,32,45070,5,2,3:2:0:0:
132,160,45270,1,0,3:2:0:0:
212,112,45469,2,0,P|228:158|212:205,1,100,2|0,3:2|0:2,0:0:0:0:
48,84,45869,1,2,1:2:0:0:
120,8,46069,2,0,L|320:43,1,200,0|0,3:2|3:2,0:0:0:0:
504,100,46668,5,2,0:2:0:0:
484,103,46768,1,0,0:2:0:0:
465,107,46868,1,0,3:2:0:0:
364,124,47068,1,0,3:2:0:0:
364,140,47267,2,0,L|364:156,16,12.5,2|0|0|0|0|0|0|0|0|0|0|0|0|0|0|0|2,0:2|0:2|0:2|0:2|0:2|0:2|0:2|0:2|0:2|0:2|0:2|0:2|0:2|0:2|0:2|0:2|0:2,0:0:0:0:
220,100,48266,5,12,3:1:0:0:
376,256,48466,1,0,3:1:0:0:
456,148,48666,1,10,3:1:0:0:
256,256,48866,1,2,0:1:0:0:
380,352,49066,2,0,L|490:332,1,100,10|2,2:1|3:1,0:0:0:0:
356,176,49465,5,10,0:1:0:0:
256,352,49665,1,2,3:1:0:0:
156,176,49865,1,10,0:1:0:0:
256,376,50064,1,2,0:1:0:0:
372,160,50264,1,8,3:1:0:0:
208,276,50464,2,0,L|24:244,1,150,2|0,0:1|0:1,0:0:0:0:
8,308,50864,1,0,3:1:0:0:
132,60,51063,2,0,L|151:170,1,100,10|0,0:1|0:1,0:0:0:0:
44,4,51463,5,12,3:1:0:0:
248,96,51663,1,0,3:1:0:0:
52,212,51863,2,0,P|40:176|56:108,1,100,14|2,3:1|0:1,0:0:0:0:
268,96,52262,2,0,P|292:152|248:252,1,150,10|0,2:1|0:1,0:0:0:0:
216,304,52662,2,0,L|89:281,1,100,8|2,0:1|3:1,0:0:0:0:
88,4,53061,5,10,0:1:0:0:
176,168,53261,1,2,3:1:0:0:
264,8,53461,1,10,3:1:0:0:
92,120,53661,2,0,B|77:168|77:168|99:232,1,100,2|8,0:1|2:1,0:0:0:0:
176,24,54060,1,0,3:1:0:0:
256,124,54260,2,0,B|271:172|271:172|249:236,1,100,10|2,0:1|0:1,0:0:0:0:
392,89,54660,5,12,3:1:0:0:
176,168,54859,1,0,3:1:0:0:
328,284,55059,2,0,P|380:308|480:260,1,150,10|0,3:1|0:1,0:0:0:0:
512,208,55459,2,0,L|493:101,1,100,8|2,2:1|3:1,0:0:0:0:
312,44,55858,1,10,0:1:0:0:
400,200,56058,1,2,3:1:0:0:
300,16,56258,5,10,0:1:0:0:
388,172,56458,1,2,3:1:0:0:
476,16,56657,1,8,3:1:0:0:
296,128,56857,2,0,B|244:108|244:108|128:144,1,150,2|0,0:1|0:1,0:0:0:0:
84,96,57257,1,0,0:1:0:0:
184,324,57457,1,10,0:1:0:0:
244,208,57656,1,2,3:1:0:0:
92,328,57856,5,14,3:1:0:0:
96,348,57956,1,0,0:1:0:0:
272,348,58156,1,2,0:1:0:0:
276,328,58256,1,8,3:1:0:0:
128,208,58455,1,2,0:1:0:0:
328,116,58655,1,8,2:1:0:0:
240,56,58855,2,0,P|195:43|117:83,1,100,2|8,3:1|0:1,0:0:0:0:
240,176,59255,6,0,P|304:212|424:168,1,200,2|0,3:1|3:1,0:0:0:0:
319,66,59854,2,0,L|333:148,1,50,8|0,0:0|0:0,0:0:0:0:
512,204,60054,2,0,L|492:92,1,100,0|0,2:0|2:0,0:0:0:0:
256,256,60453,5,0,3:0:0:0:
448,336,60653,1,0,3:0:0:0:
136,264,60853,5,0,3:0:0:0:
360,180,61053,1,0,3:0:0:0:
256,360,61253,1,0,3:0:0:0:
164,100,61452,5,4,3:1:0:0:
184,288,67446,5,6,3:2:0:0:
328,148,67646,1,0,3:2:0:0:
376,232,67845,2,0,B|328:252|328:252|272:228,1,100,0|0,3:2|0:2,0:0:0:0:
380,72,68245,1,2,1:2:0:0:
476,124,68445,2,0,L|442:337,1,200,0|0,3:2|3:2,0:0:0:0:
344,348,69044,5,2,0:2:0:0:
340,328,69144,1,0,0:2:0:0:
344,312,69244,1,0,3:2:0:0:
236,224,69444,2,0,P|248:271|236:319,1,100,2|0,3:2|0:2,0:0:0:0:
144,272,69843,1,2,1:2:0:0:
284,160,70043,2,0,P|236:172|188:160,2,100,0|0|0,3:2|0:2|0:2,0:0:0:0:
236,80,70642,5,2,3:2:0:0:
340,256,70842,1,0,3:2:0:0:
412,184,71042,2,0,L|392:73,1,100,2|0,3:2|0:2,0:0:0:0:
320,276,71442,1,2,1:2:0:0:
404,352,71641,2,0,P|360:316|228:360,1,200,0|0,3:2|0:2,0:0:0:0:
112,304,72241,5,2,0:2:0:0:
131,300,72341,1,0,0:2:0:0:
151,297,72441,1,0,3:2:0:0:
310,192,72640,2,0,L|199:211,1,100,2|0,3:2|0:2,0:0:0:0:
132,144,73040,1,0,1:2:0:0:
308,76,73240,2,0,P|260:88|212:76,2,100,0|2|0,3:2|0:2|3:2,0:0:0:0:
436,8,73839,5,6,3:2:0:0:
400,232,74039,1,0,3:2:0:0:
448,152,74239,2,0,B|400:136|400:136|321:164,1,100,2|0,3:2|0:2,0:0:0:0:
176,200,74638,1,2,1:2:0:0:
220,280,74838,2,0,P|269:198|218:118,1,200,0|0,3:2|3:2,0:0:0:0:
108,28,75437,1,2,3:2:0:0:
176,200,75637,1,0,3:2:0:0:
256,28,75837,2,0,L|362:46,1,100,2|0,3:2|0:2,0:0:0:0:
448,0,76237,1,2,1:2:0:0:
448,0,77036,5,2,3:2:0:0:
508,196,77235,1,0,3:2:0:0:
432,132,77435,2,0,P|380:117|327:141,1,100,2|0,3:2|0:2,0:0:0:0:
164,224,77835,1,2,1:2:0:0:
228,308,78035,2,0,B|276:224|276:224|221:119,1,200,0|0,3:2|3:2,0:0:0:0:
280,48,78634,5,2,3:2:0:0:
65,152,78834,1,0,3:2:0:0:
16,69,79034,2,0,B|63:55|63:55|141:75,1,100,2|0,3:2|0:2,0:0:0:0:
164,224,79433,1,2,1:2:0:0:
65,152,79633,5,0,3:0:0:0:
300,224,79833,1,0,3:0:0:0:
72,328,80032,1,0,3:0:0:0:
328,224,80232,5,0,3:0:0:0:
228,132,80432,1,0,3:0:0:0:
328,340,80632,1,0,3:0:0:0:
350,321,81031,2,0,B|375:316|375:316|428:327,1,50,4|0,0:0|0:2,0:0:0:0:
460,200,81231,2,0,L|239:238,1,200,0|0,3:2|3:2,0:0:0:0:
246,98,81831,5,2,0:2:0:0:
249,118,81930,1,0,0:2:0:0:
251,137,82030,1,0,3:2:0:0:
128,240,82230,2,0,L|144:141,1,100,2|0,3:2|0:2,0:0:0:0:
164,28,82630,1,2,1:2:0:0:
36,84,82829,1,0,3:2:0:0:
280,36,83029,1,0,0:2:0:0:
68,80,83229,2,0,L|80:24,1,50,0|0,0:2|0:0,0:0:0:0:
256,144,83429,5,2,3:2:0:0:
76,244,83629,1,0,3:2:0:0:
160,196,83828,2,0,P|175:252|145:303,1,100,2|0,3:2|0:2,0:0:0:0:
376,240,84228,1,2,1:2:0:0:
316,332,84428,2,0,P|288:280|326:138,1,200,0|0,3:2|3:2,0:0:0:0:
464,216,85027,5,2,0:2:0:0:
468,236,85127,1,0,0:2:0:0:
464,252,85227,1,0,3:2:0:0:
440,120,85427,1,2,0:0:0:0:
456,104,85627,2,0,L|468:104,8,12.5,0|0|0|0|0|0|0|0|0,0:0|0:0|0:0|0:0|0:0|0:0|0:0|0:0|3:2,0:0:0:0:
372,52,85926,2,0,L|356:52,8,12.5,0|0|0|0|0|0|0|0|0,0:0|0:0|0:0|0:0|0:0|0:0|0:0|0:0|0:0,0:0:0:0:
456,0,86226,1,0,0:0:0:0:
256,316,86625,5,12,3:1:0:0:
156,144,86825,1,0,3:1:0:0:
256,44,87025,1,10,3:1:0:0:
136,236,87225,1,2,0:1:0:0:
28,140,87425,2,0,L|51:6,1,100,10|2,2:1|3:1,0:0:0:0:
260,164,87824,1,10,0:1:0:0:
60,292,88024,1,2,3:1:0:0:
292,164,88224,5,10,0:1:0:0:
156,100,88424,1,2,0:1:0:0:
292,276,88623,1,8,3:1:0:0:
400,216,88823,2,0,B|428:172|428:172|392:56,1,150,2|0,0:1|0:1,0:0:0:0:
448,16,89223,1,0,3:1:0:0:
292,164,89422,2,0,L|181:144,1,100,10|0,0:1|0:1,0:0:0:0:
124,56,89822,5,12,3:1:0:0:
228,272,90022,1,0,3:1:0:0:
384,210,90222,2,0,P|398:169|376:102,1,100,14|2,3:1|0:1,0:0:0:0:
292,344,90621,2,0,L|473:312,1,150,10|0,2:1|0:1,0:0:0:0:
508,360,91021,2,0,P|494:319|516:252,1,100,8|2,0:1|3:1,0:0:0:0:
296,80,91420,5,10,0:1:0:0:
372,260,91620,1,2,3:1:0:0:
452,80,91820,1,10,3:1:0:0:
220,20,92020,2,0,B|188:68|188:68|236:188,1,150,2|0,0:1|0:0,0:0:0:0:
164,228,92419,1,0,3:1:0:0:
0,136,92619,2,0,L|110:155,1,100,10|2,0:1|0:1,0:0:0:0:
316,184,93019,5,12,3:1:0:0:
164,308,93218,1,0,3:1:0:0:
256,368,93418,2,0,P|300:379|368:356,1,100,10|0,3:1|0:0,0:0:0:0:
444,276,93818,2,0,P|388:252|281:307,1,150,8|0,2:1|0:0,0:0:0:0:
244,224,94217,1,10,0:1:0:0:
428,128,94417,1,2,3:1:0:0:
192,40,94617,5,10,0:1:0:0:
300,124,94817,1,2,3:1:0:0:
320,0,95016,1,8,3:1:0:0:
92,64,95216,2,0,P|62:109|97:249,1,200,2|0,0:1|0:1,0:0:0:0:
152,152,95816,1,10,0:1:0:0:
32,328,96015,1,2,3:1:0:0:
192,272,96215,5,14,3:1:0:0:
180,288,96315,1,0,0:1:0:0:
320,272,96515,1,2,0:1:0:0:
328,288,96615,1,8,3:1:0:0:
256,184,96815,1,2,0:1:0:0:
256,372,97014,1,8,2:1:0:0:
416,336,97214,2,0,B|436:292|436:292|404:216,1,100,2|8,0:0|0:0,0:0:0:0:
456,160,97614,2,0,L|373:145,1,50,2|0,0:0|0:0,0:0:0:0:
388,148,98013,5,0,3:1:0:0:
256,228,98213,1,8,3:1:0:0:
124,148,98413,1,0,0:0:0:0:
256,84,98613,1,8,2:1:0:0:
148,256,98812,5,0,3:0:0:0:
48,80,99012,1,0,3:0:0:0:
244,156,99212,1,0,3:0:0:0:
48,268,99412,1,0,3:0:0:0:
268,156,99612,1,0,3:0:0:0:
4,200,99811,6,0,B|104:152|104:268|213:219,2,200,4|0|0,0:0|0:0|0:0,0:0:0:0:
164,144,100810,1,2,3:1:0:0:
256,312,101010,1,10,0:1:0:0:
348,144,101210,1,2,0:1:0:0:
256,336,101410,1,8,3:1:0:0:
256,180,101609,2,0,L|437:211,1,150,2|0,0:1|0:1,0:0:0:0:
464,144,102009,1,0,3:1:0:0:
388,44,102209,2,0,L|277:63,1,100,10|0,0:1|0:1,0:0:0:0:
168,228,102608,5,12,3:1:0:0:
88,100,102808,1,0,3:1:0:0:
256,180,103008,2,0,P|272:232|248:284,1,100,14|2,3:1|0:1,0:0:0:0:
189,111,103408,2,0,P|244:83|337:131,1,150,10|0,2:1|0:1,0:0:0:0:
368,192,103807,2,0,L|494:169,1,100,8|2,0:1|3:1,0:0:0:0:
448,264,104207,5,10,0:1:0:0:
492,92,104406,1,2,3:1:0:0:
440,288,104606,1,10,3:1:0:0:
500,68,104806,2,0,L|287:30,1,200,2|0,0:1|3:1,0:0:0:0:
128,116,105405,2,0,B|176:128|176:128|240:112,1,100,10|2,0:1|0:1,0:0:0:0:
176,28,105805,5,12,3:1:0:0:
176,220,106005,1,0,3:1:0:0:
324,152,106205,2,0,L|304:41,1,100,10|0,3:1|0:0,0:0:0:0:
180,240,106604,2,0,L|199:350,1,100,8|2,2:1|3:1,0:0:0:0:
432,204,107004,5,10,0:1:0:0:
280,264,107203,1,2,3:1:0:0:
472,324,107403,1,10,0:1:0:0:
300,264,107603,1,2,3:1:0:0:
456,192,107803,1,8,3:1:0:0:
344,352,108003,2,0,P|295:364|235:342,1,100,2|0,0:1|0:0,0:0:0:0:
376,104,108402,1,0,0:1:0:0:
300,264,108602,1,10,0:1:0:0:
232,104,108802,1,2,3:1:0:0:
452,172,109002,5,14,3:1:0:0:
472,180,109101,1,0,0:1:0:0:
304,172,109301,1,2,0:1:0:0:
284,180,109401,1,8,3:1:0:0:
380,72,109601,1,2,0:1:0:0:
380,260,109801,1,8,2:1:0:0:
492,100,110001,2,0,L|474:1,1,100,2|8,3:1|0:1,0:0:0:0:
272,100,110400,6,0,L|289:1,1,100,2|0,3:1|0:0,0:0:0:0:
380,164,110800,1,0,3:1:0:0:
272,216,110999,2,0,P|242:212|198:234,1,50,8|0,0:0|0:0,0:0:0:0:
200,356,111199,2,0,P|248:369|318:339,1,100,0|0,2:0|2:0,0:0:0:0:
160,132,111599,1,0,3:0:0:0:
248,290,111799,1,0,3:0:0:0:
344,128,111998,1,0,3:0:0:0:
140,228,112198,5,0,3:0:0:0:
364,284,112398,1,0,3:0:0:0:
120,224,112598,1,0,3:1:0:0:
320,72,114795,5,0,3:0:0:0:
396,36,114995,1,0,3:0:0:0:
433,110,115195,1,0,3:0:0:0:
357,146,115395,5,0,3:0:0:0:
300,68,115595,1,0,3:0:0:0:
456,116,115794,1,0,3:0:0:0:
192,72,117992,5,0,3:0:0:0:
116,36,118192,1,0,3:0:0:0:
79,110,118392,1,0,3:0:0:0:
155,146,118591,5,0,3:0:0:0:
212,68,118791,1,0,3:0:0:0:
56,116,118991,1,0,3:0:0:0:
324,212,121189,5,0,3:0:0:0:
256,152,121388,1,0,3:0:0:0:
188,216,121588,1,0,3:0:0:0:
256,272,121788,5,0,3:0:0:0:
344,212,121988,1,0,3:0:0:0:
168,216,122188,1,0,3:0:0:0:
256,304,122387,1,0,3:0:0:0:
256,180,122587,5,0,3:0:0:0:
168,308,122787,1,0,3:0:0:0:
344,308,122987,1,0,3:0:0:0:
256,156,123186,1,0,3:0:0:0:
176,324,123386,5,0,3:0:0:0:
336,324,123586,1,0,3:0:0:0:
336,172,123786,1,0,3:0:0:0:
176,172,123986,1,0,3:0:0:0:
256,364,124185,5,0,3:0:0:0:
396,252,124385,1,0,3:0:0:0:
120,252,124585,1,0,3:0:0:0:
256,380,124785,1,0,3:0:0:0:
256,248,124985,6,0,B|300:160|196:176|256:56,1,200,4|10,3:1|3:1,0:0:0:0:
336,120,125584,1,0,0:1:0:0:
440,0,125784,1,10,2:1:0:0:
512,80,125983,2,0,L|492:190,1,100,0|8,3:1|0:1,0:0:0:0:
400,328,126383,6,0,L|382:229,1,100,0|10,3:1|0:1,0:0:0:0:
396,216,126683,1,0,0:1:0:0:
396,216,126783,1,0,3:1:0:0:
488,376,126982,2,0,P|436:344|300:386,1,200,10|8,3:1|2:1,0:0:0:0:
128,284,127582,1,0,3:1:0:0:
220,236,127782,2,0,P|232:284|208:352,1,100,10|0,0:1|3:1,0:0:0:0:
132,188,128181,5,12,3:1:0:0:
316,120,128381,1,0,3:1:0:0:
220,32,128581,2,0,L|101:52,1,100,10|0,3:1|0:1,0:0:0:0:
316,148,128980,1,10,2:1:0:0:
420,196,129180,2,0,P|431:147|419:99,1,100,0|10,3:1|0:1,0:0:0:0:
328,256,129580,6,0,P|315:304|327:352,1,100,0|8,3:1|0:1,0:0:0:0:
340,368,129879,1,0,0:1:0:0:
340,368,129979,1,0,3:1:0:0:
412,304,130179,2,0,L|510:286,1,100,10|0,3:1|0:1,0:0:0:0:
328,160,130579,1,10,2:1:0:0:
248,240,130778,2,0,L|47:275,1,200,0|0,3:1|0:1,0:0:0:0:
16,136,131378,6,0,B|44:136|44:136|48:132|48:132|48:140|48:140|52:136|52:136|96:136,1,75.0000028610231,6|0,0:1|0:1,0:0:0:0:
184,136,131577,2,0,P|104:164|176:56,1,300.000011444092,8|0,0:1|0:1,0:0:0:0:
272,8,132177,6,0,B|267:35|267:35|270:40|270:40|262:38|262:38|265:43|265:43|258:86,1,75.0000028610231,2|0,0:1|0:1,0:0:0:0:
368,156,132377,2,0,B|363:128|363:128|366:124|366:124|358:125|358:125|361:120|361:120|356:93,1,75.0000028610231,8|0,0:1|0:1,0:0:0:0:
264,180,132576,2,0,B|259:207|259:207|262:212|262:212|254:210|254:210|257:215|257:215|252:242,1,75.0000028610231,8|0,0:1|0:1,0:0:0:0:
408,188,132776,2,0,B|396:121|396:121|391:117|391:117|399:116|399:116|394:113|394:113|381:38,1,150.000005722046,8|0,0:1|0:1,0:0:0:0:
392,44,133076,1,8,0:1:0:0:
400,36,133176,1,0,0:1:0:0:
456,284,133376,6,0,B|428:279|428:279|423:282|423:282|425:274|425:274|420:277|420:277|393:272,1,75.0000028610231,2|0,0:1|0:1,0:0:0:0:
180,336,133575,2,0,B|207:340|207:340|211:337|211:337|210:345|210:345|215:342|215:342|242:347,1,75.0000028610231,8|0,0:1|0:1,0:0:0:0:
320,312,133775,1,2,0:1:0:0:
192,252,133975,6,0,B|187:224|187:224|190:220|190:220|182:221|182:221|185:216|185:216|180:189,1,75.0000028610231,8|0,0:1|0:1,0:0:0:0:
288,108,134175,2,0,B|283:135|283:135|286:140|286:140|278:138|278:138|281:143|281:143|276:170,1,75.0000028610231,2|0,0:1|0:1,0:0:0:0:
192,96,134375,2,0,B|187:68|187:68|190:64|190:64|182:65|182:65|185:60|185:60|180:33,1,75.0000028610231,8|0,0:1|0:1,0:0:0:0:
284,16,134574,5,0,3:1:0:0:
376,184,134774,1,0,3:1:0:0:
472,16,134974,1,8,3:1:0:0:
376,200,135174,2,0,L|376:320,1,100,0|8,0:1|0:1,0:0:0:0:
476,120,135573,2,0,L|496:234,1,100,0|8,3:1|0:1,0:0:0:0:
284,120,135973,6,0,L|263:234,1,100,0|8,3:1|0:1,0:0:0:0:
280,232,136272,1,0,0:1:0:0:
280,232,136372,1,0,0:1:0:0:
176,160,136572,2,0,P|127:148|79:159,1,100,8|0,3:1|0:1,0:0:0:0:
128,248,136972,1,8,0:1:0:0:
16,76,137172,2,0,P|44:128|0:272,1,200,0|0,3:1|3:1,0:0:0:0:
236,256,137771,6,0,P|200:164|233:72,1,200,4|10,3:1|3:1,0:0:0:0:
328,12,138370,1,0,0:1:0:0:
420,200,138570,1,10,2:1:0:0:
456,104,138770,2,0,L|330:126,1,100,0|8,3:1|0:1,0:0:0:0:
356,280,139169,2,0,L|454:297,1,100,0|10,3:1|0:1,0:0:0:0:
288,200,139569,1,0,3:1:0:0:
224,280,139769,2,0,P|213:328|225:376,1,100,10|0,3:1|0:0,0:0:0:0:
288,200,140168,1,8,2:1:0:0:
224,120,140368,2,0,P|136:76|44:132,1,200,0|0,3:1|3:1,0:0:0:0:
80,344,140967,5,6,3:1:0:0:
136,168,141167,1,0,3:1:0:0:
8,240,141367,2,0,L|110:258,1,100,10|0,3:1|0:0,0:0:0:0:
196,368,141767,1,8,2:1:0:0:
344,264,141966,2,0,L|241:282,1,100,0|10,3:1|0:0,0:0:0:0:
352,360,142366,6,0,L|454:341,1,100,0|8,3:1|0:0,0:0:0:0:
460,352,142666,1,0,0:0:0:0:
460,352,142766,1,0,3:1:0:0:
504,228,142965,2,0,P|515:180|503:132,1,100,10|0,3:1|0:0,0:0:0:0:
404,184,143365,1,10,0:0:0:0:
208,48,143565,2,0,L|452:91,1,200,0|0,3:1|3:1,0:0:0:0:
280,160,144164,6,0,B|252:155|252:155|248:158|248:158|249:150|249:150|244:153|244:153|217:148,1,75.0000028610231,12|0,0:0|0:0,0:0:0:0:
188,232,144364,2,0,P|172:172|88:284,1,300.000011444092,2|0,0:0|0:0,0:0:0:0:
128,332,144963,6,0,B|155:327|155:327|159:330|159:330|158:322|158:322|163:325|163:325|190:320,1,75.0000028610231,2|0,0:0|0:0,0:0:0:0:
280,364,145163,2,0,B|307:359|307:359|311:362|311:362|310:354|310:354|315:357|315:357|342:352,1,75.0000028610231,8|0,0:0|0:0,0:0:0:0:
260,256,145363,2,0,B|287:251|287:251|291:254|291:254|290:246|290:246|295:249|295:249|322:244,1,75.0000028610231,2|0,0:0|0:0,0:0:0:0:
408,284,145563,2,0,B|435:279|435:279|439:282|439:282|438:274|438:274|443:277|443:277|470:272,1,75.0000028610231,8|0,0:0|0:0,0:0:0:0:
408,152,145762,5,8,0:0:0:0:
404,168,145862,1,0,0:0:0:0:
400,188,145962,1,8,0:0:0:0:
492,100,146162,1,8,0:0:0:0:
412,48,146362,6,0,B|384:43|384:43|379:46|379:46|381:38|381:38|376:41|376:41|349:36,1,75.0000028610231,2|0,0:0|0:0,0:0:0:0:
320,128,146562,2,0,B|292:132|292:132|287:129|287:129|289:137|289:137|284:134|284:134|257:139,1,75.0000028610231,8|0,0:0|0:0,0:0:0:0:
164,36,146761,2,0,B|191:40|191:40|196:37|196:37|194:45|194:45|199:42|199:42|226:47,1,75.0000028610231,8|0,0:0|0:0,0:0:0:0:
136,264,146961,2,0,B|146:204|146:204|143:200|143:200|151:201|151:201|147:197|147:197|162:114,1,150.000005722046,8|0,0:0|0:0,0:0:0:0:
48,328,147361,6,0,P|96:288|228:364,1,200,0|8,3:1|3:1,0:0:0:0:
360,252,147960,2,0,L|230:229,1,100,0|8,0:1|0:1,0:0:0:0:
312,360,148360,2,0,L|441:382,1,100,0|8,3:1|0:1,0:0:0:0:
492,300,148759,1,0,3:1:0:0:
380,216,148959,5,8,0:1:0:0:
384,232,149059,1,0,0:1:0:0:
388,252,149159,1,0,0:1:0:0:
460,132,149359,1,8,3:1:0:0:
356,84,149558,2,0,P|304:48|164:116,1,200,0|0,0:1|3:2,0:0:0:0:
160,180,150158,1,0,2:0:0:0:
162,191,150258,1,0,2:0:0:0:
164,203,150357,1,0,2:0:0:0:
166,215,150457,1,0,2:0:0:0:
172,244,150557,5,12,3:1:0:0:
268,152,150757,1,0,3:1:0:0:
64,236,150957,1,10,3:1:0:0:
256,316,151157,1,2,0:1:0:0:
168,364,151356,2,0,P|113:378|52:342,1,100,10|0,2:1|3:1,0:0:0:0:
256,232,151756,5,10,0:1:0:0:
344,364,151956,1,0,3:1:0:0:
144,256,152156,1,10,0:1:0:0:
344,160,152355,1,2,3:1:0:0:
120,256,152555,1,10,3:1:0:0:
236,208,152755,2,0,B|253:256|253:256|227:323,1,100,2|8,0:1|2:1,0:0:0:0:
140,144,153154,1,0,3:1:0:0:
236,48,153354,1,10,0:1:0:0:
120,236,153554,1,2,3:1:0:0:
68,84,153754,5,12,3:1:0:0:
320,176,153954,1,0,3:1:0:0:
236,224,154153,2,0,P|224:183|244:116,1,100,14|0,3:1|0:1,0:0:0:0:
396,104,154553,2,0,P|424:176|372:264,1,150,10|0,2:1|0:1,0:0:0:0:
436,332,154953,2,0,L|329:313,1,100,10|0,0:1|3:1,0:0:0:0:
156,284,155352,5,10,0:1:0:0:
244,200,155552,1,0,3:1:0:0:
156,376,155752,1,10,3:1:0:0:
56,280,155951,2,0,L|92:71,1,200,2|0,0:1|3:1,0:0:0:0:
180,8,156551,1,10,0:1:0:0:
276,168,156751,1,2,3:1:0:0:
432,104,156950,6,0,L|321:84,1,100,14|0,3:1|3:1,0:0:0:0:
336,256,157350,2,0,L|434:238,1,100,10|0,3:1|0:1,0:0:0:0:
276,168,157750,1,10,2:1:0:0:
184,340,157949,1,0,3:1:0:0:
116,244,158149,1,10,0:1:0:0:
300,340,158349,1,2,3:1:0:0:
68,340,158549,5,10,0:1:0:0:
252,244,158749,1,2,3:1:0:0:
184,384,158948,1,10,3:1:0:0:
60,168,159148,2,0,B|108:144|108:144|228:184,1,150,2|0,0:1|0:1,0:0:0:0:
256,112,159548,1,2,0:1:0:0:
348,296,159747,1,10,0:1:0:0:
432,188,159947,1,2,3:1:0:0:
252,312,160147,5,14,3:1:0:0:
260,332,160247,1,0,0:1:0:0:
432,332,160447,1,2,0:1:0:0:
440,312,160547,1,8,3:1:0:0:
176,264,160746,2,0,P|160:320|196:376,1,100,2|8,0:1|2:1,0:0:0:0:
300,196,161146,2,0,P|315:149|298:103,1,100,2|8,3:1|0:1,0:0:0:0:
24,116,161546,2,0,L|181:88,1,150,2|0,3:1|0:1,0:0:0:0:
232,152,161945,5,0,3:1:0:0:
344,32,162145,1,10,3:1:0:0:
456,216,162345,1,2,0:1:0:0:
344,136,162544,1,8,2:1:0:0:
476,68,162744,5,0,2:1:0:0:
474,79,162844,1,0,2:1:0:0:
472,91,162944,1,0,2:1:0:0:
470,103,163044,1,0,2:1:0:0:
469,113,163144,1,0,0:0:0:0:
432,336,163344,5,12,3:1:0:0:
276,204,163543,1,0,3:1:0:0:
188,276,163743,2,0,P|240:312|380:252,1,200,10|10,3:1|2:1,0:0:0:0:
456,208,164343,1,0,3:1:0:0:
248,120,164542,5,10,0:1:0:0:
456,52,164742,1,0,3:1:0:0:
268,120,164942,1,10,0:1:0:0:
352,16,165142,1,2,3:1:0:0:
256,224,165341,1,10,3:1:0:0:
176,56,165541,2,0,P|132:32|32:68,1,150,2|0,0:1|0:0,0:0:0:0:
0,132,165941,1,0,3:1:0:0:
232,208,166141,1,10,0:1:0:0:
108,288,166340,1,2,3:1:0:0:
108,140,166540,5,12,3:1:0:0:
228,336,166740,1,0,3:1:0:0:
20,332,166940,2,0,B|8:284|8:284|28:224,1,100,14|0,3:1|0:1,0:0:0:0:
192,236,167339,2,0,B|207:283|207:283|195:331,1,100,10|0,2:1|0:0,0:0:0:0:
128,172,167739,2,0,L|313:204,1,150,10|0,0:1|0:0,0:0:0:0:
332,128,168138,5,10,0:1:0:0:
408,328,168338,1,0,3:1:0:0:
480,200,168538,1,10,3:1:0:0:
320,284,168738,2,0,P|308:333|323:380,1,100,2|0,0:1|0:0,0:0:0:0:
428,320,169137,1,0,3:1:0:0:
216,380,169337,1,10,0:1:0:0:
448,312,169537,1,2,3:1:0:0:
224,140,169737,5,14,3:1:0:0:
320,284,169937,1,0,3:1:0:0:
448,184,170136,2,0,L|325:162,1,100,10|0,3:1|0:1,0:0:0:0:
108,244,170536,2,0,L|230:265,1,100,10|0,2:1|3:1,0:0:0:0:
20,172,170936,5,10,0:1:0:0:
104,344,171135,1,2,3:1:0:0:
208,140,171335,1,10,0:1:0:0:
108,372,171535,1,2,3:1:0:0:
32,196,171735,1,10,3:1:0:0:
276,328,171934,2,0,P|304:280|256:184,1,150,2|0,0:1|0:1,0:0:0:0:
208,140,172334,1,2,0:1:0:0:
308,40,172534,1,10,0:1:0:0:
124,140,172734,1,2,3:1:0:0:
392,228,172933,6,0,L|370:105,2,100,14|0|10,3:1|3:2|3:1,0:0:0:0:
356,328,173533,2,0,L|489:351,1,100,2|8,0:1|2:1,0:0:0:0:
276,252,173932,2,0,L|142:228,1,100,2|8,3:1|0:1,0:0:0:0:
48,216,174332,2,0,P|125:233|98:143,1,200,2|0,3:1|3:1,0:0:0:0:
4,116,174931,1,10,3:1:0:0:
84,40,175131,2,0,P|133:52|180:37,1,100,2|8,0:1|2:1,0:0:0:0:
276,204,175531,1,0,3:1:0:0:
320,120,175730,2,0,P|271:108|224:123,1,100,0|0,2:1|2:1,0:0:0:0:
328,304,176130,5,6,0:1:0:0:
400,44,176530,5,2,0:1:0:0:
304,76,176729,1,8,0:1:0:0:
384,148,176929,2,0,L|510:125,1,100,6|0,0:1|0:1,0:0:0:0:
112,44,177329,5,0,0:1:0:0:
208,76,177528,1,8,0:1:0:0:
128,148,177728,2,0,L|1:125,1,100,4|0,0:0|0:0,0:0:0:0:
108,344,178128,5,2,0:1:0:0:
204,312,178328,1,8,0:1:0:0:
124,240,178527,2,0,L|-2:262,1,100,4|0,0:1|0:1,0:0:0:0:
404,344,178927,5,0,0:1:0:0:
308,312,179127,1,8,0:1:0:0:
388,240,179327,2,0,L|514:262,1,100,6|0,0:1|0:1,0:0:0:0:
192,48,179726,5,2,0:1:0:0:
320,48,179926,1,8,0:1:0:0:
256,144,180126,2,0,L|256:260,1,100,4|0,0:0|0:0,0:0:0:0:
108,344,180525,5,2,0:1:0:0:
204,312,180725,1,8,0:1:0:0:
124,240,180925,2,0,L|-2:262,1,100,4|0,0:1|0:1,0:0:0:0:
256,144,181324,1,0,0:1:0:0:
388,240,181524,2,0,L|514:262,1,100,0|0,2:1|3:1,0:0:0:0:
336,68,181924,5,0,3:1:0:0:
256,256,182124,1,0,3:1:0:0:
176,68,182323,1,0,3:1:0:0:
380,180,182523,5,0,3:1:0:0:
136,180,182723,1,0,3:1:0:0:
256,364,182923,1,4,0:0:0:0:
