osu file format v14

[General]
AudioFilename: audio.mp3
AudioLeadIn: 0
PreviewTime: 124588
Countdown: 1
SampleSet: Normal
StackLeniency: 0.7
Mode: 0
LetterboxInBreaks: 0
WidescreenStoryboard: 1

[Editor]
Bookmarks: 9923,22723,182948
DistanceSpacing: 1.3
BeatDivisor: 4
GridSize: 32
TimelineZoom: 2

[Metadata]
Title:Papercut
TitleUnicode:Papercut
Artist:Linkin Park
ArtistUnicode:Linkin Park
Creator:Veridian
Version:Hyper
Source:
Tags:
BeatmapID:1782977
BeatmapSetID:853133

[Difficulty]
HPDrainRate:6
CircleSize:4
OverallDifficulty:6
ApproachRate:8
SliderMultiplier:1.7
SliderTickRate:1

[Events]
//Background and Video events
0,0,"night-rain-artwork-cities-1366x768-wallpaper.jpg",0,0
//Break Periods
2,61851,66696
2,112997,121038
//Storyboard Layer 0 (Background)
//Storyboard Layer 1 (Fail)
//Storyboard Layer 2 (Pass)
//Storyboard Layer 3 (Foreground)
//Storyboard Sound Samples

[TimingPoints]
318,399.57378795951,4,1,1,70,1,0
22194,-100,4,1,1,5,0,0
22294,-100,4,1,1,70,0,0
22394,-100,4,1,1,5,0,0
22494,-100,4,1,1,70,0,0
22594,-100,4,1,1,5,0,0
22694,-100,4,2,2,70,0,0
38077,-100,4,2,2,5,0,0
38677,-100,4,2,2,70,0,0
41274,-100,4,1,4,100,0,0
42672,-100,4,1,4,70,0,0
42772,-100,4,2,2,5,0,0
42872,-100,4,2,2,70,0,0
47292,-100,4,2,2,5,0,0
47667,-100,4,2,2,70,0,0
48266,-100,4,1,3,85,0,1
48666,-100,4,1,6,85,0,1
48766,-100,4,1,3,85,0,1
49066,-100,4,1,6,85,0,1
49165,-100,4,1,3,85,0,1
49465,-100,4,1,6,85,0,1
49565,-100,4,1,3,85,0,1
49865,-100,4,1,6,85,0,1
49965,-100,4,1,3,85,0,1
50064,-100,4,1,6,85,0,1
50164,-100,4,1,3,85,0,1
50464,-100,4,1,6,85,0,1
50564,-100,4,1,3,85,0,1
50764,-100,4,1,3,5,0,1
50864,-100,4,1,3,85,0,1
51063,-100,4,1,6,85,0,1
51163,-100,4,1,3,85,0,1
51863,-100,4,1,6,85,0,1
51962,-100,4,1,3,85,0,1
52262,-100,4,1,6,85,0,1
52362,-100,4,1,3,85,0,1
52562,-100,4,1,3,5,0,1
52662,-100,4,1,3,85,0,1
53061,-100,4,1,6,85,0,1
53161,-100,4,1,3,85,0,1
53261,-100,4,1,6,85,0,1
53361,-100,4,1,3,85,0,1
53661,-100,4,1,6,85,0,1
53760,-100,4,1,3,85,0,1
54260,-100,4,1,6,85,0,1
54360,-100,4,1,3,85,0,1
54460,-100,4,1,6,85,0,1
54560,-100,4,1,3,85,0,1
55059,-100,4,1,6,85,0,1
55159,-100,4,1,3,85,0,1
55359,-100,4,1,3,5,0,1
55459,-100,4,1,3,85,0,1
55858,-100,4,1,6,85,0,1
55958,-100,4,1,3,85,0,1
56258,-100,4,1,6,85,0,1
56358,-100,4,1,3,85,0,1
56458,-100,4,1,6,85,0,1
56558,-100,4,1,3,85,0,1
56857,-100,4,1,6,85,0,1
56957,-100,4,1,3,85,0,1
57157,-100,4,1,3,5,0,1
57257,-100,4,1,3,85,0,1
57457,-100,4,1,6,85,0,1
57556,-100,4,1,3,85,0,1
57656,-100,4,1,6,85,0,1
57756,-100,4,1,3,85,0,1
57856,-100,4,1,6,85,0,1
57956,-100,4,1,3,85,0,1
58156,-100,4,1,6,85,0,1
58256,-100,4,1,3,85,0,1
59954,-100,4,1,3,5,0,1
60054,-100,4,1,4,100,0,1
60254,-100,4,1,3,85,0,1
60453,-100,4,1,4,85,0,1
61053,-100,4,1,4,100,0,0
61452,-100,4,1,4,85,0,1
61652,-100,4,1,4,5,0,1
62052,-100,4,2,2,75,0,0
76439,-100,4,2,2,5,0,0
77036,-100,4,1,4,100,0,0
77039,-100,4,2,2,70,0,0
81031,-100,4,1,4,70,0,0
81131,-100,4,2,2,5,0,0
81231,-100,4,2,2,75,0,0
85627,-100,4,1,0,75,0,0
85651,-100,4,1,3,5,0,0
85926,-100,4,1,3,75,0,0
85951,-100,4,1,3,5,0,0
86226,-100,4,1,3,75,0,0
86625,-100,4,1,3,85,0,1
87025,-100,4,1,6,85,0,1
87125,-100,4,1,3,85,0,1
87425,-100,4,1,6,85,0,1
87524,-100,4,1,3,85,0,1
87824,-100,4,1,6,85,0,1
87924,-100,4,1,3,85,0,1
88224,-100,4,1,6,85,0,1
88324,-100,4,1,3,85,0,1
88424,-100,4,1,6,85,0,1
88523,-100,4,1,3,85,0,1
88823,-100,4,1,6,85,0,1
88923,-100,4,1,3,85,0,1
89123,-100,4,1,3,5,0,1
89223,-100,4,1,3,85,0,1
89422,-100,4,1,6,85,0,1
89522,-100,4,1,3,85,0,1
90222,-100,4,1,6,85,0,1
90621,-100,4,1,6,85,0,1
90721,-100,4,1,3,85,0,1
90921,-100,4,1,3,5,0,1
91021,-100,4,1,3,85,0,1
91420,-100,4,1,6,85,0,1
91520,-100,4,1,3,85,0,1
91620,-100,4,1,6,85,0,1
91720,-100,4,1,3,85,0,1
92020,-100,4,1,6,85,0,1
92120,-100,4,1,3,85,0,1
92319,-100,4,1,3,5,0,1
92419,-100,4,1,3,85,0,1
92619,-100,4,1,6,85,0,1
92719,-100,4,1,3,85,0,1
92819,-100,4,1,6,85,0,1
92919,-100,4,1,3,85,0,1
93418,-100,4,1,6,85,0,1
93518,-100,4,1,3,85,0,1
93718,-100,4,1,3,5,0,1
93818,-100,4,1,3,85,0,1
94117,-100,4,1,3,5,0,1
94217,-100,4,1,6,85,0,1
94317,-100,4,1,3,85,0,1
94617,-100,4,1,6,85,0,1
94717,-100,4,1,3,85,0,1
94817,-100,4,1,6,85,0,1
94917,-100,4,1,3,85,0,1
95216,-100,4,1,6,85,0,1
95316,-100,4,1,3,85,0,1
95516,-100,4,1,3,5,0,1
95616,-100,4,1,3,85,0,1
95816,-100,4,1,6,85,0,1
95916,-100,4,1,3,85,0,1
96015,-100,4,1,6,85,0,1
96115,-100,4,1,3,85,0,1
96215,-100,4,1,6,85,0,1
96315,-100,4,1,3,85,0,1
96515,-100,4,1,6,85,0,1
96615,-100,4,1,3,85,0,1
97714,-100,4,1,3,5,0,1
97815,-100,4,1,3,85,0,1
98313,-100,4,1,3,85,0,1
98812,-100,4,1,4,100,0,1
99412,-100,4,1,4,100,0,0
99811,-100,4,1,4,85,0,1
99836,-100,4,1,4,85,0,1
100211,-100,4,1,3,85,0,1
100611,-100,4,1,6,85,0,1
100710,-100,4,1,3,85,0,1
101010,-100,4,1,6,85,0,1
101110,-100,4,1,3,85,0,1
101210,-100,4,1,6,85,0,1
101310,-100,4,1,3,85,0,1
101609,-100,4,1,6,85,0,1
101709,-100,4,1,3,85,0,1
101909,-100,4,1,3,5,0,1
102009,-100,4,1,3,85,0,1
102209,-100,4,1,6,85,0,1
102309,-100,4,1,3,85,0,1
103008,-100,4,1,6,85,0,1
103108,-100,4,1,3,85,0,1
103408,-100,4,1,6,85,0,1
103507,-100,4,1,3,85,0,1
103707,-100,4,1,3,5,0,1
103807,-100,4,1,3,85,0,1
104207,-100,4,1,6,85,0,1
104307,-100,4,1,3,85,0,1
104406,-100,4,1,6,85,0,1
104506,-100,4,1,3,85,0,1
104806,-100,4,1,6,85,0,1
104906,-100,4,1,3,85,0,1
105405,-100,4,1,6,85,0,1
105505,-100,4,1,3,85,0,1
105605,-100,4,1,6,85,0,1
105705,-100,4,1,3,85,0,1
106205,-100,4,1,6,85,0,1
106304,-100,4,1,3,85,0,1
106504,-100,4,1,3,5,0,1
106604,-100,4,1,3,85,0,1
107004,-100,4,1,6,85,0,1
107104,-100,4,1,3,85,0,1
107403,-100,4,1,6,85,0,1
107503,-100,4,1,3,85,0,1
107603,-100,4,1,6,85,0,1
107703,-100,4,1,3,85,0,1
108003,-100,4,1,6,85,0,1
108103,-100,4,1,3,85,0,1
108302,-100,4,1,3,5,0,1
108402,-100,4,1,3,85,0,1
108602,-100,4,1,6,85,0,1
108702,-100,4,1,3,85,0,1
108802,-100,4,1,6,85,0,1
108902,-100,4,1,3,85,0,1
109002,-100,4,1,6,85,0,1
109101,-100,4,1,3,85,0,1
109301,-100,4,1,6,85,0,1
109401,-100,4,1,3,85,0,1
111099,-100,4,1,3,5,0,1
111199,-100,4,1,4,85,0,1
111399,-100,4,1,3,85,0,1
111599,-100,4,1,4,100,0,1
112198,-100,4,1,4,100,0,0
112598,-100,4,1,4,100,0,0
121788,-100,4,1,4,45,0,0
122587,-100,4,1,4,50,0,0
123386,-100,4,1,4,70,0,0
124185,-100,4,1,4,90,0,0
124985,-100,4,1,1,70,0,1
125784,-100,4,1,1,70,0,0
131378,-100,4,1,4,70,0,0
131478,-100,4,1,4,5,0,0
131577,-100,4,1,4,70,0,0
131977,-100,4,1,4,5,0,0
132177,-100,4,1,4,70,0,0
132277,-100,4,1,4,5,0,0
132377,-100,4,1,4,70,0,0
132477,-100,4,1,4,5,0,0
132576,-100,4,1,4,70,0,0
132676,-100,4,1,4,5,0,0
132776,-100,4,1,4,70,0,0
133076,-100,4,1,4,5,0,0
133176,-100,4,1,4,70,0,0
133475,-100,4,1,4,5,0,0
133575,-100,4,1,4,70,0,0
133675,-100,4,1,4,5,0,0
133775,-100,4,1,4,70,0,0
134075,-100,4,1,4,5,0,0
134175,-100,4,1,4,70,0,0
134275,-100,4,1,4,5,0,0
134375,-100,4,1,4,70,0,0
134474,-100,4,1,4,5,0,0
134574,-100,4,1,3,70,0,0
137771,-100,4,1,1,70,0,1
138570,-100,4,1,1,70,0,0
144164,-100,4,1,4,70,0,0
144264,-100,4,1,4,5,0,0
144364,-100,4,1,4,70,0,0
144763,-100,4,1,4,5,0,0
144863,-100,4,1,4,70,0,0
145063,-100,4,1,4,5,0,0
145163,-100,4,1,4,70,0,0
145263,-100,4,1,4,5,0,0
145363,-100,4,1,4,70,0,0
145463,-100,4,1,4,5,0,0
145563,-100,4,1,4,70,0,0
145662,-100,4,1,4,5,0,0
145762,-100,4,1,4,70,0,0
146462,-100,4,1,4,5,0,0
146562,-100,4,1,4,70,0,0
146661,-100,4,1,4,5,0,0
146761,-100,4,1,4,70,0,0
146861,-100,4,1,4,5,0,0
146961,-100,4,1,4,70,0,0
147361,-100,4,1,1,70,0,0
150557,-100,4,1,3,85,0,1
150857,-100,4,1,3,5,0,1
150957,-100,4,1,3,85,0,1
151157,-100,4,1,6,85,0,1
151256,-100,4,1,3,85,0,1
151756,-100,4,1,6,85,0,1
151856,-100,4,1,3,85,0,1
152355,-100,4,1,6,85,0,1
152455,-100,4,1,3,85,0,1
152755,-100,4,1,6,85,0,1
152855,-100,4,1,3,85,0,1
153354,-100,4,1,6,85,0,1
153454,-100,4,1,3,85,0,1
153554,-100,4,1,6,85,0,1
153654,-100,4,1,3,85,0,1
154853,-100,4,1,3,5,0,1
154953,-100,4,1,6,85,0,1
155052,-100,4,1,3,85,0,1
155252,-100,4,1,3,5,0,1
155352,-100,4,1,6,85,0,1
155452,-100,4,1,3,85,0,1
155951,-100,4,1,6,85,0,1
156051,-100,4,1,3,85,0,1
156551,-100,4,1,6,85,0,1
156651,-100,4,1,3,85,0,1
156751,-100,4,1,6,85,0,1
156851,-100,4,1,3,85,0,1
157750,-100,4,1,6,85,0,1
157849,-100,4,1,3,85,0,1
158149,-100,4,1,6,85,0,1
158249,-100,4,1,3,85,0,1
158349,-100,4,1,6,85,0,1
158449,-100,4,1,3,85,0,1
158749,-100,4,1,6,85,0,1
158848,-100,4,1,3,85,0,1
159148,-100,4,1,6,85,0,1
159248,-100,4,1,3,85,0,1
159448,-100,4,1,3,5,0,1
159548,-100,4,1,6,85,0,1
159648,-100,4,1,3,85,0,1
159947,-100,4,1,6,85,0,1
160047,-100,4,1,3,85,0,1
160147,-100,4,1,6,85,0,1
160247,-100,4,1,3,85,0,1
160447,-100,4,1,6,85,0,1
160547,-100,4,1,3,85,0,1
160746,-100,4,1,6,85,0,1
160846,-100,4,1,3,85,0,1
161146,-100,4,1,6,85,0,1
161246,-100,4,1,3,85,0,1
161546,-100,4,1,6,85,0,1
161645,-100,4,1,3,85,0,1
161845,-100,4,1,3,5,0,1
162145,-100,4,1,6,85,0,1
162245,-100,4,1,3,85,0,1
162345,-100,4,1,6,85,0,1
162445,-100,4,1,3,85,0,1
162944,-100,4,1,3,85,0,0
163344,-100,4,1,3,85,0,1
163943,-100,4,1,6,85,0,1
164542,-100,4,1,6,85,0,1
164642,-100,4,1,3,85,0,1
165142,-100,4,1,6,85,0,1
165242,-100,4,1,3,85,0,1
165541,-100,4,1,6,85,0,1
165641,-100,4,1,3,85,0,1
165841,-100,4,1,3,5,0,1
165941,-100,4,1,3,85,0,1
166141,-100,4,1,6,85,0,1
166241,-100,4,1,3,85,0,1
166340,-100,4,1,6,85,0,1
166440,-100,4,1,3,85,0,1
167239,-100,4,1,3,5,0,1
167339,-100,4,1,3,85,0,1
167639,-100,4,1,3,5,0,1
167739,-100,4,1,6,85,0,1
167839,-100,4,1,3,85,0,1
168039,-100,4,1,3,5,0,1
168138,-100,4,1,6,85,0,1
168238,-100,4,1,3,85,0,1
168738,-100,4,1,6,85,0,1
168838,-100,4,1,3,85,0,1
169337,-100,4,1,6,85,0,1
169437,-100,4,1,3,85,0,1
169537,-100,4,1,6,85,0,1
169637,-100,4,1,3,85,0,1
170536,-100,4,1,6,85,0,1
170636,-100,4,1,3,85,0,1
170936,-100,4,1,6,85,0,1
171035,-100,4,1,3,85,0,1
171135,-100,4,1,6,85,0,1
171235,-100,4,1,3,85,0,1
171535,-100,4,1,6,85,0,1
171635,-100,4,1,3,85,0,1
171934,-100,4,1,6,85,0,1
172034,-100,4,1,3,85,0,1
172234,-100,4,1,3,5,0,1
172334,-100,4,1,6,85,0,1
172434,-100,4,1,3,85,0,1
172734,-100,4,1,6,85,0,1
172833,-100,4,1,3,85,0,1
172933,-100,4,1,6,85,0,1
173033,-100,4,1,3,85,0,1
173333,-100,4,1,6,85,0,1
173433,-100,4,1,3,85,0,1
173533,-100,4,1,6,85,0,1
173633,-100,4,1,3,85,0,1
173932,-100,4,1,6,85,0,1
174032,-100,4,1,3,85,0,1
174332,-100,4,1,6,85,0,1
174432,-100,4,1,3,85,0,1
174532,-100,4,1,6,85,0,1
174632,-100,4,1,3,5,0,1
174931,-100,4,1,6,85,0,1
175031,-100,4,1,3,85,0,1
175131,-100,4,1,6,85,0,1
175231,-100,4,1,3,85,0,1
175531,-100,4,1,6,85,0,1
175630,-100,4,1,3,85,0,1
175730,-100,4,1,6,85,0,0
175830,-100,4,1,3,85,0,0
176130,-100,4,1,3,87,0,1
181524,-100,4,1,4,87,0,1
181724,-100,4,1,4,100,0,1
182923,-100,4,1,5,50,0,0
183123,-100,4,1,5,5,0,0

[Colours]
Combo1 : 142,125,240
Combo2 : 92,152,146
Combo3 : 252,225,135
Combo4 : 102,157,124

[HitObjects]
364,296,9907,6,0,L|462:278,2,85,14|0|8,3:1|3:1|3:1,0:0:0:0:
260,336,10507,2,0,P|248:296|268:244,1,85,2|8,0:1|2:1,0:0:0:0:
348,112,10906,2,0,P|360:152|340:204,1,85,2|8,3:1|0:1,0:0:0:0:
272,44,11306,2,0,P|344:12|441:66,1,170,2|0,3:1|0:1,0:0:0:0:
472,136,11905,2,0,L|457:219,1,85,8|0,3:1|0:1,0:0:0:0:
440,348,12305,1,8,2:1:0:0:
440,348,12505,1,0,3:1:0:0:
288,288,12704,2,0,L|371:273,1,85,0|0,0:0|3:1,0:0:0:0:
196,248,13104,6,0,P|184:288|204:340,2,85,12|0|8,3:1|3:1|3:1,0:0:0:0:
256,160,13703,2,0,L|172:145,1,85,2|8,0:1|2:1,0:0:0:0:
12,232,14103,2,0,L|95:217,1,85,2|8,3:1|0:1,0:0:0:0:
305,132,14502,2,0,L|117:100,1,170,2|0,3:1|3:1,0:0:0:0:
52,143,15102,2,0,P|40:102|52:62,1,85,8|0,3:1|0:1,0:0:0:0:
140,8,15501,1,8,2:1:0:0:
140,8,15701,1,0,3:1:0:0:
260,200,15901,2,0,L|176:185,1,85,0|0,0:0|3:1,0:0:0:0:
348,160,16300,6,0,P|359:200|347:240,2,85,12|0|8,3:1|3:1|3:1,0:0:0:0:
307,323,16900,2,0,P|347:335|388:324,1,85,2|8,0:1|2:1,0:0:0:0:
220,280,17299,2,0,P|179:267|139:279,1,85,2|8,3:1|0:1,0:0:0:0:
268,352,17699,2,0,P|340:380|440:336,1,170,2|0,3:1|3:1,0:0:0:0:
492,264,18298,2,0,L|477:180,1,85,8|0,3:1|0:1,0:0:0:0:
460,64,18698,1,8,2:1:0:0:
460,64,18898,1,0,3:1:0:0:
304,120,19097,2,0,L|387:134,1,85,0|0,0:0|3:1,0:0:0:0:
216,250,19497,6,0,L|300:236,2,85,12|0|8,3:1|3:1|3:1,0:0:0:0:
120,292,20096,2,0,P|108:251|120:211,1,85,2|8,0:1|2:1,0:0:0:0:
200,72,20496,2,0,P|211:112|199:152,1,85,2|8,3:1|0:1,0:0:0:0:
116,40,20896,2,0,L|301:7,1,170,2|0,3:1|0:1,0:0:0:0:
416,120,21495,2,0,L|329:104,1,85,8|0,3:1|0:1,0:0:0:0:
492,64,21894,5,8,2:1:0:0:
416,212,22094,1,0,3:0:0:0:
512,168,22294,1,0,3:0:0:0:
436,316,22494,1,0,3:0:0:0:
324,256,22694,5,6,3:2:0:0:
324,256,22893,2,0,P|283:245|220:276,1,85,0|0,3:2|3:2,0:0:0:0:
232,272,23493,1,2,1:2:0:0:
144,196,23693,2,0,L|174:22,1,170,0|0,3:2|3:2,0:0:0:0:
80,48,24292,2,0,L|20:48,2,42.5,2|0|0,0:2|0:2|3:2,0:0:0:0:
252,104,24692,2,0,P|292:115|331:102,1,85,2|0,3:2|0:2,0:0:0:0:
292,28,25091,1,2,1:2:0:0:
412,140,25291,2,0,P|423:99|410:60,2,85,0|0|0,3:2|0:2|0:2,0:0:0:0:
388,292,25890,5,2,3:2:0:0:
388,292,26090,2,0,L|498:272,1,85,0|0,3:2|3:2,0:0:0:0:
488,288,26689,1,2,1:2:0:0:
320,364,26889,2,0,P|288:320|328:212,1,170,0|0,3:2|3:2,0:0:0:0:
320,116,27489,2,0,L|272:124,2,42.5,2|0|0,0:2|0:2|3:2,0:0:0:0:
208,196,27888,2,0,L|109:178,1,85,0|0,3:2|0:2,0:0:0:0:
44,244,28288,1,0,1:2:0:0:
28,148,28487,2,0,P|18:108|37:59,2,85,2|0|0,3:2|0:2|0:2,0:0:0:0:
140,284,29087,5,6,3:2:0:0:
140,284,29287,2,0,P|180:274|224:284,1,85,0|0,3:2|3:2,0:0:0:0:
240,304,29886,1,2,1:2:0:0:
344,364,30086,2,0,L|312:186,1,170,0|0,3:2|3:2,0:0:0:0:
226,178,30685,2,0,P|222:206|243:244,2,42.5,0|0|0,0:0|0:2|3:2,0:0:0:0:
408,152,31085,2,0,P|417:192|408:234,1,85,0|0,3:2|0:2,0:0:0:0:
324,104,31484,1,2,1:2:0:0:
412,44,31684,2,0,L|514:62,2,85,0|0|0,3:2|0:2|0:2,0:0:0:0:
248,164,32283,5,2,3:2:0:0:
248,164,32483,2,0,L|164:149,1,85,0|0,3:2|3:2,0:0:0:0:
144,164,33083,1,2,1:2:0:0:
200,276,33282,2,0,L|366:242,1,170,0|0,3:2|0:2,0:0:0:0:
464,224,33882,2,0,P|466:254|452:285,2,42.5,2|0|0,0:2|0:2|3:2,0:0:0:0:
396,152,34281,2,0,P|386:110|395:69,1,85,2|0,3:2|0:2,0:0:0:0:
464,8,34681,1,2,1:2:0:0:
300,136,34881,2,0,B|272:131|272:131|268:130|267:134|267:134|269:126|269:126|264:129|264:129|225:122,2,85,0|0|0,3:2|0:2|3:2,0:0:0:0:
144,84,35480,5,6,3:2:0:0:
144,84,35680,1,0,3:2:0:0:
144,84,35880,2,0,P|131:124|141:164,1,85,2|0,3:2|0:2,0:0:0:0:
224,224,36279,1,2,1:2:0:0:
144,280,36479,2,0,L|310:246,1,170,0|0,3:2|3:2,0:0:0:0:
456,320,37078,1,2,3:2:0:0:
456,320,37278,2,0,B|414:333|414:333|356:318,1,85,0|2,3:2|3:2,0:0:0:0:
412,232,37877,1,2,1:2:0:0:
404,224,38677,5,2,3:2:0:0:
404,224,38876,1,0,3:2:0:0:
404,224,39076,2,0,L|422:122,1,85,2|0,3:2|0:2,0:0:0:0:
436,16,39476,1,2,1:2:0:0:
362,70,39676,2,0,P|394:98|510:70,1,170,0|0,3:2|3:2,0:0:0:0:
280,28,40275,1,2,3:2:0:0:
280,28,40475,2,0,P|268:72|289:122,1,85,0|2,3:2|3:2,0:0:0:0:
136,196,41074,1,2,1:2:0:0:
180,120,41274,5,0,3:0:0:0:
56,156,41474,1,0,3:0:0:0:
100,280,41673,1,0,3:0:0:0:
220,244,41873,1,0,3:0:0:0:
136,196,42073,1,0,3:0:0:0:
180,328,42273,2,0,P|218:339|276:315,1,85,0|0,3:0|0:0,0:0:0:0:
432,256,42672,5,4,0:0:0:0:
324,200,42872,2,0,L|358:393,1,170,0|0,3:2|3:2,0:0:0:0:
432,256,43471,2,0,L|488:256,2,42.5,2|0|0,0:2|0:2|3:2,0:0:0:0:
452,160,43871,2,0,P|463:122|439:64,1,85,2|0,3:2|0:2,0:0:0:0:
280,100,44271,1,2,1:2:0:0:
200,154,44470,2,0,L|389:120,1,170,0|0,3:2|0:2,0:0:0:0:
296,8,45070,5,2,3:2:0:0:
296,8,45270,1,0,3:2:0:0:
296,8,45469,2,0,L|177:28,1,85,2|0,3:2|0:2,0:0:0:0:
24,52,45869,1,2,1:2:0:0:
124,0,46069,2,0,L|104:188,1,170,0|0,3:2|3:2,0:0:0:0:
19,195,46668,2,0,P|15:177|21:146,2,42.5,2|0|0,0:2|0:2|3:2,0:0:0:0:
192,210,47068,2,0,P|200:168|191:127,1,85,0|2,3:2|0:2,0:0:0:0:
152,308,47467,2,0,B|156:307|156:307|151:304|151:304|148:308|148:308|152:311|152:311|155:303|155:303|147:304|147:304|148:312|148:312|157:308|157:308|159:306|159:306|285:284,1,170,0|0,0:2|0:0,0:0:0:0:
384,348,48266,6,0,L|401:249,1,85,12|0,3:1|3:1,0:0:0:0:
428,92,48666,1,10,3:1:0:0:
428,92,48866,1,2,0:1:0:0:
500,176,49066,2,0,L|320:176,1,170,10|10,2:1|0:1,0:0:0:0:
144,172,49665,1,2,3:1:0:0:
230,219,49865,2,0,P|243:170|224:124,2,85,10|2|8,0:1|0:1|3:1,0:0:0:0:
85,245,50464,2,0,P|51:197|97:93,1,170,2|0,0:1|3:1,0:0:0:0:
144,172,51063,1,10,0:1:0:0:
144,172,51263,1,0,0:1:0:0:
296,44,51463,5,12,3:1:0:0:
296,44,51663,1,0,3:1:0:0:
376,112,51863,2,0,L|360:198,1,85,14|2,3:1|0:1,0:0:0:0:
268,328,52262,2,0,L|244:194,1,127.5,10|0,2:1|0:1,0:0:0:0:
245,202,52662,2,0,P|202:192|150:213,1,85,8|2,0:1|3:1,0:0:0:0:
16,280,53061,2,0,P|59:290|111:269,2,85,10|2|10,0:1|3:1|3:1,0:0:0:0:
52,196,53661,2,0,B|16:120|16:120|65:25,1,170,2|0,0:1|3:1,0:0:0:0:
124,120,54260,1,10,0:1:0:0:
124,120,54460,1,2,0:1:0:0:
316,116,54660,5,12,3:1:0:0:
316,116,54859,1,0,3:1:0:0:
228,160,55059,2,0,L|212:69,1,85,10|0,3:1|0:0,0:0:0:0:
416,80,55459,2,0,L|376:272,1,170,8|10,2:1|0:1,0:0:0:0:
356,360,56058,1,2,3:1:0:0:
208,288,56258,2,0,B|248:276|248:276|315:295,2,85,10|2|8,0:1|3:1|3:1,0:0:0:0:
137,360,56857,2,0,P|165:324|129:204,1,170,2|0,0:1|0:1,0:0:0:0:
81,288,57457,1,10,0:1:0:0:
81,288,57656,1,2,3:1:0:0:
185,132,57856,6,0,B|129:120|129:120|109:132|109:132|37:116,2,127.5,14|2|2,3:1|0:1|0:1,0:0:0:0:
256,60,58655,1,8,2:1:0:0:
324,132,58855,2,0,L|424:112,1,85,2|8,3:1|0:1,0:0:0:0:
424,248,59255,2,0,L|250:217,1,170,2|0,3:1|3:1,0:0:0:0:
96,296,59854,5,8,0:0:0:0:
172,344,60054,2,0,B|212:260|140:260|188:152,1,170,0|0,2:0|3:0,0:0:0:0:
180,76,60653,1,0,3:0:0:0:
280,128,60853,1,0,3:0:0:0:
84,128,61053,2,0,B|72:88|108:88|79:24,1,85,0|0,3:0|3:0,0:0:0:0:
276,46,61452,2,0,B|254:89|290:89|278:129,1,85,4|0,3:1|0:0,0:0:0:0:
156,288,67446,5,6,3:2:0:0:
156,288,67646,2,0,L|248:288,1,85,0|0,3:2|3:2,0:0:0:0:
256,308,68245,1,2,1:2:0:0:
336,228,68445,2,0,P|364:192|320:72,1,170,0|0,3:2|3:2,0:0:0:0:
232,164,69044,2,0,L|295:152,2,42.5,2|0|0,0:2|0:2|3:2,0:0:0:0:
111,110,69444,2,0,L|28:96,1,85,2|0,3:2|0:2,0:0:0:0:
151,181,69843,1,2,1:2:0:0:
121,256,70043,2,0,L|136:340,2,85,0|0|0,3:2|0:2|0:2,0:0:0:0:
316,288,70642,5,2,3:2:0:0:
316,288,70842,2,0,P|266:301|218:280,1,85,0|2,3:2|3:2,0:0:0:0:
216,276,71442,1,2,1:2:0:0:
276,204,71641,2,0,P|328:192|408:292,1,170,0|0,3:2|0:2,0:0:0:0:
492,184,72241,2,0,L|503:120,2,42.5,2|0|0,0:2|0:2|3:2,0:0:0:0:
404,116,72640,2,0,L|389:32,1,85,2|0,3:2|0:2,0:0:0:0:
268,176,73040,1,0,1:2:0:0:
225,93,73240,2,0,B|267:83|267:83|331:98,2,85,0|2|0,3:2|0:2|3:2,0:0:0:0:
224,260,73839,5,6,3:2:0:0:
224,260,74039,2,0,B|266:270|266:270|330:255,1,85,0|2,3:2|3:2,0:0:0:0:
328,276,74638,1,2,1:2:0:0:
392,348,74838,2,0,P|420:312|376:192,1,170,0|0,3:2|3:2,0:0:0:0:
304,136,75437,1,2,3:2:0:0:
304,136,75637,2,0,L|321:37,1,85,0|2,3:2|3:2,0:0:0:0:
345,39,76237,1,2,1:2:0:0:
164,88,77036,5,2,3:2:0:0:
164,88,77235,1,0,3:2:0:0:
164,88,77435,2,0,P|121:97|68:81,1,85,2|0,3:2|0:2,0:0:0:0:
124,4,77835,1,2,1:2:0:0:
232,20,78035,2,0,L|197:213,1,170,0|0,3:2|3:2,0:0:0:0:
108,280,78634,1,2,3:2:0:0:
108,280,78834,2,0,L|89:173,1,85,0|2,3:2|3:2,0:0:0:0:
352,196,79433,1,2,1:2:0:0:
308,120,79633,5,0,3:0:0:0:
432,156,79833,1,0,3:0:0:0:
393,281,80032,1,0,3:0:0:0:
268,244,80232,1,0,3:0:0:0:
352,196,80432,1,0,3:0:0:0:
310,324,80632,2,0,B|269:336|269:336|199:318,1,85,0|0,3:0|0:0,0:0:0:0:
92,220,81031,5,4,0:0:0:0:
12,160,81231,2,0,B|92:128|92:128|184:164,1,170,0|0,3:2|3:2,0:0:0:0:
244,96,81831,2,0,P|249:75|240:44,2,42.5,2|0|0,0:2|0:2|3:2,0:0:0:0:
320,160,82230,2,0,P|309:208|327:252,1,85,2|0,3:2|0:2,0:0:0:0:
452,336,82630,1,2,1:2:0:0:
488,240,82829,2,0,P|498:199|487:158,2,85,0|0|0,3:2|0:2|0:2,0:0:0:0:
404,56,83429,5,2,3:2:0:0:
404,56,83629,1,0,3:2:0:0:
404,56,83828,2,0,L|494:71,1,85,2|0,3:2|0:2,0:0:0:0:
332,128,84228,1,2,1:2:0:0:
264,52,84428,2,0,L|82:83,1,170,0|0,3:2|3:2,0:0:0:0:
4,64,85027,2,0,P|-1:92|13:120,2,42.5,2|0|0,0:2|0:2|3:2,0:0:0:0:
72,172,85427,2,0,P|84:208|62:262,1,85,2|0,0:0|0:0,0:0:0:0:
9,326,85826,2,0,B|12:327|12:327|8:330|8:330|5:326|5:326|9:323|9:323|12:331|12:331|4:330|4:330|5:322|5:322|13:323|13:323|16:328|16:328|142:350,1,170,0|0,3:2|0:0,0:0:0:0:
128,348,86625,6,0,L|111:249,1,85,12|0,3:1|3:1,0:0:0:0:
84,92,87025,1,10,3:1:0:0:
84,92,87225,1,2,0:1:0:0:
16,176,87425,2,0,L|196:176,1,170,10|10,2:1|0:1,0:0:0:0:
368,172,88024,1,2,3:1:0:0:
282,219,88224,2,0,P|269:170|288:124,2,85,10|2|8,0:1|0:1|3:1,0:0:0:0:
427,245,88823,2,0,P|461:197|415:93,1,170,2|0,0:1|3:1,0:0:0:0:
368,172,89422,1,10,0:1:0:0:
368,172,89622,1,0,0:1:0:0:
216,44,89822,5,12,3:1:0:0:
216,44,90022,1,0,3:1:0:0:
136,112,90222,2,0,L|152:198,1,85,14|2,3:1|0:1,0:0:0:0:
244,328,90621,2,0,L|268:194,1,127.5,10|0,2:1|0:1,0:0:0:0:
267,202,91021,2,0,P|310:192|362:213,1,85,8|2,0:1|3:1,0:0:0:0:
496,280,91420,2,0,P|453:290|401:269,2,85,10|2|10,0:1|3:1|3:1,0:0:0:0:
460,196,92020,2,0,B|496:120|496:120|447:25,1,170,2|0,0:1|3:1,0:0:0:0:
388,120,92619,1,10,0:1:0:0:
388,120,92819,1,2,0:1:0:0:
196,116,93019,5,12,3:1:0:0:
196,116,93218,1,0,3:1:0:0:
284,160,93418,2,0,L|300:69,1,85,10|0,3:1|0:0,0:0:0:0:
96,80,93818,2,0,L|136:272,1,170,8|10,2:1|0:1,0:0:0:0:
156,360,94417,1,2,3:1:0:0:
304,288,94617,2,0,B|264:276|264:276|198:295,2,85,10|2|8,0:1|3:1|3:1,0:0:0:0:
375,360,95216,2,0,P|347:324|383:204,1,170,2|0,0:1|0:1,0:0:0:0:
431,288,95816,1,10,0:1:0:0:
431,288,96015,1,2,3:1:0:0:
327,132,96215,6,0,B|383:120|383:120|403:132|403:132|475:116,2,127.5,14|2|2,3:1|0:1|0:1,0:0:0:0:
256,60,97014,1,8,2:1:0:0:
188,132,97214,2,0,L|88:112,1,85,2|8,0:0|0:0,0:0:0:0:
40,212,97614,2,0,L|214:243,1,170,2|0,0:0|3:1,0:0:0:0:
348,288,98213,5,8,3:1:0:0:
287,192,98413,1,0,0:0:0:0:
375,130,98613,1,8,2:1:0:0:
453,221,98812,5,0,3:0:0:0:
344,307,99012,1,0,3:0:0:0:
268,188,99212,1,0,3:0:0:0:
379,110,99412,1,0,3:0:0:0:
362,205,99612,1,0,3:0:0:0:
248,28,99811,6,0,B|332:76|332:-24|437:33,2,170,4|0|0,0:0|0:0|0:0,0:0:0:0:
132,84,100810,1,2,3:1:0:0:
212,216,101010,2,0,L|229:117,2,85,10|2|8,0:1|0:1|3:1,0:0:0:0:
60,248,101609,2,0,L|25:51,1,170,2|0,0:1|3:1,0:0:0:0:
88,4,102209,1,10,0:1:0:0:
88,4,102409,1,0,0:1:0:0:
226,132,102608,5,12,3:1:0:0:
226,132,102808,1,0,3:1:0:0:
136,176,103008,2,0,B|124:136|124:136|136:80,1,85,14|2,3:1|0:1,0:0:0:0:
304,52,103408,2,0,B|332:132|332:132|296:236,1,170,10|8,2:1|0:1,0:0:0:0:
364,324,104007,1,2,3:1:0:0:
471,362,104207,2,0,P|480:321|472:280,2,85,10|2|10,0:1|3:1|3:1,0:0:0:0:
364,324,104806,2,0,L|170:358,1,170,2|0,0:1|3:1,0:0:0:0:
124,284,105405,1,10,0:1:0:0:
124,284,105605,1,2,0:1:0:0:
212,112,105805,5,12,3:1:0:0:
212,112,106005,1,0,3:1:0:0:
252,196,106205,2,0,P|208:208|152:180,1,85,10|0,3:1|0:0,0:0:0:0:
328,120,106604,2,0,P|356:172|320:280,1,170,8|10,2:1|0:1,0:0:0:0:
236,304,107203,1,2,3:1:0:0:
396,340,107403,2,0,L|502:321,2,85,10|2|8,0:1|3:1|3:1,0:0:0:0:
220,308,108003,2,0,L|34:340,1,170,2|0,0:1|0:1,0:0:0:0:
112,136,108602,1,10,0:1:0:0:
112,136,108802,1,2,3:1:0:0:
168,212,109002,6,0,P|112:232|36:200,2,127.5,14|2|2,3:1|0:1|0:1,0:0:0:0:
308,76,109801,1,8,2:1:0:0:
352,168,110001,2,0,L|236:168,1,85,2|8,3:1|0:1,0:0:0:0:
224,52,110400,2,0,L|400:52,1,170,2|0,3:1|3:1,0:0:0:0:
452,196,110999,5,8,0:0:0:0:
376,268,111199,2,0,B|296:300|296:228|208:272,1,170,0|0,2:0|3:0,0:0:0:0:
84,268,111799,1,0,3:0:0:0:
152,188,111998,1,0,3:0:0:0:
152,348,112198,2,0,B|112:332|112:368|56:348,1,85,0|0,3:0|3:0,0:0:0:0:
70,184,112598,2,0,B|112:167|112:203|152:187,1,85,0|0,3:1|0:0,0:0:0:0:
256,192,121788,12,0,124585,3:0:0:0:
68,220,124985,5,4,3:1:0:0:
68,124,125184,1,0,0:0:0:0:
155,181,125384,2,0,P|165:222|155:263,1,85,10|0,3:1|0:1,0:0:0:0:
256,336,125784,1,10,2:1:0:0:
320,264,125983,2,0,P|300:216|324:96,2,170,0|0|0,3:1|3:1|3:1,0:0:0:0:
392,184,126982,2,0,L|496:184,1,85,10|0,3:1|0:0,0:0:0:0:
392,36,127382,1,8,2:1:0:0:
319,102,127582,2,0,L|139:102,1,170,0|0,3:1|3:1,0:0:0:0:
152,264,128181,5,12,3:1:0:0:
232,204,128381,1,0,3:1:0:0:
72,224,128581,2,0,B|60:264|60:264|76:319,1,85,10|0,3:1|0:1,0:0:0:0:
228,368,128980,1,10,2:1:0:0:
300,312,129180,2,0,P|332:288|472:340,2,170,0|0|0,3:1|3:1|0:0,0:0:0:0:
232,236,130179,2,0,L|248:141,1,85,10|0,3:1|0:1,0:0:0:0:
268,16,130579,1,10,2:1:0:0:
180,104,130778,2,0,L|364:104,1,170,0|0,3:1|0:1,0:0:0:0:
480,236,131378,6,0,B|473:271|473:271|476:276|476:276|469:274|469:274|472:279|472:279|461:338,1,85,6|0,0:1|0:0,0:0:0:0:
344,356,131777,2,0,B|351:312|351:312|348:308|348:308|356:309|356:309|353:304|353:304|366:229,1,127.5,0|0,0:0|0:1,0:0:0:0:
368,224,132177,2,0,B|338:229|338:229|334:225|334:225|335:233|335:233|330:230|330:230|295:236,2,85,2|0|0,0:1|0:0|0:0,0:0:0:0:
488,140,132776,2,0,B|424:128|424:128|420:132|420:132|421:124|421:124|416:127|416:127|373:119,1,127.5,8|0,0:1|2:1,0:0:0:0:
356,116,133176,2,0,B|350:86|350:86|354:82|354:82|346:83|346:83|349:78|349:78|343:43,2,85,0|0|0,0:1|0:0|0:0,0:0:0:0:
252,64,133775,2,0,B|222:58|222:58|218:62|218:62|219:54|219:54|214:57|214:57|179:51,1,85,2|0,0:1|0:0,0:0:0:0:
252,164,134175,2,0,B|222:169|222:169|218:165|218:165|219:173|219:173|214:170|214:170|179:176,1,85,2|0,0:1|0:0,0:0:0:0:
80,164,134574,6,0,P|140:180|180:296,1,170,0|8,3:1|3:1,0:0:0:0:
184,372,135174,2,0,L|88:372,1,85,0|8,0:1|0:1,0:0:0:0:
272,320,135573,2,0,L|368:320,1,85,0|8,3:1|0:1,0:0:0:0:
436,376,135973,1,0,3:1:0:0:
504,272,136173,2,0,L|514:331,2,42.5,8|0|0,0:1|0:1|0:1,0:0:0:0:
328,224,136572,2,0,P|368:236|420:212,1,85,8|0,3:1|0:1,0:0:0:0:
252,152,136972,1,8,0:1:0:0:
328,84,137172,2,0,L|501:114,1,170,0|0,3:1|3:1,0:0:0:0:
252,152,137771,5,4,3:1:0:0:
204,32,137971,1,0,0:0:0:0:
128,96,138170,2,0,L|29:78,1,85,10|0,3:1|0:1,0:0:0:0:
88,272,138570,1,10,2:1:0:0:
128,188,138770,2,0,P|85:178|25:202,1,85,0|8,3:1|0:1,0:0:0:0:
48,352,139169,6,0,P|91:362|151:338,1,85,0|10,3:1|0:1,0:0:0:0:
288,264,139569,1,0,3:1:0:0:
208,224,139769,2,0,P|198:267|222:327,1,85,10|0,3:1|0:0,0:0:0:0:
364,220,140168,1,8,2:1:0:0:
316,124,140368,2,0,L|119:158,1,170,0|0,3:1|3:1,0:0:0:0:
16,8,140967,5,6,3:1:0:0:
144,56,141167,1,0,3:1:0:0:
56,104,141367,2,0,L|37:210,1,85,10|0,3:1|0:0,0:0:0:0:
152,328,141767,1,8,2:1:0:0:
192,248,141966,2,0,B|152:236|152:236|83:257,1,85,0|10,3:1|0:0,0:0:0:0:
248,372,142366,6,0,B|288:384|288:384|357:363,1,85,0|8,3:1|0:0,0:0:0:0:
388,252,142766,1,0,3:1:0:0:
288,212,142965,2,0,B|276:252|276:252|296:321,1,85,10|0,3:1|0:0,0:0:0:0:
388,156,143365,1,10,0:0:0:0:
462,96,143565,2,0,P|414:64|302:116,1,170,0|0,3:1|3:1,0:0:0:0:
140,72,144164,5,12,0:0:0:0:
212,140,144364,2,0,B|205:179|205:179|208:184|208:184|200:182|200:182|203:187|203:187|196:226,2,85,2|0|0,0:0|0:0|0:0,0:0:0:0:
108,216,144963,2,0,B|114:255|114:255|111:260|111:260|119:258|119:258|116:263|116:263|123:302,2,85,2|0|0,0:0|0:0|0:0,0:0:0:0:
196,348,145563,1,8,0:0:0:0:
276,292,145762,2,0,B|301:296|301:296|305:293|305:293|304:301|304:301|309:297|309:297|348:304,1,85,8|0,0:0|0:0,0:0:0:0:
459,209,146162,2,0,B|433:213|433:213|429:210|429:210|430:218|430:218|425:214|425:214|386:221,1,85,8|0,0:0|0:0,0:0:0:0:
428,372,146562,2,0,B|432:346|432:346|429:342|429:342|437:343|437:343|433:338|433:338|440:299,2,85,8|0|8,0:0|0:0|0:0,0:0:0:0:
380,132,147361,6,0,P|336:104|210:161,1,170,0|8,3:1|3:1,0:0:0:0:
280,276,147960,2,0,P|288:232|312:188,1,85,0|8,0:1|0:1,0:0:0:0:
128,108,148360,2,0,P|146:146|153:187,1,85,0|8,3:1|0:1,0:0:0:0:
156,298,148759,1,0,3:1:0:0:
76,244,148959,2,0,L|24:244,2,42.5,8|0|0,0:1|0:1|0:1,0:0:0:0:
12,372,149359,2,0,L|116:372,1,85,8|0,3:1|0:1,0:0:0:0:
292,218,149758,5,0,0:0:0:0:
156,298,149958,1,0,3:2:0:0:
304,374,150158,1,0,2:0:0:0:
252,298,150357,1,0,2:0:0:0:
363,163,150557,6,0,P|385:219|351:291,1,127.5,12|0,3:1|0:0,0:0:0:0:
352,293,150957,1,10,3:1:0:0:
292,218,151157,1,2,0:1:0:0:
220,76,151356,2,0,B|230:118|230:118|216:176,2,85,10|0|10,2:1|3:1|0:1,0:0:0:0:
132,116,151956,1,0,3:1:0:0:
44,76,152156,2,0,B|34:118|34:118|48:176,2,85,10|2|10,0:1|3:1|3:1,0:0:0:0:
0,256,152755,2,0,L|189:222,1,170,2|0,0:1|3:1,0:0:0:0:
224,312,153354,1,10,0:1:0:0:
224,312,153554,1,2,3:1:0:0:
348,128,153754,5,12,3:1:0:0:
348,128,153954,1,0,3:1:0:0:
372,228,154153,2,0,L|289:213,1,85,14|0,3:1|0:1,0:0:0:0:
208,60,154553,2,0,L|290:45,1,85,10|0,2:1|0:0,0:0:0:0:
176,168,154953,2,0,P|133:148|45:186,1,127.5,10|0,0:1|0:0,0:0:0:0:
43,192,155352,2,0,P|33:242|44:280,2,85,10|0|10,0:1|3:1|3:1,0:0:0:0:
0,368,155951,2,0,L|177:336,1,170,2|0,0:1|3:1,0:0:0:0:
224,256,156551,1,10,0:1:0:0:
224,256,156751,1,2,3:1:0:0:
420,324,156950,5,14,3:1:0:0:
420,324,157150,1,0,3:1:0:0:
308,364,157350,2,0,L|340:188,2,170,10|10|10,3:1|2:1|0:1,0:0:0:0:
420,324,158349,1,2,3:1:0:0:
232,228,158549,2,0,L|215:321,2,85,10|2|10,0:1|3:1|3:1,0:0:0:0:
184,152,159148,2,0,P|257:187|337:145,1,170,2|2,0:1|0:1,0:0:0:0:
258,98,159747,1,10,0:1:0:0:
258,98,159947,1,2,3:1:0:0:
90,147,160147,6,0,B|99:198|99:198|118:215|118:215|128:274,2,127.5,14|2|2,3:1|0:1|0:1,0:0:0:0:
72,52,160946,1,8,2:1:0:0:
184,140,161146,2,0,P|175:90|194:42,1,85,2|8,3:1|0:1,0:0:0:0:
316,24,161546,2,0,P|340:72|296:195,1,170,2|0,3:1|3:1,0:0:0:0:
256,100,162145,1,10,3:1:0:0:
256,280,162345,1,2,0:1:0:0:
180,228,162544,5,8,2:1:0:0:
336,332,162744,1,0,2:1:0:0:
216,380,162944,2,0,P|185:384|156:369,2,42.5,0|0|0,2:1|2:1|0:0,0:0:0:0:
360,332,163344,6,0,P|401:322|471:350,1,85,12|0,3:1|3:1,0:0:0:0:
476,204,163743,2,0,L|294:235,1,170,10|10,3:1|2:1,0:0:0:0:
224,168,164343,1,0,3:1:0:0:
304,48,164542,2,0,L|321:146,1,85,10|0,0:1|3:1,0:0:0:0:
132,128,164942,2,0,L|146:44,2,85,10|2|10,0:1|3:1|3:1,0:0:0:0:
32,192,165541,2,0,P|8:228|40:352,1,170,2|0,0:1|3:1,0:0:0:0:
104,272,166141,1,10,0:1:0:0:
104,272,166340,1,2,3:1:0:0:
320,272,166540,5,12,3:1:0:0:
320,272,166740,1,0,3:1:0:0:
221,331,166940,2,0,P|206:285|232:198,1,127.5,14|0,3:1|0:0,0:0:0:0:
234,189,167339,2,0,L|333:172,1,85,10|0,2:1|0:0,0:0:0:0:
492,252,167739,2,0,L|393:234,1,85,10|0,0:1|0:0,0:0:0:0:
404,48,168138,2,0,L|418:131,2,85,10|0|10,0:1|3:1|3:1,0:0:0:0:
308,96,168738,2,0,P|244:128|140:76,1,170,2|0,0:1|3:1,0:0:0:0:
236,32,169337,1,10,0:1:0:0:
236,32,169537,1,2,3:1:0:0:
80,152,169737,5,14,3:1:0:0:
80,152,169937,1,0,3:1:0:0:
37,233,170136,2,0,B|77:245|77:245|136:228,1,85,10|0,3:1|0:1,0:0:0:0:
344,156,170536,2,0,B|264:136|264:136|172:160,1,170,10|10,2:1|0:1,0:0:0:0:
264,228,171135,1,2,3:1:0:0:
305,308,171335,2,0,B|264:320|264:320|224:308,2,85,10|2|10,0:1|3:1|3:1,0:0:0:0:
400,264,171934,2,0,P|432:216|389:109,1,170,2|2,0:1|0:1,0:0:0:0:
344,192,172534,1,10,0:1:0:0:
344,192,172734,1,2,3:1:0:0:
473,60,172933,6,0,P|425:28|318:71,1,170,14|10,3:1|3:1,0:0:0:0:
180,120,173533,2,0,L|270:135,1,85,2|8,0:1|2:1,0:0:0:0:
212,8,173932,2,0,L|121:23,1,85,2|8,3:1|0:1,0:0:0:0:
24,40,174332,2,0,P|-12:113|23:187,1,170,2|0,3:1|3:1,0:0:0:0:
84,264,174931,1,10,3:1:0:0:
150,339,175131,2,0,P|185:264|149:191,1,170,2|0,0:1|3:1,0:0:0:0:
216,112,175730,1,0,2:1:0:0:
216,112,175930,1,0,2:1:0:0:
300,260,176130,5,6,0:1:0:0:
484,112,176530,5,2,0:1:0:0:
397,127,176729,1,8,0:1:0:0:
310,142,176929,1,6,0:1:0:0:
32,208,177329,5,0,0:1:0:0:
119,223,177528,1,8,0:1:0:0:
206,238,177728,1,4,0:0:0:0:
480,208,178128,5,2,0:1:0:0:
393,223,178328,1,8,0:1:0:0:
306,238,178527,1,4,0:1:0:0:
28,112,178927,5,0,0:1:0:0:
115,127,179127,1,8,0:1:0:0:
202,142,179327,1,6,0:1:0:0:
176,384,179726,5,2,0:1:0:0:
161,297,179926,1,8,0:1:0:0:
146,210,180126,1,4,0:0:0:0:
336,384,180525,5,2,0:1:0:0:
351,297,180725,1,8,0:1:0:0:
366,210,180925,1,4,0:1:0:0:
256,8,181324,5,0,0:1:0:0:
256,100,181524,2,0,B|220:176|296:176|252:268,1,170,0|0,2:1|3:1,0:0:0:0:
256,384,182124,1,0,3:1:0:0:
352,328,182323,1,0,3:1:0:0:
160,328,182523,2,0,B|120:344|120:316|72:336,1,85,0|0,3:1|3:1,0:0:0:0:
352,328,182923,2,0,B|392:344|392:316|440:336,1,85,4|0,0:0|0:0,0:0:0:0:
