osu file format v14

[General]
AudioFilename: audio.mp3
AudioLeadIn: 0
PreviewTime: 75027
Countdown: 1
SampleSet: None
StackLeniency: 0.7
Mode: 0
LetterboxInBreaks: 0
WidescreenStoryboard: 1

[Editor]
Bookmarks: 10192,20278,37488,40488,44267,54364,74554,78343,98534,101060,111155,131355,149654,151549,154075
DistanceSpacing: 1
BeatDivisor: 4
GridSize: 4
TimelineZoom: 1.2

[Metadata]
Title:One Step Closer
TitleUnicode:One Step Closer
Artist:Linkin Park
ArtistUnicode:Linkin Park
Creator:Veridian
Version:Extra
Source:
Tags:
BeatmapID:1889155
BeatmapSetID:905105

[Difficulty]
HPDrainRate:6
CircleSize:3.7
OverallDifficulty:8
ApproachRate:9
SliderMultiplier:1.8
SliderTickRate:2

[Events]
//Background and Video events
0,0,"aa0962247e36e5ee365a3482166798dd.jpg",0,0
//Break Periods
2,101260,106744
//Storyboard Layer 0 (Background)
//Storyboard Layer 1 (Fail)
//Storyboard Layer 2 (Pass)
//Storyboard Layer 3 (Foreground)
//Storyboard Sound Samples

[TimingPoints]
10193,315.789473684211,4,2,0,100,1,0
20278,315.789473684211,4,2,0,100,1,0
20278,-133.333333333333,4,2,0,100,0,0
30383,-100,4,2,0,100,0,0
40488,315.789473684211,4,2,0,100,1,0
41119,-200,4,2,0,100,0,0
44267,315.789473684211,4,2,0,100,1,1
44267,-90.9090909090909,4,2,0,100,0,1
49319,-66.6666666666667,4,2,0,100,0,1
49635,-83.3333333333333,4,2,0,100,0,1
54364,315.789473684211,4,2,0,100,1,0
54364,-133.333333333333,4,2,0,100,0,0
64449,315.789473684211,4,2,0,100,1,0
75185,-200,4,2,0,100,0,0
78343,-90.9090909090909,4,2,0,100,0,1
83396,-66.6666666666667,4,2,0,100,0,1
83712,-83.3333333333333,4,2,0,100,0,1
87817,-100,4,2,0,100,0,0
88429,315.789473684211,4,2,0,100,1,1
88429,-66.6666666666667,4,2,0,100,0,1
88744,-90.9090909090909,4,2,0,100,0,1
93481,-66.6666666666667,4,2,0,100,0,1
93796,-83.3333333333333,4,2,0,100,0,1
98534,315.789473684211,4,2,0,100,1,0
111155,315.789473684211,4,2,0,100,1,1
111155,-66.6666666666667,4,2,0,100,0,1
111786,-66.6666666666667,4,2,0,100,0,0
111944,-133.333333333333,4,2,0,100,0,0
112260,-66.6666666666667,4,2,0,100,0,0
114470,-133.333333333333,4,2,0,100,0,0
114786,-66.6666666666667,4,2,0,100,0,0
116997,-133.333333333333,4,2,0,100,0,0
117312,-66.6666666666667,4,2,0,100,0,0
118102,-133.333333333333,4,2,0,100,0,0
119365,-66.6666666666667,4,2,0,100,0,0
121250,315.789473684211,4,2,0,100,1,1
121250,-66.6666666666667,4,2,0,100,0,1
121881,-66.6666666666667,4,2,0,100,0,0
122039,-133.333333333333,4,2,0,100,0,0
122355,-66.6666666666667,4,2,0,100,0,0
123776,-66.6666666666667,4,2,0,100,0,0
124565,-133.333333333333,4,2,0,100,0,0
124881,-66.6666666666667,4,2,0,100,0,0
127092,-133.333333333333,4,2,0,100,0,0
127407,-66.6666666666667,4,2,0,100,0,0
128197,-133.333333333333,4,2,0,100,0,0
129460,-66.6666666666667,4,2,0,100,0,0
129618,-133.333333333333,4,2,0,100,0,0
131355,-66.6666666666667,4,2,0,100,0,1
131671,-90.9090909090909,4,2,0,100,0,1
136407,-66.6666666666667,4,2,0,100,0,1
136723,-83.3333333333333,4,2,0,100,0,1
140828,-100,4,2,0,100,0,0
141444,315.789473684211,4,2,0,100,1,1
141444,-66.6666666666667,4,2,0,100,0,1
141759,-90.9090909090909,4,2,0,100,0,1
146496,-66.6666666666667,4,2,0,100,0,1
146811,-83.3333333333333,4,2,0,100,0,1
151549,-100,4,2,0,100,0,0

[Colours]
Combo1 : 255,192,4
Combo2 : 120,96,71
Combo3 : 129,133,90
Combo4 : 255,88,9

[HitObjects]
124,288,10192,6,0,L|105:390,1,90
55,219,10508,2,0,L|73:116,1,90
0,60,10824,1,0,0:0:0:0:
140,192,10982,2,0,B|180:212|220:188|220:188|264:164|312:192,1,180
260,348,11456,6,0,P|248:312|264:260,1,90
382,147,11771,2,0,P|395:189|383:231,1,90
332,304,12087,1,0,0:0:0:0:
480,104,12245,2,0,B|440:84|400:108|400:108|356:132|308:104,1,180
248,168,12719,38,0,P|272:112|232:32,1,135
232,32,13035,2,0,B|189:18|189:18|141:35,1,90
188,108,13350,1,0,0:0:0:0:
48,0,13508,2,0,L|82:196,1,180
196,340,13982,6,0,L|169:198,1,135
188,196,14298,2,0,B|230:181|230:181|273:195,1,90
448,272,14614,1,0,0:0:0:0:
392,350,14771,2,0,P|352:274|392:194,1,180
480,20,15245,38,0,L|377:38,1,90
244,120,15561,2,0,L|346:101,1,90
390,195,15877,1,0,0:0:0:0:
168,84,16035,2,0,B|148:124|172:164|172:164|196:208|168:256,1,180
352,261,16508,6,0,P|309:247|267:259,1,90
124,336,16824,2,0,P|166:349|208:337,1,90
168,255,17140,1,0,0:0:0:0:
52,384,17298,2,0,B|24:336|48:292|48:292|72:252|52:212,1,180
0,108,17771,38,0,P|56:132|136:92,1,135
136,92,18087,2,0,B|150:49|150:49|133:1,1,90
60,48,18403,1,0,0:0:0:0:
216,128,18561,2,0,L|405:94,1,180
352,208,19035,6,0,L|494:181,1,135
496,200,19351,2,0,B|511:242|511:242|497:285,1,90
428,360,19666,1,0,0:0:0:0:
292,304,19824,1,0,0:0:0:0:
323,298,19903,1,0,0:0:0:0:
355,292,19982,1,0,0:0:0:0:
428,360,20140,1,0,0:0:0:0:
216,364,20278,38,0,P|196:324|220:236,1,135.000005149842
340,108,20909,1,0,0:0:0:0:
292,180,21067,1,0,0:0:0:0:
240,108,21225,2,0,L|251:41,1,67.5000025749208
311,197,21541,2,0,L|286:343,3,135.000005149842
356,380,22646,1,0,0:0:0:0:
212,288,22804,6,0,B|160:297|160:297|145:324|145:324|90:333,2,135.000005149842
92,164,23593,1,0,0:0:0:0:
16,208,23751,1,0,0:0:0:0:
92,248,23909,1,0,0:0:0:0:
212,120,24067,2,0,B|160:110|160:110|145:83|145:83|90:74,2,135.000005149842
284,60,24856,2,0,P|307:121|284:184,1,135.000005149842
383,268,25330,38,0,B|351:252|319:268|319:268|288:284|251:268,1,135.000005149842
120,176,25962,1,0,0:0:0:0:
200,204,26120,1,0,0:0:0:0:
168,284,26278,1,0,0:0:0:0:
88,256,26436,1,0,0:0:0:0:
116,160,26593,2,0,L|100:73,1,67.5000025749208
212,180,26909,2,0,L|186:34,2,135.000005149842
288,96,27856,6,0,B|339:86|339:86|354:59|354:59|409:50,2,135.000005149842
408,220,28645,1,0,0:0:0:0:
484,176,28803,1,0,0:0:0:0:
408,136,28961,1,0,0:0:0:0:
288,264,29119,2,0,B|339:273|339:273|354:300|354:300|409:309,2,135.000005149842
216,368,29909,1,0,0:0:0:0:
247,362,29988,1,0,0:0:0:0:
279,356,30067,1,0,0:0:0:0:
216,192,30225,1,0,0:0:0:0:
160,268,30383,38,0,P|128:232|144:136,1,135
148,128,30699,2,0,P|160:92|136:24,1,90
68,80,31014,1,0,0:0:0:0:
216,192,31172,1,0,0:0:0:0:
372,112,31330,2,0,L|273:129,1,90
287,255,31646,6,0,L|441:228,1,135
440,244,31962,2,0,P|450:287|438:329,1,90
352,384,32278,1,0,0:0:0:0:
228,176,32435,2,0,P|196:220|228:336,1,180
288,112,32909,38,0,L|155:135,1,135
132,120,33225,2,0,L|33:137,1,90
100,212,33541,1,0,0:0:0:0:
184,44,33699,1,0,0:0:0:0:
304,204,33856,2,0,L|422:183,1,90
488,292,34172,6,0,B|460:216|528:216|484:148,1,135
480,136,34488,2,0,B|492:92|492:92|476:36,1,90
392,92,34804,1,0,0:0:0:0:
312,228,34962,2,0,B|344:144|272:144|304:48,1,180
376,296,35435,38,0,P|326:274|232:315,1,135
232,312,35751,2,0,L|117:291,1,90
8,196,36067,2,0,L|122:216,1,90
184,144,36383,1,0,0:0:0:0:
96,64,36541,1,0,0:0:0:0:
264,208,36699,6,0,P|285:158|244:64,1,135
280,64,37014,2,0,L|368:79,1,90
448,24,37330,1,0,0:0:0:0:
512,180,37488,2,0,L|405:161,1,90
372,268,37804,1,0,0:0:0:0:
512,384,37962,38,0,L|358:356,1,135
352,376,38278,2,0,L|263:360,1,90
176,240,38593,1,0,0:0:0:0:
252,172,38751,1,0,0:0:0:0:
176,336,38909,1,0,0:0:0:0:
88,244,39067,1,0,0:0:0:0:
300,244,39225,6,0,P|332:208|314:112,1,135
312,104,39541,2,0,P|300:68|324:0,1,90
396,60,39856,1,0,0:0:0:0:
252,172,40014,2,0,L|66:139,1,180
8,196,40488,37,0,0:0:0:0:
172,192,41119,6,0,P|220:180|267:199,1,90
348,200,41751,2,0,P|334:247|294:278,1,90
256,344,42382,2,0,P|221:308|214:258,1,90
256,192,43014,1,0,0:0:0:0:
448,40,44267,6,0,L|414:229,1,148.50000453186
408,268,44582,1,0,0:0:0:0:
344,116,44740,1,0,0:0:0:0:
504,236,44898,1,0,0:0:0:0:
408,364,45056,1,0,0:0:0:0:
316,272,45214,1,0,0:0:0:0:
508,368,45372,1,0,0:0:0:0:
256,340,45530,6,0,P|224:288|256:208,1,148.50000453186
323,144,45845,2,0,L|342:33,1,99.0000030212403
232,76,46161,1,0,0:0:0:0:
424,148,46319,1,0,0:0:0:0:
348,20,46477,1,0,0:0:0:0:
348,264,46635,1,0,0:0:0:0:
484,88,46793,38,0,P|513:153|480:217,1,148.50000453186
456,300,47109,2,0,L|341:279,1,99.0000030212403
128,244,47424,1,0,0:0:0:0:
220,144,47582,1,0,0:0:0:0:
128,360,47740,1,0,0:0:0:0:
40,148,47898,1,0,0:0:0:0:
352,212,48056,6,0,B|276:172|280:252|204:228,1,148.50000453186
128,196,48372,1,0,0:0:0:0:
312,72,48530,1,0,0:0:0:0:
212,336,48688,37,0,0:0:0:0:
112,72,48845,1,0,0:0:0:0:
376,232,49003,1,0,0:0:0:0:
48,240,49161,1,0,0:0:0:0:
456,100,49319,6,0,B|444:163|444:163|478:205|478:205|455:331,1,202.500007724762
448,376,49635,1,0,0:0:0:0:
260,236,49793,37,0,0:0:0:0:
332,156,49951,1,0,0:0:0:0:
328,336,50109,1,0,0:0:0:0:
160,236,50267,1,0,0:0:0:0:
404,236,50424,1,0,0:0:0:0:
208,320,50582,6,0,P|148:336|72:240,1,161.999995056153
80,196,50898,2,0,L|102:66,1,107.999996704102
304,0,51214,1,0,0:0:0:0:
232,168,51372,1,0,0:0:0:0:
104,64,51530,1,0,0:0:0:0:
380,64,51688,1,0,0:0:0:0:
232,192,51845,38,0,P|292:164|392:212,1,161.999995056153
456,144,52161,2,0,B|472:196|472:196|454:251,1,107.999996704102
208,320,52477,1,0,0:0:0:0:
116,136,52635,1,0,0:0:0:0:
300,256,52793,1,0,0:0:0:0:
112,384,52951,1,0,0:0:0:0:
48,196,53109,6,0,L|244:161,1,161.999995056153
256,96,53424,2,0,L|382:73,1,107.999996704102
492,216,53740,1,0,0:0:0:0:
404,160,53898,1,0,0:0:0:0:
384,216,53977,1,0,0:0:0:0:
404,272,54056,1,0,0:0:0:0:
492,60,54214,1,0,0:0:0:0:
404,372,54364,37,0,0:0:0:0:
308,272,54995,22,0,L|166:297,1,135.000005149842
96,248,55469,1,0,0:0:0:0:
176,204,55627,6,0,P|199:141|176:80,3,135.000005149842
304,248,56890,38,0,B|252:257|252:257|237:284|237:284|182:293,2,135.000005149842
184,124,57679,1,0,0:0:0:0:
108,168,57837,1,0,0:0:0:0:
184,208,57995,1,0,0:0:0:0:
304,80,58153,2,0,B|252:70|252:70|237:43|237:43|182:34,2,135.000005149842
376,20,58942,2,0,P|399:81|376:144,1,135.000005149842
300,188,59416,6,0,L|449:214,1,135.000005149842
492,280,59890,1,0,0:0:0:0:
432,344,60048,1,0,0:0:0:0:
348,336,60206,1,0,0:0:0:0:
296,268,60364,1,0,0:0:0:0:
212,260,60522,1,0,0:0:0:0:
148,324,60679,2,0,P|125:262|148:200,3,135.000005149842
240,196,61942,38,0,B|231:144|231:144|204:129|204:129|195:74,2,135.000005149842
364,76,62731,1,0,0:0:0:0:
320,0,62889,1,0,0:0:0:0:
280,76,63047,1,0,0:0:0:0:
408,196,63205,2,0,B|418:144|418:144|445:129|445:129|454:74,2,135.000005149842
380,296,63995,1,0,0:0:0:0:
411,290,64074,1,0,0:0:0:0:
443,284,64153,1,0,0:0:0:0:
316,220,64311,1,0,0:0:0:0:
256,296,64449,6,0,P|204:321|120:284,1,135
112,280,64764,2,0,L|132:161,1,90
148,72,65080,1,0,0:0:0:0:
56,116,65238,1,0,0:0:0:0:
236,116,65396,2,0,P|247:62|237:28,1,90
224,220,65712,38,0,L|373:193,1,135
384,212,66027,2,0,L|486:193,1,90
408,116,66343,1,0,0:0:0:0:
460,336,66501,2,0,P|412:308|276:364,1,180
96,288,66975,6,0,P|96:332|192:332,1,135
196,336,67290,2,0,L|175:221,1,90
264,160,67606,1,0,0:0:0:0:
152,104,67764,1,0,0:0:0:0:
264,56,67922,2,0,L|279:144,1,90
436,300,68238,38,0,L|270:270,1,135
288,244,68554,2,0,L|376:259,1,90
380,68,68871,1,0,0:0:0:0:
460,136,69027,2,0,P|405:168|281:103,1,180
212,240,69501,6,0,B|240:164|172:164|216:96,1,135
224,92,69817,2,0,P|237:49|224:0,1,90
32,168,70133,1,0,0:0:0:0:
148,48,70291,1,0,0:0:0:0:
132,200,70449,2,0,L|37:183,1,90
212,264,70764,38,0,L|357:289,1,135
364,276,71080,2,0,B|376:232|376:232|360:176,1,90
304,112,71396,1,0,0:0:0:0:
444,316,71554,2,0,B|467:231|467:231|436:123,1,180
344,24,72027,6,0,L|462:3,1,90
208,112,72343,2,0,L|89:91,1,90
304,112,72659,2,0,L|422:91,1,90
168,24,72975,38,0,L|49:3,1,90
304,112,73291,2,0,L|422:91,1,90
208,112,73606,2,0,L|89:91,1,90
344,24,73922,2,0,L|462:3,2,90
256,192,74554,5,0,0:0:0:0:
172,192,75185,38,0,P|220:180|267:199,1,90
348,200,75817,2,0,P|334:247|294:278,1,90
256,344,76448,2,0,P|221:308|214:258,1,90
256,192,77080,1,0,0:0:0:0:
264,172,77712,5,0,0:0:0:0:
285,49,77870,1,0,0:0:0:0:
259,199,78027,1,0,0:0:0:0:
289,26,78185,1,0,0:0:0:0:
64,40,78343,6,0,L|98:229,1,148.50000453186
104,268,78658,1,0,0:0:0:0:
168,116,78816,1,0,0:0:0:0:
8,236,78974,1,0,0:0:0:0:
104,364,79132,1,0,0:0:0:0:
196,272,79290,1,0,0:0:0:0:
4,368,79448,1,0,0:0:0:0:
256,340,79606,6,0,P|288:288|256:208,1,148.50000453186
189,144,79921,2,0,L|170:33,1,99.0000030212403
280,76,80237,1,0,0:0:0:0:
88,148,80395,1,0,0:0:0:0:
164,20,80553,1,0,0:0:0:0:
164,264,80711,1,0,0:0:0:0:
28,88,80869,38,0,P|-1:153|32:217,1,148.50000453186
56,300,81185,2,0,L|171:279,1,99.0000030212403
384,244,81500,1,0,0:0:0:0:
292,144,81658,1,0,0:0:0:0:
384,360,81816,1,0,0:0:0:0:
472,148,81974,1,0,0:0:0:0:
160,212,82132,6,0,B|236:172|232:252|308:228,1,148.50000453186
384,196,82448,1,0,0:0:0:0:
200,72,82606,1,0,0:0:0:0:
300,336,82764,37,0,0:0:0:0:
400,72,82921,1,0,0:0:0:0:
136,232,83079,1,0,0:0:0:0:
464,240,83237,1,0,0:0:0:0:
56,100,83396,6,0,B|68:163|68:163|34:205|34:205|57:331,1,202.500007724762
64,376,83711,1,0,0:0:0:0:
252,236,83869,37,0,0:0:0:0:
180,156,84027,1,0,0:0:0:0:
184,336,84185,1,0,0:0:0:0:
352,236,84343,1,0,0:0:0:0:
108,236,84500,1,0,0:0:0:0:
304,320,84658,6,0,P|364:336|440:240,1,161.999995056153
432,196,84974,2,0,L|410:66,1,107.999996704102
208,0,85290,1,0,0:0:0:0:
280,168,85448,1,0,0:0:0:0:
408,64,85606,1,0,0:0:0:0:
132,64,85764,1,0,0:0:0:0:
280,192,85921,38,0,P|220:164|120:212,1,161.999995056153
56,144,86237,2,0,B|40:196|40:196|58:251,1,107.999996704102
304,320,86553,1,0,0:0:0:0:
396,136,86711,1,0,0:0:0:0:
212,256,86869,1,0,0:0:0:0:
400,384,87027,1,0,0:0:0:0:
464,196,87185,6,0,L|268:161,1,161.999995056153
256,96,87500,2,0,L|130:73,1,107.999996704102
20,216,87816,1,0,0:0:0:0:
108,160,87974,1,0,0:0:0:0:
128,216,88053,1,0,0:0:0:0:
108,272,88132,1,0,0:0:0:0:
20,60,88290,1,0,0:0:0:0:
32,312,88429,38,0,B|95:300|95:300|137:334|137:334|263:311,1,202.500007724762
296,384,88744,2,0,P|312:356|280:236,1,148.50000453186
228,188,89060,5,0,0:0:0:0:
376,96,89218,1,0,0:0:0:0:
228,24,89376,1,0,0:0:0:0:
489,118,89534,1,0,0:0:0:0:
248,176,89692,38,0,B|296:156|332:176|332:176|368:200|408:176,1,148.50000453186
472,216,90007,2,0,L|494:86,1,99.0000030212403
292,252,90323,1,0,0:0:0:0:
456,336,90481,1,0,0:0:0:0:
196,336,90639,1,0,0:0:0:0:
248,168,90797,1,0,0:0:0:0:
260,384,90955,6,0,L|98:355,1,148.50000453186
100,268,91271,2,0,L|-29:245,1,99.0000030212403
112,88,91586,1,0,0:0:0:0:
204,284,91744,1,0,0:0:0:0:
304,88,91902,1,0,0:0:0:0:
56,180,92060,1,0,0:0:0:0:
280,352,92218,38,0,P|296:324|264:204,1,148.50000453186
212,156,92534,1,0,0:0:0:0:
376,24,92692,1,0,0:0:0:0:
404,228,92850,5,0,0:0:0:0:
208,24,93007,1,0,0:0:0:0:
484,148,93165,1,0,0:0:0:0:
204,284,93323,1,0,0:0:0:0:
292,28,93481,38,0,B|280:91|280:91|314:133|314:133|291:259,1,202.500007724762
292,304,93797,1,0,0:0:0:0:
216,164,93955,5,0,0:0:0:0:
392,256,94113,1,0,0:0:0:0:
216,364,94271,1,0,0:0:0:0:
376,164,94429,1,0,0:0:0:0:
464,352,94586,1,0,0:0:0:0:
232,284,94744,38,0,L|391:255,1,161.999995056153
472,220,95060,2,0,P|488:168|472:116,1,107.999996704102
304,24,95376,1,0,0:0:0:0:
376,164,95534,1,0,0:0:0:0:
480,16,95692,1,0,0:0:0:0:
256,128,95850,1,0,0:0:0:0:
176,8,96007,6,0,B|208:84|132:84|172:176,1,161.999995056153
240,224,96323,2,0,P|254:275|238:325,1,107.999996704102
152,276,96639,1,0,0:0:0:0:
324,152,96797,1,0,0:0:0:0:
360,360,96955,1,0,0:0:0:0:
352,64,97113,1,0,0:0:0:0:
512,208,97271,38,0,L|334:239,1,161.999995056153
324,152,97586,1,0,0:0:0:0:
464,316,97744,1,0,0:0:0:0:
212,152,97902,5,0,0:0:0:0:
444,52,98060,1,0,0:0:0:0:
100,156,98218,1,0,0:0:0:0:
352,236,98376,1,0,0:0:0:0:
144,68,98534,37,0,0:0:0:0:
256,336,98849,1,0,0:0:0:0:
368,68,99165,1,0,0:0:0:0:
56,192,99481,1,0,0:0:0:0:
368,316,99797,5,0,0:0:0:0:
52,40,100112,1,0,0:0:0:0:
256,368,100428,1,0,0:0:0:0:
460,40,100744,1,0,0:0:0:0:
256,192,101060,37,0,0:0:0:0:
256,192,107376,12,0,110849,0:0:0:0:
36,224,111155,6,0,P|30:184|51:137,1,67.5000025749208
256,156,111312,2,0,B|220:184|148:264|48:220|96:144|168:132|272:260,1,337.500012874604
340,204,111786,2,0,L|442:222,1,67.5000025749208
428,244,111944,6,0,L|345:229,1,67.5000025749208
392,116,112260,1,0,0:0:0:0:
504,208,112418,22,0,P|511:240|504:273,1,67.5000025749208
296,116,112576,1,0,0:0:0:0:
464,44,112733,1,0,0:0:0:0:
360,232,112891,1,0,0:0:0:0:
296,116,113049,2,0,P|288:83|295:50,1,67.5000025749208
392,116,113207,1,0,0:0:0:0:
256,288,113365,1,0,0:0:0:0:
120,116,113523,1,0,0:0:0:0:
248,196,113681,6,0,L|145:177,1,67.5000025749208
16,136,113839,2,0,B|0:104|12:40|136:36|152:168|40:280,1,337.500012874604
4,368,114312,2,0,P|40:376|92:352,1,67.5000025749208
90,351,114470,22,0,P|123:343|156:352,1,67.5000025749208
224,288,114786,6,0,L|326:306,1,67.5000025749208
460,204,114944,1,0,0:0:0:0:
384,376,115102,1,0,0:0:0:0:
372,240,115260,2,0,B|365:206|365:206|372:173,1,67.5000025749208
512,292,115418,2,0,B|519:326|519:326|512:359,1,67.5000025749208
264,204,115576,5,0,0:0:0:0:
404,80,115733,1,0,0:0:0:0:
290,299,115891,1,0,0:0:0:0:
196,136,116049,1,0,0:0:0:0:
264,316,116207,38,0,L|173:300,1,67.5000025749208
56,120,116365,2,0,B|160:104|160:28|92:-40|-8:136|184:136|100:248,1,337.500012874604
20,280,116839,2,0,B|13:246|13:246|20:213,1,67.5000025749208
36,308,116997,22,0,B|43:342|43:342|36:375,1,67.5000025749208
103,243,117312,38,0,L|169:254,1,67.5000025749208
352,200,117470,1,0,0:0:0:0:
256,348,117628,1,0,0:0:0:0:
180,152,117786,2,0,L|246:163,1,67.5000025749208
384,280,117944,2,0,P|351:288|318:279,1,67.5000025749208
464,328,118102,22,0,P|481:288|461:230,1,101.250003862381
448,216,118418,1,0,0:0:0:0:
512,76,118576,1,0,0:0:0:0:
348,136,118733,38,0,L|426:122,1,67.5000025749208
312,44,119049,2,0,L|185:66,1,101.250003862381
196,48,119365,22,0,P|163:40|130:49,1,67.5000025749208
132,240,119523,2,0,P|165:248|198:239,1,67.5000025749208
160,144,119681,1,0,0:0:0:0:
68,320,119839,1,0,0:0:0:0:
296,240,119997,5,0,0:0:0:0:
48,136,120155,1,0,0:0:0:0:
220,368,120312,1,0,0:0:0:0:
352,140,120470,1,0,0:0:0:0:
408,240,120628,21,0,0:0:0:0:
256,16,120865,1,0,0:0:0:0:
104,240,121102,1,0,0:0:0:0:
352,140,121250,6,0,P|424:124|520:228,1,202.500007724762
468,336,121565,2,0,P|396:352|300:248,1,202.500007724762
224,216,121881,2,0,L|205:322,1,67.5000025749208
208,192,122039,22,0,L|226:85,1,67.5000025749208
237,16,122355,1,0,0:0:0:0:
372,92,122513,38,0,L|281:76,1,67.5000025749208
144,52,122671,1,0,0:0:0:0:
308,188,122828,1,0,0:0:0:0:
108,252,122986,1,0,0:0:0:0:
0,152,123144,2,0,L|90:167,1,67.5000025749208
204,256,123302,1,0,0:0:0:0:
104,352,123460,1,0,0:0:0:0:
160,172,123618,1,0,0:0:0:0:
300,304,123776,38,0,P|366:375|463:365,1,202.500007724762
511,231,124092,2,0,P|444:159|347:169,1,202.500007724762
312,80,124407,2,0,L|233:93,1,67.5000025749208
220,72,124565,38,0,L|105:92,1,67.5000025749208
48,52,124881,22,0,P|39:84|47:116,1,67.5000025749208
132,252,125039,2,0,P|140:219|132:187,1,67.5000025749208
36,216,125197,1,0,0:0:0:0:
160,352,125355,1,0,0:0:0:0:
280,216,125513,1,0,0:0:0:0:
344,336,125671,2,0,L|254:319,1,67.5000025749208
428,252,125828,1,0,0:0:0:0:
216,148,125986,1,0,0:0:0:0:
428,88,126144,1,0,0:0:0:0:
156,245,126302,38,0,P|253:255|320:184,1,202.500007724762
272,49,126618,2,0,P|175:39|109:111,1,202.500007724762
24,80,126934,2,0,P|15:112|24:144,1,67.5000025749208
44,172,127092,22,0,P|52:204|43:236,1,67.5000025749208
24,344,127407,38,0,L|122:326,1,67.5000025749208
292,324,127565,1,0,0:0:0:0:
176,216,127723,1,0,0:0:0:0:
376,360,127881,2,0,B|383:326|383:326|376:293,1,67.5000025749208
208,296,128039,2,0,B|201:329|201:329|208:363,1,67.5000025749208
416,192,128197,22,0,L|301:212,1,101.250003862381
296,192,128513,1,0,0:0:0:0:
468,276,128671,1,0,0:0:0:0:
500,144,128828,38,0,P|480:112|380:104,1,135.000005149842
368,84,129460,22,0,L|277:99,1,67.5000025749208
213,91,129618,38,0,L|280:80,1,67.5000025749208
156,184,129934,1,0,0:0:0:0:
88,84,130092,21,0,0:0:0:0:
260,184,130250,1,0,0:0:0:0:
88,284,130407,1,0,0:0:0:0:
288,184,130565,1,0,0:0:0:0:
24,24,130723,37,0,0:0:0:0:
192,320,130881,1,0,0:0:0:0:
340,24,131039,1,0,0:0:0:0:
192,344,131197,1,0,0:0:0:0:
0,224,131355,6,0,B|63:212|63:212|105:246|105:246|231:223,1,202.500007724762
296,288,131671,37,0,0:0:0:0:
396,136,131828,1,0,0:0:0:0:
264,204,131986,6,0,B|340:164|336:244|412:220,1,148.50000453186
488,192,132302,2,0,B|504:140|504:140|486:85,1,107.999996704102
172,80,132618,38,0,L|337:50,1,148.50000453186
389,106,132934,2,0,L|523:82,1,99.0000030212403
320,172,133250,1,0,0:0:0:0:
172,80,133407,1,0,0:0:0:0:
96,296,133565,1,0,0:0:0:0:
212,184,133723,1,0,0:0:0:0:
40,232,133881,6,0,P|6:295|36:361,1,148.50000453186
120,384,134197,2,0,L|238:363,1,99.0000030212403
432,340,134513,1,0,0:0:0:0:
212,268,134671,1,0,0:0:0:0:
456,164,134828,1,0,0:0:0:0:
336,268,134986,1,0,0:0:0:0:
328,36,135144,38,0,L|301:185,1,148.50000453186
336,268,135460,1,0,0:0:0:0:
192,176,135618,1,0,0:0:0:0:
256,380,135776,5,0,0:0:0:0:
416,160,135934,1,0,0:0:0:0:
124,344,136092,1,0,0:0:0:0:
388,344,136250,1,0,0:0:0:0:
68,244,136407,38,0,B|131:232|131:232|173:266|173:266|299:243,1,202.500007724762
192,176,136723,1,0,0:0:0:0:
256,360,136881,5,0,0:0:0:0:
328,116,137039,1,0,0:0:0:0:
255,250,137197,1,0,0:0:0:0:
408,252,137355,1,0,0:0:0:0:
328,32,137513,1,0,0:0:0:0:
487,144,137671,38,0,L|313:113,1,161.999995056153
328,32,137986,2,0,L|186:6,1,107.999996704102
60,124,138302,1,0,0:0:0:0:
176,188,138460,1,0,0:0:0:0:
40,32,138618,1,0,0:0:0:0:
0,232,138776,1,0,0:0:0:0:
152,96,138934,6,0,P|212:96|269:186,1,161.999995056153
240,260,139250,2,0,L|362:281,1,107.999996704102
416,208,139565,1,0,0:0:0:0:
144,300,139723,1,0,0:0:0:0:
416,380,139881,1,0,0:0:0:0:
240,260,140039,1,0,0:0:0:0:
476,272,140197,38,0,P|505:206|471:143,1,148.50000453186
384,120,140513,2,0,L|277:101,1,107.999996704102
120,192,140828,5,0,0:0:0:0:
32,32,140986,1,0,0:0:0:0:
240,260,141144,1,0,0:0:0:0:
32,360,141302,1,0,0:0:0:0:
89,94,141444,38,0,B|152:82|152:82|194:116|194:116|320:93,1,202.500007724762
384,120,141759,5,0,0:0:0:0:
212,16,141917,1,0,0:0:0:0:
316,200,142075,1,0,0:0:0:0:
204,4,142233,1,0,0:0:0:0:
400,120,142391,1,0,0:0:0:0:
216,204,142549,1,0,0:0:0:0:
464,56,142707,38,0,P|495:119|464:185,1,148.50000453186
400,256,143022,2,0,B|387:304|387:304|401:362,1,99.0000030212403
480,304,143338,1,0,0:0:0:0:
316,196,143496,1,0,0:0:0:0:
296,384,143654,1,0,0:0:0:0:
464,185,143812,1,0,0:0:0:0:
256,136,143970,6,0,L|287:313,1,148.50000453186
208,344,144286,2,0,L|188:233,1,99.0000030212403
152,56,144601,1,0,0:0:0:0:
356,168,144759,1,0,0:0:0:0:
96,172,144917,1,0,0:0:0:0:
300,24,145075,1,0,0:0:0:0:
92,264,145233,38,0,P|35:243|12:148,1,148.50000453186
8,76,145549,1,0,0:0:0:0:
184,208,145707,1,0,0:0:0:0:
28,344,145865,1,0,0:0:0:0:
184,112,146022,1,0,0:0:0:0:
332,344,146180,1,0,0:0:0:0:
184,92,146338,1,0,0:0:0:0:
464,268,146496,6,0,B|401:280|401:280|359:246|359:246|233:269,1,202.500007724762
184,284,146812,1,0,0:0:0:0:
284,160,146970,1,0,0:0:0:0:
184,376,147128,1,0,0:0:0:0:
92,232,147286,1,0,0:0:0:0:
280,348,147444,1,0,0:0:0:0:
36,348,147601,1,0,0:0:0:0:
56,136,147759,38,0,P|116:128|188:224,1,161.999995056153
272,248,148075,2,0,B|288:196|288:196|270:141,1,107.999996704102
264,36,148391,1,0,0:0:0:0:
384,200,148549,1,0,0:0:0:0:
444,104,148707,1,0,0:0:0:0:
272,248,148865,1,0,0:0:0:0:
504,272,149022,6,0,L|334:301,1,161.999995056153
272,364,149338,2,0,L|145:386,1,107.999996704102
40,184,149654,1,0,0:0:0:0:
168,248,149812,1,0,0:0:0:0:
40,344,149970,1,0,0:0:0:0:
256,248,150128,1,0,0:0:0:0:
116,128,150286,38,0,P|176:156|264:128,1,161.999995056153
324,60,150601,1,0,0:0:0:0:
424,196,150759,1,0,0:0:0:0:
188,60,150917,1,0,0:0:0:0:
424,4,151075,1,0,0:0:0:0:
256,248,151233,1,0,0:0:0:0:
88,4,151391,1,0,0:0:0:0:
324,60,151549,5,0,0:0:0:0:
256,332,151865,1,0,0:0:0:0:
188,60,152180,1,0,0:0:0:0:
424,196,152496,1,0,0:0:0:0:
88,196,152812,37,0,0:0:0:0:
456,48,153128,1,0,0:0:0:0:
256,352,153444,1,0,0:0:0:0:
56,48,153759,1,0,0:0:0:0:
256,192,154075,5,0,0:0:0:0:
