osu file format v14

[General]
AudioFilename: audio.mp3
AudioLeadIn: 0
PreviewTime: 75027
Countdown: 1
SampleSet: None
StackLeniency: 0.7
Mode: 0
LetterboxInBreaks: 0
WidescreenStoryboard: 0

[Editor]
Bookmarks: 10192,20278,40488,44267,54364,74554,78343,98534,101060,111155,131355,149654,151549,154075
DistanceSpacing: 1.1
BeatDivisor: 1
GridSize: 32
TimelineZoom: 1.2

[Metadata]
Title:One Step Closer
TitleUnicode:One Step Closer
Artist:Linkin Park
ArtistUnicode:Linkin Park
Creator:Veridian
Version:Easy
Source:
Tags:
BeatmapID:1889154
BeatmapSetID:905105

[Difficulty]
HPDrainRate:2
CircleSize:3
OverallDifficulty:2
ApproachRate:2
SliderMultiplier:0.8
SliderTickRate:2

[Events]
//Background and Video events
0,0,"aa0962247e36e5ee365a3482166798dd.jpg",0,0
//Break Periods
2,40687,43022
2,74753,77099
2,101260,104552
//Storyboard Layer 0 (Background)
//Storyboard Layer 1 (Fail)
//Storyboard Layer 2 (Pass)
//Storyboard Layer 3 (Foreground)
//Storyboard Sound Samples

[TimingPoints]
10193,315.789473684211,4,2,0,100,1,0
20278,315.789473684211,4,2,0,100,1,0
40488,315.789473684211,4,2,0,100,1,0
44267,315.789473684211,4,2,0,100,1,1
54364,315.789473684211,4,2,0,100,1,0
64449,315.789473684211,4,2,0,100,1,0
78343,-100,4,2,0,100,0,1
87817,-100,4,2,0,100,0,0
88429,315.789473684211,4,2,0,100,1,1
98534,315.789473684211,4,2,0,100,1,0
111155,315.789473684211,4,2,0,100,1,1
111786,-100,4,2,0,100,0,0
121250,315.789473684211,4,2,0,100,1,1
121881,-100,4,2,0,100,0,0
131355,-100,4,2,0,100,0,1
140828,-100,4,2,0,100,0,0
141444,315.789473684211,4,2,0,100,1,1
151549,-100,4,2,0,100,0,0

[Colours]
Combo1 : 255,209,70
Combo2 : 176,84,0
Combo3 : 128,125,87
Combo4 : 255,128,64

[HitObjects]
256,120,10192,5,0,0:0:0:0:
344,272,10824,2,0,P|350:306|340:360,2,80
168,272,12087,2,0,P|162:306|172:360,2,80
168,96,13350,6,0,L|73:79,2,80
344,96,14614,2,0,L|438:79,2,80
340,272,15877,6,0,L|418:285,2,80
164,272,17141,2,0,L|85:285,2,80
256,124,18403,6,0,L|256:32,2,80
92,192,19666,1,0,0:0:0:0:
24,248,19982,1,0,0:0:0:0:
92,304,20278,6,0,L|261:274,1,160
420,232,21541,2,0,P|426:266|416:320,2,80
480,64,22804,6,0,L|310:93,1,160
150,131,24067,2,0,P|143:91|149:52,2,80
256,272,25330,5,0,0:0:0:0:
256,272,25962,1,0,0:0:0:0:
362,131,26593,2,0,P|369:91|363:52,2,80
192,172,27856,6,0,P|172:95|190:18,1,160
56,132,29120,2,0,P|63:92|57:53,2,80
112,200,30067,1,0,0:0:0:0:
56,268,30383,6,0,L|221:238,1,160
388,216,31646,2,0,L|372:302,2,80
468,60,32909,6,0,P|391:79|314:61,1,160
208,200,34172,2,0,P|168:193|129:199,1,80
80,272,34804,1,0,0:0:0:0:
80,96,35435,2,0,L|-6:80,2,80
248,40,36699,2,0,L|334:55,1,80
404,12,37330,1,0,0:0:0:0:
480,172,37962,6,0,P|499:248|481:325,1,160
404,372,38909,1,0,0:0:0:0:
328,328,39225,2,0,L|249:314,1,80
164,328,39856,2,0,P|145:250|165:174,1,160
256,32,44582,5,0,0:0:0:0:
312,100,44898,2,0,P|317:139|310:178,1,80
256,248,45530,2,0,P|250:287|257:326,1,80
332,372,46161,2,0,P|254:353|178:373,1,160
112,316,47109,1,0,0:0:0:0:
32,356,47424,2,0,P|25:316|30:277,1,80
104,228,48056,2,0,P|122:150|102:74,1,160
172,16,49003,1,0,0:0:0:0:
244,68,49319,6,0,L|405:39,1,160
464,104,50267,1,0,0:0:0:0:
400,164,50582,2,0,L|321:150,1,80
252,204,51214,2,0,P|232:280|250:357,1,160
328,316,52161,1,0,0:0:0:0:
408,356,52477,2,0,P|414:316|409:277,1,80
496,256,53109,6,0,L|338:228,1,160
268,172,54056,1,0,0:0:0:0:
204,116,54364,6,0,P|120:97|37:125,1,160
88,288,55627,2,0,P|128:294|167:289,2,80
242,204,56890,2,0,L|213:373,1,160
392,360,58153,2,0,L|376:273,2,80
464,200,59416,6,0,P|483:116|455:33,1,160
332,160,60679,2,0,P|337:120|333:81,2,80
200,44,61942,6,0,P|180:120|199:197,1,160
324,322,63206,2,0,L|410:306,2,80
260,260,64153,1,0,0:0:0:0:
199,197,64449,2,0,L|29:226,1,160
144,84,65712,2,0,P|104:89|65:85,2,80
308,24,66975,6,0,P|384:4|461:24,1,160
424,196,68238,2,0,P|384:201|345:197,1,80
384,116,68870,1,0,0:0:0:0:
216,164,69501,6,0,P|211:203|217:242,2,80
108,24,70764,2,0,P|112:63|106:102,1,80
44,164,71396,1,0,0:0:0:0:
116,324,72027,2,0,L|273:296,1,160
304,212,72975,2,0,L|461:184,1,160
508,260,73922,6,0,P|488:183|508:106,1,160
96,208,78659,5,0,0:0:0:0:
160,268,78975,2,0,L|254:251,1,80
312,208,79606,2,0,L|390:221,1,80
448,288,80238,2,0,P|428:211|448:134,1,160
512,72,81185,1,0,0:0:0:0:
428,48,81501,2,0,P|388:43|349:49,1,80
284,108,82133,2,0,P|207:127|130:107,1,160
68,44,83080,1,0,0:0:0:0:
44,128,83396,6,0,P|48:167|42:206,1,80
24,292,84027,2,0,L|106:277,1,80
140,360,84659,2,0,L|222:345,1,80
256,268,85291,2,0,L|417:239,1,160
472,176,86238,1,0,0:0:0:0:
412,112,86554,2,0,P|407:72|413:33,2,80
304,252,87817,5,0,0:0:0:0:
256,180,88133,1,0,0:0:0:0:
208,252,88429,1,0,0:0:0:0:
100,112,89060,6,0,P|105:72|99:33,1,80
20,76,89692,2,0,P|13:115|19:154,1,80
92,204,90323,2,0,L|261:174,1,160
316,232,91271,1,0,0:0:0:0:
384,176,91586,2,0,P|423:169|462:175,1,80
508,100,92218,2,0,P|489:177|509:254,1,160
440,308,93165,1,0,0:0:0:0:
368,360,93481,6,0,L|281:344,1,80
284,256,94113,2,0,L|197:240,1,80
176,324,94744,2,0,L|89:308,1,80
12,292,95376,2,0,P|-7:215|11:138,1,160
72,72,96323,1,0,0:0:0:0:
132,136,96639,2,0,P|171:142|210:136,1,80
272,72,97271,2,0,P|348:52|425:71,1,160
484,140,98218,1,0,0:0:0:0:
424,204,98534,6,0,L|329:187,8,80
256,192,106112,12,0,109901,0:0:0:0:
256,272,111155,5,0,0:0:0:0:
256,360,111470,1,0,0:0:0:0:
332,316,111786,2,0,P|408:296|485:315,2,160
256,272,113365,1,0,0:0:0:0:
180,224,113681,2,0,P|140:229|101:223,1,80
36,164,114312,2,0,L|65:333,2,160
100,104,115891,1,0,0:0:0:0:
164,44,116207,6,0,L|254:59,1,80
332,60,116839,2,0,L|501:30,2,160
288,136,118418,1,0,0:0:0:0:
240,208,118733,1,0,0:0:0:0:
192,284,119049,6,0,L|113:297,2,80
244,356,119997,2,0,P|320:336|397:355,1,160
396,180,121250,5,0,0:0:0:0:
332,120,121565,1,0,0:0:0:0:
396,60,121881,2,0,L|222:90,2,160
472,12,123460,1,0,0:0:0:0:
476,100,123776,6,0,P|481:139|475:178,1,80
400,224,124407,2,0,L|226:193,2,160
472,276,125986,1,0,0:0:0:0:
399,325,126302,6,0,P|359:318|320:324,1,80
236,356,126934,2,0,P|159:375|82:355,1,160
20,292,127881,1,0,0:0:0:0:
84,232,128197,2,0,L|99:141,1,80
64,72,128828,2,0,P|103:66|142:72,1,80
188,148,129460,2,0,P|227:153|266:147,1,80
316,72,130092,5,0,0:0:0:0:
392,28,130407,1,0,0:0:0:0:
476,60,130723,1,0,0:0:0:0:
488,148,131039,1,0,0:0:0:0:
424,208,131355,5,0,0:0:0:0:
384,288,131671,2,0,P|423:293|462:287,2,80
336,216,132618,2,0,P|296:209|257:215,1,80
204,284,133250,2,0,P|127:303|50:283,1,160
0,212,134197,1,0,0:0:0:0:
52,140,134513,2,0,P|59:100|53:61,1,80
120,0,135144,2,0,L|293:30,1,160
364,48,136092,1,0,0:0:0:0:
304,112,136407,6,0,P|284:188|303:265,1,160
376,316,137355,1,0,0:0:0:0:
300,360,137671,2,0,P|260:353|221:359,1,80
188,276,138302,6,0,P|111:295|34:275,1,160
4,192,139250,1,0,0:0:0:0:
92,200,139565,2,0,P|98:160|91:121,1,80
16,76,140197,2,0,L|173:48,1,160
244,100,141144,1,0,0:0:0:0:
296,28,141444,5,0,0:0:0:0:
368,76,141759,2,0,L|446:62,2,80
395,160,142707,2,0,P|388:199|394:238,1,80
465,290,143338,2,0,P|388:270|311:289,1,160
230,325,144286,1,0,0:0:0:0:
149,359,144601,2,0,P|109:365|70:358,1,80
16,288,145233,2,0,L|44:131,1,160
97,60,146180,1,0,0:0:0:0:
135,139,146496,6,0,L|213:125,1,80
277,64,147128,2,0,P|316:57|355:64,1,80
416,128,147759,2,0,P|422:167|415:206,1,80
488,255,148391,2,0,P|411:235|334:254,1,160
260,301,149338,1,0,0:0:0:0:
184,255,149654,6,0,L|106:241,1,80
28,197,150286,2,0,L|185:169,1,160
256,116,151233,1,0,0:0:0:0:
328,164,151549,6,0,L|406:178,8,80
