osu file format v14

[General]
AudioFilename: audio.mp3
AudioLeadIn: 0
PreviewTime: 58665
Countdown: 0
SampleSet: Soft
StackLeniency: 0.7
Mode: 0
LetterboxInBreaks: 0
WidescreenStoryboard: 1

[Editor]
DistanceSpacing: 1.4
BeatDivisor: 4
GridSize: 4
TimelineZoom: 1

[Metadata]
Title:Lost
TitleUnicode:Lost
Artist:Linkin Park
ArtistUnicode:Linkin Park
Creator:Andrea
Version:Normal
Source:
Tags:osuplayer111 Mrgglock English Rock Nu Metal Meteora 20 Year Anniversary Chester Bennington Mike Shinoda Joe Hahn Rob Bourdon Phoenix Dave Farrell Brad Delson Male Vocals Full Version Alternative Rap LP
BeatmapID:4011550
BeatmapSetID:1940177

[Difficulty]
HPDrainRate:4
CircleSize:3
OverallDifficulty:4
ApproachRate:4.5
SliderMultiplier:1.3
SliderTickRate:1

[Events]
//Background and Video events
0,0,"BG.jpg",0,0
Video,0,"Video.mp4"
//Break Periods
2,130579,133691
//Storyboard Layer 0 (Background)
//Storyboard Layer 1 (Fail)
//Storyboard Layer 2 (Pass)
//Storyboard Layer 3 (Foreground)
//Storyboard Layer 4 (Overlay)
//Storyboard Sound Samples

[TimingPoints]
94,571.428571428571,4,2,2,60,1,0
94,-111.111111111111,4,2,2,60,0,0
8093,-111.111111111111,4,2,2,50,0,0
9236,-100,4,2,1,70,0,0
20665,-125,4,2,2,70,0,0
22093,-125,4,2,2,50,0,0
22951,-111.111111111111,4,2,2,50,0,0
41236,-100,4,2,2,60,0,0
58951,-100,4,2,1,70,0,0
59379,-100,4,2,1,5,0,0
59522,-90.9090909090908,4,2,1,80,0,1
63951,-90.9090909090908,4,2,1,5,0,1
64093,-90.9090909090908,4,2,1,80,0,1
68522,-90.9090909090908,4,2,1,5,0,1
68665,-90.9090909090908,4,2,1,80,0,1
73093,-90.9090909090908,4,2,1,5,0,1
73236,-90.9090909090908,4,2,1,80,0,1
77665,-90.9090909090908,4,2,1,5,0,1
77808,-90.9090909090908,4,2,1,80,0,1
80093,-100,4,2,1,70,0,0
81236,-100,4,2,2,60,0,0
109236,-100,4,2,1,70,0,0
109665,-100,4,2,1,5,0,0
109808,-90.9090909090909,4,2,1,80,0,1
114236,-90.9090909090909,4,2,1,5,0,1
114379,-90.9090909090909,4,2,1,80,0,1
118808,-90.9090909090909,4,2,1,5,0,1
118951,-90.9090909090909,4,2,1,80,0,1
123379,-90.9090909090909,4,2,1,5,0,1
123522,-90.9090909090909,4,2,1,80,0,1
127951,-90.9090909090909,4,2,1,5,0,1
128093,-90.9090909090909,4,2,1,80,0,1
130379,-125,4,2,2,70,0,0
130665,-125,4,2,2,50,0,0
134808,-125,4,2,2,5,0,0
134951,-111.111111111111,4,2,3,55,0,0
137093,-111.111111111111,4,2,3,5,0,0
137236,-111.111111111111,4,2,3,55,0,0
139379,-111.111111111111,4,2,3,5,0,0
139522,-100,4,2,1,60,0,0
147522,-125,4,2,1,50,0,0
148522,-125,4,2,1,5,0,0
148665,-90.9090909090909,4,2,1,80,0,1
153093,-90.9090909090909,4,2,1,5,0,1
153236,-90.9090909090909,4,2,1,80,0,1
157665,-90.9090909090909,4,2,1,5,0,1
157808,-90.9090909090909,4,2,1,80,0,1
162236,-90.9090909090909,4,2,1,5,0,1
162379,-90.9090909090909,4,2,1,80,0,1
187522,-125,4,2,1,70,0,0
188665,-125,4,2,1,60,0,0
189808,-125,4,2,1,50,0,0
190951,-125,4,2,1,40,0,0
192093,-125,4,2,1,30,0,0
193236,-125,4,2,1,20,0,0
194379,-125,4,2,1,10,0,0
195522,-125,4,2,1,5,0,0

[Colours]
Combo1 : 255,255,128
Combo2 : 128,191,255
Combo3 : 213,170,170

[HitObjects]
460,52,94,5,4,1:2:0:0:
448,132,379,1,2,0:0:0:0:
436,212,665,1,8,0:0:0:0:
420,292,951,2,0,L|304:264,1,116.999996429443,2|0,0:0|1:2,0:0:0:0:
228,244,1808,2,0,L|244:172,1,58.4999982147217,8|2,0:0|0:0,0:0:0:0:
256,108,2379,5,0,1:2:0:0:
96,80,2951,1,8,0:0:0:0:
64,156,3236,2,0,P|40:208|48:272,1,116.999996429443,2|0,0:0|1:2,0:0:0:0:
92,332,4093,1,8,0:0:0:0:
232,248,4665,6,0,L|232:128,1,116.999996429443,4|8,1:2|0:0,0:0:0:0:
292,72,5522,2,0,P|352:72|404:100,1,116.999996429443,2|0,0:0|1:2,0:0:0:0:
472,140,6379,1,8,0:0:0:0:
416,200,6665,2,0,L|388:320,1,116.999996429443,2|2,0:0|0:0,0:0:0:0:
312,344,7522,1,8,0:0:0:0:
148,329,8093,6,0,L|80:317,1,58.4999982147217,2|2,0:0|0:0,0:0:0:0:
84,236,8665,2,0,L|16:224,1,58.4999982147217,2|2,0:0|0:0,0:0:0:0:
44,136,9236,5,4,1:2:0:0:
100,64,9522,1,2,0:0:0:0:
164,128,9808,1,8,0:0:0:0:
228,64,10093,1,2,0:0:0:0:
408,80,10665,2,0,L|400:168,1,65,0|8,1:2|0:0,0:0:0:0:
440,228,11236,5,2,0:0:0:0:
416,316,11522,2,0,L|288:288,1,130,0|8,1:2|0:0,0:0:0:0:
212,336,12379,2,0,L|148:320,1,65,2|2,0:0|0:0,0:0:0:0:
60,304,12951,1,0,1:2:0:0:
80,216,13236,1,8,0:0:0:0:
176,60,13808,2,0,L|208:120,1,65,4|2,1:2|0:0,0:0:0:0:
252,196,14379,1,8,0:0:0:0:
292,276,14665,6,0,L|412:228,1,130,2|0,0:0|1:2,0:0:0:0:
468,156,15522,1,8,0:0:0:0:
388,112,15808,1,2,0:0:0:0:
304,80,16093,2,0,L|292:144,1,65,0|2,1:2|0:0,0:0:0:0:
204,164,16665,2,0,L|236:224,1,65,8|2,0:0|0:0,0:0:0:0:
276,300,17236,1,2,0:0:0:0:
100,344,17808,2,0,L|88:248,1,65,8|2,0:0|0:0,0:0:0:0:
40,204,18379,6,0,L|108:192,1,65,4|2,1:2|0:0,0:0:0:0:
192,212,18951,2,0,P|228:152|228:84,1,130,8|2,0:0|0:0,0:0:0:0:
296,28,19808,1,0,1:2:0:0:
364,88,20093,2,0,L|428:100,1,65,8|2,0:0|1:2,0:0:0:0:
496,48,20665,5,4,1:2:0:0:
284,344,22093,1,2,0:0:0:0:
204,328,22379,1,8,0:0:0:0:
76,220,22951,6,0,L|92:160,1,58.4999982147217,4|2,1:2|0:0,0:0:0:0:
108,84,23522,1,8,0:0:0:0:
180,124,23808,2,0,P|236:136|276:180,1,116.999996429443,2|0,0:0|1:2,0:0:0:0:
312,252,24665,1,8,0:0:0:0:
340,328,24951,5,2,0:0:0:0:
488,264,25522,1,2,0:0:0:0:
444,196,25808,1,8,0:0:0:0:
476,120,26093,2,0,L|360:80,1,116.999996429443,2|0,0:0|1:2,0:0:0:0:
284,60,26951,1,8,0:0:0:0:
232,216,27522,6,0,L|216:276,1,58.4999982147217,4|2,1:2|0:0,0:0:0:0:
192,352,28093,1,8,0:0:0:0:
124,304,28379,1,2,0:0:0:0:
84,144,28951,1,0,1:2:0:0:
132,76,29236,1,8,0:0:0:0:
204,120,29522,6,0,L|324:96,1,116.999996429443,2|2,0:0|0:0,0:0:0:0:
400,84,30379,1,8,0:0:0:0:
460,140,30665,1,2,0:0:0:0:
432,300,31236,1,0,1:2:0:0:
364,256,31522,2,0,L|292:244,1,58.4999982147217,8|2,0:0|0:0,0:0:0:0:
252,184,32093,6,0,L|264:120,1,58.4999982147217,4|2,1:2|0:0,0:0:0:0:
224,56,32665,1,8,0:0:0:0:
144,32,32951,2,0,P|96:64|72:120,1,116.999996429443,2|0,0:0|1:2,0:0:0:0:
52,196,33808,1,8,0:0:0:0:
40,276,34093,5,2,0:0:0:0:
200,248,34665,1,2,0:0:0:0:
188,168,34951,1,8,0:0:0:0:
172,88,35236,2,0,P|224:60|284:64,1,116.999996429443,2|0,0:0|1:2,0:0:0:0:
360,72,36093,1,8,0:0:0:0:
464,196,36665,6,0,L|460:256,1,58.4999982147217,4|2,1:2|0:0,0:0:0:0:
424,328,37236,1,8,0:0:0:0:
360,276,37522,2,0,L|240:264,1,116.999996429443,2|0,0:0|1:2,0:0:0:0:
160,260,38379,1,8,0:0:0:0:
208,192,38665,6,0,P|228:136|228:80,1,116.999996429443,2|2,0:0|0:0,0:0:0:0:
164,28,39522,1,8,0:0:0:0:
84,52,39808,1,2,0:0:0:0:
48,212,40379,1,0,1:2:0:0:
120,252,40665,1,8,0:0:0:0:
300,244,41236,6,0,L|284:180,1,65,4|2,1:2|0:0,0:0:0:0:
256,92,41808,2,0,P|324:76|380:96,1,130,8|2,0:0|0:0,0:0:0:0:
464,128,42665,1,2,1:2:0:0:
440,216,42951,1,8,0:0:0:0:
416,304,43236,5,2,0:0:0:0:
268,196,43808,1,2,0:0:0:0:
328,128,44093,1,8,0:0:0:0:
276,56,44379,2,0,L|148:80,1,130,2|2,0:0|1:2,0:0:0:0:
76,136,45236,2,0,L|108:200,1,65,8|2,0:0|0:0,0:0:0:0:
152,272,45808,5,4,1:2:0:0:
308,180,46379,2,0,L|304:252,1,65,8|2,0:0|0:0,0:0:0:0:
392,272,46951,2,0,L|396:136,1,130,2|8,0:0|0:0,0:0:0:0:
396,52,47808,1,2,0:0:0:0:
308,68,48093,6,0,L|176:52,1,130,0|8,1:2|0:0,0:0:0:0:
88,44,48951,1,2,0:0:0:0:
48,124,49236,1,2,0:0:0:0:
148,276,49808,1,8,0:0:0:0:
220,220,50093,1,2,0:0:0:0:
212,128,50379,6,0,P|216:68|264:20,1,130,4|8,1:2|0:0,0:0:0:0:
444,28,51522,2,0,L|452:100,1,65,2|2,0:0|1:2,0:0:0:0:
380,148,52093,2,0,L|388:220,1,65,8|2,0:0|0:0,0:0:0:0:
388,304,52665,6,0,L|256:320,1,130,0|8,1:2|0:0,0:0:0:0:
176,352,53522,1,2,0:0:0:0:
68,208,54093,2,0,L|84:140,1,65,2|8,1:2|0:0,0:0:0:0:
116,60,54665,1,2,0:0:0:0:
180,124,54951,6,0,L|304:76,1,130,4|8,1:2|0:0,0:0:0:0:
472,140,56093,1,2,0:0:0:0:
404,200,56379,1,2,1:2:0:0:
456,272,56665,1,8,0:0:0:0:
284,336,57236,6,0,P|224:304|164:304,1,130,0|8,1:2|0:0,0:0:0:0:
72,320,58093,1,2,0:0:0:0:
84,140,58665,1,0,1:2:0:0:
160,92,58951,1,8,0:0:0:0:
304,232,59522,6,2,L|320:152,1,71.5000021820069,4|2,1:2|0:0,1:0:0:0:
404,128,60093,1,8,0:0:0:0:
364,44,60379,2,0,P|296:32|224:52,1,143.000004364014,2|0,0:0|1:2,0:0:0:0:
140,84,61236,1,8,0:0:0:0:
72,148,61522,6,0,L|96:308,1,143.000004364014,2|2,0:0|0:0,0:0:0:0:
176,332,62379,1,8,0:0:0:0:
256,284,62665,1,2,0:0:0:0:
296,104,63236,1,0,1:2:0:0:
380,64,63522,1,8,0:0:0:0:
452,236,64093,6,0,L|384:264,1,71.5000021820069,4|2,1:2|0:0,0:0:0:0:
320,328,64665,1,8,0:0:0:0:
236,288,64951,2,0,P|256:220|244:148,1,143.000004364014,2|0,0:0|1:2,0:0:0:0:
164,100,65808,1,8,0:0:0:0:
80,136,66093,6,0,L|72:208,1,71.5000021820069,2|0,0:0|1:2,0:0:0:0:
72,300,66665,2,0,L|144:312,1,71.5000021820069,2|8,0:0|0:0,0:0:0:0:
236,324,67236,1,2,0:0:0:0:
396,232,67808,1,0,1:2:0:0:
424,144,68093,1,8,0:0:0:0:
260,56,68665,6,2,L|272:128,1,71.5000021820069,4|2,1:2|0:0,1:0:0:0:
292,216,69236,1,8,0:0:0:0:
248,300,69522,2,0,L|104:292,1,143.000004364014,2|0,0:0|1:2,0:0:0:0:
44,220,70379,1,8,0:0:0:0:
104,148,70665,6,0,L|112:72,1,71.5000021820069,2|0,0:0|1:2,0:0:0:0:
204,56,71236,1,2,0:0:0:0:
256,132,71522,1,8,0:0:0:0:
316,204,71808,2,0,P|376:160|404:88,1,143.000004364014,2|0,0:0|1:2,0:0:0:0:
480,44,72665,1,8,0:0:0:0:
440,224,73236,6,0,L|472:300,1,71.5000021820069,4|2,1:2|0:0,0:0:0:0:
388,340,73808,1,8,0:0:0:0:
296,320,74093,2,0,P|220:328|160:304,1,143.000004364014,2|0,0:0|1:2,0:0:0:0:
104,228,74951,1,8,0:0:0:0:
100,136,75236,6,0,L|180:140,1,71.5000021820069,2|0,0:0|1:2,0:0:0:0:
260,108,75808,2,0,L|284:176,1,71.5000021820069,2|8,0:0|0:0,0:0:0:0:
312,264,76379,1,2,0:0:0:0:
428,120,76951,1,0,1:2:0:0:
484,48,77236,1,8,0:0:0:0:
300,40,77808,6,0,L|216:36,1,71.5000021820069,4|2,1:2|0:0,0:0:0:0:
192,120,78379,2,0,P|176:186|120:246,1,143.000004364014,8|2,0:0|0:0,0:0:0:0:
40,272,79236,1,0,1:2:0:0:
32,180,79522,2,0,L|28:104,1,71.5000021820069,8|2,0:0|1:2,0:0:0:0:
24,16,80093,5,4,1:2:0:0:
476,76,81522,1,2,0:0:0:0:
448,164,81808,1,8,0:0:0:0:
276,236,82380,6,0,L|260:304,1,65,4|2,1:2|0:0,0:0:0:0:
184,344,82951,1,8,0:0:0:0:
116,280,83237,2,0,P|60:268|16:212,1,130,2|0,0:0|1:2,0:0:0:0:
40,124,84094,1,8,0:0:0:0:
76,40,84380,5,2,0:0:0:0:
224,144,84951,1,2,0:0:0:0:
192,228,85237,1,8,0:0:0:0:
256,296,85522,2,0,L|380:336,1,130,2|0,0:0|1:2,0:0:0:0:
460,292,86380,1,8,0:0:0:0:
360,140,86951,6,0,L|376:76,1,65,4|2,1:2|0:0,0:0:0:0:
300,28,87522,1,8,0:0:0:0:
244,100,87808,1,2,0:0:0:0:
328,260,88380,1,0,1:2:0:0:
256,316,88665,1,8,0:0:0:0:
168,292,88951,6,0,L|36:320,1,130,2|2,0:0|0:0,0:0:0:0:
24,228,89808,1,8,0:0:0:0:
8,140,90094,1,2,0:0:0:0:
172,60,90665,1,0,1:2:0:0:
240,124,90951,2,0,L|328:136,1,65,8|2,0:0|0:0,0:0:0:0:
396,136,91522,6,0,L|388:204,1,65,4|2,1:2|0:0,0:0:0:0:
328,272,92094,1,8,0:0:0:0:
248,316,92380,2,0,P|200:284|164:220,1,130,2|0,0:0|1:2,0:0:0:0:
132,136,93237,1,8,0:0:0:0:
164,52,93522,5,2,0:0:0:0:
8,148,94094,1,2,0:0:0:0:
36,236,94380,1,8,0:0:0:0:
88,312,94665,2,0,P|140:316|216:292,1,130,2|0,0:0|1:2,0:0:0:0:
296,252,95522,1,8,0:0:0:0:
408,108,96094,6,0,L|348:132,1,65,4|2,1:2|0:0,0:0:0:0:
280,72,96665,1,8,0:0:0:0:
192,96,96951,2,0,L|208:232,1,130,2|0,0:0|1:2,0:0:0:0:
220,316,97808,1,8,0:0:0:0:
304,284,98094,6,0,P|360:304|432:312,1,130,2|2,0:0|0:0,0:0:0:0:
484,236,98951,1,8,0:0:0:0:
444,156,99237,1,2,0:0:0:0:
264,160,99808,1,0,1:2:0:0:
248,72,100094,2,0,L|180:60,1,65,8|2,0:0|0:0,0:0:0:0:
96,80,100665,6,0,L|88:144,1,65,4|2,1:2|0:0,0:0:0:0:
56,228,101236,2,0,P|120:236|180:280,1,130,8|2,0:0|0:0,0:0:0:0:
240,336,102093,1,2,1:2:0:0:
320,292,102379,1,8,0:0:0:0:
480,204,102951,6,0,P|496:140|480:72,1,130,0|8,1:2|0:0,0:0:0:0:
396,52,103808,1,2,0:0:0:0:
216,36,104379,1,0,1:2:0:0:
252,120,104665,2,0,L|244:188,1,65,8|2,0:0|0:0,0:0:0:0:
172,240,105236,6,0,P|108:232|44:256,1,130,4|8,1:2|0:0,0:0:0:0:
68,344,106093,1,2,0:0:0:0:
248,308,106665,1,2,1:2:0:0:
300,232,106951,2,0,L|264:104,1,130,8|0,0:0|1:2,0:0:0:0:
96,40,108093,5,8,0:0:0:0:
48,116,108379,2,0,L|68:180,1,65,2|2,0:0|0:0,0:0:0:0:
100,264,108951,1,0,1:2:0:0:
184,232,109236,1,8,0:0:0:0:
332,96,109808,6,2,L|360:180,1,71.5000021820069,4|2,1:2|0:0,1:0:0:0:
384,252,110379,1,8,0:0:0:0:
340,332,110665,2,0,P|275:344|200:332,1,143.000004364014,2|0,0:0|1:2,0:0:0:0:
112,304,111522,1,8,0:0:0:0:
80,216,111808,6,0,L|116:64,1,143.000004364014,2|2,0:0|0:0,0:0:0:0:
200,40,112665,1,8,0:0:0:0:
292,56,112951,1,2,0:0:0:0:
384,216,113522,1,0,1:2:0:0:
344,300,113808,1,8,0:0:0:0:
160,284,114379,6,0,L|228:256,1,71.5000021820069,4|2,1:2|0:0,0:0:0:0:
268,172,114951,1,8,0:0:0:0:
176,156,115237,2,0,P|166:91|192:12,1,143.000004364014,2|0,0:0|1:2,0:0:0:0:
280,32,116094,1,8,0:0:0:0:
364,76,116379,6,0,L|440:88,1,71.5000021820069,2|0,0:0|1:2,0:0:0:0:
472,172,116951,2,0,L|460:248,1,71.5000021820069,2|8,0:0|0:0,0:0:0:0:
388,300,117522,1,2,0:0:0:0:
244,184,118094,1,0,1:2:0:0:
192,260,118379,1,8,0:0:0:0:
172,76,118951,6,2,L|100:96,1,71.5000021820069,4|2,1:2|0:0,1:0:0:0:
12,116,119522,1,8,0:0:0:0:
8,208,119808,2,0,L|116:312,1,143.000004364014,2|0,0:0|1:2,0:0:0:0:
188,360,120665,1,8,0:0:0:0:
272,320,120951,6,0,L|279:248,1,71.5000021820069,2|0,0:0|1:2,0:0:0:0:
344,180,121522,1,2,0:0:0:0:
284,108,121808,1,8,0:0:0:0:
204,160,122094,2,0,P|144:168|68:132,1,143.000004364014,2|0,0:0|1:2,0:0:0:0:
68,40,122951,1,8,0:0:0:0:
252,12,123522,6,0,L|328:24,1,71.5000021820069,4|2,1:2|0:0,0:0:0:0:
412,44,124094,1,8,0:0:0:0:
352,116,124379,2,0,P|319:178|328:247,1,143.000004364014,2|0,0:0|1:2,0:0:0:0:
400,308,125237,1,8,0:0:0:0:
316,344,125522,6,0,L|232:356,1,71.5000021820069,2|0,0:0|1:2,0:0:0:0:
192,280,126094,2,0,L|136:236,1,71.5000021820069,2|8,0:0|0:0,0:0:0:0:
60,184,126665,1,2,0:0:0:0:
200,64,127237,1,0,1:2:0:0:
276,116,127522,1,8,0:0:0:0:
460,112,128093,6,0,L|440:188,1,71.5000021820069,4|2,1:2|0:0,0:0:0:0:
356,216,128665,2,0,P|363:286|339:353,1,143.000004364014,8|2,0:0|0:0,0:0:0:0:
252,324,129522,1,0,1:2:0:0:
164,296,129808,1,8,0:0:0:0:
120,136,130379,5,4,1:2:0:0:
488,180,134951,6,0,L|456:68,1,116.999996429443,4|8,1:2|0:0,0:0:0:0:
296,36,136093,2,0,L|288:100,1,58.4999982147217,2|0,0:0|1:2,0:0:0:0:
280,176,136665,1,8,0:0:0:0:
136,100,137236,6,0,P|96:140|76:196,1,116.999996429443,0|8,1:2|0:0,0:0:0:0:
52,276,138093,1,2,0:0:0:0:
104,340,138379,2,0,L|224:304,1,116.999996429443,2|8,0:0|0:0,0:0:0:0:
272,132,139522,6,0,L|256:68,1,65,4|2,1:2|0:0,0:0:0:0:
336,24,140093,2,0,P|396:32|456:72,1,130,8|2,0:0|0:0,0:0:0:0:
464,160,140951,1,0,1:2:0:0:
476,248,141236,1,8,0:0:0:0:
308,312,141808,6,0,L|324:232,1,65,4|2,1:2|0:0,0:0:0:0:
276,168,142379,2,0,L|200:160,1,65,8|2,0:0|0:0,0:0:0:0:
120,152,142951,1,2,0:0:0:0:
264,40,143522,1,8,0:0:0:0:
368,188,144093,6,0,L|364:256,1,65,4|2,1:2|0:0,0:0:0:0:
456,264,144665,2,0,L|464:128,1,130,8|2,0:0|0:0,0:0:0:0:
424,52,145522,1,0,1:2:0:0:
336,32,145808,1,8,0:0:0:0:
240,188,146379,6,0,L|100:200,1,130,4|8,1:2|0:0,0:0:0:0:
56,128,147236,1,2,0:0:0:0:
108,56,147522,1,2,0:0:0:0:
480,76,148665,6,2,L|468:156,1,71.5000021820069,4|2,1:2|0:0,1:0:0:0:
396,204,149236,2,0,P|324:216|276:280,1,143.000004364014,8|2,0:0|0:0,0:0:0:0:
264,360,150093,1,0,1:2:0:0:
188,304,150379,2,0,L|112:292,1,71.5000021820069,8|2,0:0|0:0,0:0:0:0:
52,224,150951,5,4,1:2:0:0:
128,56,151522,2,0,L|212:84,1,71.5000021820069,8|2,0:0|0:0,0:0:0:0:
284,108,152093,1,2,0:0:0:0:
368,64,152379,1,0,1:2:0:0:
416,144,152665,1,8,0:0:0:0:
328,308,153236,6,2,L|288:240,1,71.5000021820069,4|2,1:2|0:0,1:0:0:0:
220,184,153808,2,0,P|260:132|268:56,1,143.000004364014,8|2,0:0|0:0,0:0:0:0:
360,32,154665,1,0,1:2:0:0:
444,72,154951,2,0,L|436:144,1,71.5000021820069,8|2,0:0|0:0,0:0:0:0:
440,236,155522,6,0,L|296:200,1,143.000004364014,4|8,1:2|0:0,0:0:0:0:
208,188,156379,1,2,0:0:0:0:
156,264,156665,2,0,L|84:252,1,71.5000021820069,2|0,0:0|1:2,0:0:0:0:
16,192,157236,1,8,0:0:0:0:
116,36,157808,6,2,L|152:104,1,71.5000021820069,4|2,1:2|0:0,1:0:0:0:
240,116,158379,2,0,L|300:72,1,71.5000021820069,8|2,0:0|0:0,0:0:0:0:
384,44,158951,1,2,0:0:0:0:
452,108,159236,1,0,1:2:0:0:
424,196,159522,1,8,0:0:0:0:
284,316,160093,6,0,L|252:248,1,71.5000021820069,4|2,1:2|0:0,0:0:0:0:
188,184,160665,2,0,P|132:224|60:224,1,143.000004364014,8|2,0:0|0:0,0:0:0:0:
32,136,161522,1,0,1:2:0:0:
64,48,161808,1,8,0:0:0:0:
244,88,162379,5,4,1:2:0:0:
428,108,162951,2,0,L|500:120,1,71.5000021820069,8|2,0:0|0:0,0:0:0:0:
488,212,163522,1,2,0:0:0:0:
424,280,163808,1,0,1:2:0:0:
356,344,164093,1,8,0:0:0:0:
176,304,164665,6,0,L|100:288,1,71.5000021820069,4|2,1:2|0:0,0:0:0:0:
52,216,165236,2,0,P|44:144|72:80,1,143.000004364014,8|2,0:0|0:0,0:0:0:0:
152,36,166093,1,0,1:2:0:0:
192,120,166379,2,0,L|220:192,1,71.5000021820069,8|8,0:0|3:0,0:0:0:0:
260,268,166951,6,2,L|404:244,1,143.000004364014,4|8,1:2|0:0,1:0:0:0:
472,184,167808,2,0,P|492:116|480:40,1,143.000004364014,2|2,0:0|1:2,0:0:0:0:
392,28,168665,1,8,0:0:0:0:
348,108,168951,1,2,0:0:0:0:
308,192,169236,1,4,1:2:0:0:
200,40,169808,6,0,L|124:32,1,71.5000021820069,8|2,0:0|0:0,0:0:0:0:
56,88,170379,2,0,L|48:164,1,71.5000021820069,2|0,0:0|1:2,0:0:0:0:
36,252,170951,1,8,0:0:0:0:
216,212,171522,5,4,1:2:0:0:
276,280,171808,1,2,0:0:0:0:
344,216,172093,1,8,0:0:0:0:
388,300,172379,2,0,P|456:320|520:288,1,143.000004364014,2|0,0:0|1:2,0:0:0:0:
500,200,173236,1,10,0:0:0:0:
484,108,173522,6,0,L|412:120,1,71.5000021820069,2|4,0:0|1:2,0:0:0:0:
340,64,174093,2,0,L|268:76,1,71.5000021820069,2|8,0:0|0:0,0:0:0:0:
180,48,174665,1,2,0:0:0:0:
76,204,175236,1,0,1:2:0:0:
108,292,175522,2,0,L|180:296,1,71.5000021820069,8|0,0:0|0:0,0:0:0:0:
272,276,176093,6,2,P|292:212|284:132,1,143.000004364014,4|8,1:2|0:0,1:0:0:0:
344,64,176951,2,0,L|424:72,1,71.5000021820069,2|0,0:0|0:0,0:0:0:0:
484,132,177522,1,2,1:2:0:0:
420,200,177808,2,0,L|412:272,1,71.5000021820069,8|2,0:0|0:0,0:0:0:0:
348,340,178379,1,4,1:2:0:0:
292,164,178951,5,8,0:0:0:0:
264,76,179236,2,0,L|188:80,1,71.5000021820069,2|0,0:0|0:0,0:0:0:0:
100,88,179808,1,0,1:2:0:0:
40,160,180093,1,10,0:0:0:0:
164,300,180665,6,0,L|152:224,1,71.5000021820069,4|2,1:2|0:0,0:0:0:0:
232,180,181236,1,8,0:0:0:0:
296,248,181522,2,0,P|353:282|432:280,1,143.000004364014,2|0,0:0|1:2,0:0:0:0:
488,208,182379,1,10,0:0:0:0:
428,140,182665,6,0,L|448:56,1,71.5000021820069,2|4,0:0|1:2,0:0:0:0:
356,48,183236,2,0,L|336:132,1,71.5000021820069,2|8,0:0|0:0,0:0:0:0:
280,192,183808,1,2,0:0:0:0:
136,76,184379,1,2,1:2:0:0:
56,124,184665,2,0,L|96:192,1,71.5000021820069,8|0,0:0|0:0,0:0:0:0:
176,228,185236,6,0,L|148:296,1,71.5000021820069,4|2,1:2|0:0,0:0:0:0:
232,336,185808,2,0,L|368:292,1,143.000004364014,8|2,0:0|0:0,0:0:0:0:
456,268,186665,1,2,1:2:0:0:
472,176,186951,1,8,0:0:0:0:
364,48,187522,5,4,1:2:0:0:
256,192,187808,12,0,195522,0:0:0:0:
