osu file format v14

[General]
AudioFilename: audio.mp3
AudioLeadIn: 0
PreviewTime: 58665
Countdown: 0
SampleSet: Soft
StackLeniency: 0.7
Mode: 0
LetterboxInBreaks: 0
WidescreenStoryboard: 1

[Editor]
DistanceSpacing: 1.8
BeatDivisor: 4
GridSize: 4
TimelineZoom: 1

[Metadata]
Title:Lost
TitleUnicode:Lost
Artist:Linkin Park
ArtistUnicode:Linkin Park
Creator:Andrea
Version:Mrgglock's Insane
Source:
Tags:osuplayer111 Mrgglock English Rock Nu Metal Meteora 20 Year Anniversary Chester Bennington Mike Shinoda Joe Hahn Rob Bourdon Phoenix Dave Farrell Brad Delson Male Vocals Full Version Alternative Rap LP
BeatmapID:4011549
BeatmapSetID:1940177

[Difficulty]
HPDrainRate:5
CircleSize:4
OverallDifficulty:7
ApproachRate:8
SliderMultiplier:1.8
SliderTickRate:1

[Events]
//Background and Video events
0,0,"BG.jpg",0,0
Video,0,"Video.mp4"
//Break Periods
//Storyboard Layer 0 (Background)
//Storyboard Layer 1 (Fail)
//Storyboard Layer 2 (Pass)
//Storyboard Layer 3 (Foreground)
//Storyboard Layer 4 (Overlay)
//Storyboard Sound Samples

[TimingPoints]
94,571.428571428571,4,2,2,60,1,0
94,-111.111111111111,4,2,2,60,0,0
8093,-111.111111111111,4,2,2,50,0,0
9236,-100,4,2,1,70,0,0
20665,-125,4,2,2,70,0,0
22093,-125,4,2,2,50,0,0
22951,-111.111111111111,4,2,2,50,0,0
41236,-100,4,2,2,60,0,0
58951,-166.666666666667,4,2,1,70,0,0
59379,-100,4,2,1,5,0,0
59522,-90.9090909090908,4,2,1,80,0,1
63951,-90.9090909090908,4,2,1,5,0,1
64093,-90.9090909090908,4,2,1,80,0,1
68522,-90.9090909090908,4,2,1,5,0,1
68665,-90.9090909090908,4,2,1,80,0,1
73093,-90.9090909090908,4,2,1,5,0,1
73236,-90.9090909090908,4,2,1,80,0,1
77665,-90.9090909090908,4,2,1,5,0,1
77808,-90.9090909090908,4,2,1,80,0,1
80093,-166.666666666667,4,2,1,70,0,0
80379,-166.666666666667,4,2,1,5,0,0
81236,-166.666666666667,4,2,2,5,0,0
81808,-100,4,2,2,60,0,0
109236,-166.666666666667,4,2,1,70,0,0
109665,-100,4,2,1,5,0,0
109808,-90.9090909090909,4,2,1,80,0,1
114236,-90.9090909090909,4,2,1,5,0,1
114379,-90.9090909090909,4,2,1,80,0,1
118808,-90.9090909090909,4,2,1,5,0,1
118951,-90.9090909090909,4,2,1,80,0,1
123379,-90.9090909090909,4,2,1,5,0,1
123522,-90.9090909090909,4,2,1,80,0,1
127951,-90.9090909090909,4,2,1,5,0,1
128093,-90.9090909090909,4,2,1,80,0,1
130379,-125,4,2,2,70,0,0
130665,-125,4,2,2,50,0,0
134808,-125,4,2,2,5,0,0
134951,-111.111111111111,4,2,3,55,0,0
137093,-111.111111111111,4,2,3,5,0,0
137236,-111.111111111111,4,2,3,55,0,0
139379,-111.111111111111,4,2,3,5,0,0
139522,-100,4,2,1,60,0,0
147522,-125,4,2,1,50,0,0
148093,-166.666666666667,4,2,1,50,0,0
148522,-125,4,2,1,5,0,0
148665,-83.3333333333333,4,2,1,80,0,1
153093,-83.3333333333333,4,2,1,5,0,1
153236,-83.3333333333333,4,2,1,80,0,1
157665,-83.3333333333333,4,2,1,5,0,1
157808,-83.3333333333333,4,2,1,80,0,1
162236,-83.3333333333333,4,2,1,5,0,1
162379,-83.3333333333333,4,2,1,80,0,1
187522,-125,4,2,1,70,0,0
188665,-125,4,2,1,60,0,0
189808,-125,4,2,1,50,0,0
190951,-125,4,2,1,40,0,0
192093,-125,4,2,1,30,0,0
193236,-125,4,2,1,20,0,0
194379,-125,4,2,1,10,0,0
195522,-125,4,2,1,5,0,0

[Colours]
Combo1 : 255,255,128
Combo2 : 128,191,255
Combo3 : 213,170,170

[HitObjects]
421,265,94,6,0,P|381:280|323:260,1,80.9999975280763,4|2,1:2|0:0,0:0:0:0:
286,221,522,1,0,1:2:0:0:
286,221,665,1,8,0:0:0:0:
177,318,951,2,0,P|173:281|154:215,1,80.9999975280763,2|2,0:0|0:0,0:0:0:0:
27,183,1522,2,0,P|31:146|50:80,1,80.9999975280763,0|8,1:2|0:0,0:0:0:0:
147,3,2093,1,2,0:0:0:0:
246,152,2379,6,0,P|300:165|363:122,1,121.499996292114,0|0,1:2|1:2,0:0:0:0:
291,86,2951,1,8,0:0:0:0:
467,44,3236,2,0,P|438:137|429:202,1,161.999995056153,2|0,0:0|1:2,0:0:0:0:
440,273,3951,1,0,1:2:0:0:
401,312,4093,1,8,0:0:0:0:
348,298,4236,2,0,P|300:302|266:311,1,80.9999975280763,0|0,1:2|0:0,0:0:0:0:
191,384,4665,6,0,P|184:345|127:301,1,80.9999975280763,4|2,1:2|0:0,0:0:0:0:
92,282,5093,1,0,1:2:0:0:
92,282,5236,1,8,0:0:0:0:
4,164,5522,2,0,P|43:174|103:179,1,80.9999975280763,2|2,0:0|0:0,0:0:0:0:
196,86,6093,2,0,P|240:115|245:166,1,80.9999975280763,0|8,1:2|0:0,0:0:0:0:
223,283,6664,1,2,0:0:0:0:
385,219,6951,6,0,B|377:173|377:173|395:150|395:150|383:85,1,121.499996292114,0|0,1:2|1:2,0:0:0:0:
368,34,7522,1,8,0:0:0:0:
477,130,7808,1,2,0:0:0:0:
460,42,8093,1,2,0:0:0:0:
460,42,9236,6,0,P|423:14|352:30,1,90,4|2,1:2|0:0,0:0:0:0:
263,84,9665,1,0,1:2:0:0:
326,136,9808,1,8,0:0:0:0:
187,219,10093,2,0,P|180:168|160:111,1,90,2|2,0:0|0:0,0:0:0:0:
120,286,10665,2,0,P|177:313|217:300,1,90,0|8,1:2|0:0,0:0:0:0:
97,183,11236,1,2,0:0:0:0:
1,374,11522,6,0,P|16:320|30:230,1,135,0|0,1:2|1:2,0:0:0:0:
0,118,12093,1,8,0:0:0:0:
129,48,12379,2,0,P|180:55|207:107,1,90,2|2,0:0|0:0,0:0:0:0:
289,221,12951,2,0,P|340:213|367:162,1,90,0|8,1:2|0:0,0:0:0:0:
395,41,13379,1,0,1:2:0:0:
346,105,13522,1,0,0:0:0:0:
510,179,13808,6,0,P|495:226|492:270,1,90,4|2,1:2|0:0,0:0:0:0:
377,322,14237,1,0,1:2:0:0:
456,343,14380,1,8,0:0:0:0:
209,375,14665,2,0,P|206:335|189:270,1,90,2|2,0:0|0:0,0:0:0:0:
32,278,15237,2,0,P|56:317|118:320,1,90,0|8,1:2|0:0,0:0:0:0:
198,200,15808,1,2,0:0:0:0:
0,147,16093,6,0,P|48:142|140:109,1,135,0|0,1:2|1:2,0:0:0:0:
226,12,16665,1,8,0:0:0:0:
334,132,16951,1,2,0:0:0:0:
204,229,17236,2,0,P|217:279|223:322,1,90,2|0,0:0|1:2,0:0:0:0:
373,377,17808,1,8,0:0:0:0:
433,322,17951,1,0,1:2:0:0:
510,344,18094,1,2,0:0:0:0:
370,261,18379,6,0,P|382:219|389:161,1,90,4|2,1:2|0:0,0:0:0:0:
307,77,18808,1,0,1:2:0:0:
265,150,18951,2,0,P|215:156|176:135,1,90,8|2,0:0|0:0,0:0:0:0:
61,29,19522,1,2,0:0:0:0:
19,183,19808,5,0,1:2:0:0:
88,221,19951,1,0,1:2:0:0:
145,168,20094,1,8,0:0:0:0:
111,96,20237,1,0,1:2:0:0:
33,106,20380,1,2,1:2:0:0:
162,245,20665,5,4,1:2:0:0:
162,245,22951,6,0,B|209:250|209:250|231:269|231:269|284:275,1,121.499996292114,4|0,1:2|1:2,0:0:0:0:
339,236,23523,2,0,P|327:201|322:153,1,80.9999975280763,8|2,0:0|0:0,0:0:0:0:
411,42,24093,2,0,P|452:57|469:97,1,80.9999975280763,2|0,0:0|1:2,0:0:0:0:
424,204,24665,1,8,0:0:0:0:
508,351,24951,6,0,B|445:337|445:337|412:359|412:359|346:343,1,161.999995056153,2|2,0:0|0:0,0:0:0:0:
290,325,25665,1,0,1:2:0:0:
290,325,25808,1,8,0:0:0:0:
155,380,26094,2,0,P|149:342|135:298,1,80.9999975280763,2|2,0:0|0:0,0:0:0:0:
154,156,26665,1,0,1:2:0:0:
15,228,26951,2,0,P|61:236|104:211,1,80.9999975280763,8|2,0:0|0:0,0:0:0:0:
120,45,27523,6,0,B|163:24|163:24|254:53,1,121.499996292114,4|0,1:2|1:2,0:0:0:0:
297,80,28094,1,8,0:0:0:0:
422,5,28380,2,0,P|428:56|443:91,1,80.9999975280763,2|2,0:0|0:0,0:0:0:0:
510,210,28951,1,0,1:2:0:0:
382,159,29237,2,0,P|333:168|306:194,1,80.9999975280763,8|2,0:0|0:0,0:0:0:0:
200,314,29808,6,0,P|195:267|176:212,1,80.9999975280763,0|2,1:2|0:0,0:0:0:0:
156,172,30237,1,0,1:2:0:0:
156,172,30380,1,8,0:0:0:0:
53,298,30665,2,0,B|24:288|5:264|5:264|30:384,1,161.999995056153,2|0,0:0|1:2,0:0:0:0:
167,328,31523,1,8,0:0:0:0:
167,328,31665,2,0,P|207:340|246:343,1,80.9999975280763,0|0,1:2|0:0,0:0:0:0:
348,384,32094,6,0,B|326:345|326:345|354:259,1,121.499996292114,4|0,1:2|1:2,0:0:0:0:
377,204,32666,2,0,P|426:221|470:198,1,80.9999975280763,8|2,0:0|0:0,0:0:0:0:
467,93,33236,2,0,P|418:76|374:99,1,80.9999975280763,2|0,0:0|1:2,0:0:0:0:
296,178,33808,1,8,0:0:0:0:
232,26,34093,6,0,B|195:12|169:39|169:39|120:57|80:25,1,161.999995056153,2|2,0:0|0:0,0:0:0:0:
18,60,34808,1,0,1:2:0:0:
18,60,34951,1,8,0:0:0:0:
1,205,35237,2,0,P|49:208|92:223,1,80.9999975280763,2|2,0:0|0:0,0:0:0:0:
193,125,35808,1,0,1:2:0:0:
250,288,36094,2,0,P|212:276|188:224,1,80.9999975280763,8|2,0:0|0:0,0:0:0:0:
351,217,36666,6,0,P|334:288|330:340,1,121.499996292114,4|0,1:2|1:2,0:0:0:0:
386,382,37237,1,8,0:0:0:0:
495,285,37523,2,0,P|484:250|477:201,1,80.9999975280763,2|2,0:0|0:0,0:0:0:0:
506,63,38094,1,0,1:2:0:0:
370,117,38380,2,0,P|327:126|289:109,1,80.9999975280763,8|2,0:0|0:0,0:0:0:0:
171,0,38951,6,0,P|182:40|187:80,1,80.9999975280763,0|2,1:2|0:0,0:0:0:0:
165,151,39380,1,0,1:2:0:0:
165,151,39523,1,8,0:0:0:0:
26,195,39808,2,0,P|97:213|129:291,1,161.999995056153,2|0,0:0|1:2,0:0:0:0:
246,377,40666,1,8,0:0:0:0:
246,377,40808,2,0,P|252:328|273:280,1,80.9999975280763,0|2,1:2|0:0,0:0:0:0:
381,250,41236,6,0,B|373:200|373:200|396:175|396:175|388:105,1,135,4|0,1:2|1:2,0:0:0:0:
456,36,41808,2,0,P|410:44|366:28,1,90,8|2,0:0|0:0,0:0:0:0:
289,171,42379,2,0,P|246:157|202:165,1,90,2|2,0:0|1:2,0:0:0:0:
86,52,42950,1,8,0:0:0:0:
23,194,43236,6,0,B|-20:291|61:271|18:365,1,180,2|2,0:0|0:0,0:0:0:0:
102,353,43950,1,0,1:2:0:0:
150,376,44093,1,8,0:0:0:0:
280,280,44379,2,0,P|268:240|260:184,1,90,2|2,0:0|0:0,0:0:0:0:
321,42,44950,1,2,1:2:0:0:
435,157,45236,2,0,P|386:164|346:140,1,90,8|2,0:0|0:0,0:0:0:0:
178,11,45808,6,0,P|238:65|238:134,1,135,4|0,1:2|0:0,0:0:0:0:
189,176,46379,1,8,0:0:0:0:
69,77,46665,2,0,P|114:91|164:94,1,90,2|2,0:0|0:0,0:0:0:0:
260,218,47236,1,2,1:2:0:0:
108,274,47522,2,0,P|69:244|60:184,1,90,8|2,0:0|0:0,0:0:0:0:
195,60,48093,6,0,P|240:45|290:43,1,90,0|2,1:2|0:0,0:0:0:0:
346,93,48522,1,0,1:2:0:0:
398,75,48665,1,8,0:0:0:0:
508,192,48950,2,0,B|413:167|453:255|342:227,1,180,2|2,0:0|1:2,0:0:0:0:
191,167,49808,1,8,0:0:0:0:
220,325,50093,1,2,0:0:0:0:
172,351,50236,1,2,0:0:0:0:
119,340,50379,6,0,B|92:300|92:300|122:214,1,135,4|0,1:2|1:2,0:0:0:0:
71,152,50951,2,0,P|63:112|45:60,1,90,8|2,0:0|0:0,0:0:0:0:
195,0,51522,2,0,P|217:40|274:64,1,90,2|2,0:0|1:2,0:0:0:0:
408,10,52093,1,8,0:0:0:0:
360,165,52379,1,2,0:0:0:0:
508,61,52665,6,0,P|494:111|488:151,1,90,0|2,1:2|0:0,0:0:0:0:
512,227,53093,1,0,1:2:0:0:
495,279,53236,1,8,0:0:0:0:
365,376,53522,2,0,P|320:362|261:356,1,90,2|2,0:0|0:0,0:0:0:0:
188,221,54093,5,2,1:2:0:0:
87,348,54379,2,0,P|149:348|183:307,1,90,8|2,0:0|0:0,0:0:0:0:
263,177,54951,2,0,B|312:168|312:168|344:190|344:190|411:178,1,135,4|0,1:2|0:0,0:0:0:0:
468,163,55522,1,8,0:0:0:0:
338,65,55808,2,0,P|293:62|249:48,1,90,2|2,0:0|0:0,0:0:0:0:
91,82,56379,1,2,1:2:0:0:
162,227,56665,2,0,P|187:185|171:127,1,90,8|2,0:0|0:0,0:0:0:0:
14,272,57236,6,0,P|64:276|112:296,1,90,0|2,1:2|0:0,0:0:0:0:
158,348,57665,1,0,1:2:0:0:
212,339,57808,1,8,0:0:0:0:
290,197,58093,2,0,B|387:175|369:260|477:234,1,180,2|0,0:0|1:2,0:0:0:0:
448,140,58951,5,8,0:0:0:0:
448,140,59093,2,2,P|438:117|433:77,1,53.9999983520508,0|2,1:0|1:0,1:0:0:0:
373,21,59522,5,4,1:2:0:0:
251,151,59807,1,2,0:0:0:0:
170,189,59950,1,0,1:2:0:0:
92,145,60093,2,2,P|12:206|34:310,1,198.000006042481,8|2,0:0|0:0,1:0:0:0:
180,375,60950,1,0,1:2:0:0:
104,241,61236,1,8,0:0:0:0:
26,382,61522,1,2,0:0:0:0:
226,260,61807,6,0,P|277:274|328:280,1,99.0000030212403,0|2,1:2|0:0,0:0:0:0:
458,243,62236,1,0,1:2:0:0:
506,312,62379,1,8,0:0:0:0:
377,212,62665,2,0,P|371:165|351:102,1,99.0000030212403,2|2,0:0|0:0,0:0:0:0:
219,1,63236,1,0,1:2:0:0:
107,132,63522,1,8,0:0:0:0:
174,176,63665,2,0,P|234:187|267:168,1,99.0000030212403,0|0,1:2|0:0,0:0:0:0:
303,42,64093,5,4,1:2:0:0:
130,0,64379,1,2,0:0:0:0:
68,65,64522,1,0,1:2:0:0:
93,150,64665,1,8,0:0:0:0:
2,311,64950,2,0,P|110:319|215:349,1,198.000006042481,2|0,0:0|1:2,0:0:0:0:
301,197,65807,1,8,0:0:0:0:
373,360,66093,1,2,0:0:0:0:
184,232,66379,6,0,P|176:183|155:121,1,99.0000030212403,0|2,1:2|0:0,0:0:0:0:
252,16,66807,1,0,1:2:0:0:
236,103,66950,1,8,0:0:0:0:
421,90,67236,2,0,P|381:71|322:77,1,99.0000030212403,2|2,0:0|0:0,0:0:0:0:
299,251,67807,1,0,1:2:0:0:
467,191,68093,1,8,0:0:0:0:
512,263,68236,2,0,P|496:317|492:359,1,99.0000030212403,0|0,1:2|0:0,0:0:0:0:
392,231,68665,5,4,1:2:0:0:
287,366,68950,1,2,0:0:0:0:
199,377,69093,1,0,1:2:0:0:
144,304,69236,2,2,P|169:217|188:97,1,198.000006042481,8|2,0:0|0:0,1:0:0:0:
30,25,70093,1,0,1:2:0:0:
87,193,70379,1,8,0:0:0:0:
197,32,70665,1,2,0:0:0:0:
264,222,70950,6,0,P|317:238|369:210,1,99.0000030212403,0|2,1:2|0:0,0:0:0:0:
356,73,71379,1,0,1:2:0:0:
312,150,71522,1,8,0:0:0:0:
447,48,71808,2,0,P|456:109|477:160,1,99.0000030212403,2|2,0:0|0:0,0:0:0:0:
505,318,72379,1,0,1:2:0:0:
334,266,72665,1,8,0:0:0:0:
286,341,72808,2,0,P|228:353|185:331,1,99.0000030212403,0|0,1:2|0:0,0:0:0:0:
124,226,73236,5,4,1:2:0:0:
8,362,73522,1,2,0:0:0:0:
49,283,73665,1,0,1:2:0:0:
37,194,73808,1,8,0:0:0:0:
192,340,74093,2,0,B|237:351|266:320|266:320|344:310|375:377,1,198.000006042481,2|0,0:0|1:2,0:0:0:0:
458,209,74950,1,8,0:0:0:0:
507,380,75236,1,2,0:0:0:0:
354,234,75522,6,0,P|370:189|380:129,1,99.0000030212403,0|2,1:2|0:0,0:0:0:0:
387,10,75950,1,0,1:2:0:0:
322,71,76093,1,8,0:0:0:0:
153,11,76379,2,0,P|168:69|171:111,1,99.0000030212403,2|2,0:0|0:0,0:0:0:0:
76,259,76950,1,0,1:2:0:0:
237,182,77236,1,8,0:0:0:0:
321,211,77379,2,0,P|362:256|356:317,1,99.0000030212403,0|0,1:2|0:0,0:0:0:0:
266,384,77807,5,4,1:2:0:0:
94,335,78093,1,2,0:0:0:0:
58,252,78236,1,0,1:2:0:0:
117,185,78379,2,0,P|134:138|141:87,1,99.0000030212403,8|2,0:0|0:0,0:0:0:0:
297,3,78950,1,2,0:0:0:0:
368,206,79236,5,0,1:2:0:0:
279,179,79379,1,0,1:2:0:0:
276,87,79522,1,8,0:0:0:0:
364,56,79665,1,0,1:2:0:0:
420,129,79808,1,2,1:2:0:0:
297,271,80093,6,0,B|217:261|217:261|167:301|167:301|76:289|76:289|125:287|152:249,1,323.999990112305,4|8,1:2|0:0,0:0:0:0:
195,136,82379,6,0,P|132:136|93:77,1,135,4|0,1:2|1:2,0:0:0:0:
123,5,82951,2,0,P|167:17|224:19,1,90,8|2,0:0|0:0,0:0:0:0:
277,167,83522,2,0,P|321:155|378:153,1,90,2|0,0:0|1:2,0:0:0:0:
438,7,84093,1,8,0:0:0:0:
489,200,84379,6,0,B|449:284|534:289|481:380,1,180,2|2,0:0|0:0,0:0:0:0:
414,325,85093,1,0,1:2:0:0:
414,325,85236,1,8,0:0:0:0:
261,379,85522,2,0,P|215:377|177:329,1,90,2|2,0:0|0:0,0:0:0:0:
124,197,86093,1,0,1:2:0:0:
24,325,86379,2,0,P|19:278|4:224,1,90,8|2,0:0|0:0,0:0:0:0:
50,49,86951,6,0,B|127:74|109:4|202:35,1,135,4|0,1:2|1:2,0:0:0:0:
237,84,87522,1,8,0:0:0:0:
320,223,87808,2,0,P|303:272|296:312,1,90,2|2,0:0|0:0,0:0:0:0:
446,371,88379,1,0,1:2:0:0:
508,221,88665,2,0,P|458:206|415:237,1,90,8|2,0:0|0:0,0:0:0:0:
275,336,89236,6,0,P|266:291|251:249,1,90,0|2,1:2|0:0,0:0:0:0:
202,190,89665,1,0,1:2:0:0:
202,190,89808,1,8,0:0:0:0:
65,276,90093,2,0,B|49:216|49:216|81:180|81:180|59:96,1,180,2|0,0:0|1:2,0:0:0:0:
187,7,90951,1,8,0:0:0:0:
187,7,91093,2,0,P|224:45|283:38,1,90,0|0,1:2|0:0,0:0:0:0:
366,4,91522,6,0,B|342:52|342:52|368:138,1,135,4|0,1:2|1:2,0:0:0:0:
432,176,92094,2,0,P|480:182|513:242,1,90,8|2,0:0|0:0,0:0:0:0:
448,362,92665,2,0,P|441:313|424:264,1,90,2|0,0:0|1:2,0:0:0:0:
308,165,93236,1,8,0:0:0:0:
273,355,93522,6,0,P|200:364|154:264,1,180,2|2,0:0|0:0,0:0:0:0:
183,210,94236,1,0,1:2:0:0:
183,210,94379,1,8,0:0:0:0:
32,150,94665,2,0,P|87:144|120:132,1,90,2|2,0:0|0:0,0:0:0:0:
224,8,95236,1,0,1:2:0:0:
287,157,95522,2,0,P|295:118|334:84,1,90,8|2,0:0|0:0,0:0:0:0:
511,175,96094,6,0,B|476:181|461:198|461:198|373:171,1,135,4|0,1:2|1:2,0:0:0:0:
326,243,96665,1,8,0:0:0:0:
428,368,96951,2,0,P|419:323|406:275,1,90,2|2,0:0|0:0,0:0:0:0:
276,174,97522,1,0,1:2:0:0:
216,324,97808,2,0,P|168:336|123:313,1,90,8|2,0:0|0:0,0:0:0:0:
10,214,98379,6,0,P|23:174|34:90,1,90,0|2,1:2|0:0,0:0:0:0:
26,49,98808,1,0,1:2:0:0:
26,49,98951,1,8,0:0:0:0:
150,153,99236,2,0,B|194:151|218:105|218:105|241:155|289:162,1,180,2|0,0:0|1:2,0:0:0:0:
364,15,100094,1,8,0:0:0:0:
364,15,100236,2,0,P|320:41|303:96,1,90,0|2,1:2|0:0,0:0:0:0:
362,207,100665,6,0,B|385:258|385:258|355:341,1,135,4|0,1:2|1:2,0:0:0:0:
289,375,101237,2,0,P|247:362|199:356,1,90,8|2,0:0|0:0,0:0:0:0:
45,312,101808,2,0,P|89:306|132:293,1,90,2|2,0:0|1:2,0:0:0:0:
241,172,102379,1,8,0:0:0:0:
151,300,102665,1,2,0:0:0:0:
113,121,102951,6,0,P|51:128|23:167,1,90,0|2,1:2|0:0,0:0:0:0:
21,226,103379,1,0,1:2:0:0:
37,278,103522,1,8,0:0:0:0:
164,377,103808,2,0,P|208:365|269:364,1,90,2|2,0:0|0:0,0:0:0:0:
397,291,104379,1,0,1:2:0:0:
264,197,104665,2,0,P|255:150|281:104,1,90,8|2,0:0|0:0,0:0:0:0:
396,8,105237,6,0,B|424:55|424:55|395:147,1,135,4|0,1:2|1:2,0:0:0:0:
372,207,105808,1,8,0:0:0:0:
485,322,106094,2,0,P|432:330|386:348,1,90,2|2,0:0|0:0,0:0:0:0:
277,233,106665,1,2,1:2:0:0:
179,362,106951,2,0,P|181:319|156:282,1,90,8|2,0:0|0:0,0:0:0:0:
13,203,107522,6,0,P|70:196|105:182,1,90,0|2,1:2|0:0,0:0:0:0:
164,133,107951,1,0,1:2:0:0:
145,83,108094,1,8,0:0:0:0:
317,49,108379,2,0,B|285:34|275:3|275:3|263:134,1,180,2|0,0:0|1:2,0:0:0:0:
308,211,109237,5,8,0:0:0:0:
308,211,109379,2,2,P|339:216|373:230,1,53.9999983520508,0|2,1:0|1:0,1:0:0:0:
442,292,109808,5,4,1:2:0:0:
281,367,110093,1,2,0:0:0:0:
202,324,110236,1,0,1:2:0:0:
121,361,110379,2,2,P|42:321|58:221,1,198.000006042481,8|2,0:0|0:0,1:0:0:0:
213,144,111236,1,0,1:2:0:0:
58,54,111522,1,8,0:0:0:0:
154,227,111808,1,2,0:0:0:0:
252,57,112093,6,0,P|299:42|364:77,1,99.0000030212403,0|2,1:2|0:0,0:0:0:0:
391,189,112522,1,0,1:2:0:0:
420,104,112665,1,8,0:0:0:0:
459,258,112951,2,0,P|411:284|360:279,1,99.0000030212403,2|2,0:0|0:0,0:0:0:0:
230,167,113522,1,0,1:2:0:0:
206,346,113808,1,8,0:0:0:0:
124,371,113951,2,0,P|117:321|100:270,1,99.0000030212403,0|0,1:2|0:0,0:0:0:0:
68,149,114379,5,4,1:2:0:0:
191,19,114665,1,2,0:0:0:0:
271,57,114808,1,0,1:2:0:0:
350,16,114951,1,8,0:0:0:0:
504,104,115236,2,0,P|474:207|468:305,1,198.000006042481,2|0,0:0|1:2,0:0:0:0:
321,194,116093,1,8,0:0:0:0:
285,368,116379,1,2,0:0:0:0:
153,247,116665,6,0,P|218:247|259:284,1,99.0000030212403,0|2,1:2|0:0,0:0:0:0:
123,332,117093,1,0,1:2:0:0:
63,265,117236,1,8,0:0:0:0:
2,97,117522,2,0,P|54:116|119:118,1,99.0000030212403,2|2,0:0|0:0,0:0:0:0:
238,10,118093,1,0,1:2:0:0:
273,184,118379,1,8,0:0:0:0:
346,235,118522,2,0,P|392:221|421:166,1,99.0000030212403,0|0,1:2|0:0,0:0:0:0:
400,44,118951,5,4,1:2:0:0:
232,102,119236,1,2,0:0:0:0:
149,136,119379,1,0,1:2:0:0:
80,78,119522,2,2,B|62:160|62:160|87:191|87:191|66:279,1,198.000006042481,8|2,0:0|0:0,1:0:0:0:
204,379,120379,1,0,1:2:0:0:
270,213,120665,1,8,0:0:0:0:
128,336,120951,1,2,0:0:0:0:
295,364,121236,6,0,P|353:360|398:312,1,99.0000030212403,0|2,1:2|0:0,0:0:0:0:
423,206,121665,1,0,1:2:0:0:
455,289,121808,1,8,0:0:0:0:
339,167,122094,2,0,P|335:124|314:56,1,99.0000030212403,2|2,0:0|0:0,0:0:0:0:
146,30,122665,1,0,1:2:0:0:
206,197,122951,1,8,0:0:0:0:
129,243,123094,2,0,P|72:242|34:190,1,99.0000030212403,0|0,1:2|0:0,0:0:0:0:
33,79,123522,5,4,1:2:0:0:
210,95,123808,1,2,0:0:0:0:
287,50,123951,1,0,1:2:0:0:
364,93,124094,1,8,0:0:0:0:
225,257,124379,2,0,B|326:290|312:200|421:236,1,198.000006042481,2|0,0:0|1:2,0:0:0:0:
260,165,125236,1,8,0:0:0:0:
380,320,125522,1,2,0:0:0:0:
453,133,125808,6,0,P|439:88|430:25,1,99.0000030212403,0|2,1:2|0:0,0:0:0:0:
314,97,126236,1,0,1:2:0:0:
343,12,126379,1,8,0:0:0:0:
227,147,126665,2,0,P|180:130|128:125,1,99.0000030212403,2|2,0:0|0:0,0:0:0:0:
12,257,127236,1,0,1:2:0:0:
153,365,127522,1,8,0:0:0:0:
213,299,127665,2,0,P|268:287|324:319,1,99.0000030212403,0|0,1:2|0:0,0:0:0:0:
418,384,128093,5,4,1:2:0:0:
485,218,128379,1,2,0:0:0:0:
441,140,128522,1,0,1:2:0:0:
483,61,128665,2,0,P|435:57|381:40,1,99.0000030212403,8|2,0:0|0:0,0:0:0:0:
294,195,129236,1,2,0:0:0:0:
128,111,129522,5,0,1:2:0:0:
214,145,129665,1,0,1:2:0:0:
209,237,129808,1,8,0:0:0:0:
119,260,129951,1,0,1:2:0:0:
69,183,130094,1,2,1:2:0:0:
185,325,130379,5,4,1:2:0:0:
200,343,130951,1,2,0:0:0:0:
214,362,131522,1,2,0:0:0:0:
296,384,131665,2,0,P|350:368|426:359,1,108,2|2,0:0|0:0,0:0:0:0:
416,132,133236,5,2,0:0:0:0:
400,149,133808,1,2,0:0:0:0:
383,168,134379,1,2,0:0:0:0:
236,282,134951,6,0,P|192:293|155:277,1,80.9999975280763,4|2,1:2|0:0,0:0:0:0:
49,185,135522,2,0,P|63:152|71:105,1,80.9999975280763,8|2,0:0|0:0,0:0:0:0:
181,12,136093,1,2,0:0:0:0:
181,12,136236,2,0,P|187:51|202:89,1,80.9999975280763,2|0,0:0|0:0,0:0:0:0:
251,151,136665,1,8,0:0:0:0:
458,355,137236,6,0,B|438:310|438:310|465:233,1,121.499996292114,0|0,1:2|1:2,0:0:0:0:
506,176,137808,2,0,P|463:161|425:172,1,80.9999975280763,8|2,0:0|0:0,0:0:0:0:
317,262,138379,1,2,0:0:0:0:
199,182,138665,1,2,1:2:0:0:
150,158,138808,1,0,1:2:0:0:
99,137,138951,2,0,P|91:91|78:55,1,80.9999975280763,8|0,0:0|0:0,0:0:0:0:
280,34,139522,6,0,P|316:80|363:90,1,90,4|2,1:2|0:0,0:0:0:0:
468,40,139951,1,0,1:2:0:0:
506,110,140093,2,0,P|488:157|482:201,1,90,8|2,0:0|0:0,0:0:0:0:
508,356,140665,1,2,0:0:0:0:
449,300,140808,2,0,P|417:282|344:285,1,90,2|0,0:0|0:0,0:0:0:0:
254,384,141236,2,0,P|249:341|232:289,1,90,8|0,0:0|0:0,0:0:0:0:
89,211,141808,6,0,B|65:216|52:237|52:237|74:131,1,135,4|0,1:2|1:2,0:0:0:0:
19,86,142379,2,0,P|69:67|119:88,1,90,8|2,0:0|0:0,0:0:0:0:
172,222,142951,2,0,P|222:241|272:220,1,90,2|0,0:0|1:2,0:0:0:0:
331,88,143522,1,8,0:0:0:0:
402,125,143665,2,0,P|389:173|384:215,1,90,0|0,1:2|0:0,0:0:0:0:
473,293,144093,6,0,P|432:286|392:315,1,90,4|2,1:2|0:0,0:0:0:0:
283,384,144522,1,0,1:2:0:0:
215,338,144665,2,0,P|227:296|235:242,1,90,8|2,0:0|0:0,0:0:0:0:
127,103,145236,1,2,0:0:0:0:
205,123,145379,2,0,P|258:107|280:71,1,90,2|0,0:0|0:0,0:0:0:0:
384,0,145808,2,0,P|367:45|361:92,1,90,8|0,0:0|0:0,0:0:0:0:
500,170,146379,6,0,B|472:230|526:235|496:303,1,135,4|0,1:2|1:2,0:0:0:0:
422,334,146951,2,0,P|375:321|328:316,1,90,8|2,0:0|0:0,0:0:0:0:
204,326,147522,1,2,0:0:0:0:
130,138,148093,6,2,P|175:134|214:123,1,80.9999975280763,2|2,0:0|1:0,1:0:0:0:
287,69,148665,5,4,1:2:0:0:
174,227,148951,1,2,0:0:0:0:
257,276,149093,1,0,1:2:0:0:
344,234,149236,2,0,P|353:184|372:130,1,107.999996704102,8|2,0:0|0:0,0:0:0:0:
218,0,149808,1,2,0:0:0:0:
156,113,149951,2,0,P|113:130|50:114,1,107.999996704102,2|0,0:0|0:0,0:0:0:0:
0,256,150379,2,0,P|19:314|28:366,1,107.999996704102,8|2,0:0|0:0,0:0:0:0:
245,381,150951,6,0,P|277:334|341:321,1,107.999996704102,4|2,1:2|0:0,0:0:0:0:
453,384,151379,1,0,1:2:0:0:
463,287,151522,2,0,P|470:241|487:176,1,107.999996704102,8|2,0:0|0:0,0:0:0:0:
360,32,152093,1,2,0:0:0:0:
292,214,152379,1,0,1:2:0:0:
181,53,152665,1,8,0:0:0:0:
91,15,152808,2,0,P|36:43|20:107,1,107.999996704102,0|0,1:2|0:0,0:0:0:0:
102,179,153236,5,4,1:2:0:0:
7,350,153522,1,2,0:0:0:0:
98,379,153664,1,0,1:2:0:0:
160,304,153807,2,0,P|215:284|282:278,1,107.999996704102,8|2,0:0|0:0,0:0:0:0:
442,384,154379,1,2,0:0:0:0:
512,287,154522,2,0,P|496:240|488:177,1,107.999996704102,2|0,0:0|0:0,0:0:0:0:
512,42,154950,2,0,P|468:84|410:79,1,107.999996704102,8|2,0:0|0:0,0:0:0:0:
220,140,155522,6,0,P|236:90|244:29,1,107.999996704102,4|2,1:2|0:0,0:0:0:0:
131,0,155950,1,0,1:2:0:0:
69,72,156093,2,0,P|76:125|92:176,1,107.999996704102,8|2,0:0|0:0,0:0:0:0:
93,371,156664,1,2,0:0:0:0:
3,198,156950,1,0,1:2:0:0:
177,284,157236,1,8,0:0:0:0:
265,244,157379,2,0,P|299:209|295:135,1,107.999996704102,0|0,1:2|0:0,0:0:0:0:
225,38,157808,5,4,1:2:0:0:
416,2,158094,1,2,0:0:0:0:
470,81,158236,1,0,1:2:0:0:
423,166,158379,2,0,P|444:227|449:277,1,107.999996704102,8|2,0:0|0:0,0:0:0:0:
278,365,158951,1,2,0:0:0:0:
241,274,159094,2,0,P|184:265|142:303,1,107.999996704102,2|0,0:0|0:0,0:0:0:0:
42,384,159522,2,0,P|37:339|21:271,1,107.999996704102,8|2,0:0|0:0,0:0:0:0:
0,103,160094,6,0,P|49:115|95:82,1,107.999996704102,4|2,1:2|0:0,0:0:0:0:
191,7,160522,1,0,1:2:0:0:
288,4,160665,2,0,P|332:31|340:83,1,107.999996704102,8|2,0:0|0:0,0:0:0:0:
220,237,161236,1,2,0:0:0:0:
396,155,161522,1,0,1:2:0:0:
363,346,161808,1,8,0:0:0:0:
450,303,161951,2,0,P|461:247|480:194,1,107.999996704102,0|0,1:2|0:0,0:0:0:0:
451,52,162379,5,4,1:2:0:0:
278,142,162665,1,2,0:0:0:0:
201,83,162807,1,0,1:2:0:0:
123,141,162950,2,0,P|79:171|21:168,1,107.999996704102,8|2,0:0|0:0,0:0:0:0:
136,354,163522,1,2,0:0:0:0:
220,264,163665,2,0,P|283:275|342:297,1,107.999996704102,2|0,0:0|0:0,0:0:0:0:
408,384,164093,6,0,P|441:330|487:317,1,107.999996704102,8|2,0:0|0:0,0:0:0:0:
506,123,164665,2,0,P|447:119|397:102,1,107.999996704102,4|2,1:2|0:0,0:0:0:0:
292,27,165093,1,0,1:2:0:0:
215,87,165236,2,0,P|156:91|106:108,1,107.999996704102,8|2,0:0|0:0,0:0:0:0:
40,288,165807,1,2,0:0:0:0:
11,95,166093,1,0,1:2:0:0:
157,248,166379,5,8,0:0:0:0:
242,294,166522,1,8,3:0:0:0:
313,228,166665,1,8,3:0:0:0:
270,140,166808,1,8,3:0:0:0:
174,152,166951,5,4,1:2:0:0:
323,27,167237,1,2,0:0:0:0:
416,4,167379,1,0,1:2:0:0:
477,79,167522,2,0,P|454:138|444:187,1,107.999996704102,8|2,0:0|0:0,0:0:0:0:
512,265,167951,2,0,P|459:276|409:297,1,107.999996704102,8|0,0:0|0:0,0:0:0:0:
310,376,168379,1,2,1:2:0:0:
221,336,168522,1,0,1:2:0:0:
202,240,168665,1,8,0:0:0:0:
202,240,168808,2,0,P|219:196|234:135,1,107.999996704102,0|0,1:2|0:0,0:0:0:0:
137,42,169236,5,4,1:2:0:0:
17,195,169522,1,2,0:0:0:0:
94,254,169665,1,0,1:2:0:0:
186,223,169808,1,8,0:0:0:0:
294,61,170094,2,0,P|353:59|410:110,1,107.999996704102,2|2,0:0|0:0,0:0:0:0:
506,242,170665,1,0,1:2:0:0:
416,280,170808,1,0,1:2:0:0:
336,224,170951,1,8,0:0:0:0:
336,224,171093,2,0,P|279:234|240:297,1,107.999996704102,0|0,1:2|1:2,0:0:0:0:
159,378,171522,6,0,P|154:328|139:258,1,107.999996704102,4|2,1:2|0:0,0:0:0:0:
47,246,171951,1,0,1:2:0:0:
15,154,172093,1,8,0:0:0:0:
137,2,172379,2,0,P|199:12|230:51,1,107.999996704102,2|2,0:0|0:0,0:0:0:0:
248,238,172951,1,0,1:2:0:0:
327,292,173093,1,0,1:2:0:0:
412,244,173236,1,10,0:0:0:0:
412,244,173379,2,0,P|421:190|441:130,1,107.999996704102,0|0,1:2|1:2,0:0:0:0:
459,19,173808,6,0,P|421:55|352:50,1,107.999996704102,4|2,1:2|0:0,0:0:0:0:
249,1,174236,1,0,1:2:0:0:
172,61,174379,2,0,P|194:126|199:183,1,107.999996704102,8|2,0:0|0:0,0:0:0:0:
61,303,174951,1,2,0:0:0:0:
248,252,175236,1,0,1:2:0:0:
329,305,175379,1,0,1:2:0:0:
413,257,175522,1,8,0:0:0:0:
413,257,175665,2,0,P|400:216|388:141,1,107.999996704102,0|0,1:2|1:2,0:0:0:0:
465,33,176093,5,4,1:2:0:0:
299,135,176379,1,2,0:0:0:0:
216,95,176521,1,0,1:2:0:0:
130,140,176664,2,0,P|153:199|163:248,1,107.999996704102,8|2,0:0|0:0,0:0:0:0:
38,336,177093,2,0,P|49:283|70:233,1,107.999996704102,8|0,0:0|1:2,0:0:0:0:
6,114,177521,1,2,1:2:0:0:
74,44,177664,1,0,1:2:0:0:
170,59,177807,1,8,0:0:0:0:
170,59,177950,2,0,P|230:76|284:77,1,107.999996704102,0|0,1:2|0:0,0:0:0:0:
394,14,178378,5,4,1:2:0:0:
493,180,178664,1,2,0:0:0:0:
407,226,178807,1,0,1:2:0:0:
325,172,178950,1,8,0:0:0:0:
191,313,179236,1,2,0:0:0:0:
191,313,179379,2,0,P|183:258|163:192,1,107.999996704102,8|0,0:0|0:0,0:0:0:0:
63,137,179807,1,0,1:2:0:0:
104,48,179950,1,0,1:2:0:0:
198,25,180093,1,10,0:0:0:0:
198,25,180235,2,0,P|254:46|320:50,1,107.999996704102,0|8,1:2|0:0,0:0:0:0:
450,10,180664,6,0,P|409:39|390:105,1,107.999996704102,4|2,1:2|0:0,0:0:0:0:
441,199,181093,1,0,1:2:0:0:
403,288,181235,1,8,0:0:0:0:
288,135,181522,1,2,0:0:0:0:
288,135,181665,2,0,P|229:156|163:162,1,107.999996704102,8|0,0:0|0:0,0:0:0:0:
99,114,182093,1,0,1:2:0:0:
19,168,182235,1,0,1:2:0:0:
39,263,182378,1,10,0:0:0:0:
39,263,182521,2,0,P|97:272|143:327,1,107.999996704102,0|0,1:2|1:2,0:0:0:0:
233,384,182950,6,0,P|242:324|263:264,1,107.999996704102,4|2,1:2|0:0,0:0:0:0:
331,216,183378,1,0,1:2:0:0:
331,216,183521,2,0,P|386:239|437:220,1,107.999996704102,8|2,0:0|0:0,0:0:0:0:
499,154,183951,2,0,P|485:105|477:45,1,107.999996704102,8|0,0:0|0:0,0:0:0:0:
349,11,184378,1,2,1:2:0:0:
272,71,184521,1,0,1:2:0:0:
180,36,184664,1,8,0:0:0:0:
180,36,184807,2,0,P|117:35|78:80,1,107.999996704102,0|0,1:2|1:2,0:0:0:0:
167,177,185236,5,4,1:2:0:0:
46,329,185522,1,2,0:0:0:0:
132,372,185665,1,0,1:2:0:0:
209,312,185808,2,0,P|271:317|319:338,1,107.999996704102,8|2,0:0|0:0,0:0:0:0:
501,382,186379,2,0,P|457:352|440:283,1,107.999996704102,2|2,0:0|1:2,0:0:0:0:
359,102,186951,5,8,0:0:0:0:
267,52,187094,1,0,1:2:0:0:
190,123,187237,1,0,1:2:0:0:
237,218,187380,1,0,1:2:0:0:
340,205,187523,5,4,1:2:0:0:
256,192,187665,12,0,195522,0:0:0:0:
