osu file format v14

[General]
AudioFilename: audio.mp3
AudioLeadIn: 0
PreviewTime: 45
Countdown: 0
SampleSet: None
StackLeniency: 1
Mode: 0
LetterboxInBreaks: 0
WidescreenStoryboard: 0

[Editor]
DistanceSpacing: 1.2
BeatDivisor: 4
GridSize: 4
TimelineZoom: 1.4

[Metadata]
Title:In the End
TitleUnicode:In the End
Artist:Linkin Park
ArtistUnicode:Linkin Park
Creator:whosthebox
Version:End
Source:
Tags:danny phantom linkin park william maranci
BeatmapID:2199082
BeatmapSetID:1052274

[Difficulty]
HPDrainRate:4
CircleSize:4
OverallDifficulty:7.7
ApproachRate:9
SliderMultiplier:1.4
SliderTickRate:1

[Events]
//Background and Video events
0,0,"ultrta bg.png",0,0
//Break Periods
//Storyboard Layer 0 (Background)
//Storyboard Layer 1 (Fail)
//Storyboard Layer 2 (Pass)
//Storyboard Layer 3 (Foreground)
//Storyboard Layer 4 (Overlay)
//Storyboard Sound Samples

[TimingPoints]
808,277.777777777778,4,1,0,40,1,0
808,-200,4,1,0,40,0,0
9697,-100,4,1,0,85,0,0
45252,-66.6666666666667,4,1,0,85,0,1
51919,-100,4,1,0,85,0,0

[Colours]
Combo1 : 0,0,0
Combo2 : 228,228,228
Combo3 : 0,255,255

[HitObjects]
72,50,808,6,0,P|68:116|129:167,1,140
206,55,1919,2,0,P|274:49|337:80,1,140
471,120,3030,2,0,P|470:193|412:240,1,140
296,294,4141,2,0,P|274:321|228:339,1,70
195,275,4558,1,0,0:0:0:0:
137,324,4696,2,0,P|116:291|116:251,1,70
234,164,5252,6,0,P|312:154|353:105,1,140
433,223,6363,2,0,P|469:281|429:351,1,140
304,317,7474,2,0,P|270:327|230:326,1,70
186,266,7891,1,0,0:0:0:0:
125,313,8030,2,0,P|106:278|108:249,1,70
46,202,8446,1,0,0:0:0:0:
120,180,8585,2,0,P|112:148|78:121,1,70
256,40,9142,6,0,L|332:40,1,70
430,222,9697,6,0,P|429:290|369:340,1,140
327,244,10114,1,0,0:0:0:0:
229,282,10253,1,0,0:0:0:0:
244,178,10392,2,0,P|203:182|163:174,1,70
77,136,10670,1,0,0:0:0:0:
174,96,10809,2,0,P|134:52|50:42,2,140
379,52,11642,5,0,0:0:0:0:
351,153,11781,1,0,0:0:0:0:
417,234,11920,2,0,P|395:263|356:271,1,70
298,189,12197,1,0,0:0:0:0:
210,130,12336,2,0,P|197:197|229:258,1,140
147,325,12753,1,0,0:0:0:0:
67,256,12892,2,0,P|88:182|59:121,2,140
144,326,13586,2,0,P|212:296|274:323,1,140
300,217,14003,1,0,0:0:0:0:
364,299,14142,6,0,P|418:211|365:120,1,210
286,64,14697,2,0,B|264:41|233:44|233:44|191:68|194:131,1,140
288,160,15114,1,0,0:0:0:0:
201,220,15253,2,0,P|132:237|74:198,2,140
365,88,16086,5,0,0:0:0:0:
401,223,16225,1,0,0:0:0:0:
421,45,16364,1,0,0:0:0:0:
348,264,16503,1,0,0:0:0:0:
428,131,16642,1,0,0:0:0:0:
341,192,16781,1,0,0:0:0:0:
485,166,16920,6,0,P|468:231|390:280,1,140
27,218,17336,2,0,P|44:153|122:104,1,140
170,231,17753,1,0,0:0:0:0:
291,161,17892,1,0,0:0:0:0:
220,39,18031,2,0,P|285:58|361:37,1,140
402,134,18447,1,0,0:0:0:0:
472,211,18586,6,0,P|463:244|418:274,1,70
342,220,18864,1,0,0:0:0:0:
274,300,19003,1,0,0:0:0:0:
219,210,19142,2,0,P|173:255|76:249,1,140
293,174,19559,2,0,P|339:129|436:135,1,140
430,304,19975,1,0,0:0:0:0:
82,80,20253,5,0,0:0:0:0:
205,146,20392,1,0,0:0:0:0:
66,164,20531,1,0,0:0:0:0:
169,69,20670,1,0,0:0:0:0:
143,206,20809,2,0,P|168:235|208:250,1,70
289,187,21086,1,0,0:0:0:0:
291,293,21225,1,0,0:0:0:0:
381,236,21363,2,0,P|414:174|377:92,1,140
131,148,21919,2,0,P|98:210|135:292,1,140
256,192,22474,5,0,0:0:0:0:
228,252,22613,1,0,0:0:0:0:
284,132,22752,1,0,0:0:0:0:
200,308,22891,1,0,0:0:0:0:
312,76,23030,2,0,P|349:90|374:119,2,70
212,110,23446,1,0,0:0:0:0:
131,178,23585,1,0,0:0:0:0:
88,81,23724,2,0,P|58:101|40:141,1,70
164,302,24141,6,0,B|207:329|207:329|256:332|293:283,1,140
211,216,24558,1,0,0:0:0:0:
146,133,24696,2,0,B|157:108|185:101|185:101|225:130|300:120,1,140
348,191,25113,1,0,0:0:0:0:
453,190,25252,2,0,P|435:139|384:115,2,105
300,334,25946,1,0,0:0:0:0:
259,237,26085,2,0,P|211:197|130:202,1,140
253,147,26502,2,0,P|301:187|382:182,1,140
329,89,26919,1,0,0:0:0:0:
229,55,27058,1,0,0:0:0:0:
133,96,27196,1,0,0:0:0:0:
84,189,27335,1,0,0:0:0:0:
126,285,27474,6,0,P|154:311|199:315,1,70
290,321,27752,1,0,0:0:0:0:
228,232,27891,1,0,0:0:0:0:
333,231,28030,6,0,P|362:167|341:95,1,140
136,78,28585,2,0,P|98:86|72:106,1,70
150,176,28863,1,0,0:0:0:0:
56,224,29002,2,0,P|88:290|161:321,1,140
228,253,29419,1,0,0:0:0:0:
228,253,29558,1,0,0:0:0:0:
228,253,29696,2,0,P|261:275|309:277,1,70
381,333,29974,2,0,P|396:264|352:197,1,140
167,225,30669,5,0,0:0:0:0:
134,324,30808,2,0,P|100:316|73:294,1,70
52,191,31085,2,0,B|41:143|41:143|75:115|141:113,1,140
148,217,31502,1,0,0:0:0:0:
249,191,31641,2,0,P|236:123|278:67,1,140
363,126,32058,1,0,0:0:0:0:
448,185,32196,1,0,0:0:0:0:
368,116,32335,1,0,0:0:0:0:
439,193,32474,6,0,P|452:260|397:317,1,140
331,240,32891,1,0,0:0:0:0:
260,318,33030,2,0,P|227:331|185:323,1,70
252,66,33308,2,0,P|285:53|327:61,1,70
256,192,33585,2,0,P|190:218|116:193,1,140
52,123,34002,1,0,0:0:0:0:
135,58,34141,2,0,L|184:111,1,70
381,210,34419,2,0,L|332:157,1,70
374,61,34696,6,0,P|295:50|232:87,1,140
255,181,35113,2,0,P|219:189|178:178,1,70
123,98,35391,2,0,P|76:160|90:240,1,140
178,256,35808,1,0,0:0:0:0:
268,204,35946,1,0,0:0:0:0:
185,322,36085,1,0,0:0:0:0:
259,141,36224,1,0,0:0:0:0:
398,279,36363,6,0,B|441:225|441:225|400:160,1,140
312,219,36780,1,0,0:0:0:0:
307,114,36919,2,0,B|323:95|309:77|309:77|191:77,1,140
113,35,37335,1,0,0:0:0:0:
113,35,37405,1,0,0:0:0:0:
113,35,37474,2,0,P|92:113|140:150,1,140
42,207,37891,2,0,P|69:253|174:279,1,140
137,178,38308,1,0,0:0:0:0:
233,218,38446,1,0,0:0:0:0:
233,218,38585,6,0,P|272:283|343:293,1,140
339,190,39002,1,0,0:0:0:0:
396,102,39141,2,0,P|368:87|325:90,1,70
226,71,39419,1,0,0:0:0:0:
255,172,39558,1,0,0:0:0:0:
154,201,39696,1,0,0:0:0:0:
125,100,39835,6,0,P|66:149|52:213,1,140
107,298,40252,2,0,L|248:298,2,140
172,215,40946,2,0,L|249:215,1,70
313,293,41224,2,0,P|383:252|406:183,1,140
301,179,41641,2,0,P|310:143|349:113,1,70
403,41,41919,2,0,B|447:40|469:52|469:52|458:102|475:135,2,140
193,53,42752,6,0,P|128:85|103:152,1,140
203,179,43169,2,0,P|185:218|143:245,1,70
67,275,43446,2,0,P|115:328|192:329,1,140
285,335,43863,2,0,P|275:298|282:264,1,70
368,208,44141,2,0,P|421:266|415:335,2,140
240,304,44835,1,0,0:0:0:0:
144,176,44974,1,0,0:0:0:0:
272,80,45113,1,0,0:0:0:0:
256,192,45252,6,0,P|308:216|376:212,2,105.000004005432
311,77,45669,1,0,0:0:0:0:
187,53,45808,2,0,P|90:98|38:195,1,210.000008010865
325,331,46224,2,0,P|422:286|474:189,1,210.000008010865
405,43,46641,2,0,P|356:57|289:37,1,105.000004005432
177,58,46919,2,0,B|160:96|183:128|183:128|267:146|277:231,1,210.000008010865
148,216,47335,5,0,0:0:0:0:
364,168,47474,1,0,0:0:0:0:
193,165,47613,1,0,0:0:0:0:
319,219,47752,1,0,0:0:0:0:
153,281,47891,1,0,0:0:0:0:
359,103,48030,6,0,P|451:155|448:273,1,210.000008010865
153,281,48446,2,0,P|61:229|64:111,1,210.000008010865
421,57,48863,2,0,P|369:47|305:64,1,105.000004005432
468,210,49141,2,0,P|388:264|273:245,2,210.000008010865
104,78,49974,6,0,P|80:132|100:180,1,105.000004005432
221,171,50252,2,0,P|332:176|203:118,1,420.000016021729
285,128,51085,1,0,0:0:0:0:
285,128,51224,1,0,0:0:0:0:
285,128,51363,2,0,P|323:166|336:218,1,105.000004005432
160,227,51641,2,0,P|122:189|109:137,1,105.000004005432
256,192,51919,12,0,58585,0:0:0:0:
