osu file format v14

[General]
AudioFilename: audio.mp3
AudioLeadIn: 0
PreviewTime: 93266
Countdown: 0
SampleSet: Soft
StackLeniency: 0.3
Mode: 0
LetterboxInBreaks: 0
WidescreenStoryboard: 0

[Editor]
Bookmarks: 40080,78470,120059,158448,163247
DistanceSpacing: 0.2
BeatDivisor: 4
GridSize: 32
TimelineZoom: 2.999999

[Metadata]
Title:Hit The Floor
TitleUnicode:Hit The Floor
Artist:Linkin Park
ArtistUnicode:Linkin Park
Creator:piroshki
Version:And It's All Gone (feat. PandaHero)
Source:
Tags:english rock alternative nu metal meteora chester bennington lp pandahero e4pi4mak aishiteiru- dead soul dead_soul
BeatmapID:3465069
BeatmapSetID:1695885

[Difficulty]
HPDrainRate:5
CircleSize:4.2
OverallDifficulty:9
ApproachRate:9.5
SliderMultiplier:1.4
SliderTickRate:1

[Events]
//Background and Video events
0,0,"90700055_p9.jpg",0,0
//Break Periods
2,65873,66748
//Storyboard Layer 0 (Background)
//Storyboard Layer 1 (Fail)
//Storyboard Layer 2 (Pass)
//Storyboard Layer 3 (Foreground)
//Storyboard Layer 4 (Overlay)
//Storyboard Sound Samples

[TimingPoints]
91,399.893361770195,4,2,1,48,1,0
1690,-100,4,2,1,54,0,0
3489,-100,4,2,1,5,0,0
3690,-100,4,2,1,54,0,0
3889,-100,4,2,1,5,0,0
4089,-100,4,2,1,54,0,0
4288,-100,4,2,1,5,0,0
4489,-100,4,2,1,54,0,0
4688,-100,4,2,1,5,0,0
4889,-100,4,2,1,54,0,0
6688,-100,4,2,1,5,0,0
6889,-100,4,2,1,54,0,0
7088,-100,4,2,1,5,0,0
7289,-100,4,2,1,54,0,0
7488,-100,4,2,1,5,0,0
7688,-100,4,2,1,54,0,0
7887,-100,4,2,1,5,0,0
8088,-100,4,2,1,54,0,0
9087,-100,4,2,1,5,0,0
9288,-100,4,2,1,54,0,0
10687,-100,4,2,1,5,0,0
10888,-25,4,2,1,54,0,0
11288,-100,4,2,1,60,0,0
12286,-100,4,2,1,5,0,0
12487,-100,4,2,1,60,0,0
13086,-100,4,2,1,5,0,0
13487,-50,4,2,1,65,0,0
14687,-50,4,2,1,80,0,0
15286,-133.333333333333,4,2,1,80,0,0
16686,-100,4,2,1,80,0,0
16886,-33.3333333333333,4,2,1,80,0,0
17886,-50,4,2,1,80,0,0
18486,-100,4,2,1,80,0,0
20085,-33.3333333333333,4,2,1,80,0,0
21285,-50,4,2,1,80,0,0
21685,-100,4,2,1,80,0,0
23284,-33.3333333333333,4,2,1,80,0,0
24284,-50,4,2,1,80,0,0
24884,-100,4,2,1,80,0,0
25883,-100,4,2,1,5,0,0
26084,-100,4,2,1,80,0,0
26483,-100,4,2,1,60,0,0
26883,-142.857142857143,4,2,1,60,0,0
27182,-142.857142857143,4,2,1,5,0,0
27283,-58.8235294117647,4,2,1,65,0,0
28582,-58.8235294117647,4,2,1,5,0,0
28683,-58.8235294117647,4,2,1,65,0,0
33481,-58.8235294117647,4,2,1,5,0,0
33682,-50,4,2,1,65,0,0
34481,-58.8235294117647,4,2,1,65,0,0
34980,-58.8235294117647,4,2,1,5,0,0
35081,-58.8235294117647,4,2,1,65,0,0
35881,-100,4,2,1,65,0,0
36081,-58.8235294117647,4,2,1,65,0,0
38979,-58.8235294117647,4,2,1,5,0,0
39080,-58.8235294117647,4,2,1,65,0,0
39479,-58.8235294117647,4,2,1,5,0,0
39580,-58.8235294117647,4,2,1,65,0,0
39779,-58.8235294117647,4,2,1,5,0,0
39880,-58.8235294117647,4,2,1,65,0,0
40080,-58.8235294117647,4,2,1,69,0,0
40280,-200,4,2,1,69,0,0
40880,-58.8235294117647,4,2,1,69,0,0
44578,-58.8235294117647,4,2,1,5,0,0
44679,-58.8235294117647,4,2,1,69,0,0
46678,-200,4,2,1,69,0,0
47278,-58.8235294117647,4,2,1,69,0,0
51877,-29.4117647058824,4,2,1,72,0,0
52676,-500,4,2,1,72,0,0
52975,-500,4,2,1,5,0,0
53076,-40,4,2,1,80,0,0
55076,-29.4117647058824,4,2,1,80,0,0
55876,-500,4,2,1,80,0,0
56175,-500,4,2,1,5,0,0
56276,-40,4,2,1,80,0,0
58275,-29.4117647058824,4,2,1,80,0,0
59075,-500,4,2,1,80,0,0
59374,-500,4,2,1,5,0,0
59475,-40,4,2,1,80,0,0
61474,-29.4117647058824,4,2,1,80,0,0
62274,-500,4,2,1,80,0,0
62573,-500,4,2,1,5,0,0
62674,-40,4,2,1,80,0,0
64673,-29.4117647058824,4,2,1,80,0,0
64873,-40,4,2,1,80,0,0
65073,-58.8235294117647,4,2,1,80,0,0
65273,-100,4,2,1,80,0,0
65473,-250,4,2,1,80,0,0
65673,-250,4,2,1,72,0,0
67273,-500,4,2,1,72,0,0
67473,-500,4,2,2,66,0,0
67672,-500,4,2,1,60,0,0
67872,-500,4,2,2,55,0,0
68072,-500,4,2,1,50,0,0
68272,-500,4,2,2,45,0,0
68472,-500,4,2,1,40,0,0
68572,-500,4,2,2,35,0,0
68672,-500,4,2,1,25,0,0
68772,-500,4,2,2,15,0,0
68872,-58.8235294117647,4,2,1,65,0,0
71770,-58.8235294117647,4,2,1,5,0,0
71871,-58.8235294117647,4,2,1,65,0,0
75270,-50,4,2,1,65,0,0
76070,-58.8235294117647,4,2,1,65,0,0
81669,-58.8235294117647,4,2,1,69,0,0
82967,-58.8235294117647,4,2,1,5,0,0
83068,-58.8235294117647,4,2,1,69,0,0
84767,-58.8235294117647,4,2,1,5,0,0
84868,-58.8235294117647,4,2,1,69,0,0
89366,-58.8235294117647,4,2,1,5,0,0
89467,-58.8235294117647,4,2,1,69,0,0
93466,-29.4117647058824,4,2,1,72,0,0
94265,-500,4,2,1,72,0,0
94564,-500,4,2,1,5,0,0
94665,-40,4,2,1,80,0,0
96665,-29.4117647058824,4,2,1,80,0,0
97465,-500,4,2,1,80,0,0
97764,-500,4,2,1,5,0,0
97864,-40,4,2,1,80,0,0
99864,-29.4117647058824,4,2,1,80,0,0
100664,-500,4,2,1,80,0,0
100963,-500,4,2,1,5,0,0
101064,-40,4,2,1,80,0,0
103063,-29.4117647058824,4,2,1,80,0,0
103863,-500,4,2,1,80,0,0
104162,-500,4,2,1,5,0,0
104263,-40,4,2,1,80,0,0
106262,-29.4117647058824,4,2,1,80,0,0
106462,-40,4,2,1,80,0,0
106662,-58.8235294117647,4,2,1,80,0,0
106862,-100,4,2,1,80,0,0
107062,-142.857142857143,4,2,1,80,0,0
107262,-250,4,2,1,60,0,0
107462,-33.3333333333333,4,2,1,88,0,0
109661,-250,4,2,1,88,0,0
110661,-33.3333333333333,4,2,1,88,0,0
112860,-250,4,2,1,88,0,0
115260,-33.3333333333333,4,2,1,88,0,0
116060,-250,4,2,1,88,0,0
118459,-33.3333333333333,4,2,1,88,0,0
119259,-66.6666666666667,4,2,1,88,0,0
120059,-250,4,2,1,50,0,0
120258,-250,4,2,1,5,0,0
120458,-250,4,2,1,50,0,0
126656,-250,4,2,1,5,0,0
126857,-250,4,2,1,50,0,0
132655,-500,4,2,1,50,0,0
132954,-500,4,2,1,5,0,0
133055,-40,4,2,1,80,0,0
135055,-29.4117647058824,4,2,1,80,0,0
135854,-500,4,2,1,80,0,0
136153,-500,4,2,1,5,0,0
136254,-40,4,2,1,80,0,0
138254,-29.4117647058824,4,2,1,80,0,0
139053,-500,4,2,1,80,0,0
139352,-500,4,2,1,5,0,0
139453,-40,4,2,1,80,0,0
141653,-29.4117647058824,4,2,1,80,0,0
142253,-500,4,2,1,80,0,0
142552,-500,4,2,1,5,0,0
142652,-40,4,2,1,80,0,0
144852,-29.4117647058824,4,2,1,80,0,0
145052,-40,4,2,1,80,0,0
145252,-58.8235294117647,4,2,1,80,0,0
145452,-100,4,2,1,80,0,0
145652,-100,4,2,1,60,0,0
145852,-33.3333333333333,4,2,1,88,0,0
146151,-33.3333333333333,4,2,1,5,0,0
146252,-33.3333333333333,4,2,1,88,0,0
146551,-33.3333333333333,4,2,1,5,0,0
146651,-33.3333333333333,4,2,1,88,0,0
146950,-33.3333333333333,4,2,1,5,0,0
147051,-33.3333333333333,4,2,1,88,0,0
147251,-500,4,2,1,88,0,0
147950,-500,4,2,1,5,0,0
148051,-500,4,2,1,88,0,0
148750,-500,4,2,1,5,0,0
148851,-500,4,2,1,88,0,0
149051,-33.3333333333333,4,2,1,88,0,0
149350,-33.3333333333333,4,2,1,5,0,0
149451,-33.3333333333333,4,2,1,88,0,0
149750,-33.3333333333333,4,2,1,5,0,0
149851,-33.3333333333333,4,2,1,88,0,0
150150,-33.3333333333333,4,2,1,5,0,0
150250,-33.3333333333333,4,2,1,88,0,0
150450,-500,4,2,1,88,0,0
152250,-33.3333333333333,4,2,1,88,0,0
152549,-33.3333333333333,4,2,1,5,0,0
152650,-33.3333333333333,4,2,1,88,0,0
152949,-33.3333333333333,4,2,1,5,0,0
153050,-33.3333333333333,4,2,1,88,0,0
153349,-33.3333333333333,4,2,1,5,0,0
153450,-33.3333333333333,4,2,1,88,0,0
153650,-500,4,2,1,88,0,0
155449,-33.3333333333333,4,2,1,88,0,0
155748,-33.3333333333333,4,2,1,5,0,0
155849,-33.3333333333333,4,2,1,88,0,0
156148,-33.3333333333333,4,2,1,5,0,0
156249,-33.3333333333333,4,2,1,88,0,0
156548,-33.3333333333333,4,2,1,5,0,0
156649,-33.3333333333333,4,2,1,88,0,0
156849,-500,4,2,1,88,0,0
158448,-500,4,2,1,55,0,0
158648,-33.3333333333333,4,2,1,78,0,0
163247,-33.3333333333333,4,2,1,40,0,0

[Colours]
Combo1 : 192,192,192
Combo2 : 64,128,128
Combo3 : 88,88,88
Combo4 : 1,180,121

[HitObjects]
256,192,91,12,0,1690,1:2:0:0:
262,379,1890,6,0,L|250:309,2,70,2|2|2,2:2|2:2|2:2,0:0:0:0:
277,239,2490,2,0,L|261:378,1,140,2|2,2:2|2:2,0:0:0:0:
254,166,3090,1,2,2:2:0:0:
264,170,3290,2,0,L|276:238,1,70,2|0,2:2|0:0,0:0:0:0:
254,166,3690,2,0,L|266:234,1,70
371,276,4089,6,0,L|438:294,1,70,0|0,1:0|0:0,0:0:0:0:
175,220,4489,2,0,L|107:201,1,70,0|0,1:0|0:0,0:0:0:0:
84,119,4889,1,0,3:0:0:0:
113,375,5089,6,0,L|98:306,2,70,2|2|2,0:0|0:0|0:0,0:0:0:0:
3,275,5689,2,0,P|40:217|106:201,1,140,2|2,0:0|0:0,0:0:0:0:
184,93,6289,1,2,0:0:0:0:
185,101,6489,2,0,P|199:132|222:158,1,70,2|0,0:0|0:0,0:0:0:0:
216,32,6889,2,0,P|196:60|185:93,1,70
322,81,7289,6,0,L|390:67,1,70,0|0,1:0|0:0,0:0:0:0:
112,118,7688,2,0,L|43:131,1,70,0|0,1:0|0:0,0:0:0:0:
1,64,8088,5,2,3:2:0:0:
153,237,8288,1,2,0:0:0:0:
227,38,8488,1,2,0:0:0:0:
157,77,8688,1,2,3:2:0:0:
216,286,8888,6,0,L|207:355,1,70,2|0,3:2|0:0,0:0:0:0:
227,120,9288,5,2,3:2:0:0:
220,122,9488,1,2,3:2:0:0:
225,356,9688,6,0,L|216:286,1,70,2|2,3:2|0:0,0:0:0:0:
274,239,10088,1,2,0:0:0:0:
274,239,10288,1,2,0:0:0:0:
392,318,10488,6,0,L|460:330,1,70,0|0,1:0|0:0,0:0:0:0:
216,286,10888,2,0,L|181:279,12,35,0|0|0|0|0|0|0|0|0|0|0|0|0,1:0|0:0|1:0|0:0|1:0|0:0|1:0|0:0|1:0|0:0|1:0|0:0|1:0,0:0:0:0:
288,319,11288,5,2,3:2:0:0:
512,270,11487,1,2,3:2:0:0:
278,240,11687,1,2,3:2:0:0:
216,286,11887,1,2,3:2:0:0:
348,69,12087,6,0,L|358:0,1,70,2|0,3:2|0:0,0:0:0:0:
278,240,12487,5,2,3:2:0:0:
275,233,12687,1,2,3:2:0:0:
512,192,12887,2,0,L|442:202,1,70,6|0,3:2|0:0,0:0:0:0:
18,269,13487,6,0,L|87:258,1,70,2|0,0:0|0:0,0:0:0:0:
118,99,13687,1,2,0:0:0:0:
70,365,13887,1,2,0:0:0:0:
77,362,14087,1,2,0:0:0:0:
118,99,14287,2,0,P|105:174|95:246,1,140,2|0,0:0|0:0,0:0:0:0:
490,365,14687,6,0,P|475:333|448:310,1,70,6|0,3:2|0:0,0:0:0:0:
474,234,14887,2,0,P|439:231|406:242,1,70,2|0,3:2|0:0,0:0:0:0:
371,314,15087,1,2,3:2:0:0:
340,54,15286,2,0,L|332:2,1,52.5000020027161,10|2,3:2|2:2,0:0:0:0:
333,3,15686,5,2,3:2:0:0:
300,317,15886,1,2,3:2:0:0:
485,100,16086,5,2,3:2:0:0:
418,115,16286,1,2,3:2:0:0:
388,205,16486,5,2,2:2:0:0:
318,187,16686,2,0,L|284:178,1,35,2|0,3:2|0:0,0:0:0:0:
49,117,16886,6,0,P|99:101|148:82,1,105.000004005432,10|0,3:2|0:0,0:0:0:0:
268,258,17086,2,0,L|248:361,1,105.000004005432,2|0,3:2|0:0,0:0:0:0:
172,319,17286,2,0,P|120:333|72:353,1,105.000004005432,2|0,3:2|0:0,0:0:0:0:
0,50,17486,5,2,3:2:0:0:
8,48,17686,1,2,2:2:0:0:
338,257,17886,6,0,P|367:276|388:303,1,70,6|0,3:2|0:0,0:0:0:0:
181,217,18086,2,0,P|208:195|241:183,1,70,2|0,3:2|0:0,0:0:0:0:
465,322,18286,1,2,3:2:0:0:
103,219,18486,6,0,L|34:201,1,70,10|2,3:2|2:2,0:0:0:0:
35,201,18885,5,2,3:2:0:0:
363,122,19085,1,2,3:2:0:0:
208,322,19285,5,2,3:2:0:0:
145,289,19485,1,2,3:2:0:0:
172,138,19685,5,2,2:2:0:0:
235,105,19885,2,0,L|228:70,1,35,2|0,3:2|0:0,0:0:0:0:
208,322,20085,6,0,P|200:272|187:218,1,105.000004005432,10|0,3:2|0:0,0:0:0:0:
480,187,20285,2,0,P|430:195|376:207,1,105.000004005432,2|0,3:2|0:0,0:0:0:0:
465,101,20485,2,0,P|413:112|362:121,1,105.000004005432,2|0,3:2|0:0,0:0:0:0:
397,384,20685,5,2,3:2:0:0:
407,379,20885,1,2,2:2:0:0:
228,69,21085,6,0,P|180:89|149:132,1,105.000004005432,6|0,3:2|0:0,0:0:0:0:
296,195,21285,2,0,P|266:176|232:170,1,70,2|0,3:2|0:0,0:0:0:0:
126,35,21485,1,2,3:2:0:0:
311,283,21685,6,0,L|323:353,1,70,10|2,3:2|2:2,0:0:0:0:
323,353,22085,5,2,3:2:0:0:
439,58,22285,1,2,3:2:0:0:
162,209,22485,5,2,3:2:0:0:
94,192,22684,1,2,3:2:0:0:
71,64,22884,5,2,2:2:0:0:
3,84,23084,2,0,L|0:119,1,35,2|0,3:2|0:0,0:0:0:0:
137,301,23284,6,0,P|186:312|238:329,1,105.000004005432,10|0,3:2|0:0,0:0:0:0:
145,0,23484,2,0,P|110:36|70:73,1,105.000004005432,2|0,3:2|0:0,0:0:0:0:
292,106,23684,2,0,P|243:94|190:77,1,105.000004005432,2|0,3:2|0:0,0:0:0:0:
56,365,23884,1,2,3:2:0:0:
65,363,24084,1,2,2:2:0:0:
328,33,24284,6,0,P|354:55|371:85,1,70,6|0,3:2|0:0,0:0:0:0:
350,160,24484,2,0,P|327:186|297:203,1,70,2|0,3:2|0:0,0:0:0:0:
292,106,24684,1,2,3:2:0:0:
443,381,24884,6,0,L|455:309,1,70,10|2,3:2|2:2,0:0:0:0:
454,311,25284,5,2,3:2:0:0:
499,0,25484,1,2,3:2:0:0:
399,260,25684,6,0,L|330:273,1,70,2|0,3:2|0:0,0:0:0:0:
274,222,26084,1,0,0:0:0:0:
410,171,26483,5,0,1:2:0:0:
417,176,26683,1,0,0:0:0:0:
255,297,26883,2,0,L|184:277,1,73.4999977569581,0|0,1:2|0:0,0:0:0:0:
15,334,27283,6,0,L|251:303,1,238.00000453949,4|2,3:2|1:2,0:0:0:0:
233,384,27883,1,0,0:0:0:0:
101,26,28083,6,0,P|73:37|53:58,1,59.5000011348725,8|0,2:2|0:0,0:0:0:0:
215,152,28283,1,2,1:2:0:0:
219,147,28383,2,0,P|174:109|116:98,1,119.000002269745,2|0,1:2|0:0,0:0:0:0:
52,134,28683,1,2,0:0:0:0:
493,247,28883,6,0,P|475:271|451:287,1,59.5000011348725,0|0,3:2|0:0,0:0:0:0:
354,188,29083,2,0,P|383:191|409:204,1,59.5000011348725,2|0,1:2|0:0,0:0:0:0:
369,377,29283,2,0,P|382:320|360:265,1,119.000002269745,2|2,1:2|1:2,0:0:0:0:
404,32,29683,6,0,L|463:46,1,59.5000011348725,8|0,1:2|0:0,0:0:0:0:
283,25,29883,1,2,1:2:0:0:
285,19,29983,2,0,P|372:33|460:53,1,178.500003404617,2|2,1:2|1:2,0:0:0:0:
71,198,30482,6,0,P|59:226|49:253,1,59.5000011348725,0|0,3:2|0:0,0:0:0:0:
84,320,30682,1,2,1:2:0:0:
289,114,30882,6,0,P|261:126|233:135,1,59.5000011348725,2|0,1:2|0:0,0:0:0:0:
170,220,31082,2,0,P|158:192|148:164,1,59.5000011348725,2|0,1:2|0:0,0:0:0:0:
162,375,31282,6,0,P|211:343|269:330,1,119.000002269745,8|2,2:2|1:2,0:0:0:0:
319,266,31582,1,2,1:2:0:0:
325,270,31682,2,0,L|307:392,1,119.000002269745,2|2,1:2|0:0,0:0:0:0:
458,240,31982,5,2,1:2:0:0:
456,246,32082,2,0,P|426:251|397:256,1,59.5000011348725,0|0,3:2|0:0,0:0:0:0:
444,381,32282,2,0,P|453:352|464:325,1,59.5000011348725,2|0,1:2|0:0,0:0:0:0:
203,165,32482,2,0,P|224:220|243:276,1,119.000002269745,2|2,1:2|1:2,0:0:0:0:
497,12,32882,6,0,P|486:39|465:60,1,59.5000011348725,8|0,1:2|0:0,0:0:0:0:
509,159,33082,1,0,0:0:0:0:
503,162,33182,2,0,P|422:122|338:92,1,178.500003404617
208,359,33682,6,0,L|234:80,1,280,4|2,3:2|1:2,0:0:0:0:
174,33,34281,1,0,3:2:0:0:
87,278,34481,6,0,P|116:282|140:299,1,59.5000011348725,8|0,2:2|0:0,0:0:0:0:
2,251,34681,1,2,1:2:0:0:
0,245,34781,2,0,P|40:202|96:184,1,119.000002269745,2|0,1:2|0:0,0:0:0:0:
138,114,35081,5,2,0:0:0:0:
187,372,35281,5,0,3:2:0:0:
253,278,35481,1,2,1:2:0:0:
264,281,35581,1,2,1:2:0:0:
275,284,35681,1,2,1:2:0:0:
286,287,35781,1,2,1:2:0:0:
299,291,35881,2,0,L|309:354,1,35,2|0,1:2|0:0,0:0:0:0:
493,73,36081,6,0,P|445:38|386:35,1,119.000002269745,8|2,1:2|1:2,0:0:0:0:
503,194,36381,1,2,1:2:0:0:
510,186,36481,2,0,P|509:128|479:75,1,119.000002269745,2|2,1:2|1:2,0:0:0:0:
215,140,36881,6,0,P|197:164|174:181,1,59.5000011348725,0|0,3:2|0:0,0:0:0:0:
29,167,37081,1,2,1:2:0:0:
34,164,37181,2,0,P|129:151|210:136,1,178.500003404617,2|2,1:2|1:2,0:0:0:0:
230,10,37581,1,0,0:0:0:0:
234,14,37680,2,0,P|244:47|249:71,1,59.5000011348725,8|0,2:2|0:0,0:0:0:0:
275,284,37880,5,2,1:2:0:0:
267,289,37980,2,0,P|362:301|443:316,1,178.500003404617,2|2,1:2|0:0,0:0:0:0:
27,290,38480,6,0,P|18:261|4:235,1,59.5000011348725,0|0,3:2|0:0,0:0:0:0:
52,368,38680,1,2,1:2:0:0:
56,372,38780,2,0,P|96:329|115:273,1,119.000002269745
84,192,39080,1,2,1:2:0:0:
0,15,39280,6,0,P|16:71|55:115,1,119.000002269745,8|0,1:2|0:0,0:0:0:0:
135,135,39580,2,0,L|249:103,1,119.000002269745
253,96,39880,2,0,L|188:115,1,59.5000011348725,2|0,1:2|0:0,0:0:0:0:
334,31,40080,2,0,L|411:39,1,59.5000011348725,4|0,3:2|0:0,0:0:0:0:
493,147,40280,6,0,L|487:176,1,17.5
430,224,40480,2,0,L|426:206,1,17.5,2|0,1:2|0:0,0:0:0:0:
493,147,40680,2,0,L|487:176,1,17.5,0|0,3:2|0:0,0:0:0:0:
18,132,40880,6,0,L|37:302,1,119.000002269745,8|2,2:2|1:2,0:0:0:0:
64,316,41180,1,2,1:2:0:0:
64,316,41280,2,0,L|83:146,1,119.000002269745,2|2,1:2|0:0,0:0:0:0:
127,138,41579,1,0,0:0:0:0:
127,138,41679,6,0,B|156:126|156:126|327:197|327:197|359:191,1,238.00000453949,0|2,3:2|1:2,0:0:0:0:
348,193,42279,1,2,1:2:0:0:
37,353,42479,5,8,1:2:0:0:
482,311,42879,5,2,1:2:0:0:
239,107,43279,6,0,L|217:250,1,119.000002269745,0|2,3:2|1:2,0:0:0:0:
277,273,43579,1,0,0:0:0:0:
287,277,43679,2,0,L|303:212,1,59.5000011348725,2|0,1:2|0:0,0:0:0:0:
361,169,43879,1,2,1:2:0:0:
159,35,44079,2,0,L|88:48,1,59.5000011348725,8|0,2:2|0:0,0:0:0:0:
22,45,44279,1,2,1:2:0:0:
19,56,44379,2,0,L|37:200,1,119.000002269745,2|0,1:2|0:0,0:0:0:0:
103,212,44679,2,0,L|113:148,1,59.5000011348725,2|2,0:0|1:2,0:0:0:0:
185,121,44879,5,0,3:2:0:0:
196,124,44979,1,0,0:0:0:0:
207,127,45079,1,2,1:2:0:0:
217,131,45178,1,0,0:0:0:0:
228,133,45278,2,0,L|223:211,1,59.5000011348725,2|0,1:2|0:0,0:0:0:0:
287,235,45478,2,0,L|286:305,1,59.5000011348725,2|0,1:2|0:0,0:0:0:0:
234,356,45678,1,8,1:2:0:0:
199,291,45878,5,2,3:2:0:0:
321,160,46078,5,2,2:2:0:0:
200,20,46278,5,2,3:2:0:0:
212,119,46478,6,0,L|221:205,1,59.5000011348725,4|0,3:2|0:0,0:0:0:0:
101,364,46678,6,0,L|98:336,1,17.5
32,293,46878,2,0,L|33:310,1,17.5,2|0,1:2|0:0,0:0:0:0:
101,364,47078,2,0,L|98:336,1,17.5,0|0,3:2|0:0,0:0:0:0:
460,23,47278,6,0,L|440:179,1,119.000002269745,8|2,2:2|1:2,0:0:0:0:
496,209,47578,1,2,1:2:0:0:
496,209,47678,2,0,L|480:90,1,119.000002269745,2|2,1:2|0:0,0:0:0:0:
406,82,47978,1,0,0:0:0:0:
406,82,48078,6,0,B|378:101|378:101|399:276|399:276|437:302,1,238.00000453949,0|2,3:2|1:2,0:0:0:0:
422,291,48678,1,2,1:2:0:0:
125,43,48877,5,8,1:2:0:0:
54,332,49277,5,2,1:2:0:0:
226,211,49477,5,2,1:2:0:0:
180,151,49677,2,0,L|31:165,1,119.000002269745,0|2,3:2|1:2,0:0:0:0:
34,232,49977,1,2,1:2:0:0:
27,241,50077,2,0,L|46:311,1,59.5000011348725,2|0,1:2|0:0,0:0:0:0:
145,345,50277,2,0,L|122:269,1,59.5000011348725,2|0,1:2|0:0,0:0:0:0:
258,112,50477,6,0,L|241:208,1,59.5000011348725,8|0,2:2|0:0,0:0:0:0:
318,250,50677,2,0,L|335:154,1,59.5000011348725,2|2,1:2|1:2,0:0:0:0:
481,65,50877,5,2,1:2:0:0:
416,364,51077,5,2,0:0:0:0:
157,197,51277,5,0,3:2:0:0:
102,114,51877,6,0,L|241:128,1,119.000002269745,2|0,1:2|0:0,0:0:0:0:
401,237,52077,6,0,L|262:223,1,119.000002269745,8|0,1:2|0:0,0:0:0:0:
19,161,52277,6,0,L|212:142,1,119.000002269745,8|0,1:2|0:0,0:0:0:0:
484,190,52477,6,0,L|291:209,1,119.000002269745,8|0,1:2|0:0,0:0:0:0:
212,27,52676,6,0,L|237:29,1,21,8|0,1:2|0:0,0:0:0:0:
296,72,53076,6,0,B|269:111|269:111|284:176,1,87.5,12|0,3:2|0:0,0:0:0:0:
339,286,53276,2,0,B|319:243|319:243|255:224,1,87.5,2|0,3:2|0:0,0:0:0:0:
132,217,53476,2,0,B|179:221|179:221|228:175,1,87.5,2|0,3:2|0:0,0:0:0:0:
278,150,53676,5,10,3:2:0:0:
278,150,54076,2,0,B|269:111|269:111|296:72,1,87.5,2|0,3:2|0:0,0:0:0:0:
281,232,54276,2,0,B|319:243|319:243|339:286,1,87.5,2|0,3:2|0:0,0:0:0:0:
208,193,54476,2,0,B|179:221|179:221|132:217,1,87.5,2|0,3:2|0:0,0:0:0:0:
483,256,54676,5,2,1:2:0:0:
28,172,54876,5,2,1:2:0:0:
410,270,55076,6,0,L|271:256,1,119.000002269745,2|0,1:2|0:0,0:0:0:0:
111,147,55276,6,0,L|250:161,1,119.000002269745,10|0,3:2|0:0,0:0:0:0:
493,223,55476,6,0,L|300:242,1,119.000002269745,2|0,1:2|0:0,0:0:0:0:
28,194,55676,6,0,L|221:175,1,119.000002269745,2|0,1:2|0:0,0:0:0:0:
300,357,55876,6,0,L|275:355,1,21,2|0,1:2|0:0,0:0:0:0:
216,312,56276,6,0,B|243:273|243:273|228:208,1,87.5,12|0,3:2|0:0,0:0:0:0:
155,230,56475,2,0,B|116:201|116:201|51:214,1,87.5,2|0,3:2|0:0,0:0:0:0:
57,282,56675,2,0,B|27:319|27:319|37:384,1,87.5,2|0,3:2|0:0,0:0:0:0:
104,384,56875,1,10,3:2:0:0:
33,358,57275,6,0,B|26:318|26:318|56:281,1,87.5,2|0,3:2|0:0,0:0:0:0:
77,209,57475,2,0,B|116:201|116:201|154:229,1,87.5,2|0,3:2|0:0,0:0:0:0:
233,233,57675,6,0,B|243:273|243:273|216:312,1,87.5,2|0,3:2|0:0,0:0:0:0:
240,237,57875,2,0,B|249:276|249:276|222:315,1,87.5,2|0,1:2|0:0,0:0:0:0:
318,179,58075,1,2,1:2:0:0:
318,179,58275,6,0,L|466:192,1,119.000002269745,2|0,1:2|0:0,0:0:0:0:
197,74,58475,6,0,L|49:61,1,119.000002269745,10|0,3:2|0:0,0:0:0:0:
378,225,58675,6,0,L|526:212,1,119.000002269745,2|0,1:2|0:0,0:0:0:0:
137,28,58875,6,0,L|-11:41,1,119.000002269745,2|0,1:2|0:0,0:0:0:0:
315,70,59075,6,0,L|339:72,1,21,2|0,1:2|0:0,0:0:0:0:
406,32,59475,6,0,B|433:71|433:71|423:110,1,87.5,12|0,3:2|0:0,0:0:0:0:
106,352,59675,2,0,B|79:313|79:313|88:273,1,87.5,2|0,3:2|0:0,0:0:0:0:
406,32,59875,2,0,B|433:71|433:71|423:110,1,87.5,2|0,3:2|0:0,0:0:0:0:
255,195,60075,5,10,3:2:0:0:
88,273,60474,2,0,B|79:313|79:313|106:352,1,87.5,2|0,3:2|0:0,0:0:0:0:
423,110,60674,2,0,B|433:71|433:71|406:32,1,87.5,2|0,3:2|0:0,0:0:0:0:
88,273,60874,2,0,B|79:313|79:313|106:352,1,87.5,2|0,3:2|0:0,0:0:0:0:
168,28,61074,5,2,1:2:0:0:
459,228,61274,5,2,1:2:0:0:
194,205,61474,6,0,L|46:192,1,119.000002269745,2|0,1:2|0:0,0:0:0:0:
315,310,61674,6,0,L|463:323,1,119.000002269745,10|0,3:2|0:0,0:0:0:0:
134,159,61874,6,0,L|-14:172,1,119.000002269745,2|0,1:2|0:0,0:0:0:0:
375,356,62074,6,0,L|523:343,1,119.000002269745,2|0,1:2|0:0,0:0:0:0:
197,314,62274,6,0,L|173:312,1,21,2|0,1:2|0:0,0:0:0:0:
15,169,62674,6,0,B|54:142|54:142|93:152,1,87.5,12|0,3:2|0:0,0:0:0:0:
490,216,62874,2,0,B|451:243|451:243|412:233,1,87.5,2|0,3:2|0:0,0:0:0:0:
15,169,63074,2,0,B|54:142|54:142|93:152,1,87.5,2|0,3:2|0:0,0:0:0:0:
255,195,63274,1,10,3:2:0:0:
412,233,63674,6,0,B|451:243|451:243|490:216,1,87.5,2|0,3:2|0:0,0:0:0:0:
93,152,63873,2,0,B|54:142|54:142|15:169,1,87.5,2|0,3:2|0:0,0:0:0:0:
412,233,64073,2,0,B|451:243|451:243|490:216,1,87.5,2|0,3:2|0:0,0:0:0:0:
211,67,64273,5,2,1:2:0:0:
344,327,64473,5,2,1:2:0:0:
17,364,64673,6,0,L|42:246,1,119.000002269745,2|0,1:2|0:0,0:0:0:0:
117,268,64873,6,0,L|162:158,1,87.5,10|0,3:2|0:0,0:0:0:0:
220,225,65073,6,0,L|264:162,1,59.5000011348725,2|0,1:2|0:0,0:0:0:0:
322,209,65273,6,0,L|359:172,1,35,2|0,1:2|0:0,0:0:0:0:
412,233,65473,6,0,L|430:220,1,14,2|0,1:2|0:0,0:0:0:0:
489,262,65673,5,2,1:2:0:0:
489,262,67273,6,2,L|508:151,1,112,0|4,3:2|3:2,0:1:0:0:
111,73,69472,5,0,0:0:0:0:
171,26,69672,2,0,P|245:60|268:108,1,119.000002269745,8|2,2:2|1:2,0:0:0:0:
219,144,69972,1,2,1:2:0:0:
212,153,70072,2,0,L|210:221,1,59.5000011348725,2|0,1:2|0:0,0:0:0:0:
265,266,70272,1,2,0:0:0:0:
197,357,70472,6,0,P|187:267|176:209,1,119.000002269745,0|2,3:2|1:2,0:0:0:0:
113,212,70772,1,0,0:0:0:0:
102,216,70872,2,0,P|68:225|32:231,1,59.5000011348725,2|0,1:2|0:0,0:0:0:0:
16,301,71072,1,2,1:2:0:0:
237,102,71272,6,0,P|273:102|315:117,1,59.5000011348725,8|0,1:2|0:0,0:0:0:0:
441,98,71471,1,2,1:2:0:0:
435,87,71571,2,0,P|364:60|317:17,1,119.000002269745,2|0,1:2|0:0,0:0:0:0:
503,42,71871,1,2,1:2:0:0:
503,42,72071,6,0,P|485:144|461:300,1,238.00000453949,0|2,3:2|1:2,0:0:0:0:
409,324,72671,1,2,1:2:0:0:
409,324,72871,2,0,P|388:291|380:261,1,59.5000011348725,8|0,2:2|0:0,0:0:0:0:
342,209,73071,1,2,1:2:0:0:
234,200,73171,2,0,P|271:262|312:366,1,178.500003404617,2|2,1:2|0:0,0:0:0:0:
146,131,73671,6,0,P|115:141|66:150,1,59.5000011348725,0|0,3:2|0:0,0:0:0:0:
16,119,73871,1,2,1:2:0:0:
271,82,74071,6,0,P|241:63|192:54,1,59.5000011348725,2|0,1:2|0:0,0:0:0:0:
146,83,74271,1,2,1:2:0:0:
352,33,74471,5,8,1:2:0:0:
243,34,75270,6,0,L|226:344,1,280,4|2,3:2|1:2,0:0:0:0:
287,365,75870,1,0,3:2:0:0:
472,152,76070,6,0,P|465:126|448:92,1,59.5000011348725,8|0,2:2|0:0,0:0:0:0:
388,59,76270,2,0,P|361:65|327:80,1,59.5000011348725,2|2,1:2|1:2,0:0:0:0:
481,137,76470,6,0,P|474:111|457:77,1,59.5000011348725,2|0,1:2|0:0,0:0:0:0:
397,44,76670,2,0,P|370:50|336:65,1,59.5000011348725,2|0,0:0|0:0,0:0:0:0:
232,178,76870,6,0,P|154:180|90:149,1,119.000002269745,0|2,3:2|1:2,0:0:0:0:
56,121,77170,1,2,1:2:0:0:
45,127,77270,2,0,P|29:163|21:202,1,59.5000011348725,2|2,1:2|1:2,0:0:0:0:
53,257,77470,2,0,P|80:254|118:238,1,59.5000011348725,2|0,1:2|0:0,0:0:0:0:
320,269,77670,6,0,P|388:275|450:308,1,119.000002269745,8|2,1:2|1:2,0:0:0:0:
312,311,77970,1,2,1:2:0:0:
302,303,78070,2,0,P|263:321|233:330,1,59.5000011348725,2|0,1:2|0:0,0:0:0:0:
172,302,78270,2,0,P|162:330|150:356,1,59.5000011348725,2|0,1:2|0:0,0:0:0:0:
5,353,78470,6,0,P|7:295|1:234,1,119.000002269745,0|2,3:2|1:2,0:0:0:0:
9,164,78770,1,2,1:2:0:0:
19,158,78869,2,0,P|47:168|68:191,1,59.5000011348725,2|0,1:2|0:0,0:0:0:0:
53,52,79069,2,0,P|25:62|3:85,1,59.5000011348725,2|0,1:2|0:0,0:0:0:0:
150,122,79269,6,0,L|267:100,1,119.000002269745,8|2,2:2|1:2,0:0:0:0:
301,32,79569,1,2,1:2:0:0:
301,32,79669,1,2,1:2:0:0:
272,200,79869,1,2,0:0:0:0:
270,211,79969,1,2,1:2:0:0:
268,222,80069,2,0,L|326:210,1,59.5000011348725,0|0,3:2|0:0,0:0:0:0:
279,384,80269,5,2,1:2:0:0:
281,373,80369,1,0,0:0:0:0:
285,361,80469,2,0,L|246:315,1,59.5000011348725,2|0,1:2|0:0,0:0:0:0:
397,280,80669,2,0,L|377:336,1,59.5000011348725,2|0,1:2|0:0,0:0:0:0:
318,287,80869,1,8,1:2:0:0:
318,287,81269,5,2,1:2:0:0:
318,287,81469,1,2,1:2:0:0:
408,384,81669,6,0,B|388:213|388:213|323:199,1,238.00000453949,4|2,3:2|1:2,0:0:0:0:
283,18,82269,1,0,0:0:0:0:
312,125,82469,6,0,P|283:133|262:154,1,59.5000011348725,8|0,2:2|0:0,0:0:0:0:
183,152,82668,1,2,1:2:0:0:
178,163,82768,2,0,P|189:220|228:265,1,119.000002269745,2|0,1:2|0:0,0:0:0:0:
228,265,83068,2,0,L|213:336,1,59.5000011348725,2|0,0:0|0:0,0:0:0:0:
149,363,83268,5,0,3:2:0:0:
20,258,83468,1,2,1:2:0:0:
353,200,83668,5,2,1:2:0:0:
84,310,83868,1,2,1:2:0:0:
240,92,84068,6,0,L|252:33,1,59.5000011348725,8|0,1:2|0:0,0:0:0:0:
258,39,84268,2,0,L|245:97,1,59.5000011348725,2|2,1:2|1:2,0:0:0:0:
154,141,84468,2,0,P|240:119|328:103,1,178.500003404617,2|0,1:2|0:0,0:0:0:0:
433,14,84868,6,0,P|462:15|487:31,1,59.5000011348725,0|0,3:2|0:0,0:0:0:0:
499,32,85068,2,0,P|506:60|499:89,1,59.5000011348725,2|0,1:2|0:0,0:0:0:0:
479,210,85268,6,0,P|425:235|379:273,1,119.000002269745,2|2,1:2|1:2,0:0:0:0:
350,360,85668,1,8,2:2:0:0:
340,367,85768,2,0,L|281:354,1,59.5000011348725,0|2,0:0|1:2,0:0:0:0:
278,343,85968,1,2,1:2:0:0:
243,136,86168,1,0,0:0:0:0:
253,142,86268,1,2,0:0:0:0:
267,242,86467,6,0,L|209:227,1,59.5000011348725,0|0,3:2|0:0,0:0:0:0:
151,278,86667,1,2,1:2:0:0:
122,86,86867,2,0,L|140:203,1,119.000002269745,2|2,1:2|1:2,0:0:0:0:
141,288,87167,1,0,0:0:0:0:
132,296,87267,2,0,L|143:376,1,59.5000011348725,8|0,1:2|0:0,0:0:0:0:
211,376,87467,5,2,3:2:0:0:
230,199,87667,1,2,3:2:0:0:
249,22,87867,1,2,3:2:0:0:
287,330,88067,6,0,L|262:93,1,238.00000453949,4|2,3:2|1:2,0:0:0:0:
274,91,88567,1,0,0:0:0:0:
285,87,88667,1,0,3:2:0:0:
344,197,88867,6,0,L|403:186,1,59.5000011348725,8|0,2:2|0:0,0:0:0:0:
460,130,89067,1,2,1:2:0:0:
469,137,89167,2,0,P|453:192|441:252,1,119.000002269745,2|0,1:2|0:0,0:0:0:0:
462,344,89467,1,2,0:0:0:0:
472,350,89567,1,0,0:0:0:0:
482,355,89667,6,0,P|460:334|433:323,1,59.5000011348725,0|0,3:2|0:0,0:0:0:0:
371,284,89867,2,0,P|344:297|326:320,1,59.5000011348725,2|2,1:2|1:2,0:0:0:0:
197,322,90067,5,2,1:2:0:0:
382,382,90266,1,2,1:2:0:0:
255,79,90466,5,8,1:2:0:0:
221,140,90666,1,2,1:2:0:0:
209,137,90766,1,2,1:2:0:0:
193,133,90866,2,0,L|197:192,1,59.5000011348725,2|0,1:2|0:0,0:0:0:0:
180,1,91066,2,0,L|184:60,1,59.5000011348725,2|0,1:2|0:0,0:0:0:0:
29,368,91266,6,0,B|0:313|0:313|36:269,1,119.000002269745,0|2,3:2|1:2,0:0:0:0:
162,312,91566,5,2,1:2:0:0:
151,305,91666,2,0,P|122:311|95:323,1,59.5000011348725,2|0,1:2|0:0,0:0:0:0:
243,260,91866,6,0,P|217:244|190:233,1,59.5000011348725,2|0,1:2|0:0,0:0:0:0:
356,274,92066,6,0,P|349:245|337:218,1,59.5000011348725,8|0,2:2|0:0,0:0:0:0:
425,384,92266,6,0,P|440:358|451:331,1,59.5000011348725,2|2,1:2|1:2,0:0:0:0:
414,139,92466,5,2,1:2:0:0:
315,382,92666,1,2,0:0:0:0:
277,54,92866,1,0,3:2:0:0:
277,54,93466,6,0,L|265:172,1,119.000002269745,2|0,1:2|0:0,0:0:0:0:
271,174,93666,6,0,L|282:55,1,119.000002269745,8|0,1:2|0:0,0:0:0:0:
71,156,93865,6,0,L|187:129,1,119.000002269745,8|0,1:2|0:0,0:0:0:0:
475,71,94065,6,0,L|358:97,1,119.000002269745,8|0,1:2|0:0,0:0:0:0:
94,168,94265,6,0,L|73:163,1,21,8|0,1:2|0:0,0:0:0:0:
9,276,94665,6,0,P|45:251|87:239,1,87.5,12|0,3:2|0:0,0:0:0:0:
157,214,94865,2,0,P|195:233|225:265,1,87.5,2|0,3:2|0:0,0:0:0:0:
224,344,95065,1,2,3:2:0:0:
250,38,95265,1,10,3:2:0:0:
250,38,95665,6,0,L|242:125,1,87.5,2|0,3:2|0:0,0:0:0:0:
224,344,95865,2,0,L|231:256,1,87.5,2|0,3:2|0:0,0:0:0:0:
404,74,96065,2,0,B|361:64|361:64|320:80,1,87.5,2|0,3:2|0:0,0:0:0:0:
103,156,96265,5,2,1:2:0:0:
22,137,96465,1,2,1:2:0:0:
104,164,96665,6,0,P|160:147|220:140,1,119.000002269745,2|0,1:2|0:0,0:0:0:0:
498,25,96865,6,0,P|481:82|474:141,1,119.000002269745,10|0,3:2|0:0,0:0:0:0:
512,234,97065,6,0,P|454:217|395:210,1,119.000002269745,2|0,1:2|0:0,0:0:0:0:
83,66,97265,6,0,P|142:59|200:43,1,119.000002269745,2|0,1:2|0:0,0:0:0:0:
256,297,97465,6,0,L|253:317,1,21,2|0,1:2|0:0,0:0:0:0:
246,384,97864,6,0,L|256:297,1,87.5,12|0,3:2|0:0,0:0:0:0:
85,325,98064,2,0,L|171:335,1,87.5,2|0,3:2|0:0,0:0:0:0:
416,366,98264,2,0,L|329:355,1,87.5,2|0,3:2|0:0,0:0:0:0:
52,220,98464,5,10,3:2:0:0:
28,142,98664,1,2,1:2:0:0:
138,77,98864,1,2,3:2:0:0:
114,155,99064,1,2,3:2:0:0:
256,297,99264,6,0,P|299:285|341:280,1,87.5,2|0,3:2|0:0,0:0:0:0:
347,188,99464,2,0,P|386:210|419:236,1,87.5,2|0,1:2|0:0,0:0:0:0:
416,366,99664,1,2,1:2:0:0:
441,0,99864,6,0,L|434:122,1,119.000002269745,2|0,1:2|0:0,0:0:0:0:
231,137,100064,6,0,P|171:143|113:154,1,119.000002269745,10|0,3:2|0:0,0:0:0:0:
32,34,100264,6,0,P|90:45|149:51,1,119.000002269745,2|0,1:2|0:0,0:0:0:0:
213,355,100464,6,0,L|219:236,1,119.000002269745,2|0,1:2|0:0,0:0:0:0:
241,4,100664,6,0,L|239:24,1,21,2|0,1:2|0:0,0:0:0:0:
233,122,101064,6,0,P|271:102|315:97,1,87.5,12|0,3:2|0:0,0:0:0:0:
312,9,101264,2,0,P|353:22|387:49,1,87.5,2|0,3:2|0:0,0:0:0:0:
379,234,101463,6,0,L|371:321,1,87.5,2|0,3:2|0:0,0:0:0:0:
365,321,101663,2,0,L|372:233,1,87.5,10|0,3:2|0:0,0:0:0:0:
468,205,101863,1,2,1:2:0:0:
256,335,102063,2,0,P|170:352|86:376,1,175,2|2,3:2|3:2,0:0:0:0:
1,133,102463,6,0,P|43:144|82:163,1,87.5,2|0,3:2|0:0,0:0:0:0:
145,206,102663,2,0,P|131:249|125:291,1,87.5,2|0,1:2|0:0,0:0:0:0:
143,376,102863,1,2,1:2:0:0:
125,91,103063,6,0,P|68:65|13:49,1,119.000002269745,2|0,1:2|0:0,0:0:0:0:
274,267,103263,6,0,P|330:249|385:225,1,119.000002269745,10|0,3:2|0:0,0:0:0:0:
490,384,103463,6,0,P|446:343|398:308,1,119.000002269745,2|0,1:2|0:0,0:0:0:0:
483,139,103663,6,0,P|469:196|463:256,1,119.000002269745,2|0,1:2|0:0,0:0:0:0:
274,267,103863,6,0,L|249:263,1,21,2|0,1:2|0:0,0:0:0:0:
160,166,104263,6,0,L|177:251,1,87.5,12|0,3:2|0:0,0:0:0:0:
2,164,104463,2,0,P|43:154|87:146,1,87.5,2|0,3:2|0:0,0:0:0:0:
199,15,104663,2,0,P|241:25|284:32,1,87.5,2|0,3:2|0:0,0:0:0:0:
320,105,104863,1,10,3:2:0:0:
281,359,105063,1,2,1:2:0:0:
506,113,105262,6,0,P|332:138|160:166,1,350,2|2,3:2|3:2,0:0:0:0:
97,363,105862,5,2,1:2:0:0:
24,64,106062,1,2,1:2:0:0:
188,302,106262,6,0,P|137:258|86:240,1,119.000002269745,2|0,1:2|0:0,0:0:0:0:
261,287,106462,6,0,P|239:249|208:218,1,87.5,10|0,3:2|0:0,0:0:0:0:
336,299,106662,6,0,P|329:269|317:242,1,59.5000011348725,2|0,1:2|0:0,0:0:0:0:
408,331,106862,6,0,P|409:313|408:296,1,35,2|0,1:2|0:0,0:0:0:0:
472,375,107062,6,0,P|477:363|481:352,1,24.4999992523194
471,374,107262,5,2,1:2:0:0:
185,50,107462,5,4,3:2:0:0:
237,380,107662,1,0,0:0:0:0:
309,384,107862,5,0,3:2:0:0:
276,135,108062,1,8,3:2:0:0:
228,194,108262,5,0,3:2:0:0:
3,145,108462,1,0,0:0:0:0:
49,205,108662,5,0,3:2:0:0:
496,182,108861,2,0,L|78:136,1,420.000016021729,4|2,3:2|1:2,0:0:0:0:
49,68,109461,1,2,1:2:0:0:
438,258,109661,2,0,L|466:253,3,28,8|2|2|2,3:2|1:2|1:2|1:2,0:0:0:0:
496,182,110461,1,2,1:2:0:0:
105,361,110661,5,4,3:2:0:0:
149,14,110861,1,0,0:0:0:0:
206,66,111061,5,0,3:2:0:0:
177,331,111261,1,8,1:2:0:0:
112,287,111461,5,0,3:2:0:0:
262,117,111661,1,0,0:0:0:0:
321,167,111861,5,0,3:2:0:0:
10,122,112061,2,0,L|427:77,1,420.000016021729,4|2,3:2|1:2,0:0:0:0:
473,6,112660,1,2,1:2:0:0:
36,198,112860,6,0,L|62:206,3,28,8|2|2|2,3:2|1:2|1:2|1:2,0:0:0:0:
98,284,113660,1,2,1:2:0:0:
325,0,113860,5,4,3:2:0:0:
279,345,114060,1,0,0:0:0:0:
232,291,114260,5,0,3:2:0:0:
264,46,114460,1,8,1:2:0:0:
201,90,114660,5,0,3:2:0:0:
504,0,114860,1,0,0:0:0:0:
466,88,115060,5,0,3:2:0:0:
141,15,115260,2,0,B|223:59|223:59|166:381,1,420.000016021729,4|2,3:2|1:2,0:0:0:0:
242,384,115860,1,2,1:2:0:0:
149,42,116060,2,0,L|141:15,3,28,8|2|2|2,3:2|1:2|1:2|1:2,0:0:0:0:
66,0,116859,1,2,1:2:0:0:
414,35,117059,5,4,3:2:0:0:
0,95,117259,1,0,0:0:0:0:
46,153,117459,5,0,3:2:0:0:
390,103,117659,1,8,1:2:0:0:
340,48,117859,5,0,3:2:0:0:
280,384,118059,1,0,0:0:0:0:
346,354,118259,5,0,3:2:0:0:
46,153,118459,6,0,B|241:182|241:182|257:174|257:174|459:204,1,420.000016021729,4|2,3:2|1:2,0:0:0:0:
487,288,119059,1,2,1:2:0:0:
144,32,119259,6,0,P|92:39|53:72,1,105.000004005432,8|2,3:2|1:2,0:0:0:0:
189,195,119659,2,0,P|170:146|129:115,1,105.000004005432,2|2,1:2|1:2,0:0:0:0:
45,167,120059,6,0,L|34:203,1,28,4|0,3:2|0:0,0:0:0:0:
84,254,120458,2,0,L|73:290,2,28,2|0|8,1:2|0:0|2:2,0:0:0:0:
45,167,121258,5,2,1:2:0:0:
85,253,121458,1,2,0:0:0:0:
45,167,121658,6,0,L|55:131,1,28,0|2,3:2|1:2,0:0:0:0:
134,115,122058,2,0,L|126:141,1,28,2|2,1:2|1:2,0:0:0:0:
145,351,122458,5,8,1:2:0:0:
470,201,122858,5,2,1:2:0:0:
404,152,123058,5,2,1:2:0:0:
390,226,123258,2,0,L|396:265,1,28,0|2,3:2|1:2,0:0:0:0:
462,294,123658,2,0,L|468:333,2,28,2|2|8,1:2|1:2|2:2,0:0:0:0:
390,226,124457,5,2,1:2:0:0:
462,294,124657,1,2,0:0:0:0:
390,226,124857,1,0,3:2:0:0:
296,232,125057,6,0,L|278:249,1,14,2|0,1:2|0:0,0:0:0:0:
259,310,125257,2,0,L|265:337,1,28,2|2,1:2|1:2,0:0:0:0:
185,360,125657,5,8,1:2:0:0:
243,29,126057,5,2,1:2:0:0:
292,104,126257,5,0,0:0:0:0:
243,29,126457,2,0,L|207:34,1,28,4|0,3:2|0:0,0:0:0:0:
164,91,126857,2,0,L|128:96,2,28,2|0|8,1:2|0:0|2:2,0:0:0:0:
219,144,127457,1,2,1:2:0:0:
149,177,127656,1,2,1:2:0:0:
117,245,127856,1,2,0:0:0:0:
175,304,128056,6,0,L|167:339,1,28,0|2,3:2|1:2,0:0:0:0:
94,359,128456,2,0,L|101:321,1,28,2|2,1:2|1:2,0:0:0:0:
37,262,128856,5,8,1:2:0:0:
312,48,129256,5,2,1:2:0:0:
380,109,129456,5,2,1:2:0:0:
307,136,129656,2,0,L|290:164,1,28,0|2,3:2|1:2,0:0:0:0:
230,205,130056,2,0,L|236:242,2,28,2|2|8,1:2|1:2|2:2,0:0:0:0:
212,125,130856,5,2,1:2:0:0:
314,275,131056,1,2,0:0:0:0:
250,353,131256,1,0,3:2:0:0:
250,353,131855,5,2,1:2:0:0:
338,53,132055,1,8,1:2:0:0:
178,33,132255,1,8,1:2:0:0:
150,202,132455,1,8,1:2:0:0:
244,148,132655,6,0,L|269:148,1,21,8|0,1:2|0:0,0:0:0:0:
310,215,133055,6,0,B|370:234|370:234|380:276,1,87.5,12|0,3:2|0:0,0:0:0:0:
370,111,133255,2,0,B|418:151|418:151|412:193,1,87.5,2|0,3:2|0:0,0:0:0:0:
475,55,133455,2,0,B|504:110|504:110|482:147,1,87.5,2|0,3:2|0:0,0:0:0:0:
192,37,133655,6,0,B|144:19|144:19|76:43|76:43|29:113,2,175,10|2|2,3:2|1:2|3:2,0:0:0:0:
13,168,134255,1,2,3:2:0:0:
106,284,134455,2,0,B|88:236|88:236|112:168|112:168|182:121,2,175,2|2|2,3:2|1:2|1:2,0:0:0:0:
367,288,135055,6,0,L|397:138,1,119.000002269745,2|0,1:2|0:0,0:0:0:0:
383,103,135254,6,0,L|355:226,1,119.000002269745,10|0,3:2|0:0,0:0:0:0:
478,362,135454,6,0,L|461:240,1,119.000002269745,2|0,1:2|0:0,0:0:0:0:
266,11,135654,6,0,L|284:132,1,119.000002269745,2|0,1:2|0:0,0:0:0:0:
500,158,135854,6,0,L|496:133,1,21,2|0,1:2|0:0,0:0:0:0:
272,247,136254,6,0,P|251:287|249:353,1,87.5,12|0,3:2|0:0,0:0:0:0:
214,177,136454,2,0,L|141:244,1,87.5,2|0,3:2|0:0,0:0:0:0:
173,87,136654,2,0,P|140:117|76:136,1,87.5,2|0,3:2|0:0,0:0:0:0:
55,20,136854,5,10,3:2:0:0:
286,142,137054,1,2,1:2:0:0:
64,246,137254,5,2,3:2:0:0:
245,328,137454,1,2,3:2:0:0:
103,353,137654,5,2,3:2:0:0:
318,240,137854,1,2,1:2:0:0:
100,133,138054,1,2,1:2:0:0:
197,237,138254,6,0,L|317:195,1,119.000002269745,2|0,1:2|0:0,0:0:0:0:
329,86,138454,6,0,L|210:127,1,119.000002269745,10|0,3:2|0:0,0:0:0:0:
383,293,138654,6,0,L|407:159,1,119.000002269745,2|0,1:2|0:0,0:0:0:0:
471,27,138853,6,0,L|493:155,1,119.000002269745,2|0,1:2|0:0,0:0:0:0:
503,352,139053,6,0,L|500:329,1,21,2|0,1:2|0:0,0:0:0:0:
353,352,139453,6,0,B|299:329|299:329|267:340,1,87.5,12|0,3:2|0:0,0:0:0:0:
141,252,139653,2,0,B|195:229|195:229|227:240,1,87.5,2|0,3:2|0:0,0:0:0:0:
358,140,139853,2,0,B|304:117|304:117|272:128,1,87.5,2|0,3:2|0:0,0:0:0:0:
99,80,140053,6,0,B|159:25|159:25|276:30,1,175,10|2,3:2|1:2,0:0:0:0:
474,146,140453,1,2,3:2:0:0:
252,28,140653,1,2,3:2:0:0:
359,276,140853,6,0,B|299:221|299:221|182:226,2,175,2|2|2,3:2|1:2|1:2,0:0:0:0:
142,352,141453,1,2,1:2:0:0:
20,134,141653,6,0,L|43:255,1,119.000002269745,10|0,3:2|0:0,0:0:0:0:
128,126,141853,6,0,L|104:6,1,119.000002269745,2|0,1:2|0:0,0:0:0:0:
221,150,142053,6,0,L|196:275,1,119.000002269745,2|0,1:2|0:0,0:0:0:0:
304,348,142253,6,0,L|298:325,1,21,2|0,1:2|0:0,0:0:0:0:
388,198,142652,6,0,P|483:222|510:258,1,87.5,12|0,3:2|0:0,0:0:0:0:
292,127,142852,2,0,P|332:110|375:111,1,87.5,2|0,3:2|0:0,0:0:0:0:
493,33,143052,2,0,P|452:16|409:17,1,87.5,2|0,3:2|0:0,0:0:0:0:
111,134,143252,5,10,3:2:0:0:
288,215,143452,1,2,1:2:0:0:
161,62,143652,5,2,3:2:0:0:
29,246,143852,1,2,3:2:0:0:
288,305,144052,5,2,3:2:0:0:
218,271,144252,1,2,1:2:0:0:
183,337,144452,1,2,1:2:0:0:
252,370,144652,1,2,1:2:0:0:
290,134,144852,6,0,P|288:88|268:3,1,119.000002269745,10|0,3:2|0:0,0:0:0:0:
356,163,145052,6,0,P|362:117|359:36,1,87.5,2|0,1:2|0:0,0:0:0:0:
420,203,145252,6,0,P|435:159|446:94,1,59.5000011348725,2|0,1:2|0:0,0:0:0:0:
482,241,145452,6,0,P|499:211|505:192,1,35,2|0,1:2|0:0,0:0:0:0:
511,314,145652,5,2,1:2:0:0:
511,314,145852,2,0,B|481:318|481:318|217:275|217:275|169:282,1,315.000012016297,4|0,3:2|0:0,0:0:0:0:
39,278,146252,6,0,B|56:280|56:280|320:237|320:237|350:241,1,315.000012016297,0|0,3:2|0:0,0:0:0:0:
501,170,146651,6,0,B|471:174|471:174|207:131|207:131|159:138,1,315.000012016297,0|0,3:2|0:0,0:0:0:0:
32,118,147051,5,0,3:2:0:0:
196,17,147251,6,0,L|248:23,1,49,4|0,3:2|0:0,0:0:0:0:
309,56,148051,2,0,L|255:51,1,49,8|0,3:2|0:0,0:0:0:0:
87,60,148851,5,2,1:2:0:0:
87,60,149051,2,0,B|91:90|91:90|48:354|48:354|55:402,1,315.000012016297,4|0,3:2|0:0,0:0:0:0:
155,313,149451,6,0,B|157:295|157:295|114:31|114:31|118:1,1,315.000012016297,0|0,3:2|0:0,0:0:0:0:
260,51,149851,6,0,B|264:81|264:81|221:345|221:345|228:393,1,315.000012016297,0|0,3:2|0:0,0:0:0:0:
415,251,150250,5,0,3:2:0:0:
479,176,150450,6,0,L|477:161,2,14,4|2|2,3:2|1:2|1:2,0:0:0:0:
424,98,151050,1,2,1:2:0:0:
410,320,151250,5,8,3:2:0:0:
444,249,151450,1,2,1:2:0:0:
479,355,151650,5,2,1:2:0:0:
377,199,151850,1,2,1:2:0:0:
26,342,152050,5,2,1:2:0:0:
26,342,152250,2,0,B|56:346|56:346|320:303|320:303|368:310,1,315.000012016297,4|0,3:2|0:0,0:0:0:0:
92,367,152650,6,0,B|119:354|119:354|317:174|317:174|361:153,1,315.000012016297,0|0,3:2|0:0,0:0:0:0:
140,313,153050,6,0,B|155:287|155:287|223:28|223:28|249:-12,1,315.000012016297,0|0,3:2|0:0,0:0:0:0:
71,205,153450,5,0,3:2:0:0:
113,138,153650,1,4,3:2:0:0:
17,36,153849,2,0,L|17:68,1,28,2|2,1:2|1:2,0:0:0:0:
104,133,154449,5,8,3:2:0:0:
48,192,154649,1,2,1:2:0:0:
105,251,154849,1,2,1:2:0:0:
58,318,155049,1,2,1:2:0:0:
256,46,155249,5,2,1:2:0:0:
256,46,155449,6,0,B|268:73|268:73|448:271|448:271|469:315,1,315.000012016297,4|0,3:2|0:0,0:0:0:0:
382,18,155849,6,0,B|369:45|369:45|189:243|189:243|168:287,1,315.000012016297,0|0,3:2|0:0,0:0:0:0:
185,137,156249,6,0,B|197:164|197:164|377:362|377:362|398:406,1,315.000012016297,0|0,3:2|0:0,0:0:0:0:
506,194,156649,5,0,3:2:0:0:
443,148,156849,2,0,L|411:148,1,28,4|2,3:2|1:2,0:0:0:0:
487,247,157449,5,2,1:2:0:0:
353,73,157648,1,8,3:2:0:0:
171,261,157848,1,2,1:2:0:0:
214,329,158048,1,2,1:2:0:0:
214,329,158648,6,0,L|198:225,1,105.000004005432,6|0,3:2|0:0,0:0:0:0:
161,0,158848,2,0,L|176:103,1,105.000004005432,2|0,3:2|0:0,0:0:0:0:
124,174,159048,1,2,3:2:0:0:
463,273,159248,2,0,L|512:289,1,52.5000020027161,10|0,3:2|0:0,0:0:0:0:
512,289,159648,6,0,L|463:273,1,52.5000020027161,2|0,3:2|0:0,0:0:0:0:
355,98,159848,6,0,L|365:149,1,52.5000020027161,2|0,3:2|0:0,0:0:0:0:
268,330,160048,6,0,L|307:295,1,52.5000020027161,2|0,3:2|0:0,0:0:0:0:
408,43,160248,6,0,L|444:53,6,26.2500010013581
341,23,160448,2,0,L|315:15,6,26.2500010013581,2|0|0|0|0|0|0,2:2|0:0|0:0|0:0|0:0|0:0|0:0,0:0:0:0:
355,98,160648,1,0,3:2:0:0:
7,34,160848,6,0,P|52:56|90:96,1,105.000004005432,10|0,3:2|0:0,0:0:0:0:
10,28,161048,2,0,P|55:50|93:90,1,105.000004005432,10|0,3:2|0:0,0:0:0:0:
88,177,161248,2,0,L|71:280,1,105.000004005432,10|0,3:2|0:0,0:0:0:0:
115,384,161447,6,0,L|95:174,1,210.000008010865,10|0,3:2|0:0,0:0:0:0:
180,50,161847,1,6,3:2:0:0:
342,368,162047,6,0,P|389:346|442:340,1,105.000004005432,2|0,3:2|0:0,0:0:0:0:
425,175,162247,2,0,P|460:213|482:261,1,105.000004005432,2|0,3:2|0:0,0:0:0:0:
266,381,162447,6,0,P|266:355|276:331,1,52.5000020027161,10|0,3:2|0:0,0:0:0:0:
276,331,162847,6,0,P|266:355|266:381,1,52.5000020027161,2|0,3:2|0:0,0:0:0:0:
160,160,163047,6,0,P|185:155|208:143,1,52.5000020027161,2|0,3:2|0:0,0:0:0:0:
70,346,163247,6,0,P|53:325|31:312,1,52.5000020027161,14|0,3:2|0:0,0:0:0:0:
