osu file format v14

[General]
AudioFilename: audio.mp3
AudioLeadIn: 0
PreviewTime: -1
Countdown: 0
SampleSet: None
StackLeniency: 0.2
Mode: 0
LetterboxInBreaks: 0
WidescreenStoryboard: 0

[Editor]
DistanceSpacing: 1.4
BeatDivisor: 4
GridSize: 4
TimelineZoom: 1.7

[Metadata]
Title:Heavy (feat. Kiiara)
TitleUnicode:Heavy (feat. Kiiara)
Artist:Linkin Park
ArtistUnicode:Linkin Park
Creator:MaddaFakka-sama
Version:Hard
Source:
Tags:
BeatmapID:1975031
BeatmapSetID:945852

[Difficulty]
HPDrainRate:4
CircleSize:3.5
OverallDifficulty:4.5
ApproachRate:8
SliderMultiplier:1.4
SliderTickRate:1

[Events]
//Background and Video events
0,0,"Linkin-Park-Wallpaper.jpg",0,0
//Break Periods
2,66827,72877
//Storyboard Layer 0 (Background)
//Storyboard Layer 1 (Fail)
//Storyboard Layer 2 (Pass)
//Storyboard Layer 3 (Foreground)
//Storyboard Sound Samples

[TimingPoints]
3427,400,4,2,1,100,1,0
21427,-80,4,2,1,100,0,0
28827,-80,4,2,1,5,0,0
28927,-80,4,2,1,100,0,0
31227,-80,4,2,1,5,0,0
31327,-80,4,2,1,100,0,0
54427,-100,4,2,1,5,0,0
54527,-100,4,2,1,100,0,0
157027,-100,4,2,1,80,0,0
157627,-100,4,2,1,60,0,0
158227,-100,4,2,1,50,0,0
158827,-100,4,2,1,40,0,0
160227,-100,4,2,1,35,0,0
161827,-100,4,2,1,30,0,0
163427,-100,4,2,1,20,0,0
163827,-100,4,2,1,10,0,0
164627,-100,4,2,1,5,0,0

[HitObjects]
152,264,3427,5,2,0:0:0:0:
256,192,4027,1,10,0:0:0:0:
360,120,4627,1,2,0:0:0:0:
164,108,6427,5,8,0:0:0:0:
164,108,6527,1,8,0:0:0:0:
164,108,6627,1,2,0:0:0:0:
256,192,7227,1,10,0:0:0:0:
348,276,7827,1,2,0:0:0:0:
256,316,9827,5,2,0:0:0:0:
256,192,10427,1,10,0:0:0:0:
256,68,11027,1,2,0:0:0:0:
256,64,12827,5,8,0:0:0:0:
256,64,12927,1,8,0:0:0:0:
256,64,13027,1,2,0:0:0:0:
256,188,13627,1,10,0:0:0:0:
256,312,14227,1,2,0:0:0:0:
128,360,14627,2,0,P|108:316|112:280,1,70,2|10,0:0|0:0,0:0:0:0:
24,264,15027,2,0,P|80:212|152:220,2,140,2|4|2,0:0|0:0|0:0,0:0:0:0:
108,295,16027,1,2,0:0:0:0:
192,328,16227,6,2,P|228:284|240:180,1,140,10|2,0:0|0:0,0:0:0:0:
336,196,16827,2,0,P|300:152|288:48,1,140,8|2,0:0|0:0,0:0:0:0:
212,12,17427,2,0,P|201:80|159:136,1,140,8|2,0:0|0:0,0:0:0:0:
236,188,18027,2,0,P|304:177|360:135,1,140,8|2,0:0|0:0,0:0:0:0:
292,64,18627,2,0,P|168:80|156:104,1,140,8|2,0:0|0:0,0:0:0:0:
116,160,19227,1,2,0:0:0:0:
48,224,19427,6,0,P|113:302|215:304,2,210,8|4|8,0:0|0:0|0:0,0:0:0:0:
180,224,21027,1,2,0:0:0:0:
240,300,21227,1,2,0:0:0:0:
340,336,21427,2,0,P|360:292|352:236,1,87.5,8|2,0:0|0:0,0:0:0:0:
464,220,21827,2,0,P|463:176|482:137,1,87.5,8|2,0:0|0:0,0:0:0:0:
416,48,22227,1,2,0:0:0:0:
320,124,22427,1,2,0:0:0:0:
224,204,22627,6,0,P|152:208|96:124,1,175,8|2,0:0|0:0,0:0:0:0:
196,112,23227,2,0,P|279:113|323:185,1,175,8|2,0:0|0:0,0:0:0:0:
208,232,23827,2,0,P|251:303|335:305,1,175,8|2,0:0|0:0,0:0:0:0:
452,260,24427,2,0,P|408:188|324:186,1,175,8|2,0:0|0:0,0:0:0:0:
344,308,25027,6,0,L|144:348,1,175,8|2,0:0|0:0,0:0:0:0:
64,280,25627,1,2,0:0:0:0:
120,156,25827,2,0,P|208:96|176:180,2,262.5,10|4|8,0:0|0:0|0:0,0:0:0:0:
256,192,27227,12,0,28827,0:0:0:0:
96,228,29027,6,0,P|104:84|324:144,1,437.5,14|2,0:0|0:0,0:0:0:0:
200,164,30227,2,0,P|341:309|440:156,1,437.5,14|0,0:0|0:0,0:0:0:0:
196,56,32227,2,0,P|132:96|108:128,1,87.5,8|2,0:0|0:0,0:0:0:0:
140,264,32627,2,0,P|164:224|200:192,1,87.5,8|2,0:0|0:0,0:0:0:0:
344,188,33027,1,10,0:0:0:0:
144,24,33427,2,0,B|148:76|148:76|128:136,1,87.5,8|2,0:0|0:0,0:0:0:0:
60,200,33827,2,0,B|55:253|55:253|72:296,1,87.5,8|2,0:0|0:0,0:0:0:0:
176,328,34627,6,0,P|132:272|136:232,1,87.5,8|2,0:0|0:0,0:0:0:0:
220,180,35027,2,0,P|200:112|172:92,1,87.5,8|2,0:0|0:0,0:0:0:0:
72,32,35427,2,0,B|64:76|144:168|144:168|136:296|296:288|320:216|284:152|300:156|300:156|404:224,2,525,14|14|14,0:0|0:0|0:0,0:0:0:0:
220,180,38427,5,10,0:0:0:0:
200,56,38627,2,0,P|248:60|312:88,1,87.5,10|2,0:0|0:0,0:0:0:0:
380,148,39027,2,0,P|436:164|476:164,1,87.5,10|2,0:0|0:0,0:0:0:0:
400,256,39427,1,8,0:0:0:0:
248,292,39827,1,8,0:0:0:0:
96,328,40227,1,8,0:0:0:0:
96,328,40427,1,8,0:0:0:0:
76,100,41427,5,8,0:0:0:0:
200,60,41627,1,2,0:0:0:0:
148,180,41827,2,0,P|100:216|72:264,1,87.5,8|2,0:0|0:0,0:0:0:0:
204,304,42227,1,8,0:0:0:0:
301,222,42427,2,0,P|253:178|137:186,1,175,2|10,0:0|0:0,0:0:0:0:
104,56,43027,1,2,0:0:0:0:
231,109,43227,2,0,P|240:64|276:28,1,87.5,8|2,0:0|0:0,0:0:0:0:
280,176,43627,2,0,P|238:189|195:181,1,87.5,8|2,0:0|0:0,0:0:0:0:
80,120,44027,1,2,0:0:0:0:
72,252,44227,6,0,P|120:320|216:324,1,175,10|8,0:0|0:0,0:0:0:0:
200,152,44827,1,2,0:0:0:0:
64,260,45027,6,0,B|84:308|124:332|124:332|168:344|208:332,1,175,8|8,0:0|0:0,0:0:0:0:
200,152,45627,1,2,0:0:0:0:
60,268,45827,2,0,B|80:320|116:344|116:344|160:348|204:332,1,175,8|8,0:0|0:0,0:0:0:0:
200,152,46427,1,2,0:0:0:0:
156,28,46627,2,0,P|88:64|64:164,1,175,8|8,0:0|0:0,0:0:0:0:
200,152,47227,1,2,0:0:0:0:
320,220,47427,2,0,P|336:168|276:40,1,175,8|4,0:0|0:0,0:0:0:0:
100,196,48227,5,10,0:0:0:0:
328,264,48827,1,12,0:0:0:0:
108,352,49427,2,0,B|116:355|116:355|164:339|164:339|204:351|236:339|236:339|268:308|268:308|304:356|368:348|388:312|396:296|396:296|432:312|448:304,2,350,10|10|10,0:0|0:0|0:0,0:0:0:0:
256,192,51427,12,0,54427,0:0:0:0:
120,128,54627,6,0,P|180:104|268:120,1,140,8|2,0:0|0:0,0:0:0:0:
196,200,55227,2,0,P|256:224|344:208,1,140,8|2,0:0|0:0,0:0:0:0:
312,320,55827,2,0,P|372:296|460:312,1,140,8|2,0:0|0:0,0:0:0:0:
400,212,56427,1,2,0:0:0:0:
504,220,56627,2,0,P|504:176|448:100,1,140,2|8,0:0|0:0,0:0:0:0:
360,44,57227,1,2,0:0:0:0:
449,100,57427,1,2,0:0:0:0:
448,8,57627,1,2,0:0:0:0:
376,116,57827,6,0,L|268:232,1,140,8|2,0:0|0:0,0:0:0:0:
240,100,58427,2,0,L|132:216,1,140,8|2,0:0|0:0,0:0:0:0:
112,80,59027,2,0,L|4:196,1,140,8|2,0:0|0:0,0:0:0:0:
104,276,59627,1,10,0:0:0:0:
104,276,59827,2,0,L|204:373,1,140,2|4,0:0|0:0,0:0:0:0:
200,56,61027,6,0,P|276:52|336:96,1,140,8|2,0:0|0:0,0:0:0:0:
208,48,61627,2,0,B|252:36|288:24|315:58|336:84,1,140,8|2,0:0|0:0,0:0:0:0:
216,40,62227,2,0,B|260:24|296:28|296:28|320:48|344:80,1,140,8|2,0:0|0:0,0:0:0:0:
192,236,63027,1,2,0:0:0:0:
388,160,63427,2,0,P|416:128|432:24,1,140,6|8,0:0|0:0,0:0:0:0:
296,60,64027,1,2,0:0:0:0:
296,60,64127,1,2,0:0:0:0:
296,60,64227,5,8,0:0:0:0:
200,20,64427,1,8,0:0:0:0:
116,84,64627,2,0,L|88:176,1,70,8|2,0:0|0:0,0:0:0:0:
200,168,65027,2,0,L|224:248,1,70,8|2,0:0|0:0,0:0:0:0:
116,256,65427,2,0,L|92:336,1,70,8|2,0:0|0:0,0:0:0:0:
196,360,65827,2,0,P|268:368|340:340,2,140,8|2|4,0:0|0:0|0:0,0:0:0:0:
152,84,73627,5,2,0:0:0:0:
152,84,73827,2,0,P|200:56|224:56,1,70,8|2,0:0|0:0,0:0:0:0:
236,160,74227,2,0,P|292:144|312:120,1,70,8|2,0:0|0:0,0:0:0:0:
328,36,74627,2,0,P|376:32|408:56,1,70,8|2,0:0|0:0,0:0:0:0:
408,144,75027,1,8,0:0:0:0:
352,232,75227,1,2,0:0:0:0:
260,280,75427,6,0,P|128:264|104:252,2,140,8|2|12,0:0|0:0|0:0,0:0:0:0:
44,52,76827,1,2,0:0:0:0:
44,52,76927,1,2,0:0:0:0:
44,52,77027,2,0,L|100:112,1,70,8|2,0:0|0:0,0:0:0:0:
40,192,77427,2,0,L|112:240,1,70,8|2,0:0|0:0,0:0:0:0:
192,184,77827,2,0,P|252:200|280:232,1,93.3333333333333,8|2,0:0|0:0,0:0:0:0:
376,304,78360,2,0,P|411:333|457:340,1,93.3333333333333,8|2,0:0|0:0,0:0:0:0:
376,304,78960,1,4,0:0:0:0:
156,256,79360,2,0,P|140:208|172:124,1,140,8|6,0:0|0:0,0:0:0:0:
204,4,80227,6,0,P|284:60|300:124,1,140,8|2,0:0|0:0,0:0:0:0:
180,176,80827,2,0,P|196:256|256:292,1,140,8|2,0:0|0:0,0:0:0:0:
324,176,81427,2,0,P|380:140|424:60,1,140,8|2,0:0|0:0,0:0:0:0:
284,44,82027,2,0,P|176:64|132:88,1,140,8|2,0:0|0:0,0:0:0:0:
52,180,82627,2,0,L|72:260,1,70,8|2,0:0|0:0,0:0:0:0:
200,204,83027,2,0,L|220:276,1,70,8|2,0:0|0:0,0:0:0:0:
352,316,83427,6,0,L|432:276,1,70,8|2,0:0|0:0,0:0:0:0:
480,160,83827,1,8,0:0:0:0:
352,212,84027,1,2,0:0:0:0:
412,84,84227,2,0,P|384:40|308:64,1,140,8|2,0:0|0:0,0:0:0:0:
152,292,85027,2,0,L|88:332,1,70,8|8,0:0|0:0,0:0:0:0:
68,64,85827,6,0,P|132:40|208:76,1,140,8|4,0:0|0:0,0:0:0:0:
228,256,86627,1,2,0:0:0:0:
152,196,86827,1,8,0:0:0:0:
244,168,87027,1,2,0:0:0:0:
244,168,87227,2,0,P|244:108|224:92,1,70,8|2,0:0|0:0,0:0:0:0:
160,48,87627,1,8,0:0:0:0:
160,48,87827,2,0,P|120:84|88:184,2,140,2|2|2,0:0|0:0|0:0,0:0:0:0:
328,144,89027,2,0,L|284:208,1,70,8|2,0:0|0:0,0:0:0:0:
388,240,89427,2,0,L|340:308,1,70,8|2,0:0|0:0,0:0:0:0:
244,324,89827,6,0,L|316:368,2,70,8|2|8,0:0|0:0|0:0,0:0:0:0:
156,268,90427,1,0,0:0:0:0:
72,204,90627,2,0,B|68:76|68:76|108:76,1,140,8|2,0:0|0:0,0:0:0:0:
292,64,91427,1,8,0:0:0:0:
368,64,91627,1,8,0:0:0:0:
124,308,92627,5,8,0:0:0:0:
72,216,92827,1,2,0:0:0:0:
176,224,93027,2,0,L|264:256,1,70,8|2,0:0|0:0,0:0:0:0:
344,280,93427,1,8,0:0:0:0:
248,324,93627,2,0,P|184:284|176:220,1,140,8|2,0:0|0:0,0:0:0:0:
200,120,94227,1,2,0:0:0:0:
304,112,94427,2,0,L|372:168,1,70,8|2,0:0|0:0,0:0:0:0:
268,212,94827,2,0,L|200:252,1,70,8|2,0:0|0:0,0:0:0:0:
112,296,95227,1,8,0:0:0:0:
112,296,95427,6,0,P|88:252|76:156,1,140,8|8,0:0|0:0,0:0:0:0:
92,68,96027,1,2,0:0:0:0:
168,128,96227,1,8,0:0:0:0:
168,128,96627,1,8,0:0:0:0:
248,188,96827,1,2,0:0:0:0:
328,248,97027,1,8,0:0:0:0:
328,248,97427,1,8,0:0:0:0:
408,304,97627,1,2,0:0:0:0:
316,340,97827,2,0,L|164:352,1,140,8|2,0:0|0:0,0:0:0:0:
116,164,98627,6,0,L|56:28,1,140,8|6,0:0|0:0,0:0:0:0:
152,72,99227,1,2,0:0:0:0:
248,76,99427,2,0,L|300:4,1,70,8|2,0:0|0:0,0:0:0:0:
196,172,99827,1,2,0:0:0:0:
236,264,100027,2,0,L|200:360,1,70,8|2,0:0|0:0,0:0:0:0:
196,172,100427,1,2,0:0:0:0:
104,136,100627,2,0,L|32:80,1,70,8|2,0:0|0:0,0:0:0:0:
44,192,101027,1,2,0:0:0:0:
12,284,101227,1,2,0:0:0:0:
104,248,101427,2,0,L|204:240,1,70,8|2,0:0|0:0,0:0:0:0:
208,336,101827,2,0,L|300:328,1,70,8|2,0:0|0:0,0:0:0:0:
292,228,102227,2,0,L|372:224,1,70,8|2,0:0|0:0,0:0:0:0:
460,216,102627,6,0,L|424:284,1,70,8|2,0:0|0:0,0:0:0:0:
380,192,103027,2,0,L|354:127,1,70,8|2,0:0|0:0,0:0:0:0:
304,212,103427,1,8,0:0:0:0:
304,212,103827,1,8,0:0:0:0:
152,336,104227,1,8,0:0:0:0:
152,336,104427,2,0,L|20:148,1,210,2|12,0:0|0:0,0:0:0:0:
168,24,105427,1,8,0:0:0:0:
232,100,105627,1,8,0:0:0:0:
288,20,105827,6,0,L|352:92,1,70,8|2,0:0|0:0,0:0:0:0:
292,152,106227,2,0,L|340:208,1,70,8|2,0:0|0:0,0:0:0:0:
264,268,106627,2,0,P|200:284|128:236,1,140,8|2,0:0|0:0,0:0:0:0:
124,152,107227,1,8,0:0:0:0:
208,204,107427,2,0,P|272:192|348:232,2,140,8|8|4,0:0|0:0|0:0,0:0:0:0:
208,204,108827,5,8,0:0:0:0:
208,204,109027,2,0,P|244:176|256:144,1,70,8|2,0:0|0:0,0:0:0:0:
292,64,109427,1,2,0:0:0:0:
200,96,109627,1,2,0:0:0:0:
108,132,109827,2,0,L|24:164,1,70,8|2,0:0|0:0,0:0:0:0:
12,248,110227,1,2,0:0:0:0:
44,340,110427,1,2,0:0:0:0:
108,268,110627,2,0,P|160:200|220:232,2,140,8|8|4,0:0|0:0|0:0,0:0:0:0:
108,268,111827,1,4,0:0:0:0:
4,144,112227,6,0,L|80:180,1,70,8|2,0:0|0:0,0:0:0:0:
108,268,112627,2,0,L|184:300,1,70,8|2,0:0|0:0,0:0:0:0:
256,240,113027,2,0,L|332:272,1,70,8|2,0:0|0:0,0:0:0:0:
420,268,113427,1,2,0:0:0:0:
352,196,113627,1,2,0:0:0:0:
268,148,113827,2,0,P|312:108|404:112,2,140,8|8|4,0:0|0:0|0:0,0:0:0:0:
268,148,115027,5,4,0:0:0:0:
188,204,115227,1,8,0:0:0:0:
188,204,115327,1,8,0:0:0:0:
188,204,115427,1,8,0:0:0:0:
168,108,115627,1,8,0:0:0:0:
224,28,115827,2,0,P|268:20|304:36,1,70,8|2,0:0|0:0,0:0:0:0:
256,120,116227,2,0,P|308:124|368:164,1,105,8|0,0:0|0:0,0:0:0:0:
264,264,116827,2,0,P|197:285|128:278,1,140,8|2,0:0|0:0,0:0:0:0:
40,240,117427,1,8,0:0:0:0:
40,240,117827,5,12,0:0:0:0:
128,64,118227,2,0,L|196:140,1,70,8|2,0:0|0:0,0:0:0:0:
252,56,118627,2,0,P|276:124|236:196,1,140,8|2,0:0|0:0,0:0:0:0:
348,184,119227,2,0,P|316:256|256:284,1,140,8|2,0:0|0:0,0:0:0:0:
344,340,119827,2,0,P|256:376|192:352,1,140,8|2,0:0|0:0,0:0:0:0:
116,368,120427,2,0,P|140:296|200:264,1,140,8|2,0:0|0:0,0:0:0:0:
264,200,121027,2,0,P|288:160|276:64,1,140,8|2,0:0|0:0,0:0:0:0:
188,124,121627,1,2,0:0:0:0:
124,216,121827,5,8,0:0:0:0:
228,208,122027,1,2,0:0:0:0:
120,208,122227,1,8,0:0:0:0:
180,312,122427,1,2,0:0:0:0:
116,200,122627,1,8,0:0:0:0:
68,320,122827,1,2,0:0:0:0:
112,192,123027,2,0,P|116:108|168:76,1,140,8|2,0:0|0:0,0:0:0:0:
280,116,123627,2,0,L|324:64,2,35,2|0|8,0:0|0:0|0:0,0:0:0:0:
324,212,124027,2,0,L|280:264,2,35,2|0|8,0:0|0:0|0:0,0:0:0:0:
428,212,124427,2,0,L|472:160,2,35,2|0|8,0:0|0:0|0:0,0:0:0:0:
428,316,124827,5,8,0:0:0:0:
428,316,125027,2,0,B|356:344|356:344|336:128|176:120|176:120|168:168,2,420,12|10|12,0:0|0:0|0:0,0:0:0:0:
80,80,128227,5,8,0:0:0:0:
160,60,128427,1,2,0:0:0:0:
244,52,128627,1,8,0:0:0:0:
328,56,128827,1,2,0:0:0:0:
408,80,129027,2,0,P|452:108|464:204,1,140,8|2,0:0|0:0,0:0:0:0:
288,204,129827,2,0,L|224:256,1,70,8|6,0:0|0:0,0:0:0:0:
120,344,130627,6,0,P|88:292|68:192,1,140,8|2,0:0|0:0,0:0:0:0:
156,248,131427,2,0,B|124:204|152:152|152:152|232:192|372:128|224:-32,2,420,12|10|12,0:0|0:0|0:0,0:0:0:0:
324,316,134427,6,0,P|372:260|376:240,1,70,8|2,0:0|0:0,0:0:0:0:
384,188,134827,1,8,0:0:0:0:
372,112,135027,1,2,0:0:0:0:
340,44,135227,1,8,0:0:0:0:
276,0,135427,1,2,0:0:0:0:
188,128,135827,1,8,0:0:0:0:
108,260,136227,2,0,L|164:316,1,70,8|2,0:0|0:0,0:0:0:0:
96,100,137427,5,8,0:0:0:0:
188,48,137627,1,10,0:0:0:0:
284,56,137827,2,0,L|352:104,1,70,8|2,0:0|0:0,0:0:0:0:
260,148,138227,1,2,0:0:0:0:
180,212,138427,2,0,P|256:248|336:220,1,140,8|2,0:0|0:0,0:0:0:0:
364,156,139027,1,8,0:0:0:0:
268,148,139227,2,0,P|204:120|128:128,1,140,8|2,0:0|0:0,0:0:0:0:
180,208,139827,2,0,L|244:264,1,70,8|2,0:0|0:0,0:0:0:0:
184,336,140227,1,8,0:0:0:0:
184,336,140627,5,8,0:0:0:0:
152,244,140827,1,8,0:0:0:0:
120,152,141027,1,8,0:0:0:0:
296,264,141427,5,8,0:0:0:0:
264,172,141627,1,8,0:0:0:0:
232,80,141827,1,8,0:0:0:0:
404,184,142227,5,8,0:0:0:0:
372,92,142427,1,8,0:0:0:0:
344,0,142627,1,8,0:0:0:0:
344,0,143027,1,4,0:0:0:0:
472,44,143427,6,0,P|468:104|432:204,1,140,8|2,0:0|0:0,0:0:0:0:
276,80,144227,2,0,P|260:120|224:156,1,70,8|2,0:0|0:0,0:0:0:0:
196,224,144627,1,8,0:0:0:0:
100,200,144827,1,2,0:0:0:0:
168,132,145027,1,8,0:0:0:0:
136,264,145227,1,2,0:0:0:0:
92,128,145427,6,0,L|16:0,1,140,8|2,0:0|0:0,0:0:0:0:
196,224,146227,1,2,0:0:0:0:
332,84,146627,2,0,L|360:168,1,70,8|2,0:0|0:0,0:0:0:0:
448,128,147027,2,0,L|476:212,1,70,8|2,0:0|0:0,0:0:0:0:
420,280,147427,6,0,L|324:296,1,70,8|2,0:0|0:0,0:0:0:0:
256,308,147827,1,8,0:0:0:0:
160,320,148027,1,2,0:0:0:0:
64,332,148227,2,0,P|12:284|12:200,2,140,8|10|12,0:0|0:0|0:0,0:0:0:0:
100,240,149227,2,0,L|56:104,1,140,8|2,0:0|0:0,0:0:0:0:
120,32,149827,2,0,L|200:72,1,70,8|2,0:0|0:0,0:0:0:0:
264,8,150227,2,0,L|344:48,1,70,8|2,0:0|0:0,0:0:0:0:
384,120,150627,6,0,P|380:204|352:276,1,140,8|2,0:0|0:0,0:0:0:0:
288,192,151227,2,0,P|300:124|300:52,1,140,8|2,0:0|0:0,0:0:0:0:
212,92,151827,2,0,P|204:172|168:244,1,140,8|2,0:0|0:0,0:0:0:0:
116,152,152427,2,0,P|128:84|124:12,1,140,8|2,0:0|0:0,0:0:0:0:
44,72,153027,5,8,0:0:0:0:
44,72,153227,1,2,0:0:0:0:
44,168,153427,1,8,0:0:0:0:
44,168,153627,1,2,0:0:0:0:
68,264,153827,6,0,L|100:336,1,70,8|2,0:0|0:0,0:0:0:0:
180,276,154227,2,0,L|216:200,1,70,8|2,0:0|0:0,0:0:0:0:
124,168,154627,2,0,P|124:120|220:68,1,140,8|6,0:0|0:0,0:0:0:0:
308,224,155427,2,0,L|352:292,1,70,8|2,0:0|0:0,0:0:0:0:
444,268,155827,2,0,L|420:196,1,70,8|2,0:0|0:0,0:0:0:0:
376,116,156227,1,8,0:0:0:0:
284,76,156427,1,2,0:0:0:0:
200,124,156627,1,8,0:0:0:0:
196,220,156827,1,2,0:0:0:0:
292,200,157027,6,0,P|308:264|224:296,1,140,8|2,0:0|0:0,0:0:0:0:
196,220,157627,6,0,P|180:156|264:124,1,140,8|2,0:0|0:0,0:0:0:0:
296,196,158227,6,0,P|349:156|333:92,1,140,8|2,0:0|0:0,0:0:0:0:
276,12,158827,6,0,P|222:51|238:115,1,140,8|2,0:0|0:0,0:0:0:0:
308,192,159427,1,8,0:0:0:0:
308,192,159627,1,2,0:0:0:0:
384,252,159827,1,8,0:0:0:0:
384,252,160027,1,2,0:0:0:0:
456,320,160227,2,0,L|372:344,1,70,12|2,0:0|0:0,0:0:0:0:
296,308,160627,2,0,L|232:348,1,70,12|2,0:0|0:0,0:0:0:0:
136,304,161027,2,0,P|200:244|200:168,1,140,12|2,0:0|0:0,0:0:0:0:
96,200,161827,5,8,0:0:0:0:
96,280,162027,1,10,0:0:0:0:
96,280,162227,1,8,0:0:0:0:
256,192,162427,12,0,165027,0:0:0:0:
