osu file format v14

[General]
AudioFilename: audio.mp3
AudioLeadIn: 0
PreviewTime: 27620
Countdown: 0
SampleSet: Soft
StackLeniency: 0.3
Mode: 0
LetterboxInBreaks: 0
WidescreenStoryboard: 0

[Editor]
DistanceSpacing: 1.2
BeatDivisor: 4
GridSize: 4
TimelineZoom: 1

[Metadata]
Title:Heavy (feat. Kiiara)
TitleUnicode:Heavy (feat. Kiiara)
Artist:Linkin Park
ArtistUnicode:Linkin Park
Creator:Andrea
Version:Heavy
Source:
Tags:Chester Bennington Rob Bourdon Brad Delson Dave Farrel Joe Hahn Mike Shinoda Tribute osuplayer111 One More Light
BeatmapID:1367473
BeatmapSetID:645325

[Difficulty]
HPDrainRate:6
CircleSize:4.5
OverallDifficulty:7
ApproachRate:8
SliderMultiplier:1.6
SliderTickRate:1

[Events]
//Background and Video events
0,0,"Chester Bennington.jpg",0,0
Video,-1200,"Video.flv"
//Break Periods
//Storyboard Layer 0 (Background)
//Storyboard Layer 1 (Fail)
//Storyboard Layer 2 (Pass)
//Storyboard Layer 3 (Foreground)
//Storyboard Sound Samples

[TimingPoints]
1820,400,4,2,1,60,1,0
29020,-133.333333333333,4,2,1,60,0,0
30220,-100,4,2,1,60,0,0
54620,-100,4,2,2,60,0,0
54820,-100,4,2,1,60,0,0
80220,-100,4,2,2,80,0,1
105820,-100,4,2,2,80,0,0
125020,-133.333333333333,4,2,2,60,0,0
132620,-100,4,2,2,60,0,0
137820,-100,4,2,2,80,0,1
160220,-100,4,2,1,60,0,0

[Colours]
Combo1 : 85,85,170
Combo2 : 0,128,192

[HitObjects]
140,108,2620,5,2,0:0:0:0:
208,40,2820,1,0,0:0:0:0:
304,40,3020,1,0,0:0:0:0:
372,108,3220,1,0,0:0:0:0:
256,148,3420,5,6,0:0:0:0:
400,336,4020,1,4,0:0:0:0:
112,336,4620,1,6,0:0:0:0:
256,40,5820,5,2,0:0:0:0:
196,116,6020,1,0,0:0:0:0:
256,192,6220,1,0,0:0:0:0:
316,116,6420,1,4,0:0:0:0:
316,116,6520,1,4,0:0:0:0:
316,116,6620,5,6,0:0:0:0:
40,192,7220,1,4,0:0:0:0:
316,268,7820,1,6,0:0:0:0:
92,312,9020,5,8,0:0:0:0:
32,240,9220,1,0,0:0:0:0:
32,144,9420,1,0,0:0:0:0:
92,72,9620,1,0,0:0:0:0:
140,192,9820,5,6,0:0:0:0:
256,28,10420,1,4,0:0:0:0:
372,192,11020,1,6,0:0:0:0:
148,340,12020,5,0,0:0:0:0:
208,264,12220,1,2,0:0:0:0:
304,264,12420,1,0,0:0:0:0:
364,340,12620,1,0,0:0:0:0:
256,340,12820,1,4,0:0:0:0:
256,340,12920,1,4,0:0:0:0:
256,340,13020,5,6,0:0:0:0:
112,92,13620,1,4,0:0:0:0:
400,92,14220,1,6,0:0:0:0:
256,192,14820,5,8,0:0:0:0:
256,192,15020,1,4,0:0:0:0:
148,352,15420,1,6,0:0:0:0:
84,280,15620,1,4,0:0:0:0:
44,192,15820,1,0,0:0:0:0:
84,104,16020,1,4,0:0:0:0:
148,32,16220,6,0,P|228:32|288:84,1,160,6|0,0:0|0:0,0:0:0:0:
212,140,16820,1,4,0:0:0:0:
212,140,17020,2,0,L|340:44,1,160,8|6,0:0|0:0,0:0:0:0:
300,244,18020,1,8,0:0:0:0:
300,244,18220,2,0,L|172:340,1,160,0|2,0:0|0:0,0:0:0:0:
48,192,19020,5,0,0:0:0:0:
120,128,19220,1,4,0:0:0:0:
120,128,19320,1,4,0:0:0:0:
120,128,19420,2,0,P|168:128|196:108,1,80,6|0,0:0|0:0,0:0:0:0:
392,128,19820,2,0,P|344:128|316:108,1,80,0|4,0:0|0:0,0:0:0:0:
256,184,20220,2,0,L|256:348,1,160,8|4,0:0|0:0,0:0:0:0:
256,344,21220,5,2,0:0:0:0:
256,344,21420,1,4,0:0:0:0:
256,152,21820,1,6,0:0:0:0:
168,112,22020,1,4,0:0:0:0:
208,24,22220,1,0,0:0:0:0:
304,24,22420,1,4,0:0:0:0:
344,112,22620,6,0,P|384:180|344:240,1,160,6|0,0:0|0:0,0:0:0:0:
256,280,23220,1,4,0:0:0:0:
168,240,23420,2,0,P|127:176|168:112,1,160,8|6,0:0|0:0,0:0:0:0:
340,24,24220,1,0,0:0:0:0:
340,24,24420,1,8,0:0:0:0:
172,24,24820,1,0,0:0:0:0:
172,24,25020,1,2,0:0:0:0:
256,196,25420,5,0,0:0:0:0:
204,276,25620,1,4,0:0:0:0:
204,276,25720,1,4,0:0:0:0:
204,276,25820,2,0,B|160:276|160:276|128:300,1,80,6|0,0:0|0:0,0:0:0:0:
308,276,26220,2,0,B|352:276|352:276|384:300,1,80,0|4,0:0|0:0,0:0:0:0:
312,368,26620,1,8,0:0:0:0:
200,368,26820,1,0,0:0:0:0:
256,196,27020,1,6,0:0:0:0:
392,28,27620,5,8,0:0:0:0:
304,64,27820,1,4,0:0:0:0:
208,64,28020,1,0,0:0:0:0:
120,28,28220,1,6,0:0:0:0:
256,196,28620,1,0,0:0:0:0:
392,28,29020,6,0,B|384:68|328:88|272:68|256:15|256:15|240:68|184:88|128:68|120:28,1,360.000013732911,2|2,0:0|0:0,0:0:0:0:
136,344,32220,6,0,P|184:344|212:324,1,80,2|0,0:0|0:0,0:0:0:0:
376,344,32620,2,0,P|328:344|300:324,1,80
256,240,33020,1,2,0:0:0:0:
160,72,33420,1,0,0:0:0:0:
352,72,33820,1,2,0:0:0:0:
352,72,34020,1,0,0:0:0:0:
100,192,34620,5,2,0:0:0:0:
256,304,35020,1,0,0:0:0:0:
412,192,35420,1,2,0:0:0:0:
100,192,36020,1,0,0:0:0:0:
412,192,36620,1,2,0:0:0:0:
304,36,38420,5,0,0:0:0:0:
208,36,38620,2,0,L|172:116,1,80,2|0,0:0|0:0,0:0:0:0:
304,36,39020,2,0,L|340:116,1,80
256,164,39420,1,2,0:0:0:0:
160,332,39820,1,0,0:0:0:0:
352,332,40220,1,2,0:0:0:0:
352,332,40420,1,0,0:0:0:0:
256,40,41420,5,0,0:0:0:0:
172,84,41620,1,0,0:0:0:0:
172,180,41820,2,0,P|156:220|172:256,1,80,2|0,0:0|0:0,0:0:0:0:
343,252,42220,2,0,P|355:215|340:180,1,80
340,84,42620,1,8,0:0:0:0:
256,40,42820,2,0,L|256:200,2,160,0|2|0,0:0|0:0|0:0,0:0:0:0:
256,40,43820,1,2,0:0:0:0:
108,192,44220,1,8,0:0:0:0:
404,192,44620,5,2,0:0:0:0:
459,270,44820,1,0,0:0:0:0:
404,348,45020,1,0,0:0:0:0:
256,224,45420,1,2,0:0:0:0:
108,348,45820,1,8,0:0:0:0:
256,224,46220,1,2,0:0:0:0:
208,140,46420,1,0,0:0:0:0:
304,140,46620,1,0,0:0:0:0:
256,324,47020,1,2,0:0:0:0:
108,192,47420,5,8,0:0:0:0:
256,68,47820,1,2,0:0:0:0:
404,192,48220,1,0,0:0:0:0:
108,192,48820,1,0,0:0:0:0:
108,192,49020,1,8,0:0:0:0:
256,316,49420,1,2,0:0:0:0:
404,192,50420,1,0,0:0:0:0:
404,192,50620,1,8,0:0:0:0:
256,68,51020,1,0,0:0:0:0:
108,192,51420,6,0,B|92:232|92:232|108:272,1,80,2|0,0:0|0:0,0:0:0:0:
252,264,51820,2,0,B|268:224|268:224|252:184,1,80
180,324,52220,1,2,0:0:0:0:
256,68,52620,1,0,0:0:0:0:
332,324,53020,1,2,0:0:0:0:
332,324,53220,1,0,0:0:0:0:
348,36,53820,5,2,0:0:0:0:
256,68,54020,1,0,0:0:0:0:
164,36,54220,1,0,0:0:0:0:
164,132,54420,1,0,0:0:0:0:
256,164,54620,5,4,1:2:0:0:
348,132,54820,2,0,B|380:208|380:208|348:280,1,160,0|4,0:0|0:0,0:0:0:0:
304,364,55420,1,8,0:0:0:0:
208,364,55620,1,6,0:0:0:0:
164,278,55820,1,4,0:0:0:0:
384,96,57020,5,8,0:0:0:0:
304,40,57220,1,0,0:0:0:0:
208,40,57420,1,0,0:0:0:0:
128,96,57620,1,4,0:0:0:0:
128,96,57720,1,4,0:0:0:0:
128,96,57820,2,0,P|84:132|84:192,1,120,6|0,0:0|0:0,0:0:0:0:
256,352,58420,5,4,0:0:0:0:
200,276,58620,2,0,P|152:276|124:256,1,80,8|4,0:0|0:0,0:0:0:0:
312,276,59020,2,0,P|360:276|388:256,1,80,4|0,0:0|0:0,0:0:0:0:
328,180,59420,1,0,0:0:0:0:
184,180,59620,1,2,0:0:0:0:
256,352,59820,1,4,0:0:0:0:
384,44,60220,5,12,0:0:0:0:
384,44,60420,1,0,0:0:0:0:
128,44,60820,1,0,0:0:0:0:
128,44,61020,2,0,P|68:44|20:80,2,120,6|0|4,0:0|0:0|0:0,0:0:0:0:
184,124,61820,1,8,0:0:0:0:
256,60,62020,1,4,0:0:0:0:
328,124,62220,1,6,0:0:0:0:
256,352,63220,1,0,0:0:0:0:
256,352,63420,1,8,0:0:0:0:
16,192,64020,5,4,0:0:0:0:
16,192,64120,1,4,0:0:0:0:
16,192,64220,2,0,L|100:192,1,80,6|0,0:0|0:0,0:0:0:0:
172,132,64620,2,0,P|216:192|172:252,1,160,0|8,0:0|0:0,0:0:0:0:
244,316,65220,2,0,P|280:292|296:256,1,80,4|4,0:0|0:0,0:0:0:0:
244,68,65620,2,0,P|280:92|296:128,1,80,0|2,0:0|0:0,0:0:0:0:
364,192,66020,1,8,0:0:0:0:
295,259,66220,1,4,0:0:0:0:
432,128,66620,1,12,0:0:0:0:
432,128,66820,1,4,0:0:0:0:
112,316,67220,5,4,0:0:0:0:
112,316,67420,2,0,P|72:316|40:292,1,80,4|0,0:0|0:0,0:0:0:0:
120,192,67820,2,0,L|204:192,1,80,2|4,0:0|0:0,0:0:0:0:
112,68,68220,2,0,P|72:68|40:92,1,80,12|4,0:0|0:0,0:0:0:0:
196,68,68620,1,4,0:0:0:0:
256,140,68820,1,0,0:0:0:0:
316,68,69020,1,2,0:0:0:0:
256,248,69420,1,0,0:0:0:0:
196,68,69820,1,8,0:0:0:0:
196,356,70420,5,4,0:0:0:0:
196,356,70520,1,4,0:0:0:0:
196,356,70620,2,0,L|144:288,1,80,6|0,0:0|0:0,0:0:0:0:
316,356,71020,2,0,L|368:288,1,80,0|4,0:0|0:0,0:0:0:0:
364,196,71420,1,8,0:0:0:0:
304,120,71620,1,4,0:0:0:0:
208,120,71820,1,6,0:0:0:0:
148,196,72020,1,0,0:0:0:0:
256,40,72420,1,2,0:0:0:0:
256,40,72620,1,4,0:0:0:0:
364,196,73020,1,12,0:0:0:0:
256,40,73620,5,0,0:0:0:0:
204,120,73820,2,0,L|124:120,1,80,6|0,0:0|0:0,0:0:0:0:
308,120,74220,2,0,L|388:120,1,80,0|4,0:0|0:0,0:0:0:0:
348,208,74620,1,8,0:0:0:0:
304,292,74820,1,4,0:0:0:0:
208,292,75020,1,6,0:0:0:0:
164,208,75220,1,0,0:0:0:0:
256,208,75420,1,0,0:0:0:0:
136,56,75820,1,2,0:0:0:0:
376,56,76220,1,8,0:0:0:0:
256,316,76820,5,4,0:0:0:0:
256,316,76920,1,4,0:0:0:0:
256,316,77020,2,0,P|212:316|184:296,1,80,6|0,0:0|0:0,0:0:0:0:
104,240,77420,1,0,0:0:0:0:
104,144,77620,1,0,0:0:0:0:
183,89,77820,2,0,P|252:90|288:122,2,120,2|0|2,0:0|0:0|0:0,0:0:0:0:
104,144,78620,2,0,L|212:216,1,120,0|2,0:0|0:0,0:0:0:0:
324,292,79220,5,0,0:0:0:0:
324,292,79420,1,2,0:0:0:0:
488,192,79820,1,0,0:0:0:0:
324,92,80220,6,0,B|264:92|264:92|224:120|224:120|168:120,1,160,4|2,0:0|0:0,0:0:0:0:
108,192,80820,1,0,0:0:0:0:
172,264,81020,2,0,B|224:264|224:264|264:292|264:292|324:292,1,160,8|2,0:0|0:0,0:0:0:0:
388,112,81820,1,0,0:0:0:0:
323,44,82020,1,0,0:0:0:0:
256,112,82220,2,0,P|176:112|112:64,2,160,2|8|2,0:0|0:0|0:0,0:0:0:0:
376,260,83420,6,0,B|376:304|376:304|352:336,1,80
157,332,83820,2,0,B|136:304|136:304|136:260,1,80,2|0,0:0|0:0,0:0:0:0:
256,192,84220,2,0,L|256:32,2,160,8|2|0,0:0|0:0|0:0,0:0:0:0:
256,288,85220,1,0,0:0:0:0:
256,32,85620,1,0,0:0:0:0:
188,100,85820,2,0,P|256:136|324:100,1,160,8|2,0:0|0:0,0:0:0:0:
323,260,86620,6,0,L|323:100,1,160,4|2,0:0|0:0,0:0:0:0:
256,32,87220,1,0,0:0:0:0:
189,100,87420,2,0,L|189:260,1,160,8|2,0:0|0:0,0:0:0:0:
189,260,88220,1,0,0:0:0:0:
256,328,88420,1,0,0:0:0:0:
323,260,88620,1,2,0:0:0:0:
256,80,89020,1,8,0:0:0:0:
64,80,89420,5,2,0:0:0:0:
160,80,89620,1,0,0:0:0:0:
256,80,89820,2,0,P|300:80|328:100,1,80
261,280,90220,2,0,P|217:280|189:260,1,80,2|0,0:0|0:0,0:0:0:0:
260,180,90620,2,0,L|420:220,1,160,8|2,0:0|0:0,0:0:0:0:
261,280,91420,1,0,0:0:0:0:
260,180,91620,1,0,0:0:0:0:
256,80,91820,1,2,0:0:0:0:
261,280,92220,1,8,0:0:0:0:
152,128,92620,6,0,P|112:112|80:128,1,80,2|0,0:0|0:0,0:0:0:0:
12,192,93020,1,4,0:0:0:0:
12,192,93220,1,0,0:0:0:0:
80,256,93420,2,0,P|116:272|152:256,1,80,2|0,0:0|0:0,0:0:0:0:
208,336,93820,1,8,0:0:0:0:
304,336,94020,2,0,P|392:336|440:284,1,160,0|2,0:0|0:0,0:0:0:0:
348,128,94820,1,0,0:0:0:0:
438,96,95020,2,0,P|381:43|304:48,1,160,2|8,0:0|0:0,0:0:0:0:
348,256,95820,5,0,0:0:0:0:
420,192,96020,1,0,0:0:0:0:
348,128,96220,1,2,0:0:0:0:
256,296,96620,1,0,0:0:0:0:
164,128,97020,1,8,0:0:0:0:
256,296,97420,1,2,0:0:0:0:
200,220,97620,1,0,0:0:0:0:
256,144,97820,1,0,0:0:0:0:
312,220,98020,1,0,0:0:0:0:
256,296,98220,1,2,0:0:0:0:
80,128,98620,6,0,B|32:192|32:192|80:256,1,160,8|2,0:0|0:0,0:0:0:0:
256,192,99420,1,4,0:0:0:0:
372,344,99820,1,2,0:0:0:0:
468,344,100020,1,0,0:0:0:0:
432,256,100220,2,0,B|480:192|480:192|432:128,1,160,8|2,0:0|0:0,0:0:0:0:
256,52,101020,1,0,0:0:0:0:
208,136,101220,1,0,0:0:0:0:
304,136,101420,2,0,P|340:208|304:276,2,160,2|8|2,0:0|0:0|0:0,0:0:0:0:
112,136,102620,6,0,L|28:96,1,80
39,282,103020,2,0,L|112:248,1,80,2|0,0:0|0:0,0:0:0:0:
184,192,103420,1,8,0:0:0:0:
256,368,103820,1,2,0:0:0:0:
328,192,104220,1,0,0:0:0:0:
256,128,104420,1,0,0:0:0:0:
184,192,104620,1,2,0:0:0:0:
328,64,105020,1,8,0:0:0:0:
256,128,105220,1,0,0:0:0:0:
184,64,105420,1,8,0:0:0:0:
184,64,105620,1,8,0:0:0:0:
112,128,105820,6,0,B|68:128|68:128|32:112,1,80,4|0,0:0|0:0,0:0:0:0:
35,270,106220,2,0,B|68:256|68:256|112:256,1,80,2|0,0:0|0:0,0:0:0:0:
180,324,106620,1,8,0:0:0:0:
256,264,106820,1,0,0:0:0:0:
332,324,107020,2,0,L|392:256,1,80,2|0,0:0|0:0,0:0:0:0:
372,132,107420,2,0,L|312:200,1,80
256,264,107820,1,2,0:0:0:0:
256,264,108220,1,8,0:0:0:0:
76,40,108820,5,2,0:0:0:0:
76,40,109020,2,0,P|124:40|152:56,1,80
208,132,109420,2,0,L|172:208,1,80,2|0,0:0|0:0,0:0:0:0:
338,204,109820,2,0,L|304:132,1,80,8|0,0:0|0:0,0:0:0:0:
360,55,110220,2,0,P|396:37|436:40,1,80,2|0,0:0|0:0,0:0:0:0:
420,136,110620,1,0,0:0:0:0:
496,192,110820,1,0,0:0:0:0:
420,248,111020,2,0,B|360:248|360:248|316:272|316:272|260:272,1,160,2|8,0:0|0:0,0:0:0:0:
168,272,111620,1,0,0:0:0:0:
116,192,111820,1,8,0:0:0:0:
168,112,112020,5,0,0:0:0:0:
168,112,112120,1,0,0:0:0:0:
168,112,112220,2,0,P|196:80|196:44,1,80,4|0,0:0|0:0,0:0:0:0:
344,112,112620,2,0,P|316:80|316:44,1,80,2|0,0:0|0:0,0:0:0:0:
256,156,113020,1,8,0:0:0:0:
180,212,113220,1,0,0:0:0:0:
208,304,113420,1,2,0:0:0:0:
304,304,113620,1,0,0:0:0:0:
332,212,113820,1,0,0:0:0:0:
256,36,114220,1,2,0:0:0:0:
180,212,114620,1,8,0:0:0:0:
444,328,115220,5,0,0:0:0:0:
348,328,115420,2,0,P|359:289|383:258,1,80
382,125,115820,2,0,P|358:94|348:56,1,80,2|0,0:0|0:0,0:0:0:0:
256,36,116220,2,0,L|128:36,2,120,8|2|0,0:0|0:0|0:0,0:0:0:0:
448,36,117220,1,0,0:0:0:0:
448,36,117420,1,2,0:0:0:0:
336,192,117820,1,8,0:0:0:0:
448,348,118220,5,2,0:0:0:0:
356,320,118420,1,0,0:0:0:0:
264,292,118620,2,0,P|184:292|124:236,1,160,4|2,0:0|0:0,0:0:0:0:
264,92,119220,1,0,0:0:0:0:
264,92,119420,2,0,P|184:92|124:148,1,160,8|2,0:0|0:0,0:0:0:0:
48,196,120020,1,0,0:0:0:0:
126,142,120220,1,0,0:0:0:0:
126,242,120420,1,2,0:0:0:0:
296,332,120820,1,0,0:0:0:0:
296,332,121020,1,8,0:0:0:0:
368,152,121420,6,0,L|400:72,1,80,2|0,0:0|0:0,0:0:0:0:
144,152,121820,2,0,L|112:72,1,80,4|0,0:0|0:0,0:0:0:0:
328,24,122220,1,2,0:0:0:0:
256,88,122420,1,0,0:0:0:0:
184,24,122620,1,8,0:0:0:0:
256,200,123020,1,4,0:0:0:0:
144,332,123420,5,8,0:0:0:0:
172,344,123520,1,0,0:0:0:0:
200,356,123620,1,0,0:0:0:0:
228,368,123720,1,0,0:0:0:0:
256,380,123820,1,8,0:0:0:0:
284,368,123920,1,0,0:0:0:0:
312,356,124020,1,0,0:0:0:0:
340,344,124120,1,0,0:0:0:0:
368,332,124220,5,8,0:0:0:0:
444,272,124420,1,8,0:0:0:0:
388,192,124620,1,8,0:0:0:0:
444,112,124820,1,8,0:0:0:0:
388,32,125020,6,0,B|320:32|256:143|256:143|188:32|124:32,1,360.000013732911,2|2,0:0|0:0,0:0:0:0:
124,32,128220,5,2,0:0:0:0:
180,112,128420,1,0,0:0:0:0:
256,56,128620,1,0,0:0:0:0:
332,112,128820,1,0,0:0:0:0:
388,32,129020,1,2,0:0:0:0:
124,32,129420,2,0,L|24:32,2,90.0000034332277,0|2|0,0:0|0:0|0:0,0:0:0:0:
124,352,130620,5,2,0:0:0:0:
256,192,131020,1,0,0:0:0:0:
388,352,131420,2,0,B|320:272|320:272|256:340|188:272|188:272|124:352,1,360.000013732911,2|2,0:0|0:0,0:0:0:0:
256,192,134420,5,0,0:0:0:0:
188,124,134620,2,0,B|168:88|168:88|168:48,1,80,2|0,0:0|0:0,0:0:0:0:
324,124,135020,2,0,B|344:88|344:88|344:48,1,80
256,192,135420,2,0,L|256:352,1,160,2|0,0:0|0:0,0:0:0:0:
136,352,136120,2,0,L|264:352,1,120,2|0,0:0|0:0,0:0:0:0:
360,256,137420,6,0,P|400:272|432:256,1,80,2|0,0:0|0:0,0:0:0:0:
500,192,137820,1,4,0:0:0:0:
500,192,138020,1,0,0:0:0:0:
432,128,138220,2,0,P|396:112|360:128,1,80,2|0,0:0|0:0,0:0:0:0:
304,48,138620,1,8,0:0:0:0:
208,48,138820,2,0,P|120:48|72:100,1,160,0|2,0:0|0:0,0:0:0:0:
164,256,139620,1,0,0:0:0:0:
73,287,139820,2,0,P|130:340|208:336,1,160,2|8,0:0|0:0,0:0:0:0:
164,128,140620,5,0,0:0:0:0:
92,192,140820,1,0,0:0:0:0:
164,256,141020,1,2,0:0:0:0:
256,88,141420,1,0,0:0:0:0:
348,256,141820,1,8,0:0:0:0:
256,88,142220,1,2,0:0:0:0:
312,164,142420,1,0,0:0:0:0:
256,240,142620,1,0,0:0:0:0:
200,164,142820,1,0,0:0:0:0:
256,88,143020,1,2,0:0:0:0:
432,256,143420,6,0,B|480:192|480:192|432:128,1,160,8|2,0:0|0:0,0:0:0:0:
256,192,144220,1,4,0:0:0:0:
140,40,144620,1,2,0:0:0:0:
44,40,144820,1,0,0:0:0:0:
80,128,145020,2,0,B|32:192|32:192|80:256,1,160,8|2,0:0|0:0,0:0:0:0:
256,332,145820,1,0,0:0:0:0:
304,248,146020,1,0,0:0:0:0:
208,248,146220,2,0,P|172:176|208:108,2,160,2|8|2,0:0|0:0|0:0,0:0:0:0:
400,248,147420,6,0,L|484:288,1,80
472,101,147820,2,0,L|400:136,1,80,2|0,0:0|0:0,0:0:0:0:
328,192,148220,1,8,0:0:0:0:
256,16,148620,1,2,0:0:0:0:
184,192,149020,1,0,0:0:0:0:
256,256,149220,1,0,0:0:0:0:
328,192,149420,1,2,0:0:0:0:
184,320,149820,1,8,0:0:0:0:
256,256,150020,1,0,0:0:0:0:
328,320,150220,1,8,0:0:0:0:
328,320,150420,1,0,0:0:0:0:
400,256,150620,6,0,B|444:256|444:256|480:272,1,80,4|0,0:0|0:0,0:0:0:0:
400,128,151020,2,0,B|444:128|444:128|480:112,1,80,2|0,0:0|0:0,0:0:0:0:
428,28,151420,1,8,0:0:0:0:
256,116,151820,1,2,0:0:0:0:
84,28,152220,2,0,L|56:104,1,80
164,52,152620,2,0,L|108:204,1,160,2|8,0:0|0:0,0:0:0:0:
108,202,153420,1,2,0:0:0:0:
204,368,153820,6,0,B|204:332|204:332|200:328|200:328|204:328|204:328|208:328|208:328|204:324|204:324|204:296,1,80
308,299,154220,2,0,B|308:324|308:324|304:328|304:328|308:328|308:328|312:328|312:328|308:332|308:332|308:368,1,80,2|0,0:0|0:0,0:0:0:0:
256,228,154620,1,8,0:0:0:0:
156,64,155020,1,2,0:0:0:0:
356,64,155420,1,0,0:0:0:0:
256,112,155620,1,8,0:0:0:0:
256,112,155820,1,8,0:0:0:0:
312,192,156020,1,0,0:0:0:0:
256,272,156220,2,0,P|216:272|180:248,1,80,8|0,0:0|0:0,0:0:0:0:
256,112,156620,2,0,P|216:112|180:136,1,80,8|0,0:0|0:0,0:0:0:0:
312,192,157020,6,0,L|476:192,1,160,4|2,0:0|0:0,0:0:0:0:
408,120,157620,1,0,0:0:0:0:
408,120,157820,2,0,P|438:192|408:264,1,160,8|2,0:0|0:0,0:0:0:0:
312,100,158620,1,0,0:0:0:0:
256,20,158820,1,0,0:0:0:0:
200,100,159020,1,2,0:0:0:0:
103,263,159420,2,0,P|74:191|104:120,1,160,8|2,0:0|0:0,0:0:0:0:
200,284,160220,6,0,L|152:348,1,80
312,284,160620,2,0,L|360:348,1,80,2|0,0:0|0:0,0:0:0:0:
256,192,161020,1,8,0:0:0:0:
160,24,161420,1,2,0:0:0:0:
352,24,161820,1,0,0:0:0:0:
256,68,162020,1,0,0:0:0:0:
160,24,162220,1,2,0:0:0:0:
256,192,162620,1,8,0:0:0:0:
