osu file format v14

[General]
AudioFilename: audio.mp3
AudioLeadIn: 0
PreviewTime: 27620
Countdown: 0
SampleSet: Soft
StackLeniency: 0.5
Mode: 0
LetterboxInBreaks: 0
WidescreenStoryboard: 1

[Editor]
DistanceSpacing: 1.2
BeatDivisor: 2
GridSize: 4
TimelineZoom: 1

[Metadata]
Title:Heavy (feat. Kiiara)
TitleUnicode:Heavy (feat. Kiiara)
Artist:Linkin Park
ArtistUnicode:Linkin Park
Creator:Andrea
Version:Light
Source:
Tags:Chester Bennington Rob Bourdon Brad Delson Dave Farrel Joe Hahn Mike Shinoda Tribute osuplayer111 One More Light
BeatmapID:1367474
BeatmapSetID:645325

[Difficulty]
HPDrainRate:0
CircleSize:3
OverallDifficulty:1
ApproachRate:2
SliderMultiplier:0.8
SliderTickRate:1

[Events]
//Background and Video events
0,0,"Chester Bennington.jpg",0,0
Video,-1200,"Video.flv"
//Break Periods
//Storyboard Layer 0 (Background)
//Storyboard Layer 1 (Fail)
//Storyboard Layer 2 (Pass)
//Storyboard Layer 3 (Foreground)
//Storyboard Sound Samples

[TimingPoints]
1820,400,4,2,1,60,1,0
54620,-100,4,2,2,60,0,0
54820,-100,4,2,1,60,0,0
80220,-100,4,2,2,80,0,1
105820,-100,4,2,2,80,0,0
125020,-100,4,2,2,60,0,0
137820,-100,4,2,2,80,0,1
160220,-100,4,2,1,60,0,0

[Colours]
Combo1 : 85,85,170
Combo2 : 0,128,192

[HitObjects]
52,192,2620,5,2,0:0:0:0:
196,64,3420,2,0,P|256:76|316:64,2,120,6|4|6,0:0|0:0|0:0,0:0:0:0:
92,332,5820,5,2,0:0:0:0:
256,232,6620,2,0,B|296:232|296:232|332:252|332:252|384:252,2,120,6|4|6,0:0|0:0|0:0,0:0:0:0:
44,36,9020,5,8,0:0:0:0:
236,36,9820,2,0,P|304:36|348:68,2,120,6|4|6,0:0|0:0|0:0,0:0:0:0:
128,304,12220,5,2,0:0:0:0:
320,304,13020,2,0,B|384:304|384:304|436:272,2,120,6|4|6,0:0|0:0|0:0,0:0:0:0:
112,104,15420,1,6,0:0:0:0:
292,40,16220,6,0,P|360:40|408:80,1,120,6|4,0:0|0:0,0:0:0:0:
352,204,17420,2,0,P|284:204|236:164,1,120,6|8,0:0|0:0,0:0:0:0:
112,104,18620,1,2,0:0:0:0:
112,296,19420,6,0,L|244:296,2,120,6|4|4,0:0|0:0|0:0,0:0:0:0:
256,48,21820,1,6,0:0:0:0:
424,140,22620,6,0,B|424:200|424:200|388:248,1,120,6|4,0:0|0:0,0:0:0:0:
252,300,23820,2,0,B|252:240|252:240|288:192,1,120,6|8,0:0|0:0,0:0:0:0:
331,57,25020,6,0,B|256:28|256:28|180:56,1,160,2|6,0:0|0:0,0:0:0:0:
48,104,26420,2,0,L|96:228,1,120,4|6,0:0|0:0,0:0:0:0:
356,328,28220,1,6,0:0:0:0:
492,192,29020,6,0,P|372:192|288:112,1,240,2|2,0:0|0:0,0:0:0:0:
40,344,32220,6,0,P|120:344|184:296,1,160,2|2,0:0|0:0,0:0:0:0:
256,120,33820,1,2,0:0:0:0:
329,298,34620,6,0,P|393:344|472:344,1,160,2|2,0:0|0:0,0:0:0:0:
468,56,36620,1,2,0:0:0:0:
68,56,38620,5,2,0:0:0:0:
204,192,39420,1,2,0:0:0:0:
68,328,40220,1,2,0:0:0:0:
428,192,41820,5,2,0:0:0:0:
256,104,42620,2,0,P|147:190|256:280,1,320,8|8,0:0|0:0,0:0:0:0:
256,104,45820,6,0,P|365:190|256:280,1,320,8|8,0:0|0:0,0:0:0:0:
88,192,48220,1,2,0:0:0:0:
256,104,49020,2,0,B|332:104|380:191|380:191|332:280|256:280,1,320,8|8,0:0|0:0,0:0:0:0:
88,192,51420,5,2,0:0:0:0:
460,92,53020,1,2,0:0:0:0:
296,192,53820,1,2,0:0:0:0:
460,292,54620,5,4,1:2:0:0:
296,192,55420,2,0,P|180:100|64:192,1,320,8|8,0:0|0:0,0:0:0:0:
180,340,57820,5,6,0:0:0:0:
296,192,58620,2,0,P|434:207|384:336,1,320,8|12,0:0|0:0,0:0:0:0:
192,340,61020,5,6,0:0:0:0:
68,192,61820,2,0,B|180:92|180:92|352:92,1,320,8|8,0:0|0:0,0:0:0:0:
488,220,64220,5,6,0:0:0:0:
344,348,65020,2,0,B|264:348|264:348|188:304,1,160,8|2,0:0|0:0,0:0:0:0:
40,192,66620,1,12,0:0:0:0:
194,77,67420,5,4,0:0:0:0:
384,76,68220,2,0,B|384:144|483:191|483:191|384:240|384:308,1,320,12|8,0:0|0:0,0:0:0:0:
256,164,70620,5,6,0:0:0:0:
127,305,71420,2,0,B|128:240|29:191|29:191|128:144|128:76,1,320,8|12,0:0|0:0,0:0:0:0:
256,220,73820,5,6,0:0:0:0:
256,28,74620,2,0,B|336:28|336:28|384:92|384:92|464:92|464:92|512:164,1,320,8|8,0:0|0:0,0:0:0:0:
364,288,77020,5,6,0:0:0:0:
80,24,79420,1,2,0:0:0:0:
256,100,80220,5,4,0:0:0:0:
400,228,81020,2,0,P|256:288|112:228,1,320,8|8,0:0|0:0,0:0:0:0:
32,52,83420,6,0,B|112:52|112:84|188:84,1,160,2|8,0:0|0:0,0:0:0:0:
376,56,85020,1,2,0:0:0:0:
512,192,85820,1,8,0:0:0:0:
376,328,86620,5,4,0:0:0:0:
184,328,87420,2,0,P|112:192|184:56,1,320,8|8,0:0|0:0,0:0:0:0:
256,236,89820,5,2,0:0:0:0:
328,56,90620,2,0,P|399:192|328:328,1,320,8|8,0:0|0:0,0:0:0:0:
256,148,93020,5,4,0:0:0:0:
88,52,93820,2,0,B|11:191|11:191|88:332,1,320,8|8,0:0|0:0,0:0:0:0:
256,240,96220,5,2,0:0:0:0:
424,332,97020,2,0,B|501:191|501:191|424:52,1,320,8|8,0:0|0:0,0:0:0:0:
256,144,99420,5,4,0:0:0:0:
144,300,100220,2,0,B|184:284|252:316|256:383|256:383|260:316|328:284|368:300,1,320,8|8,0:0|0:0,0:0:0:0:
432,120,102620,5,2,0:0:0:0:
256,44,103420,1,8,0:0:0:0:
80,120,104220,1,2,0:0:0:0:
256,196,105020,1,8,0:0:0:0:
352,364,105820,5,4,0:0:0:0:
160,364,106620,2,0,B|84:272|120:192|120:192|176:64,1,320,8|8,0:0|0:0,0:0:0:0:
256,244,109020,5,2,0:0:0:0:
338,70,109820,2,0,B|392:192|392:192|428:272|352:364,1,320,8|8,0:0|0:0,0:0:0:0:
256,196,112220,5,4,0:0:0:0:
152,36,113020,2,0,B|186:108|186:108|256:40|327:108|327:108|360:36,1,320,8|8,0:0|0:0,0:0:0:0:
500,164,115420,5,2,0:0:0:0:
368,304,116220,2,0,B|324:304|324:240|324:240|256:280|188:240|188:240|188:304|144:304,1,320,8|8,0:0|0:0,0:0:0:0:
12,164,118620,6,0,B|8:104|44:72|44:72|92:32,1,160,4|8,0:0|0:0,0:0:0:0:
256,132,120220,1,2,0:0:0:0:
422,34,121020,2,0,B|468:72|468:72|504:104|500:164,1,160,8|4,0:0|0:0,0:0:0:0:
424,340,122620,1,8,0:0:0:0:
256,248,123420,5,8,0:0:0:0:
88,340,124220,1,8,0:0:0:0:
256,248,125020,6,0,B|196:196|196:196|160:124|160:124|100:72,1,240,2|2,0:0|0:0,0:0:0:0:
464,48,128220,5,2,0:0:0:0:
340,192,129020,1,2,0:0:0:0:
464,336,129820,1,2,0:0:0:0:
272,336,130620,5,2,0:0:0:0:
148,192,131420,2,0,P|255:148|364:192,1,240,2|2,0:0|0:0,0:0:0:0:
112,84,134620,5,2,0:0:0:0:
256,208,135420,1,2,0:0:0:0:
400,84,136220,1,2,0:0:0:0:
136,360,137820,5,4,0:0:0:0:
44,192,138620,2,0,P|122:192|184:143,1,160,8|2,0:0|0:0,0:0:0:0:
340,32,140220,1,8,0:0:0:0:
496,144,141020,6,0,L|424:296,1,160,2|8,0:0|0:0,0:0:0:0:
256,200,142620,1,2,0:0:0:0:
84,288,143420,1,8,0:0:0:0:
0,116,144220,5,4,0:0:0:0:
172,32,145020,2,0,B|252:32|252:32|404:80|404:80|484:80,1,320,8|8,0:0|0:0,0:0:0:0:
484,272,147420,5,2,0:0:0:0:
304,336,148220,2,0,B|252:336|252:336|196:312|196:312|140:312,1,160,8|2,0:0|0:0,0:0:0:0:
72,136,149820,1,8,0:0:0:0:
256,84,150620,5,4,0:0:0:0:
440,136,151420,2,0,P|392:272|232:316,1,320,8|8,0:0|0:0,0:0:0:0:
48,268,153820,5,2,0:0:0:0:
100,84,154620,1,8,0:0:0:0:
288,128,155420,1,2,0:0:0:0:
234,316,156220,1,8,0:0:0:0:
48,268,157020,5,4,0:0:0:0:
100,84,157820,2,0,B|204:28|300:132|412:84,1,320,8|8,0:0|0:0,0:0:0:0:
512,248,160220,5,2,0:0:0:0:
352,352,161020,1,8,0:0:0:0:
160,352,161820,1,2,0:0:0:0:
0,248,162620,1,8,0:0:0:0:
