osu file format v14

[General]
AudioFilename: audio.mp3
AudioLeadIn: 0
PreviewTime: 180450
Countdown: 0
SampleSet: Soft
StackLeniency: 0.7
Mode: 0
LetterboxInBreaks: 0
WidescreenStoryboard: 0

[Editor]
Bookmarks: 57225,76415,95615,114815,124415,142415,153215,203615,217865,243065,261065,274265,280565,290015,311465,326015,335615,345215
DistanceSpacing: 1.5
BeatDivisor: 4
GridSize: 32
TimelineZoom: 2.6

[Metadata]
Title:Guilty All The Same (feat. Rakim)
TitleUnicode:Guilty All The Same (feat. Rakim)
Artist:Linkin Park
ArtistUnicode:Linkin Park
Creator:wafer
Version:Humiliation
Source:
Tags:gats marathon lp The Hunting Party English rock nu metal alternative rap project spark goopert kami no kotoba
BeatmapID:2798374
BeatmapSetID:1351724

[Difficulty]
HPDrainRate:5
CircleSize:4
OverallDifficulty:9.3
ApproachRate:9.5
SliderMultiplier:1.8
SliderTickRate:1

[Events]
//Background and Video events
0,0,"city.jpg",0,0
//Break Periods
2,19314,22940
2,57415,61190
2,62215,64415
2,218315,220565
2,280715,284090
2,285265,287390
//Storyboard Layer 0 (Background)
//Storyboard Layer 1 (Fail)
//Storyboard Layer 2 (Pass)
//Storyboard Layer 3 (Foreground)
//Storyboard Layer 4 (Overlay)
//Storyboard Sound Samples

[TimingPoints]
75,300,4,2,1,60,1,0
1275,-153.846153846153,4,2,1,40,0,0
9525,-153.846153846153,4,2,1,45,0,0
9975,-153.846153846153,4,2,1,50,0,0
10875,-117.647058823529,4,2,1,60,0,0
15675,-166.666666666667,4,2,1,60,0,0
18815,300,4,2,1,60,1,0
18815,-200,4,2,1,40,0,0
23615,-166.666666666667,4,2,1,45,0,0
28415,-142.857142857143,4,2,1,50,0,0
38015,-125,4,2,1,55,0,0
47615,-111.111111111111,4,2,1,60,0,0
57215,-111.111111111111,4,2,1,50,0,0
66815,-133.333333333333,4,2,1,50,0,0
76115,-153.846153846153,4,2,1,50,0,0
76415,-90.9090909090909,4,2,1,80,0,0
95615,-125,4,2,1,60,0,0
114815,-111.111111111111,4,2,1,65,0,0
124715,-200,4,2,1,50,0,0
126815,-200,4,2,1,53,0,0
128015,-142.857142857143,4,2,1,56,0,0
130415,-142.857142857143,4,2,1,60,0,0
132815,-125,4,2,1,62,0,0
134015,-111.111111111111,4,2,1,65,0,0
141215,-111.111111111111,4,2,1,70,0,0
143315,-200,4,2,1,60,0,0
143615,-90.9090909090909,4,2,1,80,0,0
153215,-125,4,2,1,60,0,0
172415,-111.111111111111,4,2,1,65,0,0
182015,-83.3333333333333,4,2,1,90,0,0
203465,-90.9090909090909,4,2,1,85,0,0
213065,-90.9090909090909,4,2,1,80,0,0
219065,-111.111111111111,4,2,1,70,0,0
243065,-200,4,2,1,70,0,0
245465,-111.111111111111,4,2,1,70,0,0
247865,-200,4,2,1,70,0,0
250265,-111.111111111111,4,2,1,70,0,0
251465,-200,4,2,1,70,0,0
255065,-111.111111111111,4,2,1,70,0,0
256865,-200,4,2,1,70,0,0
259865,-111.111111111111,4,2,1,70,0,0
288815,-250,4,2,1,20,0,0
290015,-83.3333333333333,4,2,1,90,0,0
311465,-90.9090909090909,4,2,1,85,0,0
321065,-90.9090909090909,4,2,1,80,0,0
345215,298.507462686567,4,2,1,60,1,0
346409,292.682926829268,4,2,1,60,1,0
348750,307.692307692308,4,2,1,60,1,0
348750,-90.9090909090909,4,2,1,60,0,0
349980,300,4,2,1,60,1,0
349980,-200,4,2,1,60,0,0
352230,333.333333333333,4,2,1,60,1,0
352230,-200,4,2,1,60,0,0
352691,300,4,2,1,60,1,0

[Colours]
Combo1 : 243,241,156
Combo2 : 155,205,255
Combo3 : 255,174,174
Combo4 : 102,179,255

[HitObjects]
16,58,1275,6,0,P|102:79|138:155,1,175.499991966248,4|0,3:2|3:0,0:0:0:0:
3,237,1875,1,4,0:0:0:0:
3,237,2175,6,0,L|126:226,1,116.999994644165,4|8,3:2|0:0,0:0:0:0:
160,293,2625,2,0,L|283:304,1,116.999994644165,4|0,3:2|3:0,0:0:0:0:
428,240,3075,2,0,P|407:325|330:361,1,175.499991966248,4|0,3:2|3:0,0:0:0:0:
249,226,3675,1,4,0:0:0:0:
249,226,3975,2,0,L|260:103,1,116.999994644165,4|8,3:2|0:0,0:0:0:0:
183,127,4425,2,0,L|194:4,1,116.999994644165,4|0,3:2|3:0,0:0:0:0:
341,88,4875,5,4,3:2:0:0:
475,129,5175,1,4,3:2:0:0:
369,161,5475,1,12,0:2:0:0:
437,203,5775,1,12,0:2:0:0:
245,286,6075,6,0,P|159:265|123:188,1,175.499991966248,4|0,3:2|3:0,0:0:0:0:
259,109,6675,1,4,0:0:0:0:
259,109,6975,6,0,L|136:98,1,116.999994644165,4|8,3:2|0:0,0:0:0:0:
116,171,7425,2,0,L|-7:160,1,116.999994644165,4|0,3:2|3:0,0:0:0:0:
104,302,7875,2,0,P|179:263|198:180,1,175.499991966248,4|0,3:2|3:0,0:0:0:0:
266,351,8475,1,4,0:0:0:0:
266,351,8775,2,0,L|277:228,1,116.999994644165,4|8,3:2|0:0,0:0:0:0:
393,154,9225,5,4,3:2:0:0:
411,232,9375,1,0,3:0:0:0:
353,286,9525,1,8,0:0:0:0:
434,143,9675,1,8,0:0:0:0:
376,339,9825,1,8,0:0:0:0:
394,117,9975,1,8,0:0:0:0:
367,382,10125,1,8,0:0:0:0:
367,382,10875,6,0,B|308:373|308:373|298:349|298:349|226:337,1,153.000002918243,12|8,0:0|0:0,0:0:0:0:
52,298,11325,2,0,L|141:317,1,76.5000014591217,6|8,3:2|0:0,0:0:0:0:
194,269,11625,1,0,3:0:0:0:
358,210,11775,6,0,B|299:201|299:201|289:177|289:177|217:165,1,153.000002918243,12|8,0:0|0:0,0:0:0:0:
33,121,12225,2,0,L|122:140,1,76.5000014591217,6|8,3:2|0:0,0:0:0:0:
191,73,12525,1,0,3:0:0:0:
348,132,12675,6,0,B|381:70|381:70|327:-16,1,153.000002918243,12|8,0:0|0:0,0:0:0:0:
222,165,13125,1,4,3:2:0:0:
282,219,13275,2,0,L|357:209,1,76.5000014591217,8|0,0:0|3:0,0:0:0:0:
196,373,13575,6,0,B|163:311|163:311|217:225,1,153.000002918243,12|8,0:0|0:0,0:0:0:0:
402,282,14025,1,4,3:2:0:0:
342,336,14175,2,0,L|266:326,1,76.5000014591217,8|0,0:0|3:0,0:0:0:0:
57,291,14475,6,0,L|66:215,1,76.5000014591217,12|0,0:0|3:0,0:0:0:0:
83,86,14775,2,0,L|158:95,1,76.5000014591217,12|0,0:0|3:0,0:0:0:0:
299,19,15075,2,0,L|224:29,1,76.5000014591217,12|0,0:0|3:0,0:0:0:0:
158,95,15375,2,0,L|168:171,1,76.5000014591217,12|0,0:0|3:0,0:0:0:0:
150,16,15675,5,12,0:0:0:0:
401,142,15975,1,0,3:0:0:0:
340,89,16125,5,12,0:0:0:0:
139,238,16425,1,0,3:0:0:0:
235,124,16575,5,12,0:0:0:0:
403,220,16875,1,0,3:0:0:0:
332,185,17025,5,12,0:0:0:0:
185,297,17325,1,0,3:0:0:0:
249,345,17475,6,0,P|295:346|363:335,1,107.999996704102,8|0,0:0|3:0,0:0:0:0:
185,297,17925,2,0,P|139:296|71:307,1,107.999996704102,8|0,0:0|3:0,0:0:0:0:
2,231,18375,1,8,0:0:0:0:
2,231,18450,1,8,0:0:0:0:
2,231,18525,1,8,0:0:0:0:
2,231,18600,1,8,0:0:0:0:
2,231,18675,1,8,0:0:0:0:
2,231,18750,1,8,0:0:0:0:
2,231,18815,6,0,P|49:235|97:220,1,90,2|0,0:0|0:0,0:0:0:0:
470,69,23465,5,8,0:0:0:0:
470,69,23540,1,8,0:0:0:0:
470,69,23615,1,8,0:0:0:0:
405,112,23765,2,0,L|340:104,1,53.9999983520508,0|0,3:0|0:0,0:0:0:0:
480,162,24065,1,8,0:0:0:0:
415,205,24215,2,0,L|350:197,1,53.9999983520508,0|0,3:0|0:0,0:0:0:0:
512,273,24515,1,8,0:0:0:0:
447,316,24665,2,0,L|382:308,1,53.9999983520508,0|0,3:0|0:0,0:0:0:0:
305,351,24965,2,0,L|175:335,1,107.999996704102,8|0,0:0|0:0,0:0:0:0:
42,297,25415,5,8,0:0:0:0:
107,254,25565,2,0,L|172:262,1,53.9999983520508,0|0,3:0|0:0,0:0:0:0:
32,204,25865,1,8,0:0:0:0:
97,161,26015,2,0,L|162:169,1,53.9999983520508,0|0,3:0|0:0,0:0:0:0:
0,93,26315,1,8,0:0:0:0:
65,50,26465,2,0,L|130:58,1,53.9999983520508,0|0,3:0|0:0,0:0:0:0:
256,0,26765,2,0,L|240:130,1,107.999996704102,8|0,0:0|0:0,0:0:0:0:
352,192,27215,5,8,0:0:0:0:
220,207,27365,1,8,0:0:0:0:
352,192,27515,2,0,L|342:270,1,53.9999983520508,0|0,3:0|0:0,0:0:0:0:
495,306,27815,2,0,L|510:181,1,107.999996704102,8|8,0:0|0:0,0:0:0:0:
508,199,28265,1,8,0:0:0:0:
364,356,28415,5,8,0:0:0:0:
277,305,28565,2,0,L|212:313,1,62.9999980773926,0|0,3:0|3:0,0:0:0:0:
352,192,28865,1,8,0:0:0:0:
426,117,29015,2,0,L|491:125,1,62.9999980773926,0|0,3:0|0:0,0:0:0:0:
293,8,29315,1,8,0:0:0:0:
206,59,29465,2,0,L|141:51,1,62.9999980773926,0|0,3:0|3:0,0:0:0:0:
387,32,29765,2,0,L|517:48,1,125.999996154785,8|0,0:0|0:0,0:0:0:0:
285,91,30215,5,8,0:0:0:0:
198,142,30365,2,0,L|133:134,1,62.9999980773926,0|0,3:0|3:0,0:0:0:0:
269,239,30665,1,8,0:0:0:0:
337,310,30815,2,0,L|402:302,1,62.9999980773926,0|0,3:0|0:0,0:0:0:0:
232,384,31115,1,8,0:0:0:0:
145,333,31265,2,0,L|80:341,1,62.9999980773926,0|0,3:0|3:0,0:0:0:0:
269,239,31565,2,0,L|399:223,1,125.999996154785,8|0,0:0|0:0,0:0:0:0:
263,103,32015,5,8,0:0:0:0:
97,206,32165,1,8,0:0:0:0:
263,103,32315,2,0,L|253:25,1,62.9999980773926,0|0,3:0|0:0,0:0:0:0:
68,125,32615,1,8,0:0:0:0:
77,126,32690,1,8,0:0:0:0:
86,127,32765,1,8,0:0:0:0:
96,128,32840,1,8,0:0:0:0:
105,129,32915,1,8,0:0:0:0:
218,176,33065,1,8,0:0:0:0:
368,32,33215,5,8,0:0:0:0:
325,110,33365,2,0,L|260:102,1,62.9999980773926,0|0,3:0|3:0,0:0:0:0:
437,145,33665,1,8,0:0:0:0:
394,223,33815,2,0,L|329:215,1,62.9999980773926,0|0,3:0|0:0,0:0:0:0:
512,285,34115,1,8,0:0:0:0:
469,363,34265,2,0,L|404:355,1,62.9999980773926,0|0,3:0|3:0,0:0:0:0:
213,289,34565,2,0,L|343:305,1,125.999996154785,8|0,0:0|0:0,0:0:0:0:
7,203,35015,5,8,0:0:0:0:
85,160,35165,2,0,L|77:95,1,62.9999980773926,0|0,3:0|3:0,0:0:0:0:
120,272,35465,1,8,0:0:0:0:
198,229,35615,2,0,L|190:164,1,62.9999980773926,0|0,3:0|0:0,0:0:0:0:
270,364,35915,1,8,0:0:0:0:
338,304,36065,2,0,L|330:239,1,62.9999980773926,0|0,3:0|3:0,0:0:0:0:
482,384,36365,2,0,L|466:254,1,125.999996154785,8|0,0:0|0:0,0:0:0:0:
445,66,36815,5,8,0:0:0:0:
288,160,36965,1,8,0:0:0:0:
481,144,37115,1,0,3:0:0:0:
311,67,37265,1,0,3:0:0:0:
394,200,37415,1,8,0:0:0:0:
393,192,37490,1,8,0:0:0:0:
392,184,37565,1,8,0:0:0:0:
391,176,37640,1,8,0:0:0:0:
391,168,37715,1,8,0:0:0:0:
374,5,37865,1,8,0:0:0:0:
186,145,38015,5,12,0:2:0:0:
131,91,38165,2,0,L|125:18,1,72,2|0,3:2|3:0,0:0:0:0:
263,108,38465,1,8,0:0:0:0:
184,159,38615,1,2,3:2:0:0:
226,237,38765,1,2,3:2:0:0:
36,309,38915,1,8,0:2:0:0:
90,232,39065,2,0,L|96:159,1,72,0|0,3:0|3:0,0:0:0:0:
176,376,39365,1,8,0:2:0:0:
240,316,39515,2,0,L|234:244,1,72,0|8,3:0|0:0,0:0:0:0:
234,244,39740,1,8,0:0:0:0:
234,244,39815,6,0,L|389:276,1,144,8|0,0:0|3:0,0:0:0:0:
448,66,40265,1,8,0:2:0:0:
512,126,40415,2,0,L|506:197,1,72,0|0,3:0|3:0,0:0:0:0:
367,41,40715,1,8,0:2:0:0:
303,101,40865,2,0,L|308:172,1,72,0|0,3:0|3:0,0:0:0:0:
231,1,41165,1,8,0:2:0:0:
167,61,41315,2,0,L|172:132,1,72,8|8,3:2|3:2,0:0:0:0:
34,323,41615,5,12,0:0:0:0:
247,227,41765,1,8,0:0:0:0:
11,226,41915,1,0,3:0:0:0:
260,315,42065,1,8,0:0:0:0:
49,144,42215,1,8,0:0:0:0:
60,144,42290,1,8,0:0:0:0:
73,145,42365,1,8,0:0:0:0:
85,147,42440,1,8,0:0:0:0:
98,147,42515,1,8,0:0:0:0:
141,359,42665,1,8,0:0:0:0:
235,107,42815,5,12,3:2:0:0:
180,161,42965,2,0,L|174:234,1,72,2|0,3:2|3:0,0:0:0:0:
288,52,43265,1,8,3:2:0:0:
343,106,43415,2,0,L|349:179,1,72,2|0,3:2|3:0,0:0:0:0:
173,0,43715,1,8,3:2:0:0:
108,43,43865,2,0,L|114:116,1,72,2|0,3:2|3:0,0:0:0:0:
391,1,44165,1,8,3:2:0:0:
456,58,44315,2,0,L|450:131,1,72,2|0,3:2|3:0,0:0:0:0:
450,129,44540,1,8,0:0:0:0:
449,129,44615,6,0,B|396:147|396:147|386:176|386:176|312:204,1,144,8|0,0:0|3:0,0:0:0:0:
139,263,45065,2,0,L|133:190,1,72,2|0,3:2|3:0,0:0:0:0:
271,322,45365,1,8,3:2:0:0:
326,268,45515,2,0,L|332:195,1,72,2|0,3:2|3:0,0:0:0:0:
156,374,45815,1,8,3:2:0:0:
91,329,45965,2,0,L|97:256,1,72,2|0,3:2|3:0,0:0:0:0:
318,384,46265,1,8,3:2:0:0:
260,134,46415,5,12,0:0:0:0:
91,329,46565,1,8,0:0:0:0:
326,268,46715,1,0,3:0:0:0:
85,165,46865,1,8,0:0:0:0:
370,132,47015,5,12,0:0:0:0:
96,257,47165,1,8,0:0:0:0:
407,287,47315,1,8,0:0:0:0:
170,134,47465,1,8,0:0:0:0:
397,374,47615,5,12,0:2:0:0:
474,238,47765,2,0,L|480:158,1,80.9999975280763,2|0,3:2|3:0,0:0:0:0:
391,25,48065,1,8,0:0:0:0:
265,78,48215,1,2,3:2:0:0:
327,190,48365,1,10,0:2:0:0:
435,94,48515,1,12,0:2:0:0:
327,190,48665,2,0,L|338:99,1,80.9999975280763,0|0,3:0|3:0,0:0:0:0:
163,237,48965,1,8,0:2:0:0:
178,80,49115,2,0,L|188:0,1,80.9999975280763,0|8,3:0|0:0,0:0:0:0:
188,0,49340,1,8,0:0:0:0:
188,0,49415,6,0,L|13:35,1,161.999995056153,12|0,0:0|3:0,0:0:0:0:
343,43,49865,1,8,0:2:0:0:
178,80,50015,2,0,L|73:101,1,80.9999975280763,0|8,3:0|3:2,0:0:0:0:
418,192,50315,1,12,0:2:0:0:
235,182,50465,2,0,L|130:161,1,80.9999975280763,0|0,3:0|3:2,0:0:0:0:
390,313,50765,1,8,0:2:0:0:
226,272,50915,2,0,L|121:251,1,80.9999975280763,0|0,3:0|3:2,0:0:0:0:
374,93,51215,5,12,0:0:0:0:
472,262,51365,1,8,0:0:0:0:
327,175,51515,5,0,3:0:0:0:
468,275,51665,1,8,0:0:0:0:
448,56,51815,5,4,3:2:0:0:
463,280,51965,1,8,0:0:0:0:
350,60,52115,5,8,0:0:0:0:
471,286,52265,1,8,0:0:0:0:
253,106,52415,5,12,0:2:0:0:
276,341,52565,2,0,L|270:261,1,80.9999975280763,0|0,3:2|3:0,0:0:0:0:
174,50,52865,1,8,0:2:0:0:
152,324,53015,2,0,L|158:244,1,80.9999975280763,0|0,3:2|3:0,0:0:0:0:
396,81,53315,1,12,0:2:0:0:
373,316,53465,2,0,L|379:236,1,80.9999975280763,0|0,3:2|3:0,0:0:0:0:
475,25,53765,1,8,0:2:0:0:
497,299,53915,2,0,L|491:219,1,80.9999975280763,0|0,3:2|3:0,0:0:0:0:
490,218,54140,1,8,0:0:0:0:
490,218,54215,6,0,L|315:183,1,161.999995056153,12|0,0:0|3:0,0:0:0:0:
102,28,54665,1,8,0:2:0:0:
316,65,54815,2,0,L|421:86,1,80.9999975280763,0|8,3:0|3:2,0:0:0:0:
69,142,55115,1,12,0:2:0:0:
331,186,55265,2,0,L|436:207,1,80.9999975280763,0|8,3:0|3:2,0:0:0:0:
72,300,55565,1,8,0:2:0:0:
286,337,55715,2,0,L|391:358,1,80.9999975280763,0|8,3:0|3:2,0:0:0:0:
236,112,56015,5,12,0:0:0:0:
164,363,56165,1,8,0:0:0:0:
134,97,56315,1,0,3:0:0:0:
215,303,56465,1,8,0:0:0:0:
22,210,56615,5,8,0:0:0:0:
315,257,56765,1,8,0:0:0:0:
28,234,56915,5,8,0:0:0:0:
341,176,57065,1,8,0:0:0:0:
35,78,57215,5,4,3:2:0:0:
48,38,61715,6,0,P|74:39|103:53,2,53.9999983520508,0|0|0,3:0|3:0|3:0,0:0:0:0:
0,97,62015,1,8,0:0:0:0:
192,172,66215,5,8,0:0:0:0:
213,278,66365,1,8,0:0:0:0:
320,254,66515,1,8,0:0:0:0:
298,149,66665,1,8,0:0:0:0:
192,172,66815,6,0,B|133:211|133:211|71:166,1,135.000005149842,4|8,3:2|0:0,0:0:0:0:
2,334,67415,1,0,3:0:0:0:
70,295,67565,2,0,L|140:288,1,67.5000025749208,8|0,0:0|3:0,0:0:0:0:
137,288,67865,1,0,3:0:0:0:
210,334,68015,2,0,B|257:340|257:340|273:358|273:358|361:374,1,135.000005149842,8|0,0:0|3:0,0:0:0:0:
454,316,68465,1,8,0:0:0:0:
386,280,68615,2,0,L|316:287,1,67.5000025749208,0|0,3:0|3:0,0:0:0:0:
443,175,68915,1,8,0:0:0:0:
443,175,69065,1,0,3:0:0:0:
485,106,69215,6,0,L|513:41,1,67.5000025749208,0|8,3:0|0:0,0:0:0:0:
409,100,69515,2,0,B|362:106|362:106|346:124|346:124|258:140,1,135.000005149842,0|8,3:0|0:0,0:0:0:0:
111,50,70115,1,8,0:0:0:0:
35,81,70265,1,8,0:0:0:0:
111,50,70415,2,0,L|115:121,1,67.5000025749208,0|0,3:0|3:0,0:0:0:0:
127,219,70715,1,8,0:0:0:0:
127,219,70865,1,8,0:0:0:0:
190,121,71015,5,8,0:0:0:0:
235,279,71165,1,8,0:0:0:0:
275,69,71315,1,8,0:0:0:0:
339,278,71465,1,8,0:0:0:0:
370,146,71615,6,0,B|420:101|420:101|475:140,1,135.000005149842,4|8,3:2|0:0,0:0:0:0:
452,281,72215,1,0,3:0:0:0:
384,242,72365,2,0,L|314:235,1,67.5000025749208,8|0,0:0|3:0,0:0:0:0:
317,235,72665,1,0,3:0:0:0:
244,281,72815,2,0,B|197:287|197:287|181:305|181:305|93:321,1,135.000005149842,8|0,0:0|3:0,0:0:0:0:
0,263,73265,1,8,0:0:0:0:
90,212,73415,1,8,0:0:0:0:
30,365,73565,1,8,0:0:0:0:
168,256,73715,1,8,0:0:0:0:
13,150,73865,1,4,3:0:0:0:
187,381,74015,5,12,0:0:0:0:
187,381,76115,6,0,B|193:364|193:364|199:321,1,58.4999973220826
9,184,76415,6,0,B|60:188|60:188|76:207|76:207|153:218,1,148.50000453186,4|0,3:2|0:0,0:0:0:0:
194,153,76715,2,0,L|293:162,1,99.0000030212403,8|0,0:0|0:0,0:0:0:0:
126,111,77015,2,0,L|27:102,1,99.0000030212403,0|0,3:2|3:0,0:0:0:0:
293,162,77315,2,0,B|338:156|338:156|346:142|346:142|403:133,1,99.0000030212403,8|0,0:2|3:0,0:0:0:0:
484,67,77615,6,0,B|495:21|495:21|428:-4,1,99.0000030212403,2|0,3:2|0:0,0:0:0:0:
403,208,77915,1,12,0:0:0:0:
364,363,78065,1,0,0:0:0:0:
326,245,78215,1,0,3:0:0:0:
245,339,78365,1,0,3:0:0:0:
430,301,78515,1,10,0:0:0:0:
293,162,78665,1,2,0:0:0:0:
108,346,78815,6,0,B|59:336|59:336|31:223,1,148.50000453186,4|0,3:2|0:0,0:0:0:0:
28,162,79115,2,0,L|19:63,1,99.0000030212403,8|0,0:0|0:0,0:0:0:0:
178,282,79415,2,0,L|186:380,1,99.0000030212403,0|0,3:2|3:0,0:0:0:0:
257,158,79715,1,8,0:0:0:0:
152,171,79865,1,0,3:0:0:0:
384,303,80015,6,0,B|451:338|451:338|502:279,1,148.50000453186,2|0,3:2|0:0,0:0:0:0:
334,245,80315,2,0,B|299:253|299:253|253:303,1,99.0000030212403,12|0,0:0|0:0,0:0:0:0:
508,200,80615,1,0,3:0:0:0:
511,33,80765,1,0,3:0:0:0:
291,155,80915,1,10,0:0:0:0:
432,243,81065,1,2,0:0:0:0:
511,33,81215,6,0,B|459:28|459:28|444:10|444:10|367:-1,1,148.50000453186,4|0,3:2|0:0,0:0:0:0:
227,54,81515,2,0,L|326:63,1,99.0000030212403,8|0,0:0|0:0,0:0:0:0:
505,108,81815,2,0,L|406:99,1,99.0000030212403,0|0,3:2|3:0,0:0:0:0:
156,11,82115,2,0,B|141:58|141:58|175:133,1,99.0000030212403,8|0,0:2|3:0,0:0:0:0:
0,236,82415,6,0,B|51:241|51:241|67:259|67:259|144:270,1,148.50000453186,0|0,3:2|0:0,0:0:0:0:
114,168,82715,2,0,L|15:159,1,99.0000030212403,12|0,0:0|0:0,0:0:0:0:
63,359,83015,1,0,3:2:0:0:
203,167,83165,1,0,3:2:0:0:
269,375,83315,2,0,B|281:348|281:348|260:276,1,99.0000030212403,8|0,0:0|0:0,0:0:0:0:
488,24,83615,5,12,0:0:0:0:
470,220,83765,1,0,3:0:0:0:
273,203,83915,5,12,0:0:0:0:
290,5,84065,1,0,3:0:0:0:
488,24,84215,5,12,0:0:0:0:
470,220,84365,1,0,3:0:0:0:
264,90,84515,2,0,L|159:104,1,99.0000030212403,12|0,0:0|3:0,0:0:0:0:
26,365,84815,5,12,0:0:0:0:
44,152,84965,1,0,3:0:0:0:
239,383,85115,5,12,0:0:0:0:
257,171,85265,1,0,3:0:0:0:
26,365,85415,5,12,0:0:0:0:
44,152,85565,1,0,3:0:0:0:
297,279,85715,5,12,0:0:0:0:
0,256,85865,1,8,0:0:0:0:
357,218,86015,6,0,B|408:222|408:222|424:241|424:241|501:252,1,148.50000453186,4|0,3:2|0:0,0:0:0:0:
318,153,86315,2,0,L|219:162,1,99.0000030212403,8|0,0:0|0:0,0:0:0:0:
406,76,86615,2,0,L|505:67,1,99.0000030212403,0|0,3:2|3:0,0:0:0:0:
219,162,86915,2,0,B|174:156|174:156|166:142|166:142|109:133,1,99.0000030212403,8|0,0:2|3:0,0:0:0:0:
28,67,87215,6,0,B|17:21|17:21|84:-4,1,99.0000030212403,2|0,3:2|0:0,0:0:0:0:
103,250,87515,1,12,0:0:0:0:
175,68,87665,1,0,0:0:0:0:
334,282,87815,1,0,3:0:0:0:
323,127,87965,1,0,3:0:0:0:
257,291,88115,1,10,0:0:0:0:
218,384,88265,1,2,0:0:0:0:
404,346,88415,6,0,B|453:336|453:336|481:223,1,148.50000453186,4|0,3:2|0:0,0:0:0:0:
493,63,88715,2,0,L|484:162,1,99.0000030212403,8|0,0:0|0:0,0:0:0:0:
326,380,89015,2,0,L|334:282,1,99.0000030212403,0|0,3:2|3:0,0:0:0:0:
272,64,89315,1,8,0:0:0:0:
352,178,89465,1,0,3:0:0:0:
128,303,89615,6,0,B|61:338|61:338|10:279,1,148.50000453186,2|0,3:2|0:0,0:0:0:0:
178,245,89915,2,0,B|213:253|213:253|259:303,1,99.0000030212403,12|0,0:0|0:0,0:0:0:0:
4,200,90215,1,0,3:0:0:0:
161,71,90365,1,0,3:0:0:0:
178,245,90515,1,10,0:0:0:0:
85,223,90665,1,2,0:0:0:0:
1,33,90815,6,0,B|53:28|53:28|68:10|68:10|145:-1,1,148.50000453186,4|0,3:2|0:0,0:0:0:0:
330,46,91115,2,0,L|231:55,1,99.0000030212403,8|0,0:0|0:0,0:0:0:0:
7,108,91415,2,0,L|106:99,1,99.0000030212403,0|0,3:2|3:0,0:0:0:0:
401,3,91715,2,0,B|416:50|416:50|382:125,1,99.0000030212403,8|0,0:2|3:0,0:0:0:0:
512,236,92015,6,0,B|461:241|461:241|445:259|445:259|368:270,1,148.50000453186,0|0,3:2|0:0,0:0:0:0:
403,170,92315,2,0,L|502:161,1,99.0000030212403,12|0,0:0|0:0,0:0:0:0:
449,359,92615,1,0,3:2:0:0:
314,136,92765,1,0,3:2:0:0:
243,375,92915,2,0,B|231:348|231:348|252:276,1,99.0000030212403,8|0,0:0|0:0,0:0:0:0:
26,20,93215,5,12,0:0:0:0:
43,225,93365,1,0,3:0:0:0:
249,207,93515,5,12,0:0:0:0:
231,2,93665,1,0,3:0:0:0:
26,20,93815,5,12,0:0:0:0:
43,225,93965,1,0,3:0:0:0:
236,10,94115,5,12,0:0:0:0:
414,190,94265,1,8,0:0:0:0:
278,80,94415,5,12,0:0:0:0:
295,295,94565,1,0,3:0:0:0:
493,61,94715,5,12,0:0:0:0:
512,276,94865,1,0,3:0:0:0:
272,82,95015,5,12,0:0:0:0:
289,297,95165,1,0,3:0:0:0:
490,175,95315,1,10,0:0:0:0:
490,175,95465,1,8,0:0:0:0:
272,82,95615,6,4,B|192:89|234:116|104:132,1,144,4|0,3:2|3:0,0:0:0:0:
11,33,96065,2,0,P|46:38|166:48,1,144,8|0,0:0|3:0,0:0:0:0:
66,116,96515,1,8,0:0:0:0:
261,2,96815,5,2,3:2:0:0:
313,60,96965,1,8,0:0:0:0:
313,60,97115,2,0,P|369:57|458:30,1,144,0|8,3:0|0:0,0:0:0:0:
290,135,97715,2,0,P|255:136|199:153,1,72,10|0,0:2|0:0,0:0:0:0:
356,173,98015,6,0,P|412:176|501:203,1,144,2|0,3:2|3:0,0:0:0:0:
356,173,98465,2,0,P|376:225|390:317,1,144,10|0,0:2|0:0,0:0:0:0:
356,173,98915,2,0,P|329:201|274:237,1,72,10|0,0:2|3:0,0:0:0:0:
219,279,99215,1,2,3:2:0:0:
121,275,99365,1,8,0:0:0:0:
49,215,99515,1,8,0:0:0:0:
49,215,99815,5,8,0:0:0:0:
182,206,99965,1,8,0:0:0:0:
31,332,100115,1,10,0:0:0:0:
164,341,100265,1,8,0:0:0:0:
247,281,100415,6,0,P|260:235|247:114,1,144,2|0,3:2|3:0,0:0:0:0:
153,48,100865,1,8,0:0:0:0:
86,84,101015,1,0,3:0:0:0:
290,56,101315,2,0,L|363:70,1,72,10|0,0:0|0:0,0:0:0:0:
181,119,101615,5,2,3:2:0:0:
139,180,101765,1,8,0:0:0:0:
139,180,101915,2,0,L|-8:210,1,144,0|8,3:0|0:0,0:0:0:0:
254,140,102515,2,0,L|327:154,1,72,10|0,0:0|0:0,0:0:0:0:
508,180,102815,6,0,P|452:183|373:231,1,144,2|0,3:2|3:0,0:0:0:0:
300,247,103265,2,0,P|281:287|277:314,1,72,10|0,0:2|0:0,0:0:0:0:
365,375,103565,2,0,P|380:332|387:225,1,144,2|0,0:0|0:0,0:0:0:0:
210,212,104015,1,2,3:2:0:0:
118,255,104165,1,8,0:0:0:0:
84,354,104315,1,8,0:0:0:0:
84,354,104615,6,0,L|79:314,3,36,0|0|0|0,3:0|3:0|3:0|3:0,3:0:0:0:
118,255,104915,1,8,0:0:0:0:
0,320,105065,1,8,0:0:0:0:
190,285,105215,6,4,P|240:320|346:335,1,144,4|0,3:2|3:0,0:0:0:0:
412,384,105665,2,0,P|407:349|397:229,1,144,8|0,0:0|3:0,0:0:0:0:
488,147,106115,1,8,0:0:0:0:
307,53,106415,5,2,3:2:0:0:
249,105,106565,1,8,0:0:0:0:
249,105,106715,2,0,P|252:161|279:250,1,144,0|8,3:0|0:0,0:0:0:0:
174,82,107315,2,0,P|173:47|156:-9,1,72,10|0,0:2|0:0,0:0:0:0:
0,124,107615,6,0,P|56:127|145:154,1,144,2|0,3:2|3:0,0:0:0:0:
188,214,108065,2,0,P|136:234|44:248,1,144,10|0,0:2|0:0,0:0:0:0:
190,298,108515,2,0,P|225:302|260:312,1,72,10|0,0:2|3:0,0:0:0:0:
344,362,108815,1,2,3:2:0:0:
438,318,108965,1,0,3:0:0:0:
463,215,109115,1,8,0:0:0:0:
463,215,109415,5,8,0:0:0:0:
321,238,109565,1,8,0:0:0:0:
452,126,109715,1,10,0:0:0:0:
295,81,109865,1,8,0:0:0:0:
229,134,110015,6,0,P|183:147|62:134,1,144,2|0,3:2|3:0,0:0:0:0:
228,45,110465,1,8,0:0:0:0:
295,81,110615,1,0,3:0:0:0:
113,233,110915,2,0,L|40:247,1,72,10|0,0:0|0:0,0:0:0:0:
191,213,111215,5,2,3:2:0:0:
267,186,111365,1,8,0:0:0:0:
267,186,111515,2,0,L|414:216,1,144,0|8,3:0|0:0,0:0:0:0:
153,361,112115,2,0,L|167:288,1,72,10|0,0:0|0:0,0:0:0:0:
302,338,112415,6,0,P|358:335|437:287,1,144,2|0,3:2|3:0,0:0:0:0:
509,210,112865,2,0,P|502:175|487:143,1,72,10|0,0:2|0:0,0:0:0:0:
345,103,113165,2,0,P|302:118|195:125,1,144,2|0,0:0|0:0,0:0:0:0:
100,251,113615,1,2,3:2:0:0:
5,199,113765,1,8,0:0:0:0:
0,92,113915,1,8,0:0:0:0:
0,92,114215,6,0,P|49:99|125:167,1,144,10|0,0:0|3:0,0:0:0:0:
96,231,114665,1,8,0:0:0:0:
204,126,114815,6,0,P|197:79|182:14,1,80.9999975280763,4|0,3:2|0:0,0:0:0:0:
278,171,115115,2,0,P|285:218|300:283,1,80.9999975280763,0|8,3:2|0:0,0:0:0:0:
334,104,115415,2,0,P|341:57|356:-8,1,80.9999975280763,0|0,3:2|0:0,0:0:0:0:
493,125,115715,2,0,P|414:141|359:199,1,161.999995056153,8|0,0:0|3:0,0:0:0:0:
416,297,116165,1,8,0:0:0:0:
416,297,116315,2,0,P|468:291|503:290,1,80.9999975280763,0|0,3:0|0:0,0:0:0:0:
354,370,116615,2,0,P|275:353|201:208,1,242.999992584229,8|0,0:0|3:0,0:0:0:0:
125,57,117215,5,8,0:0:0:0:
82,212,117365,1,8,0:0:0:0:
20,132,117515,1,0,3:0:0:0:
187,118,117665,1,8,0:0:0:0:
20,132,117815,2,0,P|32:81|32:38,1,80.9999975280763,0|0,3:0|0:0,0:0:0:0:
8,255,118115,2,0,P|20:293|28:333,1,80.9999975280763,8|0,0:0|0:0,0:0:0:0:
101,364,118415,5,2,3:2:0:0:
507,198,119015,1,10,0:2:0:0:
262,12,119315,1,8,0:0:0:0:
247,107,119465,1,8,0:0:0:0:
204,258,119615,6,0,P|197:305|182:370,1,80.9999975280763,4|0,3:2|0:0,0:0:0:0:
332,150,119915,2,0,P|325:103|310:38,1,80.9999975280763,0|8,3:2|0:0,0:0:0:0:
460,284,120215,2,0,P|467:331|482:396,1,80.9999975280763,0|0,3:2|0:0,0:0:0:0:
126,293,120515,2,0,P|107:219|92:111,1,161.999995056153,8|0,0:0|3:0,0:0:0:0:
283,272,120965,1,8,0:0:0:0:
283,272,121115,2,0,P|277:324|276:359,1,80.9999975280763,0|0,3:0|0:0,0:0:0:0:
512,144,121415,2,0,P|434:140|360:-5,1,242.999992584229,8|0,0:0|3:0,0:0:0:0:
194,99,122015,5,8,0:0:0:0:
92,132,122165,1,0,3:0:0:0:
228,29,122315,1,0,3:0:0:0:
58,5,122465,1,8,0:0:0:0:
228,29,122615,2,0,P|274:52|319:59,1,80.9999975280763,0|8,3:0|0:0,0:0:0:0:
115,281,122915,5,8,0:0:0:0:
97,76,123065,1,8,0:0:0:0:
302,57,123215,1,8,0:0:0:0:
320,262,123365,1,8,0:0:0:0:
197,16,123515,5,8,0:0:0:0:
60,175,123665,1,8,0:0:0:0:
222,310,123815,1,8,0:0:0:0:
357,150,123965,1,8,0:0:0:0:
103,308,124115,5,8,0:0:0:0:
197,16,124265,1,8,0:0:0:0:
336,300,124415,1,8,0:0:0:0:
159,251,124715,5,0,3:0:0:0:
239,258,125015,1,0,3:0:0:0:
298,312,125315,1,0,3:0:0:0:
386,351,125615,1,0,3:0:0:0:
471,304,125915,1,0,3:0:0:0:
506,213,126215,1,0,3:0:0:0:
446,136,126515,1,0,3:0:0:0:
326,85,126815,6,0,L|330:150,1,45,0|0,3:0|0:0,0:0:0:0:
252,136,127115,2,0,L|248:91,1,45,0|0,3:0|0:0,0:0:0:0:
415,88,127415,2,0,L|402:152,1,45,0|0,3:0|0:0,0:0:0:0:
178,151,127715,2,0,L|163:108,1,45,0|0,3:0|0:0,0:0:0:0:
5,97,128015,5,0,3:0:0:0:
5,97,128165,1,0,0:0:0:0:
0,198,128315,1,0,3:0:0:0:
0,198,128465,1,0,0:0:0:0:
79,262,128615,1,0,3:0:0:0:
79,262,128765,1,0,0:0:0:0:
172,237,128915,1,0,3:0:0:0:
172,237,129065,1,0,0:0:0:0:
258,227,129215,6,0,L|252:305,1,62.9999980773926,0|0,3:0|0:0,0:0:0:0:
269,124,129515,2,0,L|275:46,1,62.9999980773926,0|0,3:0|0:0,0:0:0:0:
330,272,129815,2,0,L|336:350,1,62.9999980773926,0|0,3:0|0:0,0:0:0:0:
195,91,130115,2,0,L|189:13,1,62.9999980773926,0|0,3:0|0:0,0:0:0:0:
322,183,130415,5,0,3:0:0:0:
112,80,130715,1,0,3:0:0:0:
411,199,131015,1,0,3:0:0:0:
27,56,131315,1,0,3:0:0:0:
392,85,131615,5,4,3:0:0:0:
410,199,131765,1,0,3:0:0:0:
500,191,131915,5,4,3:0:0:0:
386,208,132065,1,0,3:0:0:0:
424,338,132215,5,4,3:0:0:0:
407,223,132365,1,0,3:0:0:0:
288,200,132515,5,4,3:0:0:0:
402,183,132665,1,0,3:0:0:0:
139,220,132815,6,0,L|61:226,1,72,4|0,3:0|0:0,0:0:0:0:
320,77,133115,2,0,L|391:71,1,72,4|0,3:0|0:0,0:0:0:0:
98,300,133415,6,0,L|26:305,1,72,4|0,3:0|0:0,0:0:0:0:
364,148,133715,2,0,L|435:142,1,72,4|0,3:0|0:0,0:0:0:0:
148,11,134015,6,0,B|86:28|86:28|69:62|69:62|-11:94,1,161.999995056153,4|0,3:2|3:0,0:0:0:0:
220,123,134465,1,8,0:0:0:0:
149,174,134615,2,0,L|141:84,1,80.9999975280763,0|0,3:0|0:0,0:0:0:0:
307,247,134915,2,0,L|315:337,1,80.9999975280763,8|0,0:0|0:0,0:0:0:0:
481,224,135215,5,2,3:2:0:0:
297,152,135365,1,8,0:0:0:0:
481,224,135515,2,0,P|498:178|481:137,1,80.9999975280763,0|0,3:0|0:0,0:0:0:0:
423,276,135815,2,0,P|454:313|498:319,1,80.9999975280763,8|0,0:0|3:0,0:0:0:0:
374,217,136115,2,0,P|325:225|298:260,1,80.9999975280763,8|0,0:0|0:0,0:0:0:0:
148,373,136415,6,0,B|86:356|86:356|69:322|69:322|-11:290,1,161.999995056153,2|0,3:2|3:0,0:0:0:0:
144,292,136865,1,8,0:0:0:0:
42,138,137015,2,0,L|50:228,1,80.9999975280763,0|0,3:0|0:0,0:0:0:0:
245,384,137315,2,0,L|253:304,1,80.9999975280763,8|0,0:0|0:0,0:0:0:0:
389,126,137615,5,2,3:2:0:0:
483,320,137765,1,8,0:0:0:0:
477,152,137915,1,8,0:0:0:0:
369,377,138065,2,0,L|392:289,1,80.9999975280763,2|8,3:2|0:0,0:0:0:0:
297,152,138365,1,2,3:2:0:0:
500,233,138515,1,8,0:0:0:0:
253,304,138665,1,8,0:0:0:0:
342,78,138815,6,0,B|404:95|404:95|421:129|421:129|501:161,1,161.999995056153,4|0,3:2|3:0,0:0:0:0:
247,26,139265,1,8,0:0:0:0:
113,128,139415,2,0,L|23:136,1,80.9999975280763,0|0,3:0|0:0,0:0:0:0:
342,78,139715,2,0,L|432:70,1,80.9999975280763,10|0,0:0|0:0,0:0:0:0:
159,52,140015,5,2,3:2:0:0:
292,215,140165,1,8,0:0:0:0:
32,135,140315,2,0,P|15:89|32:48,1,80.9999975280763,0|0,3:0|0:0,0:0:0:0:
199,228,140615,2,0,P|167:265|123:271,1,80.9999975280763,8|0,0:0|3:0,0:0:0:0:
272,47,140915,2,0,P|320:55|347:90,1,80.9999975280763,8|8,0:0|0:0,0:0:0:0:
19,308,141215,5,0,3:0:0:0:
238,346,141365,1,0,3:0:0:0:
276,126,141515,1,8,0:0:0:0:
57,87,141665,1,8,0:0:0:0:
188,28,141815,5,8,0:0:0:0:
344,212,141965,1,8,0:0:0:0:
157,368,142115,1,8,0:0:0:0:
0,181,142265,1,8,0:0:0:0:
164,205,142415,5,8,0:0:0:0:
256,0,143315,6,0,B|261:12|261:12|268:60,1,45
155,166,143615,6,0,B|104:162|104:162|88:143|88:143|11:132,1,148.50000453186,4|0,3:2|0:0,0:0:0:0:
194,231,143915,2,0,L|293:222,1,99.0000030212403,8|0,0:0|0:0,0:0:0:0:
106,308,144215,2,0,L|7:317,1,99.0000030212403,0|0,3:2|3:0,0:0:0:0:
293,222,144515,2,0,B|344:227|344:227|360:245|360:245|410:252,1,99.0000030212403,8|0,0:2|3:0,0:0:0:0:
484,317,144815,6,0,B|495:363|495:363|428:388,1,99.0000030212403,2|0,3:2|0:0,0:0:0:0:
405,117,145115,1,12,0:0:0:0:
337,316,145265,1,0,0:0:0:0:
178,102,145415,1,0,3:0:0:0:
201,336,145565,1,0,3:0:0:0:
254,89,145715,1,10,0:0:0:0:
280,0,145865,1,2,0:0:0:0:
108,38,146015,6,0,B|59:48|59:48|31:161,1,148.50000453186,4|0,3:2|0:0,0:0:0:0:
17,350,146315,2,0,L|26:251,1,99.0000030212403,8|0,0:0|0:0,0:0:0:0:
186,4,146615,2,0,L|178:102,1,99.0000030212403,0|0,3:2|3:0,0:0:0:0:
240,320,146915,1,8,0:0:0:0:
97,201,147065,1,0,3:0:0:0:
384,81,147215,6,0,B|451:46|451:46|502:105,1,148.50000453186,2|0,3:2|0:0,0:0:0:0:
334,139,147515,2,0,B|299:131|299:131|253:81,1,99.0000030212403,12|0,0:0|0:0,0:0:0:0:
508,184,147815,1,0,3:0:0:0:
259,212,147965,1,0,3:0:0:0:
498,101,148115,1,10,0:0:0:0:
322,261,148265,1,2,0:0:0:0:
511,351,148415,6,0,B|459:356|459:356|444:374|444:374|367:385,1,148.50000453186,4|0,3:2|0:0,0:0:0:0:
182,338,148715,2,0,L|281:329,1,99.0000030212403,8|0,0:0|0:0,0:0:0:0:
504,275,149015,2,0,L|405:284,1,99.0000030212403,0|0,3:2|3:0,0:0:0:0:
111,381,149315,2,0,B|96:334|96:334|130:259,1,99.0000030212403,8|0,0:2|3:0,0:0:0:0:
0,148,149615,6,0,B|51:143|51:143|67:125|67:125|144:114,1,148.50000453186,0|0,3:2|0:0,0:0:0:0:
109,214,149915,2,0,L|10:223,1,99.0000030212403,12|0,0:0|0:0,0:0:0:0:
124,2,150215,1,0,3:2:0:0:
205,235,150365,1,0,3:2:0:0:
269,9,150515,2,0,B|281:36|281:36|260:108,1,99.0000030212403,8|0,0:0|0:0,0:0:0:0:
486,364,150815,5,12,0:0:0:0:
469,159,150965,1,0,3:0:0:0:
281,382,151115,5,12,0:0:0:0:
263,177,151265,1,0,3:0:0:0:
486,364,151415,5,12,0:0:0:0:
469,159,151565,1,0,3:0:0:0:
276,374,151715,5,12,0:0:0:0:
383,111,151865,1,8,0:0:0:0:
234,304,152015,5,12,0:0:0:0:
217,89,152165,1,0,3:0:0:0:
19,323,152315,5,12,0:0:0:0:
0,108,152465,1,0,3:0:0:0:
240,302,152615,5,12,0:0:0:0:
223,87,152765,1,0,3:0:0:0:
22,209,152915,1,10,0:0:0:0:
22,209,153065,1,8,0:0:0:0:
240,302,153215,6,4,B|324:292|274:263|408:252,1,144,4|0,3:2|3:0,0:0:0:0:
501,351,153665,2,0,L|346:336,1,144,8|0,0:0|3:0,0:0:0:0:
483,207,154115,1,8,0:0:0:0:
251,382,154415,5,2,3:2:0:0:
70,328,154565,1,8,0:0:0:0:
70,328,154715,2,0,P|126:325|215:298,1,144,0|8,3:0|0:0,0:0:0:0:
210,301,155315,2,0,P|245:302|301:319,1,72,10|0,0:2|0:0,0:0:0:0:
156,211,155615,6,0,P|100:208|11:181,1,144,2|0,3:2|3:0,0:0:0:0:
122,72,156065,2,0,P|131:143|156:211,1,144,10|0,0:2|0:0,0:0:0:0:
209,163,156515,2,0,P|180:184|156:211,1,72,10|0,0:2|3:0,0:0:0:0:
293,105,156815,1,2,3:2:0:0:
391,109,156965,1,8,0:0:0:0:
463,169,157115,1,8,0:0:0:0:
463,169,157415,1,8,0:0:0:0:
454,154,157490,1,0,3:0:0:0:
446,138,157565,1,0,3:0:0:0:
442,121,157640,1,0,3:0:0:0:
439,103,157715,1,10,0:0:0:0:
350,7,157865,1,8,0:0:0:0:
265,103,158015,6,0,P|252:149|265:270,1,144,2|0,3:2|3:0,0:0:0:0:
354,369,158465,1,8,0:0:0:0:
466,293,158615,1,0,3:0:0:0:
222,328,158915,2,0,L|149:314,1,72,10|0,0:0|0:0,0:0:0:0:
337,278,159215,5,2,3:2:0:0:
368,173,159365,1,8,0:0:0:0:
368,173,159515,2,0,L|515:143,1,144,0|8,3:0|0:0,0:0:0:0:
184,241,160115,2,0,L|111:227,1,72,10|0,0:0|0:0,0:0:0:0:
4,204,160415,6,0,P|60:201|139:153,1,144,2|0,3:2|3:0,0:0:0:0:
259,97,160865,2,0,P|275:65|282:29,1,72,10|0,0:2|0:0,0:0:0:0:
153,0,161165,2,0,P|138:43|131:150,1,144,2|0,0:0|0:0,0:0:0:0:
302,172,161615,1,2,3:2:0:0:
395,143,161765,1,8,0:0:0:0:
428,30,161915,1,8,0:0:0:0:
428,30,162215,1,8,3:2:0:0:
419,45,162290,1,0,3:0:0:0:
411,61,162365,1,0,3:0:0:0:
407,78,162440,1,0,3:0:0:0:
404,96,162515,1,10,0:0:0:0:
498,236,162665,1,8,0:0:0:0:
322,99,162815,6,4,P|272:64|166:49,1,144,4|0,3:2|3:0,0:0:0:0:
0,95,163265,2,0,P|35:100|155:110,1,144,8|0,0:0|3:0,0:0:0:0:
271,4,163715,1,8,0:0:0:0:
198,351,164015,5,2,3:2:0:0:
263,279,164165,1,8,0:0:0:0:
263,279,164315,2,0,P|260:223|233:134,1,144,0|8,3:0|0:0,0:0:0:0:
338,302,164915,2,0,P|339:337|356:393,1,72,10|0,0:2|0:0,0:0:0:0:
512,260,165215,6,0,P|456:257|367:230,1,144,2|0,3:2|3:0,0:0:0:0:
512,119,165665,2,0,P|460:139|368:153,1,144,10|0,0:2|0:0,0:0:0:0:
391,63,166115,2,0,P|356:59|321:49,1,72,10|0,0:2|3:0,0:0:0:0:
168,22,166415,1,2,3:2:0:0:
44,52,166565,1,0,3:0:0:0:
49,169,166715,1,8,0:0:0:0:
49,169,167015,1,0,3:0:0:0:
64,178,167090,1,0,3:0:0:0:
80,186,167165,1,0,3:0:0:0:
97,190,167240,1,0,3:0:0:0:
115,193,167315,1,10,0:0:0:0:
217,303,167465,1,8,0:0:0:0:
283,250,167615,6,0,P|329:237|450:250,1,144,2|0,3:2|3:0,0:0:0:0:
298,362,168065,1,8,0:0:0:0:
217,303,168215,1,0,3:0:0:0:
399,151,168515,2,0,L|472:137,1,72,10|0,0:0|0:0,0:0:0:0:
283,23,168815,5,2,3:2:0:0:
208,48,168965,1,8,0:0:0:0:
208,48,169115,2,0,L|61:78,1,144,0|8,3:0|0:0,0:0:0:0:
359,23,169715,2,0,L|345:96,1,72,10|0,0:0|0:0,0:0:0:0:
208,48,170015,6,0,P|152:51|73:99,1,144,2|0,3:2|3:0,0:0:0:0:
38,238,170465,2,0,P|44:273|60:305,1,72,10|0,0:2|0:0,0:0:0:0:
218,363,170765,2,0,P|231:307|236:201,1,144,2|0,0:0|0:0,0:0:0:0:
412,133,171215,1,2,3:2:0:0:
507,185,171365,1,8,0:0:0:0:
512,292,171515,1,8,0:0:0:0:
512,292,171815,5,10,0:0:0:0:
347,180,171965,1,8,0:0:0:0:
491,100,172115,1,8,0:0:0:0:
436,218,172265,1,8,0:0:0:0:
308,258,172415,6,0,P|315:305|330:370,1,80.9999975280763,4|0,3:2|0:0,0:0:0:0:
234,213,172715,2,0,P|227:166|212:101,1,80.9999975280763,0|8,3:2|0:0,0:0:0:0:
178,280,173015,2,0,P|171:327|156:392,1,80.9999975280763,0|0,3:2|0:0,0:0:0:0:
19,259,173315,2,0,P|98:243|153:185,1,161.999995056153,8|0,0:0|3:0,0:0:0:0:
96,87,173765,1,8,0:0:0:0:
96,87,173915,2,0,P|44:93|9:94,1,80.9999975280763,0|0,3:0|0:0,0:0:0:0:
158,14,174215,2,0,P|237:31|311:176,1,242.999992584229,8|0,0:0|3:0,0:0:0:0:
369,356,174815,5,8,0:0:0:0:
430,172,174965,1,8,0:0:0:0:
492,252,175115,1,0,3:0:0:0:
291,272,175265,1,8,0:0:0:0:
492,252,175415,2,0,P|480:303|480:346,1,80.9999975280763,0|0,3:0|0:0,0:0:0:0:
504,129,175715,2,0,P|492:91|484:51,1,80.9999975280763,8|0,0:0|0:0,0:0:0:0:
411,20,176015,5,2,3:2:0:0:
0,196,176615,1,10,0:2:0:0:
250,372,176915,1,8,0:0:0:0:
280,251,177065,1,8,0:0:0:0:
308,126,177215,6,0,P|315:79|330:14,1,80.9999975280763,4|0,3:2|0:0,0:0:0:0:
180,234,177515,2,0,P|187:281|202:346,1,80.9999975280763,0|8,3:2|0:0,0:0:0:0:
52,100,177815,2,0,P|45:53|30:-12,1,80.9999975280763,0|0,3:2|0:0,0:0:0:0:
386,91,178115,2,0,P|405:165|420:273,1,161.999995056153,8|0,0:0|3:0,0:0:0:0:
229,112,178565,1,8,0:0:0:0:
229,112,178715,2,0,P|235:60|236:25,1,80.9999975280763,0|0,3:0|0:0,0:0:0:0:
116,308,179015,2,0,P|116:183|44:61,1,242.999992584229,8|0,0:0|3:0,0:0:0:0:
372,331,179615,5,0,3:0:0:0:
116,308,179765,1,0,3:0:0:0:
139,52,179915,1,8,0:0:0:0:
395,75,180065,1,8,0:0:0:0:
239,368,180215,5,8,0:0:0:0:
70,168,180365,1,8,0:0:0:0:
272,0,180515,1,8,0:0:0:0:
441,199,180665,1,8,0:0:0:0:
256,192,180815,5,8,0:0:0:0:
19,101,182015,6,0,P|71:161|150:160,1,161.999995056153,4|0,3:2|0:0,0:0:0:0:
206,112,182315,2,0,P|200:58|195:4,1,107.999996704102,10|0,0:2|0:0,0:0:0:0:
26,222,182615,2,0,P|31:275|36:329,1,107.999996704102,0|0,3:0|3:0,0:0:0:0:
315,197,182915,5,10,0:0:0:0:
103,85,183065,1,0,0:0:0:0:
251,359,183215,6,0,P|253:313|260:242,1,107.999996704102,2|0,3:2|0:0,0:0:0:0:
291,20,183515,2,0,P|289:66|282:137,1,107.999996704102,14|0,0:2|3:0,0:0:0:0:
500,175,183815,2,0,P|447:180|409:217,1,107.999996704102,2|0,3:2|3:0,0:0:0:0:
178,308,184115,2,0,P|125:302|87:265,1,107.999996704102,10|0,0:2|3:0,0:0:0:0:
421,37,184415,5,4,3:2:0:0:
498,279,184565,1,0,3:0:0:0:
251,359,184715,1,12,0:2:0:0:
172,113,184865,1,0,3:0:0:0:
418,35,185015,1,4,3:2:0:0:
499,276,185165,1,0,3:0:0:0:
253,360,185315,1,12,0:2:0:0:
170,115,185465,1,0,3:0:0:0:
371,370,185615,5,4,3:2:0:0:
508,156,185765,1,0,3:0:0:0:
290,14,185915,1,12,0:2:0:0:
150,232,186065,1,0,3:0:0:0:
367,370,186215,1,4,3:2:0:0:
508,158,186365,1,0,3:0:0:0:
292,13,186515,1,12,0:2:0:0:
148,228,186665,1,8,0:2:0:0:
413,135,186815,6,0,B|434:83|434:83|418:35,1,107.999996704102,6|0,3:2|0:0,0:0:0:0:
214,165,187115,2,0,B|125:176|161:198|11:248,1,215.999993408203,10|0,0:0|3:0,0:0:0:0:
174,75,187565,1,2,3:2:0:0:
287,276,187715,6,0,P|304:224|311:171,1,107.999996704102,10|0,0:0|0:0,0:0:0:0:
174,374,188015,2,0,P|138:333|95:300,1,107.999996704102,2|0,0:0|3:0,0:0:0:0:
406,328,188315,2,0,P|455:272|479:183,1,161.999995056153,14|0,0:0|0:0,3:0:0:0:
426,136,188615,1,2,3:2:0:0:
221,243,188765,1,0,3:2:0:0:
426,136,188915,2,0,P|408:84|401:31,1,107.999996704102,10|0,0:0|0:0,0:0:0:0:
22,143,189215,5,4,3:2:0:0:
157,357,189365,1,0,3:0:0:0:
377,219,189515,1,12,0:2:0:0:
240,1,189665,1,0,3:0:0:0:
22,139,189815,1,4,3:2:0:0:
154,356,189965,1,0,3:0:0:0:
377,221,190115,1,12,0:2:0:0:
243,1,190265,1,0,3:0:0:0:
319,360,190415,5,4,3:2:0:0:
27,322,190565,1,0,3:0:0:0:
63,24,190715,1,12,0:2:0:0:
360,62,190865,1,0,3:0:0:0:
322,357,191015,1,4,3:2:0:0:
29,325,191165,1,0,3:0:0:0:
61,25,191315,1,12,0:2:0:0:
359,57,191465,1,8,0:2:0:0:
0,145,191615,6,0,P|80:177|114:266,1,161.999995056153,4|0,3:2|0:0,0:0:0:0:
154,308,191915,2,0,P|208:302|262:297,1,107.999996704102,10|0,0:2|0:0,0:0:0:0:
114,79,192215,2,0,P|61:74|7:69,1,107.999996704102,0|0,3:0|3:0,0:0:0:0:
290,10,192515,5,10,0:0:0:0:
189,224,192665,1,0,0:0:0:0:
501,99,192815,6,0,P|447:105|393:107,1,107.999996704102,2|0,3:2|0:0,0:0:0:0:
106,155,193115,2,0,P|159:149|213:147,1,107.999996704102,14|0,0:2|3:0,0:0:0:0:
390,359,193415,2,0,P|395:306|432:268,1,107.999996704102,2|0,3:2|3:0,0:0:0:0:
254,74,193715,2,0,P|291:112|297:165,1,107.999996704102,10|0,0:2|3:0,0:0:0:0:
93,341,194015,5,4,3:2:0:0:
15,99,194165,1,0,3:0:0:0:
262,19,194315,1,12,0:2:0:0:
341,265,194465,1,0,3:0:0:0:
96,343,194615,1,4,3:2:0:0:
15,102,194765,1,0,3:0:0:0:
260,19,194915,1,12,0:2:0:0:
344,263,195065,1,0,3:0:0:0:
149,5,195215,5,4,3:2:0:0:
12,220,195365,1,0,3:0:0:0:
230,361,195515,1,12,0:2:0:0:
370,144,195665,1,0,3:0:0:0:
153,5,195815,1,4,3:2:0:0:
11,218,195965,1,0,3:0:0:0:
228,363,196115,1,12,0:2:0:0:
372,148,196265,1,8,0:2:0:0:
156,301,196415,6,0,B|136:264|136:264|158:201,1,107.999996704102,6|0,3:2|0:0,0:0:0:0:
382,370,196715,2,0,P|419:269|426:161,1,215.999993408203,10|0,0:0|3:0,0:0:0:0:
270,29,197165,1,2,3:2:0:0:
307,275,197315,6,0,P|290:223|283:170,1,107.999996704102,10|0,0:0|0:0,0:0:0:0:
474,382,197615,2,0,P|485:328|505:279,1,107.999996704102,10|0,0:0|0:0,0:0:0:0:
129,383,197915,2,0,P|76:324|56:244,1,161.999995056153,14|0,0:0|0:0,3:0:0:0:
16,182,198215,1,2,3:2:0:0:
239,312,198365,1,0,3:2:0:0:
361,109,198515,2,0,P|379:57|386:4,1,107.999996704102,10|0,0:0|0:0,0:0:0:0:
70,89,198815,5,4,3:2:0:0:
126,321,198965,1,0,3:0:0:0:
367,263,199115,1,12,0:2:0:0:
308,22,199265,1,0,3:0:0:0:
68,83,199415,1,4,3:2:0:0:
122,320,199565,1,0,3:0:0:0:
366,264,199715,1,12,0:2:0:0:
312,24,199865,1,0,3:0:0:0:
13,185,200015,5,4,3:2:0:0:
292,346,200165,1,0,3:0:0:0:
202,25,200315,1,12,0:2:0:0:
31,299,200465,1,0,3:0:0:0:
344,137,200615,1,4,3:2:0:0:
79,20,200765,1,0,3:0:0:0:
167,342,200915,1,12,0:2:0:0:
326,33,201065,1,0,3:0:0:0:
34,90,201215,5,12,0:2:0:0:
372,328,201365,1,8,0:2:0:0:
326,33,201515,1,12,0:0:0:0:
75,374,201665,1,8,0:0:0:0:
26,84,201815,1,12,0:2:0:0:
380,334,201965,1,8,0:2:0:0:
332,25,202115,1,12,0:0:0:0:
69,382,202265,1,8,0:0:0:0:
180,1,202415,5,14,0:0:0:0:
180,1,203465,6,0,B|179:69|179:69|143:113|143:113|141:206,1,198.000006042481,4|0,3:2|3:0,0:0:0:0:
199,372,203915,2,0,L|204:259,1,99.0000030212403,10|0,0:0|0:0,0:0:0:0:
66,96,204215,2,0,L|61:209,1,99.0000030212403,2|0,3:2|3:0,0:0:0:0:
61,194,204515,1,8,0:0:0:0:
327,2,204665,6,0,B|326:70|326:70|290:114|290:114|288:207,1,198.000006042481,4|0,3:2|3:0,0:0:0:0:
348,366,205115,2,0,L|353:253,1,99.0000030212403,10|0,0:0|0:0,0:0:0:0:
213,97,205415,2,0,L|208:210,1,99.0000030212403,2|0,3:2|3:0,0:0:0:0:
208,195,205715,1,8,0:0:0:0:
487,0,205865,6,0,B|486:68|486:68|450:112|450:112|448:205,1,198.000006042481,4|0,3:2|3:0,0:0:0:0:
508,364,206315,2,0,L|513:251,1,99.0000030212403,10|0,0:0|0:0,0:0:0:0:
373,95,206615,2,0,L|368:208,1,99.0000030212403,2|0,3:2|3:0,0:0:0:0:
368,193,206915,1,8,0:0:0:0:
0,312,207065,6,0,B|68:311|68:311|112:275|112:275|205:273,1,198.000006042481,4|0,3:2|3:0,0:0:0:0:
508,364,207515,2,0,L|395:359,1,99.0000030212403,14|0,0:0|0:0,0:0:0:0:
0,198,207815,2,0,L|113:193,1,99.0000030212403,6|0,3:2|3:0,0:0:0:0:
98,193,208115,1,10,0:0:0:0:
332,383,208265,6,0,B|333:315|333:315|369:271|369:271|371:178,1,198.000006042481,4|0,3:2|3:0,0:0:0:0:
313,12,208715,2,0,L|308:125,1,99.0000030212403,10|0,0:0|0:0,0:0:0:0:
446,288,209015,2,0,L|451:175,1,99.0000030212403,2|0,3:2|3:0,0:0:0:0:
451,190,209315,1,8,0:0:0:0:
185,382,209465,6,0,B|186:314|186:314|222:270|222:270|224:177,1,198.000006042481,4|0,3:2|3:0,0:0:0:0:
164,18,209915,2,0,L|159:131,1,99.0000030212403,10|0,0:0|0:0,0:0:0:0:
299,287,210215,2,0,L|304:174,1,99.0000030212403,2|0,3:2|3:0,0:0:0:0:
304,189,210515,1,8,0:0:0:0:
25,384,210665,6,0,B|26:316|26:316|62:272|62:272|64:179,1,198.000006042481,4|0,3:2|3:0,0:0:0:0:
4,20,211115,2,0,L|-1:133,1,99.0000030212403,10|0,0:0|0:0,0:0:0:0:
139,289,211415,2,0,L|144:176,1,99.0000030212403,2|0,3:2|3:0,0:0:0:0:
355,24,211715,1,8,0:0:0:0:
512,72,211865,6,0,B|444:73|444:73|400:109|400:109|307:111,1,198.000006042481,4|0,3:2|3:0,0:0:0:0:
81,46,212315,2,0,L|194:51,1,99.0000030212403,14|0,0:0|0:0,0:0:0:0:
416,195,212615,2,0,L|303:200,1,99.0000030212403,6|0,3:2|3:0,0:0:0:0:
63,198,212915,1,10,0:0:0:0:
258,336,213065,5,0,3:0:0:0:
335,352,213215,1,0,3:0:0:0:
259,326,213365,1,0,3:0:0:0:
183,349,213515,1,0,3:0:0:0:
256,319,213665,1,0,3:0:0:0:
333,336,213815,1,8,0:0:0:0:
258,309,213965,1,0,3:0:0:0:
183,336,214115,1,0,3:0:0:0:
319,257,214265,6,0,P|342:161|330:63,1,198.000006042481,4|0,3:2|3:0,0:0:0:0:
258,29,214715,1,0,3:2:0:0:
190,70,214865,1,0,3:2:0:0:
245,13,215015,1,8,0:2:0:0:
484,99,215165,6,0,L|387:115,1,99.0000030212403,12|0,0:2|3:2,3:2:0:0:
125,115,215465,2,0,L|27:99,1,99.0000030212403,12|0,0:2|3:2,3:2:0:0:
256,320,215765,5,0,3:2:0:0:
333,304,215915,1,0,3:2:0:0:
257,330,216065,1,0,3:2:0:0:
181,307,216215,1,8,3:2:0:0:
254,337,216365,1,0,3:2:0:0:
331,320,216515,1,8,3:2:0:0:
114,369,216665,6,0,P|91:273|103:175,1,198.000006042481,4|8,3:2|0:0,0:0:0:0:
398,369,217115,2,0,P|420:273|408:175,1,198.000006042481,4|8,3:2|0:0,0:0:0:0:
408,175,217490,1,0,3:0:0:0:
391,140,217565,1,0,3:0:0:0:
359,117,217640,1,0,3:0:0:0:
320,114,217715,1,8,3:2:0:0:
284,130,217790,1,0,3:0:0:0:
261,161,217865,5,4,0:0:0:0:
255,270,221465,6,0,P|189:230|196:153,1,161.999995056153,4|8,3:2|0:0,0:0:0:0:
314,228,221915,2,0,P|293:261|254:269,1,80.9999975280763,4|0,3:2|0:0,0:0:0:0:
58,196,222215,5,8,0:0:0:0:
170,337,222365,1,0,3:0:0:0:
196,153,222515,1,8,0:0:0:0:
330,309,222665,6,0,B|391:316|391:316|410:350|410:350|482:364,1,161.999995056153,6|0,3:2|3:0,0:0:0:0:
512,273,223115,2,0,L|501:193,1,80.9999975280763,2|0,0:0|3:0,0:0:0:0:
330,309,223415,2,0,L|163:339,1,161.999995056153,8|0,0:0|0:0,0:0:0:0:
34,269,223865,6,0,L|118:282,1,80.9999975280763,4|0,3:0|0:0,0:0:0:0:
172,229,224165,2,0,L|256:242,1,80.9999975280763,0|0,3:2|3:0,0:0:0:0:
330,309,224465,1,0,3:2:0:0:
256,128,224615,1,8,0:0:0:0:
256,128,224765,2,0,L|172:141,1,80.9999975280763,2|0,0:2|0:0,0:0:0:0:
43,20,225065,6,0,B|20:40|20:40|11:96,1,80.9999975280763,4|0,3:0|0:0,0:0:0:0:
127,48,225365,2,0,B|104:68|104:68|95:124,1,80.9999975280763,0|0,3:0|0:0,0:0:0:0:
172,229,225665,1,0,3:2:0:0:
258,45,225815,1,8,0:0:0:0:
257,270,226265,6,0,P|322:230|315:153,1,161.999995056153,4|8,3:2|0:0,0:0:0:0:
198,228,226715,2,0,P|218:261|257:269,1,80.9999975280763,4|0,3:2|0:0,0:0:0:0:
454,196,227015,5,8,0:0:0:0:
342,337,227165,1,0,3:0:0:0:
316,153,227315,1,8,0:0:0:0:
182,309,227465,6,0,B|121:316|121:316|102:350|102:350|30:364,2,161.999995056153,6|0|2,3:2|3:0|3:2,0:0:0:0:
341,337,228215,2,0,L|182:309,1,161.999995056153,8|0,0:0|0:0,0:0:0:0:
478,269,228665,6,0,L|394:282,1,80.9999975280763,4|0,3:0|0:0,0:0:0:0:
340,229,228965,2,0,L|256:242,1,80.9999975280763,0|0,3:2|3:0,0:0:0:0:
182,309,229265,1,0,3:2:0:0:
256,128,229415,1,8,0:0:0:0:
469,20,229865,6,0,B|492:40|492:40|501:96,1,80.9999975280763,4|0,3:0|0:0,0:0:0:0:
385,48,230165,2,0,B|408:68|408:68|416:117,1,80.9999975280763,0|0,3:0|0:0,0:0:0:0:
397,281,230465,1,0,3:2:0:0:
255,114,230615,1,8,0:0:0:0:
255,114,231065,6,0,P|189:153|196:230,1,161.999995056153,4|8,3:2|0:0,0:0:0:0:
314,156,231515,2,0,P|293:122|254:114,1,80.9999975280763,4|0,3:2|0:0,0:0:0:0:
58,187,231815,5,8,0:0:0:0:
170,47,231965,1,0,3:0:0:0:
196,231,232115,1,8,0:0:0:0:
330,75,232265,6,0,B|391:68|391:68|410:34|410:34|482:20,1,161.999995056153,6|0,3:2|3:0,0:0:0:0:
512,111,232715,2,0,L|501:191,1,80.9999975280763,2|0,0:0|3:0,0:0:0:0:
330,75,233015,2,0,L|163:45,1,161.999995056153,8|0,0:0|0:0,0:0:0:0:
34,115,233465,6,0,L|118:102,1,80.9999975280763,4|0,3:0|0:0,0:0:0:0:
172,155,233765,2,0,L|256:142,1,80.9999975280763,0|0,3:2|3:0,0:0:0:0:
330,75,234065,1,0,3:2:0:0:
256,256,234215,1,8,0:0:0:0:
256,256,234365,1,2,0:0:0:0:
167,234,234515,1,2,0:0:0:0:
43,364,234665,6,0,B|20:344|20:344|11:288,1,80.9999975280763,4|0,3:0|0:0,0:0:0:0:
127,336,234965,2,0,B|104:316|104:316|95:260,1,80.9999975280763,0|0,3:0|0:0,0:0:0:0:
172,155,235265,1,0,3:2:0:0:
258,339,235415,1,8,0:0:0:0:
257,114,235715,1,2,0:0:0:0:
257,114,235865,6,0,P|322:153|315:230,1,161.999995056153,4|8,3:2|0:0,0:0:0:0:
198,156,236315,2,0,P|218:122|257:114,1,80.9999975280763,4|0,3:2|0:0,0:0:0:0:
454,188,236615,5,8,0:0:0:0:
342,47,236765,1,0,3:0:0:0:
316,231,236915,1,8,0:0:0:0:
182,75,237065,6,0,B|121:68|121:68|102:34|102:34|30:20,2,161.999995056153,6|0|0,3:2|3:0|0:0,0:0:0:0:
341,46,237815,2,0,L|182:75,1,161.999995056153,8|0,0:0|0:0,0:0:0:0:
478,115,238265,6,0,L|394:102,1,80.9999975280763,4|0,3:0|0:0,0:0:0:0:
340,155,238565,2,0,L|256:142,1,80.9999975280763,0|0,3:2|3:0,0:0:0:0:
160,177,238865,1,0,3:2:0:0:
341,46,239015,1,8,0:0:0:0:
469,364,239465,6,0,B|492:344|492:344|501:288,1,80.9999975280763,4|0,3:0|0:0,0:0:0:0:
385,336,239765,2,0,B|408:316|408:316|417:260,1,80.9999975280763,0|0,3:0|0:0,0:0:0:0:
397,102,240065,1,0,3:2:0:0:
255,270,240215,1,8,0:0:0:0:
255,270,240665,6,0,P|189:230|196:153,1,161.999995056153,4|8,3:2|0:0,0:0:0:0:
314,228,241115,2,0,P|293:261|254:269,1,80.9999975280763,4|0,3:2|0:0,0:0:0:0:
58,196,241415,5,8,0:0:0:0:
272,101,241565,1,0,3:0:0:0:
42,57,241715,1,8,0:0:0:0:
168,313,241865,5,4,3:2:0:0:
255,29,242165,1,2,0:2:0:0:
255,29,243065,6,0,L|260:84,1,45,2|0,0:0|0:0,0:0:0:0:
332,69,243365,2,0,L|327:14,1,45,2|0,0:0|0:0,0:0:0:0:
256,224,243815,1,8,0:0:0:0:
257,29,244265,6,0,L|252:84,1,45,2|0,0:0|0:0,0:0:0:0:
180,69,244565,2,0,L|185:14,1,45,2|0,0:0|0:0,0:0:0:0:
411,141,245465,6,0,L|498:154,1,80.9999975280763,4|0,3:2|0:0,0:0:0:0:
328,69,245765,1,8,0:0:0:0:
428,244,245915,2,0,L|515:231,1,80.9999975280763,4|0,3:2|0:0,0:0:0:0:
255,165,246215,1,8,0:0:0:0:
464,67,246365,1,0,3:0:0:0:
344,227,246515,1,8,0:0:0:0:
256,32,246665,5,4,3:2:0:0:
257,355,246965,1,2,0:2:0:0:
257,355,247865,6,0,L|252:300,1,45,2|0,0:0|0:0,0:0:0:0:
180,315,248165,2,0,L|185:370,1,45,2|0,0:0|0:0,0:0:0:0:
256,160,248615,1,8,0:0:0:0:
255,355,249065,6,0,L|260:300,1,45,2|0,0:0|0:0,0:0:0:0:
332,315,249365,2,0,L|327:370,1,45,2|0,0:0|0:0,0:0:0:0:
101,243,250265,6,0,L|14:230,1,80.9999975280763,4|0,3:2|0:0,0:0:0:0:
184,315,250565,1,8,0:0:0:0:
84,140,250715,2,0,L|-3:153,1,80.9999975280763,4|0,3:2|0:0,0:0:0:0:
257,219,251015,1,8,0:0:0:0:
48,317,251165,1,0,3:0:0:0:
256,372,251315,1,8,0:0:0:0:
172,147,251465,5,4,3:2:0:0:
481,188,251765,1,2,0:2:0:0:
481,188,252665,6,0,L|426:193,1,45,2|0,3:2|0:0,0:0:0:0:
316,206,252965,2,0,L|371:201,1,45,2|0,0:0|3:0,0:0:0:0:
204,126,253415,1,8,0:0:0:0:
481,190,253865,6,0,L|426:185,1,45,2|0,0:0|0:0,0:0:0:0:
362,174,254165,2,0,L|318:170,1,45,2|0,0:0|0:0,0:0:0:0:
411,243,255065,6,0,L|498:230,1,80.9999975280763,4|0,3:2|0:0,0:0:0:0:
328,315,255365,1,8,0:0:0:0:
428,140,255515,2,0,L|515:153,1,80.9999975280763,4|0,3:2|0:0,0:0:0:0:
255,219,255815,1,8,0:0:0:0:
464,317,255965,1,0,3:0:0:0:
256,372,256115,1,8,0:0:0:0:
340,147,256265,5,4,3:2:0:0:
31,188,256565,1,2,0:2:0:0:
31,188,257465,6,0,L|86:193,1,45,2|0,3:2|0:0,0:0:0:0:
196,206,257765,2,0,L|141:201,1,45,2|0,0:0|3:0,0:0:0:0:
308,126,258215,1,8,0:0:0:0:
31,190,258665,6,0,L|86:185,1,45,2|0,0:0|0:0,0:0:0:0:
149,174,258965,2,0,L|194:170,1,45,2|0,0:0|0:0,0:0:0:0:
194,170,259865,6,0,L|107:157,1,80.9999975280763,4|0,3:2|0:0,0:0:0:0:
299,27,260165,1,8,0:0:0:0:
108,66,260315,2,0,L|21:79,1,80.9999975280763,4|0,3:2|0:0,0:0:0:0:
304,171,260615,1,8,0:0:0:0:
46,216,260765,1,0,3:0:0:0:
273,69,260915,1,8,0:0:0:0:
255,332,261065,5,4,3:2:0:0:
273,69,261365,2,0,L|267:167,1,80.9999975280763,2|0,0:0|3:0,0:0:0:0:
177,240,261665,1,0,3:0:0:0:
343,326,261815,2,0,P|417:299|458:231,1,161.999995056153,8|0,0:0|0:0,0:0:0:0:
273,69,262265,6,0,B|261:85|261:85|177:112,1,80.9999975280763,4|0,3:2|0:0,0:0:0:0:
125,164,262565,2,0,B|113:147|113:147|29:120,1,80.9999975280763,2|0,3:2|3:0,0:0:0:0:
132,57,262865,1,2,3:2:0:0:
275,220,263015,2,0,P|349:193|390:125,1,161.999995056153,8|0,0:0|0:0,0:0:0:0:
273,315,263465,6,0,B|261:298|261:298|177:271,1,80.9999975280763,4|0,3:2|0:0,0:0:0:0:
125,220,263765,2,0,B|113:236|113:236|29:263,1,80.9999975280763,2|0,3:2|3:0,0:0:0:0:
132,327,264065,1,2,3:2:0:0:
256,144,264215,2,0,P|248:90|250:51,2,80.9999975280763,10|0|0,0:0|0:0|0:0,0:0:0:0:
436,341,264665,6,0,P|491:318|510:262,1,121.499996292114,4|0,3:2|0:0,0:0:0:0:
452,213,264965,1,8,0:0:0:0:
256,144,265115,2,0,P|222:164|214:203,1,80.9999975280763,4|0,3:2|0:0,0:0:0:0:
364,367,265415,5,0,3:0:0:0:
476,119,265565,1,8,0:0:0:0:
253,296,265715,1,8,0:0:0:0:
510,262,265865,5,4,3:2:0:0:
252,63,266165,2,0,L|258:161,1,80.9999975280763,2|0,0:0|3:0,0:0:0:0:
335,240,266465,1,0,3:0:0:0:
169,326,266615,2,0,P|94:299|53:231,1,161.999995056153,8|0,0:0|0:0,0:0:0:0:
239,69,267065,6,0,B|250:85|250:85|334:112,1,80.9999975280763,4|0,3:2|0:0,0:0:0:0:
387,164,267365,2,0,B|398:147|398:147|482:120,1,80.9999975280763,2|0,3:2|3:0,0:0:0:0:
380,57,267665,1,2,3:2:0:0:
175,126,267815,2,0,P|204:155|241:172,2,80.9999975280763,10|0|0,0:0|0:0|0:0,0:0:0:0:
239,315,268265,6,0,B|250:298|250:298|334:271,1,80.9999975280763,4|0,3:2|0:0,0:0:0:0:
387,220,268565,2,0,B|398:236|398:236|482:263,1,80.9999975280763,2|0,3:2|3:0,0:0:0:0:
380,327,268865,1,2,3:2:0:0:
306,203,269015,2,0,P|314:149|307:40,1,161.999995056153,10|0,0:0|0:0,0:0:0:0:
75,42,269465,6,0,P|20:65|1:121,1,121.499996292114,4|0,3:2|0:0,0:0:0:0:
60,171,269765,1,8,0:0:0:0:
240,12,269915,2,0,P|279:16|303:48,1,80.9999975280763,4|0,3:2|0:0,0:0:0:0:
117,263,270215,5,8,0:0:0:0:
151,5,270365,1,0,3:0:0:0:
252,245,270515,1,8,0:0:0:0:
1,121,270665,6,0,L|95:124,1,80.9999975280763,4|0,3:2|0:0,0:0:0:0:
252,245,270965,2,0,B|282:262|282:262|419:215,1,161.999995056153,0|0,3:2|3:0,0:0:0:0:
480,288,271415,1,8,0:0:0:0:
1,263,271865,6,0,L|95:260,1,80.9999975280763,4|0,3:2|0:0,0:0:0:0:
252,139,272165,2,0,B|282:122|282:122|419:169,1,161.999995056153,0|0,3:2|3:0,0:0:0:0:
480,96,272615,1,8,0:0:0:0:
1,121,273065,6,0,L|95:124,1,80.9999975280763,4|0,3:2|0:0,0:0:0:0:
252,245,273365,2,0,B|282:262|282:262|419:215,1,161.999995056153,0|0,3:2|3:0,0:0:0:0:
480,288,273815,1,8,0:0:0:0:
256,32,274265,6,0,L|254:120,1,80.9999975280763,4|0,3:2|0:0,0:0:0:0:
253,333,274565,1,8,0:0:0:0:
381,136,274715,1,4,3:2:0:0:
160,224,274865,1,0,3:2:0:0:
399,286,275015,2,0,L|487:288,1,80.9999975280763,12|0,0:2|0:0,0:0:0:0:
254,112,275315,1,8,0:0:0:0:
256,352,275465,6,0,L|258:264,1,80.9999975280763,4|0,3:2|0:0,0:0:0:0:
256,13,275765,1,8,0:0:0:0:
94,263,275915,1,4,3:2:0:0:
394,166,276065,1,0,3:2:0:0:
113,98,276215,2,0,L|25:96,1,80.9999975280763,12|0,0:2|0:0,0:0:0:0:
257,271,276515,1,8,0:0:0:0:
256,13,276665,6,0,L|258:101,1,80.9999975280763,4|0,3:2|0:0,0:0:0:0:
257,379,276965,1,8,0:0:0:0:
75,74,277115,1,4,3:2:0:0:
420,194,277265,1,0,3:2:0:0:
106,267,277415,2,0,L|18:269,1,80.9999975280763,12|0,0:2|0:0,0:0:0:0:
338,358,277715,2,0,L|426:360,1,80.9999975280763,14|0,0:2|3:0,0:0:0:0:
194,39,278015,5,12,0:0:0:0:
163,237,278165,1,0,3:0:0:0:
361,267,278315,1,12,0:0:0:0:
393,69,278465,1,0,3:0:0:0:
376,283,278615,1,12,0:0:0:0:
138,246,278765,1,0,3:0:0:0:
175,9,278915,1,12,0:0:0:0:
415,45,279065,1,0,3:0:0:0:
73,137,279215,5,12,0:0:0:0:
464,137,279365,1,12,0:0:0:0:
63,212,279515,1,12,0:0:0:0:
462,219,279665,1,12,0:0:0:0:
49,289,279815,1,12,0:0:0:0:
471,293,279965,1,12,0:0:0:0:
37,367,280115,1,12,0:0:0:0:
476,369,280265,1,12,0:0:0:0:
256,32,284615,5,8,3:2:0:0:
261,193,284765,1,8,3:2:0:0:
256,32,284915,1,8,3:2:0:0:
261,193,285065,1,8,3:2:0:0:
7,118,287915,5,8,3:2:0:0:
512,174,288365,5,8,3:2:0:0:
512,174,288815,6,0,P|482:169|473:169,1,36,4|0,0:0|0:0,0:0:0:0:
438,106,289115,2,0,P|412:122|405:128,1,36,4|0,0:0|0:0,0:0:0:0:
338,86,289415,2,0,P|329:115|328:124,1,36,4|0,0:0|0:0,0:0:0:0:
253,144,289715,2,0,P|266:171|271:178,1,36,4|0,0:0|0:0,0:0:0:0:
493,283,290015,6,0,P|441:223|362:224,1,161.999995056153,4|0,3:2|0:0,0:0:0:0:
306,272,290315,2,0,P|312:326|317:380,1,107.999996704102,10|0,0:2|0:0,0:0:0:0:
486,162,290615,2,0,P|481:109|476:55,1,107.999996704102,0|0,3:0|3:0,0:0:0:0:
197,187,290915,5,10,0:0:0:0:
409,299,291065,1,0,0:0:0:0:
261,25,291215,6,0,P|259:71|252:142,1,107.999996704102,2|0,3:2|0:0,0:0:0:0:
221,364,291515,2,0,P|223:318|230:247,1,107.999996704102,14|0,0:2|3:0,0:0:0:0:
12,209,291815,2,0,P|65:204|103:167,1,107.999996704102,2|0,3:2|3:0,0:0:0:0:
334,76,292115,2,0,P|387:82|425:119,1,107.999996704102,10|0,0:2|3:0,0:0:0:0:
91,347,292415,5,4,3:2:0:0:
14,105,292565,1,0,3:0:0:0:
261,25,292715,1,12,0:2:0:0:
340,271,292865,1,0,3:0:0:0:
94,349,293015,1,4,3:2:0:0:
13,108,293165,1,0,3:0:0:0:
259,24,293315,1,12,0:2:0:0:
342,269,293465,1,0,3:0:0:0:
147,12,293615,5,4,3:2:0:0:
10,226,293765,1,0,3:0:0:0:
228,368,293915,1,12,0:2:0:0:
368,150,294065,1,0,3:0:0:0:
151,12,294215,1,4,3:2:0:0:
10,224,294365,1,0,3:0:0:0:
226,369,294515,1,12,0:2:0:0:
370,154,294665,1,8,0:2:0:0:
99,249,294815,6,0,B|78:301|78:301|94:349,1,107.999996704102,6|0,3:2|0:0,0:0:0:0:
298,219,295115,2,0,B|401:208|346:167|501:136,1,215.999993408203,10|0,0:0|3:0,0:0:0:0:
338,309,295565,1,2,3:2:0:0:
225,108,295715,6,0,P|208:160|201:213,1,107.999996704102,10|0,0:0|0:0,0:0:0:0:
338,10,296015,2,0,P|374:51|417:84,1,107.999996704102,2|0,0:0|3:0,0:0:0:0:
106,56,296315,2,0,P|57:112|33:201,1,161.999995056153,14|0,0:0|0:0,3:0:0:0:
86,248,296615,1,2,3:2:0:0:
291,141,296765,1,0,3:2:0:0:
86,248,296915,2,0,P|104:300|111:353,1,107.999996704102,10|0,0:0|0:0,0:0:0:0:
492,226,297215,5,4,3:2:0:0:
357,12,297365,1,0,3:0:0:0:
137,150,297515,1,12,0:2:0:0:
274,368,297665,1,0,3:0:0:0:
492,230,297815,1,4,3:2:0:0:
360,13,297965,1,0,3:0:0:0:
137,148,298115,1,12,0:2:0:0:
271,368,298265,1,0,3:0:0:0:
184,19,298415,5,4,3:2:0:0:
476,57,298565,1,0,3:0:0:0:
440,355,298715,1,12,0:2:0:0:
143,317,298865,1,0,3:0:0:0:
181,22,299015,1,4,3:2:0:0:
474,54,299165,1,0,3:0:0:0:
442,354,299315,1,12,0:2:0:0:
144,322,299465,1,8,0:2:0:0:
511,239,299615,6,0,P|431:207|397:118,1,161.999995056153,4|0,3:2|0:0,0:0:0:0:
358,76,299915,2,0,P|304:82|250:87,1,107.999996704102,10|0,0:2|0:0,0:0:0:0:
398,305,300215,2,0,P|451:310|505:315,1,107.999996704102,0|0,3:0|3:0,0:0:0:0:
222,374,300515,5,10,0:0:0:0:
323,160,300665,1,0,0:0:0:0:
11,285,300815,6,0,P|65:279|119:277,1,107.999996704102,2|0,3:2|0:0,0:0:0:0:
406,229,301115,2,0,P|353:235|299:237,1,107.999996704102,14|0,0:2|3:0,0:0:0:0:
122,25,301415,2,0,P|117:78|80:116,1,107.999996704102,2|0,3:2|3:0,0:0:0:0:
253,305,301715,2,0,P|216:267|210:214,1,107.999996704102,10|0,0:2|3:0,0:0:0:0:
416,31,302015,5,4,3:2:0:0:
493,273,302165,1,0,3:0:0:0:
246,353,302315,1,12,0:2:0:0:
167,107,302465,1,0,3:0:0:0:
413,29,302615,1,4,3:2:0:0:
494,270,302765,1,0,3:0:0:0:
248,353,302915,1,12,0:2:0:0:
165,109,303065,1,0,3:0:0:0:
407,355,303215,5,4,3:2:0:0:
484,112,303365,1,0,3:0:0:0:
237,32,303515,1,12,0:2:0:0:
158,278,303665,1,0,3:0:0:0:
403,356,303815,1,4,3:2:0:0:
485,114,303965,1,0,3:0:0:0:
238,30,304115,1,12,0:2:0:0:
155,275,304265,1,8,0:2:0:0:
356,83,304415,6,0,B|376:120|376:120|354:183,1,107.999996704102,6|0,3:2|0:0,0:0:0:0:
130,14,304715,2,0,P|93:115|86:223,1,215.999993408203,10|0,0:0|3:0,0:0:0:0:
242,355,305165,1,2,3:2:0:0:
205,109,305315,6,0,P|222:161|229:214,1,107.999996704102,10|0,0:0|0:0,0:0:0:0:
38,2,305615,2,0,P|27:56|7:105,1,107.999996704102,10|0,0:0|0:0,0:0:0:0:
383,1,305915,2,0,P|436:60|456:140,1,161.999995056153,14|0,0:0|0:0,3:0:0:0:
496,202,306215,1,2,3:2:0:0:
273,72,306365,1,0,3:2:0:0:
151,275,306515,2,0,P|133:327|126:380,1,107.999996704102,10|0,0:0|0:0,0:0:0:0:
461,282,306815,5,4,3:2:0:0:
401,36,306965,1,0,3:0:0:0:
148,98,307115,1,12,0:2:0:0:
210,350,307265,1,0,3:0:0:0:
462,287,307415,1,4,3:2:0:0:
404,37,307565,1,0,3:0:0:0:
149,97,307715,1,12,0:2:0:0:
205,349,307865,1,0,3:0:0:0:
495,169,308015,5,4,3:2:0:0:
227,24,308165,1,0,3:0:0:0:
328,357,308315,1,12,0:2:0:0:
494,49,308465,1,0,3:0:0:0:
133,231,308615,1,4,3:2:0:0:
487,343,308765,1,0,3:0:0:0:
343,6,308915,1,12,0:2:0:0:
186,351,309065,1,0,3:0:0:0:
428,5,309215,5,12,0:2:0:0:
331,370,309365,1,8,0:2:0:0:
343,6,309515,1,12,0:0:0:0:
256,374,309665,1,8,0:0:0:0:
268,0,309815,1,12,0:2:0:0:
179,367,309965,1,8,0:2:0:0:
196,0,310115,1,12,0:0:0:0:
101,365,310265,1,8,0:0:0:0:
493,60,310415,5,14,0:0:0:0:
332,383,311465,6,0,B|333:315|333:315|369:271|369:271|371:178,1,198.000006042481,4|0,3:2|3:0,0:0:0:0:
313,12,311915,2,0,L|308:125,1,99.0000030212403,10|0,0:0|0:0,0:0:0:0:
446,288,312215,2,0,L|451:175,1,99.0000030212403,2|0,3:2|3:0,0:0:0:0:
451,190,312515,1,8,0:0:0:0:
185,382,312665,6,0,B|186:314|186:314|222:270|222:270|224:177,1,198.000006042481,4|0,3:2|3:0,0:0:0:0:
164,18,313115,2,0,L|159:131,1,99.0000030212403,10|0,0:0|0:0,0:0:0:0:
299,287,313415,2,0,L|304:174,1,99.0000030212403,2|0,3:2|3:0,0:0:0:0:
304,189,313715,1,8,0:0:0:0:
25,384,313865,6,0,B|26:316|26:316|62:272|62:272|64:179,1,198.000006042481,4|0,3:2|3:0,0:0:0:0:
4,20,314315,2,0,L|-1:133,1,99.0000030212403,10|0,0:0|0:0,0:0:0:0:
139,289,314615,2,0,L|144:176,1,99.0000030212403,2|0,3:2|3:0,0:0:0:0:
144,191,314915,1,8,0:0:0:0:
512,72,315065,6,0,B|444:73|444:73|400:109|400:109|307:111,1,198.000006042481,4|0,3:2|3:0,0:0:0:0:
4,20,315515,2,0,L|117:25,1,99.0000030212403,14|0,0:0|0:0,0:0:0:0:
512,186,315815,2,0,L|399:191,1,99.0000030212403,6|0,3:2|3:0,0:0:0:0:
414,191,316115,1,10,0:0:0:0:
180,1,316265,6,0,B|179:69|179:69|143:113|143:113|141:206,1,198.000006042481,4|0,3:2|3:0,0:0:0:0:
199,372,316715,2,0,L|204:259,1,99.0000030212403,10|0,0:0|0:0,0:0:0:0:
66,96,317015,2,0,L|61:209,1,99.0000030212403,2|0,3:2|3:0,0:0:0:0:
61,194,317315,1,8,0:0:0:0:
327,2,317465,6,0,B|326:70|326:70|290:114|290:114|288:207,1,198.000006042481,4|0,3:2|3:0,0:0:0:0:
348,366,317915,2,0,L|353:253,1,99.0000030212403,10|0,0:0|0:0,0:0:0:0:
213,97,318215,2,0,L|208:210,1,99.0000030212403,2|0,3:2|3:0,0:0:0:0:
208,195,318515,1,8,0:0:0:0:
487,0,318665,6,0,B|486:68|486:68|450:112|450:112|448:205,1,198.000006042481,4|0,3:2|3:0,0:0:0:0:
508,364,319115,2,0,L|513:251,1,99.0000030212403,10|0,0:0|0:0,0:0:0:0:
373,95,319415,2,0,L|368:208,1,99.0000030212403,2|0,3:2|3:0,0:0:0:0:
157,360,319715,1,8,0:0:0:0:
0,312,319865,6,0,B|68:311|68:311|112:275|112:275|205:273,1,198.000006042481,4|0,3:2|3:0,0:0:0:0:
431,338,320315,2,0,L|318:333,1,99.0000030212403,14|0,0:0|0:0,0:0:0:0:
41,199,320615,2,0,L|154:194,1,99.0000030212403,6|0,3:2|3:0,0:0:0:0:
449,186,320915,1,10,0:0:0:0:
254,48,321065,5,0,3:0:0:0:
177,32,321215,1,0,3:0:0:0:
253,58,321365,1,0,3:0:0:0:
329,35,321515,1,0,3:0:0:0:
256,65,321665,1,0,3:0:0:0:
179,48,321815,1,8,0:0:0:0:
254,75,321965,1,0,3:0:0:0:
329,48,322115,1,0,3:0:0:0:
193,127,322265,6,0,P|170:223|182:321,1,198.000006042481,4|0,3:2|3:0,0:0:0:0:
254,355,322715,1,0,3:2:0:0:
331,320,322865,1,0,3:2:0:0:
267,371,323015,1,8,0:2:0:0:
181,320,323165,1,0,3:2:0:0:
272,384,323315,1,0,3:2:0:0:
485,285,323465,6,0,L|387:269,1,99.0000030212403,12|0,0:2|3:2,3:2:0:0:
256,64,323765,5,0,3:2:0:0:
179,80,323915,1,0,3:2:0:0:
255,54,324065,1,0,3:2:0:0:
331,77,324215,1,8,3:2:0:0:
258,47,324365,1,0,3:2:0:0:
181,64,324515,1,8,3:2:0:0:
398,15,324665,6,0,P|421:111|409:209,1,198.000006042481,4|8,3:2|0:0,0:0:0:0:
114,15,325115,2,0,P|92:111|104:209,1,198.000006042481,4|8,3:2|0:0,0:0:0:0:
104,209,325490,1,0,3:0:0:0:
121,244,325565,1,0,3:0:0:0:
153,267,325640,1,0,3:0:0:0:
192,270,325715,1,8,3:2:0:0:
228,254,325790,1,0,3:0:0:0:
251,223,325865,2,0,P|283:216|313:216,1,49.5000015106202,0|0,3:0|3:0,3:0:0:0:
427,296,326015,6,0,P|484:252|487:180,1,148.50000453186,12|0,3:2|0:0,0:0:0:0:
460,105,326315,1,0,3:0:0:0:
460,105,326390,1,0,3:0:0:0:
460,105,326465,2,0,P|387:94|334:142,1,148.50000453186,12|0,3:2|0:0,0:0:0:0:
275,198,326765,1,0,3:0:0:0:
275,198,326840,1,0,3:0:0:0:
275,198,326915,2,0,P|202:209|149:161,1,148.50000453186,12|0,3:2|0:0,0:0:0:0:
98,107,327215,1,0,3:0:0:0:
98,107,327290,1,0,3:0:0:0:
98,107,327365,2,0,P|38:150|35:222,1,148.50000453186,12|0,3:2|0:0,0:0:0:0:
105,309,327665,5,0,3:0:0:0:
105,309,327740,1,0,3:0:0:0:
105,309,327815,2,0,L|263:341,1,148.50000453186,12|0,3:2|0:0,0:0:0:0:
326,313,328115,1,0,3:0:0:0:
326,313,328190,1,0,3:0:0:0:
326,313,328265,2,0,L|358:155,1,148.50000453186,12|0,3:2|0:0,0:0:0:0:
302,113,328565,1,0,3:0:0:0:
302,113,328640,1,0,3:0:0:0:
302,113,328715,2,0,L|144:81,1,148.50000453186,12|0,3:2|0:0,0:0:0:0:
134,163,329015,1,0,3:0:0:0:
134,163,329090,1,0,3:0:0:0:
134,163,329165,2,0,L|102:321,1,148.50000453186,12|0,3:2|0:0,0:0:0:0:
169,368,329465,5,0,3:0:0:0:
169,368,329540,1,0,3:0:0:0:
169,368,329615,1,8,0:0:0:0:
416,259,329765,1,8,0:0:0:0:
214,174,329915,1,0,3:0:0:0:
319,365,330065,1,0,3:0:0:0:
464,182,330215,5,0,3:0:0:0:
464,157,330290,1,0,3:0:0:0:
461,132,330365,1,0,3:0:0:0:
456,108,330440,1,0,3:0:0:0:
448,84,330515,1,8,0:0:0:0:
298,247,330665,1,8,0:0:0:0:
85,88,330815,6,0,P|28:132|25:204,1,148.50000453186,12|0,3:2|0:0,0:0:0:0:
52,279,331115,1,0,3:0:0:0:
52,279,331190,1,0,3:0:0:0:
52,279,331265,2,0,P|125:290|178:242,1,148.50000453186,12|0,3:2|0:0,0:0:0:0:
237,186,331565,1,0,3:0:0:0:
237,186,331640,1,0,3:0:0:0:
237,186,331715,2,0,P|310:175|363:223,1,148.50000453186,12|0,3:2|0:0,0:0:0:0:
434,284,332015,1,0,3:0:0:0:
434,284,332090,1,0,3:0:0:0:
434,284,332165,2,0,P|493:240|496:168,1,148.50000453186,12|0,3:2|0:0,0:0:0:0:
407,75,332465,5,0,3:0:0:0:
407,75,332540,1,0,3:0:0:0:
407,75,332615,2,0,L|249:43,1,148.50000453186,12|0,3:2|0:0,0:0:0:0:
186,71,332915,1,0,3:0:0:0:
186,71,332990,1,0,3:0:0:0:
186,71,333065,2,0,L|157:213,1,99.0000030212403,12|8,3:2|0:0,0:0:0:0:
342,295,333365,5,8,0:0:0:0:
100,317,333515,1,8,0:0:0:0:
311,151,333665,1,8,0:0:0:0:
212,369,333815,1,8,0:0:0:0:
81,127,333965,1,8,0:0:0:0:
367,216,334115,1,8,0:0:0:0:
31,337,334265,1,8,0:0:0:0:
249,16,334415,5,4,3:2:0:0:
478,223,335615,6,0,B|494:183|494:183|451:10,1,198.000006042481,4|8,3:2|0:0,0:0:0:0:
256,224,336065,2,0,B|240:184|240:184|283:11,1,198.000006042481,4|0,3:2|3:0,0:0:0:0:
34,223,336515,2,0,B|18:183|18:183|61:10,1,198.000006042481,4|0,3:2|3:0,0:0:0:0:
256,224,336965,2,0,B|272:184|272:184|229:11,1,198.000006042481,4|0,3:2|3:0,0:0:0:0:
8,297,337415,6,0,B|102:259|102:259|172:324,1,198.000006042481,4|8,3:2|0:0,0:0:0:0:
504,297,337865,2,0,B|410:259|410:259|339:324,1,198.000006042481,4|0,3:2|3:0,0:0:0:0:
8,297,338315,2,0,B|102:335|102:335|172:269,1,198.000006042481,12|0,0:2|3:0,0:0:0:0:
504,297,338765,2,0,B|410:335|410:335|339:269,1,198.000006042481,4|0,3:2|3:0,0:0:0:0:
256,320,339140,1,0,3:0:0:0:
256,320,339215,6,0,L|256:192,1,99.0000030212403,12|0,0:0|0:0,0:0:0:0:
256,32,339515,2,0,L|256:131,1,99.0000030212403,12|0,0:0|0:0,0:0:0:0:
416,384,339815,6,0,L|416:256,1,99.0000030212403,12|0,0:0|0:0,0:0:0:0:
108,1,340115,2,0,L|108:100,1,99.0000030212403,12|0,0:0|0:0,0:0:0:0:
420,200,340415,5,4,3:2:0:0:
502,76,340565,1,0,3:0:0:0:
361,27,340715,1,8,0:0:0:0:
485,108,340865,2,0,B|460:99|460:99|382:109,1,99.0000030212403,0|0,3:0|0:0,0:0:0:0:
256,131,341165,1,0,3:0:0:0:
340,297,341315,5,12,3:2:0:0:
255,259,341465,2,0,B|230:250|230:250|152:260,1,99.0000030212403,0|0,3:0|0:0,0:0:0:0:
0,139,341765,1,0,3:2:0:0:
85,177,341915,2,0,B|110:186|110:186|188:176,1,99.0000030212403,8|0,0:0|0:0,0:0:0:0:
456,325,342215,6,0,L|255:360,1,198.000006042481,12|8,0:0|0:0,0:0:0:0:
56,59,342665,2,0,L|257:24,1,198.000006042481,4|0,3:2|3:0,0:0:0:0:
414,119,343115,6,0,L|424:65,3,49.5000015106202,8|0|0|0,3:2|3:2|3:2|3:2,3:2:0:0:
459,191,343415,6,0,L|513:201,3,49.5000015106202,0|0|0|0,3:2|3:2|3:2|3:2,3:2:0:0:
380,233,343715,5,8,0:2:0:0:
367,235,343790,1,8,0:2:0:0:
355,237,343865,1,8,0:2:0:0:
343,239,343940,1,8,0:2:0:0:
331,242,344015,1,8,0:2:0:0:
91,171,344165,1,8,0:2:0:0:
345,82,344315,2,0,B|323:97|323:97|309:181,1,99.0000030212403,8|0,0:2|3:2,0:2:0:0:
83,328,344615,5,8,0:0:0:0:
380,233,344765,1,0,3:0:0:0:
91,171,344915,1,8,0:0:0:0:
66,169,344990,1,8,0:0:0:0:
42,177,345065,1,8,0:0:0:0:
23,192,345140,1,8,0:0:0:0:
11,214,345215,5,4,3:2:0:0:
35,263,345289,1,0,3:0:0:0:
85,287,345364,1,0,3:0:0:0:
139,277,345438,1,0,3:0:0:0:
177,237,345513,1,0,3:2:0:0:
216,197,345587,1,0,3:0:0:0:
268,178,345662,1,0,3:0:0:0:
324,185,345736,1,0,3:0:0:0:
370,216,345812,6,0,L|374:268,3,45,4|0|0|0,3:2|3:0|3:0|3:0,3:0:0:0:
475,102,346110,2,0,L|478:50,3,45,0|0|0|0,3:0|3:0|3:0|3:0,3:0:0:0:
298,98,346409,2,0,L|246:101,3,45,4|0|0|0,3:2|3:0|3:0|3:0,3:0:0:0:
465,221,346701,2,0,L|516:224,3,45,0|0|0|0,3:0|3:0|3:0|3:0,3:0:0:0:
373,261,346994,5,4,3:2:0:0:
339,304,347067,1,0,3:0:0:0:
286,319,347140,1,0,3:0:0:0:
234,300,347213,1,0,3:0:0:0:
203,254,347287,1,0,3:0:0:0:
172,208,347360,1,0,3:0:0:0:
124,180,347433,1,0,3:0:0:0:
68,178,347506,1,0,3:0:0:0:
34,208,347579,6,0,B|33:208|32:257,1,45,4|0,3:2|3:0,3:0:0:0:
182,128,347726,2,0,B|181:128|180:79,1,45,0|0,3:0|3:0,3:0:0:0:
289,201,347872,5,4,3:2:0:0:
344,194,347945,1,0,3:0:0:0:
400,188,348018,1,0,3:0:0:0:
456,182,348091,1,0,3:0:0:0:
512,176,348165,5,4,3:2:0:0:
474,151,348238,1,0,3:0:0:0:
435,128,348311,1,0,3:0:0:0:
397,104,348384,1,0,3:0:0:0:
358,82,348458,5,4,3:2:0:0:
350,117,348531,1,0,3:0:0:0:
341,152,348604,1,0,3:0:0:0:
333,187,348677,1,0,3:0:0:0:
324,222,348750,6,0,L|185:246,1,99.0000030212403,8|0,0:0|0:0,0:0:0:0:
415,16,349057,2,0,L|554:40,1,99.0000030212403,8|0,0:0|0:0,0:0:0:0:
173,103,349365,1,8,0:0:0:0:
484,273,349519,1,8,0:0:0:0:
301,25,349673,1,8,0:0:0:0:
202,336,349826,1,8,0:0:0:0:
412,124,349980,6,0,L|505:135,1,90,12|0,0:0|0:0,0:0:0:0:
94,162,350430,6,0,L|1:173,1,90,12|0,0:0|0:0,0:0:0:0:
423,232,350880,6,0,L|516:243,1,90,12|0,0:0|0:0,0:0:0:0:
89,257,351330,6,0,L|-4:268,1,90,12|0,0:0|0:0,0:0:0:0:
423,326,351780,6,0,L|516:337,1,90,12|0,0:0|3:0,0:0:0:0:
96,352,352230,6,0,L|3:363,1,90,12|0,0:0|3:0,0:0:0:0:
276,247,352691,5,8,0:0:0:0:
274,232,352766,1,8,0:0:0:0:
273,217,352841,1,8,0:0:0:0:
272,202,352916,1,8,0:0:0:0:
270,187,352991,1,8,0:0:0:0:
269,172,353066,1,8,0:0:0:0:
268,157,353141,1,8,0:0:0:0:
