osu file format v14

[General]
AudioFilename: audio.mp3
AudioLeadIn: 0
PreviewTime: 141765
Countdown: 0
SampleSet: Normal
StackLeniency: 0.3
Mode: 0
LetterboxInBreaks: 0
WidescreenStoryboard: 0

[Editor]
DistanceSpacing: 0.8
BeatDivisor: 4
GridSize: 32
TimelineZoom: 2

[Metadata]
Title:Guilty All The Same (feat. Rakim)
TitleUnicode:Guilty All The Same (feat. Rakim)
Artist:Linkin Park
ArtistUnicode:Linkin Park
Creator:pw384
Version:ACT 4 | "THE REBORN"
Source:
Tags:gats marathon lp The Hunting Party English rock nu metal alternative rap project spark
BeatmapID:3248710
BeatmapSetID:1590600

[Difficulty]
HPDrainRate:6
CircleSize:4
OverallDifficulty:9.3
ApproachRate:8
SliderMultiplier:2.4
SliderTickRate:1

[Events]
//Background and Video events
0,0,"bg.jpg",0,0
//Break Periods
2,218340,220740
2,280790,283890
//Storyboard Layer 0 (Background)
//Storyboard Layer 1 (Fail)
//Storyboard Layer 2 (Pass)
//Storyboard Layer 3 (Foreground)
//Storyboard Layer 4 (Overlay)
//Storyboard Sound Samples

[TimingPoints]
90,300,4,3,1,40,1,0
1290,-133.333333333333,4,3,1,40,0,0
9390,-133.333333333333,4,3,1,50,0,0
9690,-133.333333333333,4,3,1,60,0,0
10890,-100,4,1,1,75,0,0
18840,300,4,1,1,75,1,0
19290,-250,4,3,1,40,0,0
28440,-200,4,3,1,50,0,0
30240,-200,4,3,1,52,0,0
32040,-200,4,3,1,55,0,0
33240,-166.666666666667,4,3,1,57,0,0
35040,-166.666666666667,4,3,1,60,0,0
36840,-166.666666666667,4,3,1,62,0,0
38040,-142.857142857143,4,3,1,67,0,0
39840,-142.857142857143,4,3,1,72,0,0
41640,-142.857142857143,4,3,1,77,0,0
42840,-125,4,3,1,80,0,0
44640,-125,4,3,1,82,0,0
46440,-125,4,3,1,85,0,0
47640,-111.111111111111,4,3,1,90,0,0
52440,-100,4,3,1,95,0,0
56640,-83.3333333333333,4,3,1,95,0,0
56940,-66.6666666666667,4,3,1,95,0,0
57240,-1000,4,3,1,95,0,1
57315,-1000,4,2,1,5,0,1
58140,-1000,4,2,1,40,0,1
58215,-1000,4,2,1,5,0,1
58440,-1000,4,2,1,40,0,1
58515,-1000,4,2,1,5,0,1
59340,-1000,4,2,1,40,0,1
59490,-1000,4,1,1,40,0,1
59527,-1000,4,2,1,40,0,1
59640,-1000,4,2,1,40,0,1
60690,-1000,4,1,1,40,0,1
60727,-1000,4,2,1,40,0,1
60915,-1000,4,2,1,5,0,1
61440,-1000,4,2,1,5,0,0
61740,-1000,4,2,1,70,0,1
61940,-1000,4,2,1,70,0,0
62040,-1000,4,2,1,40,0,1
62115,-1000,4,2,1,5,0,1
62940,-1000,4,2,1,40,0,1
63015,-1000,4,2,1,5,0,1
63240,-1000,4,2,1,40,0,1
63315,-1000,4,2,1,5,0,1
64140,-1000,4,2,1,40,0,1
64290,-1000,4,1,1,40,0,1
64327,-1000,4,2,1,40,0,1
64440,-1000,4,2,1,40,0,1
65490,-1000,4,1,1,40,0,1
65527,-1000,4,2,1,40,0,1
66240,-1000,4,3,1,60,0,0
66840,-166.666666666667,4,3,1,60,0,0
67440,-166.666666666667,4,3,1,50,0,0
71040,-166.666666666667,4,3,1,60,0,0
73290,-166.666666666667,4,3,1,70,0,0
75240,-100,4,3,1,70,0,0
75315,-100,4,3,1,5,0,0
75540,-100,4,3,1,70,0,0
75615,-100,4,3,1,5,0,0
75840,-100,4,3,1,70,0,0
75915,-100,4,3,1,5,0,0
76140,-100,4,3,1,70,0,0
76215,-100,4,3,1,5,0,0
76290,-100,4,3,1,70,0,0
76365,-100,4,3,1,5,0,0
76440,-83.3333333333333,4,1,1,95,0,0
76740,-125,4,1,1,95,0,0
77340,-83.3333333333333,4,1,1,95,0,0
77640,-125,4,1,1,95,0,0
79140,-100,4,1,1,95,0,0
79440,-125,4,1,1,95,0,0
80040,-100,4,1,1,95,0,0
80340,-125,4,1,1,95,0,0
81240,-83.3333333333333,4,1,1,95,0,0
81540,-125,4,1,1,95,0,0
82440,-100,4,1,1,95,0,0
82740,-125,4,1,1,95,0,0
86040,-83.3333333333333,4,1,1,95,0,0
86340,-125,4,1,1,95,0,0
86940,-100,4,1,1,95,0,0
87240,-125,4,1,1,95,0,0
88740,-100,4,1,1,95,0,0
89040,-125,4,1,1,95,0,0
89640,-100,4,1,1,95,0,0
89940,-125,4,1,1,95,0,0
90840,-83.3333333333333,4,1,1,95,0,0
91140,-125,4,1,1,95,0,0
92040,-100,4,1,1,95,0,0
92340,-125,4,1,1,95,0,0
93240,-125,4,1,1,95,0,0
95640,-166.666666666667,4,3,1,60,0,0
114240,-166.666666666667,4,3,1,70,0,0
119940,-125,4,3,1,70,0,0
122040,-125,4,3,1,75,0,0
123240,-125,4,3,1,80,0,0
123840,-125,4,3,1,85,0,0
124440,-166.666666666667,4,3,1,85,0,0
124515,-166.666666666667,4,3,1,30,0,0
131640,-166.666666666667,4,3,1,40,0,0
132840,-166.666666666667,4,3,1,50,0,0
134040,-166.666666666667,4,3,1,65,0,0
138840,-166.666666666667,4,3,1,70,0,0
140640,-125,4,3,1,75,0,0
141240,-125,4,3,1,80,0,0
141840,-125,4,3,1,85,0,0
142440,-83.3333333333333,4,3,1,85,0,1
143340,-100,4,3,1,85,0,0
143640,-83.3333333333333,4,1,1,95,0,0
143940,-125,4,1,1,95,0,0
144540,-83.3333333333333,4,1,1,95,0,0
144840,-125,4,1,1,95,0,0
146340,-100,4,1,1,95,0,0
146640,-125,4,1,1,95,0,0
147240,-100,4,1,1,95,0,0
147540,-125,4,1,1,95,0,0
148440,-83.3333333333333,4,1,1,95,0,0
148740,-125,4,1,1,95,0,0
149640,-100,4,1,1,95,0,0
149940,-125,4,1,1,95,0,0
153240,-166.666666666667,4,3,1,75,0,0
172440,-125,4,3,1,75,0,0
179640,-125,4,3,1,85,0,0
180240,-125,4,3,1,90,0,0
180840,-500,4,3,1,90,0,0
180915,-500,4,3,1,20,0,0
182040,-125,4,1,1,95,0,0
182340,-100,4,1,1,95,0,0
182640,-125,4,1,1,95,0,0
183840,-100,4,1,1,95,0,0
186840,-125,4,1,1,95,0,0
187140,-100,4,1,1,95,0,0
187440,-125,4,1,1,95,0,0
188640,-100,4,1,1,95,0,0
191640,-125,4,1,1,95,0,0
191940,-100,4,1,1,95,0,0
192240,-125,4,1,1,95,0,0
193440,-100,4,1,1,95,0,0
196440,-125,4,1,1,95,0,0
196740,-100,4,1,1,95,0,0
197040,-125,4,1,1,95,0,0
198240,-100,4,1,1,95,0,0
203040,-83.3333333333333,4,1,1,95,0,0
203490,-83.3333333333333,4,1,1,95,0,0
203940,-125,4,1,1,95,0,0
204690,-83.3333333333333,4,1,1,95,0,0
205140,-125,4,1,1,95,0,0
205890,-83.3333333333333,4,1,1,95,0,0
206340,-125,4,1,1,95,0,0
208290,-83.3333333333333,4,1,1,95,0,0
208740,-125,4,1,1,95,0,0
209490,-83.3333333333333,4,1,1,95,0,0
209940,-125,4,1,1,95,0,0
210690,-83.3333333333333,4,1,1,95,0,0
211140,-125,4,1,1,95,0,0
212640,-100,4,1,1,95,0,0
212940,-125,4,1,1,95,0,0
213240,-125,4,3,1,70,0,0
213390,-166.666666666667,4,3,1,70,0,0
216690,-125,4,3,1,85,0,0
217140,-125,4,3,1,85,0,0
217890,-125,4,3,1,85,0,1
218340,-166.666666666667,4,3,1,85,0,0
221490,-125,4,3,1,85,0,0
221940,-125,4,3,1,85,0,0
222990,-166.666666666667,4,3,1,85,0,0
226290,-125,4,3,1,85,0,0
228090,-166.666666666667,4,3,1,85,0,0
231090,-125,4,3,1,85,0,0
232890,-166.666666666667,4,3,1,85,0,0
235890,-125,4,3,1,85,0,0
237690,-166.666666666667,4,3,1,85,0,0
240690,-125,4,3,1,85,0,0
242040,-125,4,3,1,50,0,0
243090,-166.666666666667,4,3,1,50,0,0
245490,-125,4,3,1,85,0,0
246840,-125,4,3,1,50,0,0
247890,-166.666666666667,4,3,1,50,0,0
250290,-125,4,3,1,85,0,0
251640,-125,4,3,1,50,0,0
252690,-166.666666666667,4,3,1,50,0,0
255090,-125,4,3,1,85,0,0
256440,-125,4,3,1,50,0,0
257490,-166.666666666667,4,3,1,50,0,0
259890,-125,4,3,1,85,0,0
261390,-125,4,3,1,75,0,0
261690,-166.666666666667,4,3,1,75,0,0
264690,-125,4,3,1,85,0,0
266190,-125,4,3,1,75,0,0
266490,-166.666666666667,4,3,1,75,0,0
269490,-125,4,3,1,85,0,0
279840,-125,4,3,1,90,0,0
280290,-250,4,3,1,90,0,0
280440,-250,4,3,1,50,0,0
284640,-250,4,1,1,80,0,0
287640,-250,4,1,1,5,0,0
287940,-100,4,1,1,80,0,1
288015,-100,4,1,1,80,0,0
288390,-100,4,1,1,80,0,1
288465,-100,4,1,1,80,0,0
288840,-166.666666666667,4,1,1,80,0,0
290040,-125,4,1,1,95,0,0
290340,-100,4,1,1,95,0,0
290640,-125,4,1,1,95,0,0
291840,-100,4,1,1,95,0,0
294840,-125,4,1,1,95,0,0
295140,-100,4,1,1,95,0,0
295440,-125,4,1,1,95,0,0
296640,-100,4,1,1,95,0,0
299640,-125,4,1,1,95,0,0
299940,-100,4,1,1,95,0,0
300240,-125,4,1,1,95,0,0
301440,-100,4,1,1,95,0,0
304440,-125,4,1,1,95,0,0
304740,-100,4,1,1,95,0,0
305040,-125,4,1,1,95,0,0
306240,-100,4,1,1,95,0,0
311040,-83.3333333333333,4,1,1,95,0,0
311490,-100,4,1,1,95,0,0
311940,-125,4,1,1,95,0,0
312690,-100,4,1,1,95,0,0
313140,-125,4,1,1,95,0,0
313890,-100,4,1,1,95,0,0
314340,-125,4,1,1,95,0,0
316290,-100,4,1,1,95,0,0
316740,-125,4,1,1,95,0,0
317490,-100,4,1,1,95,0,0
317940,-125,4,1,1,95,0,0
318690,-100,4,1,1,95,0,0
319140,-125,4,1,1,95,0,0
321240,-125,4,3,1,70,0,0
324690,-125,4,3,1,85,0,0
325140,-100,4,3,1,85,0,0
325440,-83.3333333333333,4,3,1,85,0,0
326040,-100,4,3,1,85,0,0
326190,-100,4,3,1,65,0,0
329640,-83.3333333333333,4,3,1,65,0,0
330840,-125,4,3,1,65,0,0
332640,-125,4,3,1,70,0,0
333090,-125,4,3,1,75,0,0
333390,-125,4,3,1,80,0,0
333540,-125,4,3,1,85,0,0
333840,-125,4,3,1,90,0,0
334440,-500,4,3,1,90,0,0
335640,-62.5,4,1,1,95,0,0
337440,-35.7142857142857,4,1,1,95,0,1
337740,-62.5,4,1,1,95,0,0
339240,-71.4285714285714,4,1,1,95,0,0
340440,-100,4,1,1,95,0,0
345240,298.507462686567,4,1,1,95,1,0
346434,292.682926829268,4,1,1,95,1,0
348775,307.692307692308,4,1,1,80,1,0
350005,300,4,1,1,75,1,0
352255,333.333333333333,4,1,1,70,1,0
352733,300,4,1,1,70,1,0
353183,-62.5,4,1,1,70,0,0

[Colours]
Combo1 : 207,187,118
Combo2 : 170,105,74
Combo3 : 120,89,54

[HitObjects]
1,185,1290,6,0,P|35:190|54:194,1,45.0000017166138,4|0,0:2|2:0,0:0:0:0:
96,251,1740,6,0,P|101:285|105:304,1,45.0000017166138,2|0,0:0|2:0,0:0:0:0:
138,71,2190,6,0,P|135:48|130:26,1,45.0000017166138,4|0,0:2|2:0,0:0:0:0:
188,129,2640,6,0,P|210:134|233:137,1,45.0000017166138,2|0,0:0|2:0,0:0:0:0:
283,195,3090,6,0,P|288:229|292:248,1,45.0000017166138,4|0,0:2|2:0,0:0:0:0:
345,55,3540,6,0,P|347:32|352:10,1,45.0000017166138,2|0,0:0|2:0,0:0:0:0:
394,117,3990,6,0,P|399:151|403:170,1,45.0000017166138,4|0,0:2|2:0,0:0:0:0:
445,384,4440,6,0,P|447:361|452:339,1,45.0000017166138,2|0,0:0|2:0,0:0:0:0:
4,189,4890,6,0,P|63:199|138:213,1,135.000005149841,4|0,0:2|2:0,0:0:0:0:
146,229,5190,6,0,P|205:219|280:205,1,135.000005149841,4|0,0:2|2:0,0:0:0:0:
288,189,5490,6,0,P|347:199|422:213,1,135.000005149841,4|0,0:2|2:0,0:0:0:0:
494,228,5790,5,4,0:2:0:0:
1,185,6090,6,0,P|35:190|54:194,1,45.0000017166138,4|0,0:2|2:0,0:0:0:0:
88,130,6390,5,4,0:2:0:0:
96,251,6540,6,0,P|101:285|105:304,1,45.0000017166138,2|0,0:0|2:0,0:0:0:0:
137,367,6690,5,4,0:2:0:0:
138,71,6990,6,0,P|135:48|130:26,1,45.0000017166138,4|0,0:2|2:0,0:0:0:0:
151,196,7290,5,4,0:2:0:0:
188,129,7440,6,0,P|210:134|233:137,1,45.0000017166138,2|0,0:0|2:0,0:0:0:0:
278,76,7590,5,4,0:2:0:0:
283,195,7890,6,0,P|288:229|292:248,1,45.0000017166138,4|0,0:2|2:0,0:0:0:0:
355,384,8190,5,4,0:2:0:0:
354,310,8340,6,0,P|356:287|361:265,1,45.0000017166138,2|0,0:0|2:0,0:0:0:0:
379,193,8490,5,0,0:0:0:0:
397,1,8790,6,0,P|402:35|406:54,1,45.0000017166138,0|0,1:0|2:0,0:0:0:0:
31,309,9240,6,0,P|33:286|38:264,1,45.0000017166138,0|0,1:0|2:0,0:0:0:0:
69,199,9390,1,0,1:0:0:0:
69,199,9540,1,0,1:0:0:0:
98,384,9690,6,0,P|100:361|105:339,1,45.0000017166138,0|0,1:0|2:0,0:0:0:0:
144,234,9840,6,0,P|167:232|189:227,1,45.0000017166138,0|0,1:0|2:0,0:0:0:0:
247,180,9990,6,0,P|270:182|292:187,1,45.0000017166138,0|0,1:0|2:0,0:0:0:0:
430,324,10140,6,0,P|453:322|475:317,1,45.0000017166138,0|0,1:0|2:0,0:0:0:0:
1,183,10890,6,0,P|30:189|75:201,1,60,8|0,1:2|2:0,0:0:0:0:
129,33,11190,5,8,1:2:0:0:
169,145,11340,2,0,P|176:116|183:87,1,60,0|0,0:0|2:0,0:0:0:0:
202,11,11490,1,8,1:2:0:0:
220,204,11640,1,0,0:0:0:0:
252,272,11790,2,0,P|281:264|310:258,1,60,8|0,1:2|2:0,0:0:0:0:
400,362,12090,5,8,1:2:0:0:
440,249,12240,2,0,P|447:278|453:307,1,60,0|0,0:0|2:0,0:0:0:0:
473,384,12390,1,8,1:2:0:0:
491,191,12540,1,0,0:0:0:0:
485,115,12690,2,0,P|491:85|498:56,1,60,8|0,1:2|2:0,0:0:0:0:
30,303,12990,5,8,1:2:0:0:
87,350,13140,2,0,P|116:342|145:336,1,60,0|0,0:0|2:0,0:0:0:0:
177,270,13290,1,8,1:2:0:0:
208,382,13440,1,0,0:0:0:0:
209,200,13590,2,0,P|238:207|267:213,1,60,8|0,1:2|2:0,0:0:0:0:
354,58,13890,5,8,1:2:0:0:
411,11,14040,2,0,P|440:18|469:24,1,60,0|0,0:0|2:0,0:0:0:0:
501,91,14190,1,8,1:2:0:0:
0,184,14490,6,0,P|89:197|178:210,1,180,12|0,1:2|2:0,0:0:0:0:
111,248,14790,6,0,P|200:234|289:221,1,180,12|0,1:2|2:0,0:0:0:0:
222,184,15090,6,0,P|311:197|400:210,1,180,12|0,1:2|2:0,0:0:0:0:
478,222,15390,5,12,1:2:0:0:
17,384,15540,5,0,0:0:0:0:
17,384,15615,1,0,0:0:0:0:
17,384,15690,6,0,P|27:323|41:256,1,120,12|0,1:2|3:0,0:0:0:0:
85,168,15990,1,4,1:3:0:0:
98,355,16140,6,0,P|108:294|122:227,1,120,12|0,1:2|3:0,0:0:0:0:
166,139,16440,1,4,1:3:0:0:
179,326,16590,6,0,P|189:265|203:198,1,120,12|0,1:2|3:0,0:0:0:0:
247,110,16890,1,4,1:3:0:0:
260,297,17040,6,0,P|270:236|284:169,1,120,12|0,1:2|3:0,0:0:0:0:
328,81,17340,1,4,1:3:0:0:
341,268,17490,6,0,P|345:238|350:208,1,60,12|0,1:2|2:0,0:0:0:0:
409,52,17640,1,0,0:0:0:0:
409,52,17790,1,4,1:3:0:0:
422,239,17940,6,0,P|426:209|431:179,1,60,12|0,1:2|2:0,0:0:0:0:
490,23,18090,1,0,0:0:0:0:
490,23,18240,1,4,1:3:0:0:
464,304,18390,5,4,1:3:0:0:
467,318,18465,1,4,1:3:0:0:
470,332,18540,1,4,1:3:0:0:
473,346,18615,1,4,1:3:0:0:
476,360,18690,1,4,1:3:0:0:
488,304,18765,1,4,1:3:0:0:
500,248,18840,5,4,1:3:0:0:
11,194,19290,6,0,L|161:186,1,144,0|0,0:0|0:0,2:0:0:0:
217,223,20190,1,0,0:0:0:0:
283,194,20640,1,0,0:0:0:0:
322,35,21090,1,0,0:0:0:0:
355,215,21540,5,0,0:0:0:0:
394,56,21990,1,0,0:0:0:0:
408,277,22440,5,0,0:0:0:0:
419,349,22740,1,0,0:0:0:0:
466,231,23040,5,0,0:0:0:0:
477,303,23340,1,0,0:0:0:0:
0,241,23490,5,8,0:0:0:0:
12,243,23565,1,8,0:0:0:0:
24,245,23640,6,0,P|30:280|34:305,1,48,0|0,1:0|0:0,0:0:0:0:
89,183,23940,1,4,0:0:0:0:
89,183,24090,6,0,P|95:218|99:243,1,48,0|0,1:0|0:0,0:0:0:0:
154,279,24390,1,4,0:0:0:0:
154,279,24540,6,0,P|160:314|164:339,1,48,0|0,1:0|0:0,0:0:0:0:
187,86,24840,1,4,0:0:0:0:
187,86,24990,6,0,P|193:121|197:146,1,48,0|0,1:0|0:0,0:0:0:0:
248,228,25290,1,4,0:0:0:0:
248,228,25440,6,0,P|254:193|258:168,1,48,0|0,1:0|0:0,0:0:0:0:
317,135,25740,1,4,0:0:0:0:
317,135,25890,6,0,P|323:100|327:75,1,48,0|0,1:0|0:0,0:0:0:0:
335,362,26190,1,4,0:0:0:0:
335,362,26340,6,0,P|341:327|345:302,1,48,0|0,1:0|0:0,0:0:0:0:
395,57,26640,1,4,0:0:0:0:
395,57,26790,6,0,P|401:22|405:-3,1,48,0|0,1:0|0:0,0:0:0:0:
417,321,27090,1,4,0:0:0:0:
417,321,27240,6,0,P|423:286|427:261,1,48,0|0,1:0|1:0,0:0:0:0:
445,153,27540,2,0,P|451:118|455:93,1,48,4|4,0:0|0:0,0:0:0:0:
487,374,27840,6,0,P|493:339|497:314,1,48,0|4,1:0|0:0,0:0:0:0:
504,50,28140,2,0,P|510:15|514:-10,1,48,0|0,1:0|1:0,0:0:0:0:
7,216,28440,6,0,P|13:251|18:281,1,60,0|0,1:0|0:0,0:0:0:0:
54,159,28740,1,4,0:0:0:0:
81,361,28890,5,0,1:0:0:0:
96,288,29040,1,0,0:0:0:0:
111,215,29190,1,4,0:0:0:0:
103,296,29340,6,0,P|109:331|114:361,1,60,0|0,1:0|0:0,0:0:0:0:
170,263,29640,1,4,0:0:0:0:
197,61,29790,5,0,1:0:0:0:
212,134,29940,1,0,0:0:0:0:
227,207,30090,1,4,0:0:0:0:
219,126,30240,6,0,P|225:91|230:61,1,60,0|0,1:0|0:0,0:0:0:0:
242,280,30540,1,4,0:0:0:0:
309,44,30690,6,0,P|304:74|299:104,1,60,0|0,1:0|0:0,0:0:0:0:
322,258,30990,1,4,0:0:0:0:
361,161,31140,6,0,P|367:126|372:96,1,60,0|0,1:0|0:0,0:0:0:0:
384,315,31440,1,4,0:0:0:0:
451,79,31590,6,0,P|446:108|440:138,1,60,0|0,1:0|0:0,0:0:0:0:
464,293,31890,1,4,0:0:0:0:
477,368,32040,5,0,1:0:0:0:
494,219,32190,1,0,1:0:0:0:
490,357,32340,6,0,P|495:327|500:297,1,60,4|4,0:0|0:0,0:0:0:0:
487,67,32640,2,0,P|492:37|497:7,1,60,0|4,1:0|0:0,0:0:0:0:
512,142,32940,1,0,1:0:0:0:
512,142,33090,1,0,1:0:0:0:
0,82,33240,6,0,P|8:136|12:169,1,71.9999978027344,4|0,1:3|0:0,0:0:0:0:
33,225,33540,1,4,0:0:0:0:
66,36,33690,5,4,1:3:0:0:
82,114,33840,1,0,0:0:0:0:
94,22,33990,1,4,0:0:0:0:
127,245,34140,6,0,P|135:191|139:158,1,71.9999978027344,4|0,1:3|0:0,0:0:0:0:
160,102,34440,1,4,0:0:0:0:
193,291,34590,5,4,1:3:0:0:
209,213,34740,1,0,0:0:0:0:
221,305,34890,1,4,0:0:0:0:
241,26,35040,6,0,P|249:80|253:113,1,71.9999978027344,4|0,1:3|0:0,0:0:0:0:
274,169,35340,1,4,0:0:0:0:
294,368,35490,6,0,P|302:314|306:281,1,71.9999978027344,4|0,1:3|0:0,0:0:0:0:
327,225,35790,1,4,0:0:0:0:
358,40,35940,6,0,P|366:94|370:127,1,71.9999978027344,4|0,1:3|0:0,0:0:0:0:
391,183,36240,1,4,0:0:0:0:
411,382,36390,6,0,P|419:328|423:295,1,71.9999978027344,4|0,1:3|0:0,0:0:0:0:
444,239,36690,1,4,0:0:0:0:
447,71,36840,5,0,1:0:0:0:
480,147,36990,1,0,1:0:0:0:
447,71,37140,6,0,P|451:35|457:0,1,71.9999978027344,4|4,0:0|0:0,0:0:0:0:
461,232,37440,2,0,P|465:196|471:160,1,71.9999978027344,0|4,1:0|0:0,0:0:0:0:
489,384,37740,2,0,P|493:348|499:312,1,71.9999978027344,0|0,1:0|1:0,0:0:0:0:
0,207,38040,5,4,1:2:0:0:
74,218,38190,1,0,1:0:0:0:
104,290,38340,5,4,1:3:0:0:
178,301,38490,1,8,1:2:0:0:
208,373,38640,5,0,1:0:0:0:
282,384,38790,1,4,1:3:0:0:
357,163,38940,6,0,P|362:121|370:72,1,83.9999974365235,8|0,1:2|1:0,0:0:0:0:
424,28,39240,1,4,1:3:0:0:
461,252,39390,6,0,P|466:294|474:343,1,83.9999974365235,8|0,1:2|1:0,0:0:0:0:
17,333,39690,1,4,1:3:0:0:
17,333,39765,1,4,1:3:0:0:
17,333,39840,6,0,P|56:329|105:322,1,83.9999974365235,8|0,1:2|1:0,0:0:0:0:
164,281,40140,1,4,1:3:0:0:
132,63,40290,6,0,P|171:67|220:74,1,83.9999974365235,8|0,1:2|1:0,0:0:0:0:
279,115,40590,1,4,1:3:0:0:
233,337,40740,6,0,P|272:333|321:326,1,83.9999974365235,8|0,1:2|1:0,0:0:0:0:
380,285,41040,1,4,1:3:0:0:
348,67,41190,6,0,P|387:71|436:78,1,83.9999974365235,8|0,1:2|1:0,0:0:0:0:
495,119,41490,1,4,1:3:0:0:
16,217,41640,6,0,P|93:210|168:205,1,125.999996154785,4|0,1:2|2:0,0:0:0:0:
156,218,41940,5,4,1:3:0:0:
183,147,42090,1,4,1:3:0:0:
225,252,42240,5,8,1:2:0:0:
299,239,42390,1,8,1:2:0:0:
373,226,42540,1,8,1:2:0:0:
447,213,42690,1,8,1:2:0:0:
74,83,42840,6,0,P|111:79|156:119,1,96,4|0,1:2|1:0,0:0:0:0:
172,232,43140,1,4,1:3:0:0:
218,294,43290,6,0,P|255:298|300:258,1,96,8|0,1:2|1:0,0:0:0:0:
230,95,43590,1,4,1:3:0:0:
276,33,43740,6,0,P|313:29|358:69,1,96,8|0,1:2|1:0,0:0:0:0:
368,291,44040,1,4,1:3:0:0:
414,353,44190,6,0,P|451:357|496:317,1,96,8|0,1:2|1:0,0:0:0:0:
11,79,44490,1,4,1:3:0:0:
11,79,44565,1,0,1:0:0:0:
11,79,44640,6,0,P|48:75|93:115,1,96,8|0,1:2|1:0,0:0:0:0:
119,182,44940,1,4,1:3:0:0:
149,311,45090,6,0,P|186:315|231:275,1,96,8|0,1:2|1:0,0:0:0:0:
257,208,45390,1,4,1:3:0:0:
284,37,45540,6,0,P|321:33|366:73,1,96,8|0,1:2|1:0,0:0:0:0:
392,140,45840,1,4,1:3:0:0:
404,384,45990,6,0,P|441:388|486:348,1,96,8|0,1:2|1:0,0:0:0:0:
445,283,46290,1,4,1:3:0:0:
57,173,46440,6,0,P|134:180|217:185,1,144,4|0,1:2|2:0,0:0:0:0:
216,176,46740,5,4,1:3:0:0:
243,247,46890,1,4,1:3:0:0:
232,167,47040,5,8,1:2:0:0:
286,334,47190,1,8,1:2:0:0:
380,193,47340,1,8,1:2:0:0:
434,360,47490,1,8,1:2:0:0:
62,327,47640,6,0,P|151:306|228:289,1,161.999995056153,4|0,1:2|2:0,0:0:0:0:
286,334,47940,5,4,1:3:0:0:
341,223,48090,1,8,1:2:0:0:
434,308,48240,1,4,1:3:0:0:
489,197,48390,1,4,1:3:0:0:
94,105,48540,6,0,P|183:126|260:143,1,161.999995056153,4|0,1:2|2:0,0:0:0:0:
318,98,48840,5,4,1:3:0:0:
364,243,48990,1,8,1:2:0:0:
466,124,49140,1,4,1:3:0:0:
512,269,49290,1,4,1:3:0:0:
0,377,49440,6,0,P|89:356|166:339,1,161.999995056153,4|0,1:2|2:0,0:0:0:0:
224,384,49740,5,4,1:3:0:0:
265,197,49890,1,8,1:2:0:0:
372,358,50040,1,4,1:3:0:0:
413,171,50190,1,4,1:3:0:0:
52,50,50340,6,0,P|141:71|218:88,1,161.999995056153,4|0,1:2|2:0,0:0:0:0:
276,43,50640,5,4,1:3:0:0:
305,264,50790,1,8,1:2:0:0:
424,69,50940,1,4,1:3:0:0:
453,290,51090,1,4,1:3:0:0:
0,209,51240,6,0,P|89:188|166:171,1,161.999995056153,4|0,1:2|2:0,0:0:0:0:
224,216,51540,5,4,1:3:0:0:
261,369,51690,1,4,1:3:0:0:
291,253,51840,5,8,1:2:0:0:
414,222,51990,1,8,1:2:0:0:
453,290,52140,5,8,1:2:0:0:
490,137,52290,1,8,1:2:0:0:
8,49,52440,5,4,1:2:0:0:
63,303,52590,1,0,1:0:0:0:
85,234,52740,1,4,1:3:0:0:
126,347,52890,5,8,1:2:0:0:
175,92,53040,1,8,1:2:0:0:
246,80,53190,1,8,1:2:0:0:
255,375,53340,5,4,1:2:0:0:
310,121,53490,1,0,1:0:0:0:
332,190,53640,1,4,1:3:0:0:
373,77,53790,5,8,1:2:0:0:
422,332,53940,1,8,1:2:0:0:
493,344,54090,1,8,1:2:0:0:
2,233,54240,5,4,1:2:0:0:
73,227,54390,1,0,1:0:0:0:
126,37,54540,1,4,1:3:0:0:
128,177,54690,5,8,1:2:0:0:
199,183,54840,1,8,1:2:0:0:
252,373,54990,1,8,1:2:0:0:
258,234,55140,5,4,1:2:0:0:
329,228,55290,1,0,1:0:0:0:
382,38,55440,1,4,1:3:0:0:
384,178,55590,5,8,1:2:0:0:
455,184,55740,1,8,1:2:0:0:
508,374,55890,1,8,1:2:0:0:
0,330,56040,6,0,P|87:316|194:294,1,180,4|0,1:2|2:0,0:0:0:0:
228,244,56340,1,4,1:3:0:0:
283,366,56490,1,4,1:3:0:0:
301,107,56640,6,0,P|311:32|438:43,1,215.999993408203,8|0,1:2|2:0,0:0:0:0:
508,10,56940,6,0,P|502:51|496:104,1,90.0000034332277,8|0,1:2|2:0,0:0:0:0:
0,146,57240,6,0,B|67:156|67:156|74:162|74:162|89:165|89:165|96:171|96:171|155:179|155:179|162:175|162:175|168:176|168:176|175:172|175:172|182:173|182:173|189:170|189:170|207:172|207:172|211:175|211:175|228:178|228:178|233:176|233:176|250:178|250:178|255:181|255:181|258:189|258:189|262:185|262:185|268:189|268:189|272:187|272:187|318:195,1,336,4|0,1:2|2:0,0:0:0:0:
0,242,61740,5,0,1:0:0:0:
76,251,61840,5,0,1:0:0:0:
152,260,61940,5,0,1:0:0:0:
220,301,62040,6,0,B|287:291|287:291|294:285|294:285|309:282|309:282|316:276|316:276|375:268|375:268|382:272|382:272|388:271|388:271|395:275|395:275|402:274|402:274|409:277|409:277|427:275|427:275|431:272|431:272|448:269|448:269|453:271|453:271|470:268|470:268|475:266|475:266|478:258|478:258|482:262|482:262|488:258|488:258|492:260|492:260|511:257,1,312,0|0,1:2|0:0,0:0:0:0:
123,148,66240,5,8,1:2:0:0:
193,162,66390,1,8,1:2:0:0:
263,176,66540,1,8,1:2:0:0:
333,190,66690,1,8,1:2:0:0:
483,148,66840,6,0,P|488:92|502:1,1,143.999995605469,4|4,1:2|0:0,0:0:0:0:
1,241,67440,5,0,0:0:0:0:
74,214,67590,2,0,P|68:287|64:377,1,143.999995605469,8|0,1:2|0:0,0:0:0:0:
144,249,68040,2,0,P|147:177|153:105,1,143.999995605469,8|0,1:2|0:0,0:0:0:0:
218,234,68490,2,0,P|212:307|208:397,1,143.999995605469,8|0,1:2|0:0,0:0:0:0:
269,178,68940,2,0,P|272:106|278:34,1,143.999995605469,8|0,1:2|0:0,0:0:0:0:
347,87,69390,6,0,P|341:160|337:250,1,143.999995605469,8|0,1:2|0:0,0:0:0:0:
401,353,69840,2,0,P|404:281|410:209,1,143.999995605469,8|0,1:2|0:0,0:0:0:0:
458,0,70290,6,0,P|452:73|448:163,1,143.999995605469,8|0,1:2|0:0,0:0:0:0:
472,384,70740,2,0,P|474:330|479:276,1,107.999996704102,8|0,1:2|2:0,0:0:0:0:
493,261,71040,5,8,1:2:0:0:
509,187,71190,1,8,1:2:0:0:
484,119,71340,1,8,1:2:0:0:
500,45,71490,1,8,1:2:0:0:
509,187,71640,5,4,1:2:0:0:
0,170,71940,6,0,P|33:170|143:166,1,143.999995605469,8|0,1:2|1:0,0:0:0:0:
96,320,72390,2,0,P|129:320|239:324,1,143.999995605469,8|0,1:2|1:0,0:0:0:0:
190,109,72840,6,0,P|223:109|333:105,1,143.999995605469,8|0,1:2|1:0,0:0:0:0:
300,371,73290,2,0,P|335:371|371:373,1,71.9999978027344,8|8,1:2|1:2,0:0:0:0:
400,144,73590,5,8,1:2:0:0:
435,333,73740,1,8,1:2:0:0:
468,113,73890,1,8,1:2:0:0:
506,363,74040,5,4,1:3:0:0:
13,309,75240,6,0,P|43:314|71:326,1,60,0|0,0:0|2:0,0:0:0:0:
13,309,75540,2,0,P|43:314|71:326,1,60,0|0,0:0|2:0,0:0:0:0:
13,309,75840,2,0,P|43:314|71:326,1,60,0|0,0:0|2:0,0:0:0:0:
55,384,76140,6,0,P|58:363|74:322,1,60,0|0,0:0|2:0,0:0:0:0:
81,310,76290,6,0,P|78:289|62:248,1,60,0|0,0:0|2:0,0:0:0:0:
0,217,76440,6,0,P|-7:132|103:96,1,215.999993408203,4|0,1:2|2:0,0:0:0:0:
140,163,76740,1,10,1:2:0:0:
155,367,76890,1,2,1:3:0:0:
208,123,77040,2,0,P|208:75|211:27,1,96,4|4,1:3|1:3,0:0:0:0:
305,326,77340,2,0,P|296:250|284:102,1,215.999993408203,10|0,1:2|2:0,0:0:0:0:
319,0,77640,6,0,P|353:37|346:94,1,96,4|0,1:3|1:3,0:0:0:0:
338,217,77940,1,12,1:2:0:0:
338,217,78090,1,2,1:3:0:0:
444,150,78240,6,0,P|441:111|433:45,1,96,4|4,1:3|1:3,0:0:0:0:
501,210,78540,1,10,1:2:0:0:
450,374,78690,1,0,1:3:0:0:
0,379,78840,6,0,P|5:342|13:275,1,96,4|0,1:2|1:3,0:0:0:0:
14,24,79140,2,0,P|82:53|86:152,1,180,10|0,1:2|2:0,0:0:0:0:
52,218,79440,5,4,1:3:0:0:
116,369,79590,1,4,1:3:0:0:
183,121,79740,2,0,P|187:58|188:-2,1,96,10|0,1:2|1:3,0:0:0:0:
216,192,80040,6,0,P|257:204|330:103,1,180,4|0,1:3|2:0,0:0:0:0:
289,35,80340,2,0,P|334:29|392:22,1,96,12|2,1:2|1:3,0:0:0:0:
423,219,80640,2,0,P|428:266|435:314,1,96,4|4,1:3|1:3,0:0:0:0:
495,372,80940,1,10,1:2:0:0:
503,169,81090,1,0,1:3:0:0:
0,175,81240,6,0,P|104:184|214:201,1,215.999993408203,4|0,1:2|2:0,0:0:0:0:
169,115,81540,2,0,P|195:84|185:16,1,96,10|2,1:2|1:3,0:0:0:0:
181,280,81840,2,0,P|177:326|206:364,1,96,4|4,1:3|1:3,0:0:0:0:
295,327,82140,1,10,1:2:0:0:
295,327,82290,1,0,1:3:0:0:
295,182,82440,6,0,P|288:97|277:-3,1,180,4|0,1:3|2:0,0:0:0:0:
360,33,82740,2,0,P|388:70|385:117,1,96,12|2,1:2|1:3,0:0:0:0:
378,358,83040,2,0,P|432:365|493:378,1,96,4|4,1:3|1:3,0:0:0:0:
512,199,83340,1,10,1:2:0:0:
495,64,83490,1,0,1:3:0:0:
0,136,83640,6,0,P|34:139|104:151,1,96,12|4,1:2|1:3,0:0:0:0:
125,346,83940,5,12,1:2:0:0:
197,328,84090,1,4,1:3:0:0:
213,92,84240,5,12,1:2:0:0:
285,110,84390,1,4,1:3:0:0:
317,181,84540,5,12,1:2:0:0:
347,6,84690,1,4,1:3:0:0:
356,247,84840,6,0,P|358:295|361:343,1,96,12|4,1:2|1:3,0:0:0:0:
397,144,85140,5,12,1:2:0:0:
426,216,85290,1,4,1:3:0:0:
466,115,85440,5,12,1:2:0:0:
495,187,85590,1,4,1:3:0:0:
494,305,85740,6,0,P|501:256|513:197,1,96,12|4,1:2|1:3,0:0:0:0:
16,42,86040,6,0,P|22:89|40:264,1,215.999993408203,4|0,1:2|2:0,0:0:0:0:
11,334,86340,2,0,P|49:341|107:298,1,96,10|2,1:2|1:3,0:0:0:0:
127,67,86640,1,4,1:3:0:0:
127,67,86790,1,4,1:3:0:0:
158,218,86940,2,0,P|203:212|254:332,1,180,10|0,1:2|2:0,0:0:0:0:
176,384,87240,6,0,P|180:338|196:272,1,96,4|0,1:3|1:3,0:0:0:0:
235,36,87540,1,12,1:2:0:0:
271,109,87690,1,2,1:3:0:0:
359,52,87840,6,0,P|394:50|480:40,1,96,4|4,1:3|1:3,0:0:0:0:
476,178,88140,1,10,1:2:0:0:
512,105,88290,1,0,1:3:0:0:
0,5,88440,6,0,P|5:42|13:109,1,96,4|0,1:2|1:3,0:0:0:0:
14,360,88740,2,0,P|82:331|86:232,1,180,10|0,1:2|2:0,0:0:0:0:
52,166,89040,5,4,1:3:0:0:
151,123,89190,1,4,1:3:0:0:
178,288,89340,2,0,P|179:240|182:192,1,96,10|0,1:2|1:3,0:0:0:0:
208,64,89640,6,0,P|249:52|322:153,1,180,4|0,1:3|2:0,0:0:0:0:
280,216,89940,6,0,P|325:222|383:229,1,96,12|2,1:2|1:3,0:0:0:0:
418,11,90240,2,0,P|411:59|406:107,1,96,4|4,1:3|1:3,0:0:0:0:
498,326,90540,1,10,1:2:0:0:
498,326,90690,1,0,1:3:0:0:
0,209,90840,6,0,P|104:200|214:183,1,215.999993408203,4|0,1:2|2:0,0:0:0:0:
205,20,91140,2,0,P|177:57|181:104,1,96,10|2,1:2|1:3,0:0:0:0:
230,354,91440,2,0,P|201:316|204:269,1,96,4|4,1:3|1:3,0:0:0:0:
273,59,91740,1,10,1:2:0:0:
273,59,91890,1,0,1:3:0:0:
338,99,92040,6,0,P|331:184|320:284,1,180,4|0,1:3|2:0,0:0:0:0:
368,344,92340,2,0,P|414:347|452:319,1,96,12|2,1:2|1:3,0:0:0:0:
407,69,92640,2,0,P|461:62|522:49,1,96,4|4,1:3|1:3,0:0:0:0:
502,254,92940,1,10,1:2:0:0:
502,254,93090,1,0,1:3:0:0:
0,136,93240,6,0,P|34:139|104:151,1,96,12|4,1:2|1:3,0:0:0:0:
125,346,93540,5,12,1:2:0:0:
157,96,93690,1,4,1:3:0:0:
187,238,93840,5,12,1:2:0:0:
214,160,93990,1,4,1:3:0:0:
285,211,94140,5,12,1:2:0:0:
321,0,94290,1,4,1:3:0:0:
334,275,94440,6,0,P|336:323|339:371,1,96,12|4,1:2|1:3,0:0:0:0:
378,142,94740,5,12,1:2:0:0:
398,221,94890,1,4,1:3:0:0:
444,90,95040,5,12,1:2:0:0:
449,378,95190,1,4,1:3:0:0:
494,305,95340,5,12,1:2:0:0:
497,281,95415,1,0,0:0:0:0:
500,257,95490,1,4,1:3:0:0:
505,233,95565,1,0,0:0:0:0:
509,210,95640,1,4,1:2:0:0:
0,159,95940,5,0,0:0:0:0:
40,358,96090,2,0,P|45:286|54:212,1,143.999995605469,8|0,0:2|0:0,0:0:0:0:
119,173,96540,2,0,P|124:101|133:27,1,143.999995605469,8|0,0:2|0:0,0:0:0:0:
175,226,96990,2,0,P|167:298|162:370,1,143.999995605469,8|0,0:2|0:0,0:0:0:0:
237,179,97440,5,0,1:3:0:0:
240,155,97515,1,0,1:3:0:0:
243,131,97590,1,0,1:3:0:0:
248,107,97665,1,0,1:3:0:0:
252,84,97740,1,8,0:2:0:0:
301,23,97890,1,8,0:2:0:0:
279,244,98040,6,0,P|318:253|371:170,1,143.999995605469,0|0,1:0|0:0,0:0:0:0:
377,23,98490,2,0,P|371:83|363:174,1,143.999995605469,8|0,0:2|0:0,0:0:0:0:
398,384,98940,2,0,P|404:324|412:233,1,143.999995605469,8|0,0:2|0:0,0:0:0:0:
393,102,99390,2,0,P|432:93|485:176,1,143.999995605469,8|0,0:2|0:0,0:0:0:0:
443,229,99840,5,8,1:2:0:0:
479,377,99990,1,4,1:3:0:0:
467,240,100140,5,8,0:2:0:0:
503,92,100290,1,4,1:3:0:0:
491,251,100440,5,0,1:0:0:0:
1,146,100740,5,0,0:0:0:0:
33,81,100890,2,0,P|74:69|120:153,1,143.999995605469,8|0,0:2|0:0,0:0:0:0:
75,322,101340,2,0,P|116:334|162:250,1,143.999995605469,8|0,0:2|0:0,0:0:0:0:
168,40,101790,2,0,P|209:28|255:112,1,143.999995605469,8|0,0:2|0:0,0:0:0:0:
210,363,102240,5,0,1:3:0:0:
243,375,102315,1,0,1:3:0:0:
277,365,102390,1,0,1:3:0:0:
299,338,102465,1,0,1:3:0:0:
301,302,102540,1,8,0:2:0:0:
331,128,102690,1,8,0:2:0:0:
367,378,102840,6,0,P|372:306|380:212,1,143.999995605469,0|0,1:0|0:0,0:0:0:0:
421,168,103290,2,0,P|426:96|434:2,1,143.999995605469,8|0,0:2|0:0,0:0:0:0:
440,384,103740,2,0,P|445:312|453:218,1,143.999995605469,8|0,0:2|0:0,0:0:0:0:
504,30,104190,2,0,P|498:101|493:173,1,143.999995605469,8|0,0:2|0:0,0:0:0:0:
512,384,104640,6,0,P|515:346|518:310,1,71.9999978027344,8|4,1:2|1:3,0:0:0:0:
512,159,104940,1,8,0:2:0:0:
512,159,105090,1,4,1:3:0:0:
504,294,105240,5,4,1:2:0:0:
1,187,105540,5,0,0:0:0:0:
60,139,105690,2,0,P|65:106|71:63,1,71.9999978027344,8|0,0:2|0:0,0:0:0:0:
73,326,105990,5,0,0:0:0:0:
132,278,106140,2,0,P|137:245|143:202,1,71.9999978027344,8|0,0:2|0:0,0:0:0:0:
195,22,106440,5,0,0:0:0:0:
229,222,106590,2,0,P|239:150|249:79,1,143.999995605469,8|0,0:2|0:0,0:0:0:0:
371,131,107040,5,0,1:3:0:0:
373,113,107115,1,0,1:3:0:0:
376,95,107190,1,0,1:3:0:0:
378,77,107265,1,0,1:3:0:0:
381,59,107340,1,8,0:2:0:0:
424,186,107490,1,8,0:2:0:0:
512,117,107640,5,0,1:0:0:0:
1,197,107940,5,0,0:0:0:0:
60,245,108090,2,0,P|65:278|71:321,1,71.9999978027344,8|0,0:2|0:0,0:0:0:0:
73,58,108390,5,0,0:0:0:0:
132,106,108540,2,0,P|137:139|143:182,1,71.9999978027344,8|0,0:2|0:0,0:0:0:0:
195,362,108840,5,0,0:0:0:0:
229,162,108990,2,0,P|239:233|249:304,1,143.999995605469,8|0,0:2|0:0,0:0:0:0:
331,96,109440,5,8,1:2:0:0:
370,286,109590,1,4,1:3:0:0:
404,127,109740,1,8,0:2:0:0:
431,240,109890,1,4,1:3:0:0:
503,222,110040,5,0,1:0:0:0:
4,144,110340,5,0,0:0:0:0:
47,86,110490,2,0,P|78:81|132:74,1,71.9999978027344,8|0,0:2|0:0,0:0:0:0:
113,266,110790,5,0,0:0:0:0:
156,208,110940,2,0,P|187:203|241:196,1,71.9999978027344,8|0,0:2|0:0,0:0:0:0:
250,80,111240,5,0,0:0:0:0:
292,243,111390,2,0,P|363:231|434:222,1,143.999995605469,8|0,0:2|0:0,0:0:0:0:
422,352,111840,5,0,1:3:0:0:
439,349,111915,1,0,1:3:0:0:
457,346,111990,1,0,1:3:0:0:
475,343,112065,1,0,1:3:0:0:
493,341,112140,1,8,0:2:0:0:
496,173,112290,1,8,0:2:0:0:
512,338,112440,5,0,1:0:0:0:
1,146,112740,5,0,0:0:0:0:
33,81,112890,2,0,P|74:69|120:153,1,143.999995605469,8|0,0:2|0:0,0:0:0:0:
112,365,113340,2,0,P|125:287|133:252,1,107.999996704102,8|0,0:2|2:0,0:0:0:0:
147,240,113640,6,0,P|204:243|213:374,1,215.999993408203,0|0,1:0|0:0,2:0:0:0:
274,194,114240,2,0,P|287:116|295:81,1,107.999996704102,8|0,1:2|2:0,0:0:0:0:
309,69,114540,5,8,0:2:0:0:
380,61,114690,1,4,1:3:0:0:
451,53,114840,1,4,1:2:0:0:
1,212,115140,5,0,0:0:0:0:
49,158,115290,2,0,P|78:158|112:216,1,71.9999978027344,8|4,0:2|0:0,0:0:0:0:
77,323,115590,5,0,0:0:0:0:
125,377,115740,2,0,P|154:377|188:319,1,71.9999978027344,8|4,0:2|0:0,0:0:0:0:
167,137,116040,5,0,0:0:0:0:
215,83,116190,2,0,P|244:83|278:141,1,71.9999978027344,8|4,0:2|0:0,0:0:0:0:
243,248,116490,5,0,0:0:0:0:
291,302,116640,2,0,P|320:302|354:244,1,71.9999978027344,8|4,1:2|1:3,0:0:0:0:
401,42,116940,5,8,0:2:0:0:
415,112,117090,1,4,1:3:0:0:
429,182,117240,1,4,1:3:0:0:
1,172,117540,5,0,0:0:0:0:
49,226,117690,2,0,P|78:226|112:168,1,71.9999978027344,8|4,0:2|0:0,0:0:0:0:
77,61,117990,5,0,0:0:0:0:
125,7,118140,2,0,P|154:7|188:65,1,71.9999978027344,8|4,0:2|0:0,0:0:0:0:
167,247,118440,5,0,0:0:0:0:
215,301,118590,2,0,P|244:301|278:243,1,71.9999978027344,8|4,0:2|0:0,0:0:0:0:
243,136,118890,5,0,0:0:0:0:
291,82,119040,2,0,P|320:82|354:140,1,71.9999978027344,8|4,1:2|1:3,0:0:0:0:
401,342,119340,5,8,0:2:0:0:
437,219,119490,1,4,1:3:0:0:
473,96,119640,1,4,1:2:0:0:
5,191,119940,5,0,0:0:0:0:
46,37,120090,2,0,P|80:39|121:87,1,96,8|4,0:2|0:0,0:0:0:0:
121,356,120390,5,0,0:0:0:0:
162,152,120540,2,0,P|189:114|236:106,1,96,8|4,0:2|0:0,0:0:0:0:
274,169,120840,5,0,0:0:0:0:
296,61,120990,2,0,P|330:63|371:111,1,96,8|4,0:2|0:0,0:0:0:0:
380,307,121290,5,0,0:0:0:0:
406,187,121440,2,0,P|433:149|480:141,1,96,8|4,1:2|1:3,0:0:0:0:
512,271,121740,5,8,0:2:0:0:
512,271,121890,1,8,1:2:0:0:
52,3,122040,5,0,1:0:0:0:
56,168,122190,1,0,1:0:0:0:
97,63,122340,5,0,1:0:0:0:
116,212,122490,1,0,1:0:0:0:
157,107,122640,5,0,1:0:0:0:
188,226,122790,1,0,1:0:0:0:
229,121,122940,5,0,1:0:0:0:
256,192,123090,1,0,1:0:0:0:
283,263,123240,5,4,1:3:0:0:
324,118,123390,1,4,1:3:0:0:
355,277,123540,5,4,1:3:0:0:
396,104,123690,1,4,1:3:0:0:
415,321,123840,5,4,1:3:0:0:
456,60,123990,1,4,1:3:0:0:
460,381,124140,5,4,1:3:0:0:
501,0,124290,1,4,1:3:0:0:
512,329,124440,5,4,1:3:0:0:
256,192,124515,12,0,126840,2:0:0:0:
256,192,126915,12,0,129240,2:0:0:0:
256,192,129315,12,0,130440,2:0:0:0:
256,192,130515,12,0,131340,2:0:0:0:
80,356,131640,6,0,P|90:303|102:197,1,143.999995605469
139,25,132240,6,0,P|149:78|161:184,1,143.999995605469
209,266,132840,6,0,P|226:212|234:185,1,71.9999978027344
255,81,133140,2,0,P|276:111|298:147,1,71.9999978027344
324,224,133440,6,0,P|367:200|393:186,1,71.9999978027344
429,123,133740,2,0,P|467:129|506:136,1,71.9999978027344
0,199,134040,6,0,P|38:192|71:95,1,143.999995605469,4|0,0:2|0:0,0:0:0:0:
148,0,134490,2,0,P|151:56|157:152,1,143.999995605469,8|0,0:2|0:0,0:0:0:0:
166,380,134940,6,0,P|204:373|237:276,1,143.999995605469,8|0,0:2|0:0,0:0:0:0:
314,181,135390,2,0,P|317:237|323:333,1,143.999995605469,8|0,0:2|0:0,0:0:0:0:
388,148,135840,6,0,P|388:96|397:40,1,107.999996704102,8|0,1:2|2:0,0:0:0:0:
409,23,136140,5,8,0:2:0:0:
486,185,136290,1,4,1:3:0:0:
452,252,136440,1,4,1:3:0:0:
6,205,136740,5,0,0:0:0:0:
68,246,136890,2,0,P|115:236|217:200,1,143.999995605469,8|0,0:2|0:0,0:0:0:0:
143,34,137340,2,0,P|190:44|292:80,1,143.999995605469,8|0,0:2|0:0,0:0:0:0:
229,283,137790,2,0,P|276:293|378:329,1,143.999995605469,8|0,0:2|0:0,0:0:0:0:
338,228,138240,2,0,P|346:193|369:166,1,71.9999978027344,8|4,1:2|1:3,0:0:0:0:
464,255,138540,1,8,0:2:0:0:
497,187,138690,1,4,1:3:0:0:
512,310,138840,5,4,1:2:0:0:
5,222,139140,5,0,0:0:0:0:
47,163,139290,2,0,P|104:149|144:135,1,71.9999978027344,8|4,0:2|0:0,0:0:0:0:
210,283,139590,5,0,0:0:0:0:
252,342,139740,2,0,P|309:356|349:370,1,71.9999978027344,8|4,0:2|0:0,0:0:0:0:
383,89,140040,5,0,0:0:0:0:
425,30,140190,2,0,P|482:16|522:2,1,71.9999978027344,8|4,0:2|0:0,0:0:0:0:
143,215,140490,5,0,0:0:0:0:
208,184,140640,2,0,P|320:199|366:205,1,144,8|0,1:2|2:0,0:0:0:0:
373,185,140940,1,8,1:2:0:0:
501,226,141090,1,8,1:2:0:0:
71,326,141240,5,4,1:3:0:0:
244,293,141390,1,8,1:2:0:0:
284,363,141540,5,4,1:3:0:0:
457,330,141690,1,8,1:2:0:0:
10,94,141840,5,4,1:3:0:0:
183,127,141990,1,8,1:2:0:0:
339,46,142140,5,4,1:3:0:0:
512,79,142290,1,8,1:2:0:0:
1,343,142440,6,0,P|36:334|71:326,1,71.9999978027344,8|0,1:1|2:0,0:0:0:0:
55,384,143340,6,0,P|58:363|74:322,1,60,0|0,0:0|2:0,0:0:0:0:
81,310,143490,6,0,P|78:289|62:248,1,60,0|0,0:0|2:0,0:0:0:0:
0,217,143640,6,0,P|-7:132|103:96,1,215.999993408203,4|0,1:2|2:0,0:0:0:0:
140,163,143940,1,10,1:2:0:0:
155,367,144090,1,2,1:3:0:0:
174,356,144165,1,0,0:0:0:0:
194,342,144240,2,0,P|194:294|197:246,1,96,4|4,1:3|1:3,0:0:0:0:
292,0,144540,2,0,P|283:76|271:224,1,215.999993408203,10|0,1:2|2:0,0:0:0:0:
337,260,144840,6,0,P|371:223|364:166,1,96,4|0,1:3|1:3,0:0:0:0:
365,37,145140,1,12,1:2:0:0:
425,112,145290,1,2,1:3:0:0:
439,127,145365,1,0,0:0:0:0:
456,145,145440,6,0,P|453:184|445:250,1,96,4|4,1:3|1:3,0:0:0:0:
512,92,145740,1,10,1:2:0:0:
491,306,145890,1,0,1:3:0:0:
0,379,146040,6,0,P|5:342|13:275,1,96,4|0,1:2|1:3,0:0:0:0:
14,24,146340,2,0,P|82:53|86:152,1,180,10|0,1:2|2:0,0:0:0:0:
52,218,146640,5,4,1:3:0:0:
116,369,146790,1,4,1:3:0:0:
130,357,146865,1,0,0:0:0:0:
144,345,146940,2,0,P|148:282|149:222,1,96,10|0,1:2|1:3,0:0:0:0:
209,56,147240,6,0,P|250:44|323:145,1,180,4|0,1:3|2:0,0:0:0:0:
280,220,147540,2,0,P|325:214|383:207,1,96,12|2,1:2|1:3,0:0:0:0:
433,150,147840,1,4,1:3:0:0:
463,384,147990,1,4,1:3:0:0:
463,384,148065,1,0,0:0:0:0:
463,384,148140,1,10,1:2:0:0:
512,172,148290,1,0,1:3:0:0:
0,175,148440,6,0,P|104:184|214:201,1,215.999993408203,4|0,1:2|2:0,0:0:0:0:
169,115,148740,2,0,P|195:84|185:16,1,96,10|2,1:2|1:3,0:0:0:0:
214,201,149040,1,4,1:3:0:0:
205,363,149190,1,4,1:3:0:0:
205,363,149265,1,0,0:0:0:0:
205,363,149340,2,0,P|177:326|181:280,1,96,10|0,1:2|1:3,0:0:0:0:
277,2,149640,6,0,P|287:92|295:182,1,180,4|0,1:3|2:0,0:0:0:0:
346,320,149940,2,0,P|367:282|359:227,1,96,12|2,1:2|1:3,0:0:0:0:
429,50,150240,1,4,1:3:0:0:
433,204,150390,1,4,1:3:0:0:
463,196,150465,1,0,0:0:0:0:
491,189,150540,1,10,1:2:0:0:
495,345,150690,1,0,1:3:0:0:
0,136,150840,6,0,P|34:139|104:151,1,96,12|4,1:2|1:3,0:0:0:0:
110,341,151140,5,12,1:2:0:0:
143,93,151290,1,4,1:3:0:0:
182,312,151440,5,12,1:2:0:0:
215,64,151590,1,4,1:3:0:0:
248,354,151740,5,12,1:2:0:0:
287,35,151890,1,4,1:3:0:0:
312,227,152040,6,0,P|314:275|317:323,1,96,12|4,1:2|1:3,0:0:0:0:
361,166,152340,5,12,1:2:0:0:
382,364,152490,1,4,1:3:0:0:
429,141,152640,5,12,1:2:0:0:
454,384,152790,1,4,1:3:0:0:
497,118,152940,6,0,P|504:69|516:10,1,96,12|4,1:2|1:3,0:0:0:0:
27,70,153240,6,0,P|30:108|37:153,1,71.9999978027344,4|0,1:2|0:0,0:0:0:0:
83,195,153540,1,8,0:2:0:0:
104,364,153840,5,4,0:3:0:0:
151,158,154140,5,8,0:2:0:0:
286,232,154290,1,4,0:3:0:0:
310,303,154590,5,4,0:3:0:0:
341,82,154740,1,8,0:2:0:0:
408,122,155040,5,4,0:3:0:0:
408,122,155115,1,0,0:0:0:0:
408,122,155190,1,4,0:3:0:0:
477,162,155340,1,8,0:2:0:0:
499,23,155490,1,0,0:0:0:0:
512,236,155640,5,0,1:2:0:0:
0,109,155940,5,8,0:2:0:0:
69,125,156240,5,4,0:3:0:0:
85,53,156540,5,8,0:2:0:0:
140,272,156690,1,4,0:3:0:0:
161,204,156990,5,4,0:3:0:0:
296,174,157140,1,8,0:2:0:0:
357,219,157440,5,4,0:3:0:0:
381,214,157515,1,0,0:0:0:0:
408,207,157590,1,4,0:3:0:0:
447,146,157740,1,8,0:2:0:0:
510,179,157890,1,0,0:0:0:0:
475,242,158040,5,0,1:2:0:0:
3,86,158340,5,8,0:2:0:0:
19,155,158490,1,0,0:0:0:0:
65,50,158640,1,4,0:3:0:0:
85,120,158940,5,8,0:2:0:0:
249,88,159090,1,4,0:3:0:0:
302,141,159390,5,4,0:3:0:0:
371,120,159540,1,8,0:2:0:0:
424,173,159840,5,4,0:3:0:0:
428,193,159915,1,0,0:0:0:0:
434,213,159990,1,4,0:3:0:0:
412,281,160140,1,8,0:2:0:0:
507,229,160290,1,0,0:0:0:0:
483,304,160440,5,0,1:2:0:0:
0,241,160740,5,8,0:2:0:0:
68,219,160890,1,0,0:0:0:0:
54,289,161040,2,0,P|56:331|56:380,1,71.9999978027344,4|0,0:3|0:0,0:0:0:0:
122,267,161340,1,8,0:2:0:0:
253,381,161640,6,0,P|260:314|273:224,1,143.999995605469,0|8,0:0|0:2,0:0:0:0:
248,169,162090,1,0,0:0:0:0:
340,24,162240,5,4,1:3:0:0:
410,38,162390,1,4,1:3:0:0:
349,296,162540,1,4,1:3:0:0:
419,310,162690,1,4,1:3:0:0:
480,52,162840,5,4,1:2:0:0:
5,156,163140,6,0,P|36:150|87:137,1,71.9999978027344,8|0,0:2|0:0,0:0:0:0:
128,91,163440,1,4,0:3:0:0:
196,114,163740,5,8,0:2:0:0:
231,332,163890,1,4,0:3:0:0:
264,135,164190,5,4,0:3:0:0:
282,65,164340,1,8,0:2:0:0:
336,114,164640,5,4,0:3:0:0:
355,120,164715,1,0,0:0:0:0:
374,126,164790,1,4,0:3:0:0:
393,132,164865,1,0,0:0:0:0:
412,138,164940,1,8,0:2:0:0:
478,111,165090,1,0,0:0:0:0:
512,292,165240,5,0,1:2:0:0:
0,369,165540,5,8,0:2:0:0:
69,346,165840,5,4,0:3:0:0:
138,323,166140,5,8,0:2:0:0:
193,63,166290,1,4,0:3:0:0:
238,121,166590,5,4,0:3:0:0:
364,85,166740,1,8,0:2:0:0:
420,138,167040,5,4,0:3:0:0:
426,157,167115,1,0,0:0:0:0:
432,176,167190,1,4,0:3:0:0:
438,195,167265,1,0,0:0:0:0:
444,214,167340,1,8,0:2:0:0:
502,154,167490,1,0,0:0:0:0:
469,284,167640,5,0,1:2:0:0:
0,249,167940,5,8,0:2:0:0:
69,229,168090,1,0,0:0:0:0:
49,160,168240,1,4,0:3:0:0:
176,157,168540,5,8,0:2:0:0:
225,68,168690,1,4,0:3:0:0:
245,137,168990,5,4,0:3:0:0:
426,189,169140,1,8,0:2:0:0:
357,209,169440,5,4,0:3:0:0:
406,120,169590,1,4,0:3:0:0:
446,258,169740,1,8,0:2:0:0:
446,258,169890,1,0,0:0:0:0:
495,169,170040,5,0,1:2:0:0:
0,241,170340,5,8,0:2:0:0:
68,219,170490,1,0,0:0:0:0:
56,360,170640,2,0,P|55:324|54:289,1,71.9999978027344,4|0,0:3|0:0,0:0:0:0:
122,267,170940,1,8,0:2:0:0:
137,194,171090,1,4,0:3:0:0:
253,3,171240,6,0,P|260:70|273:160,1,143.999995605469,0|8,0:0|0:2,0:0:0:0:
248,215,171690,1,0,0:0:0:0:
340,360,171840,5,4,1:3:0:0:
349,88,171990,1,4,1:3:0:0:
410,346,172140,1,4,1:3:0:0:
419,74,172290,1,4,1:3:0:0:
480,332,172440,5,4,1:1:0:0:
7,83,172740,5,8,0:2:0:0:
61,129,172890,1,0,0:0:0:0:
127,102,173040,1,4,0:3:0:0:
200,183,173340,5,8,0:2:0:0:
254,137,173490,1,4,0:3:0:0:
320,164,173790,5,4,0:3:0:0:
391,93,173940,1,8,0:2:0:0:
445,139,174240,5,4,0:3:0:0:
448,156,174315,1,0,0:0:0:0:
451,173,174390,1,4,0:3:0:0:
454,190,174465,1,0,0:0:0:0:
457,207,174540,1,8,0:2:0:0:
511,112,174840,5,0,1:2:0:0:
1,309,175140,5,8,0:2:0:0:
63,345,175290,1,0,0:0:0:0:
132,327,175440,1,4,0:3:0:0:
168,265,175740,5,8,0:2:0:0:
179,57,175890,1,4,0:3:0:0:
241,21,176190,5,4,0:3:0:0:
310,39,176340,1,8,0:2:0:0:
346,101,176640,5,4,0:3:0:0:
363,98,176715,1,0,0:0:0:0:
380,95,176790,1,4,0:3:0:0:
397,92,176865,1,0,0:0:0:0:
414,89,176940,1,8,0:2:0:0:
482,118,177240,5,0,1:2:0:0:
15,148,177540,5,8,0:2:0:0:
85,162,177690,1,0,0:0:0:0:
155,176,177840,2,0,P|159:227|162:284,1,96,4|0,0:3|0:0,0:0:0:0:
254,362,178140,1,8,0:2:0:0:
324,348,178290,2,0,P|330:250|342:146,1,192,4|4,0:3|0:3,0:0:0:0:
358,13,178740,5,8,0:2:0:0:
358,13,178890,1,0,0:0:0:0:
400,284,179040,1,4,0:3:0:0:
400,284,179190,1,4,0:3:0:0:
463,336,179340,1,8,1:2:0:0:
505,65,179490,1,4,1:3:0:0:
15,148,179640,5,0,1:0:0:0:
85,162,179790,5,0,1:0:0:0:
155,176,179940,5,0,1:0:0:0:
225,190,180090,5,0,1:0:0:0:
295,204,180240,5,0,1:0:0:0:
365,218,180390,5,0,1:0:0:0:
435,232,180540,5,0,1:0:0:0:
505,246,180690,5,0,1:0:0:0:
3,383,180840,6,0,P|16:310|30:237,1,144,8|0,1:0|2:0,2:0:0:0:
3,383,182040,6,0,P|16:310|30:237,1,144,4|0,1:2|2:0,0:0:0:0:
94,197,182340,2,0,P|90:141|35:100,1,120,10|2,1:2|1:3,0:0:0:0:
200,6,182640,6,0,P|196:37|188:103,1,96,4|4,1:3|1:3,0:0:0:0:
212,286,182940,1,10,1:2:0:0:
255,141,183090,1,0,1:3:0:0:
236,214,183240,6,0,P|283:219|331:225,1,96,4|0,1:3|1:3,0:0:0:0:
372,291,183465,1,0,0:0:0:0:
372,291,183540,2,0,P|419:284|467:279,1,96,12|2,1:2|1:3,0:0:0:0:
429,362,183840,5,4,1:3:0:0:
485,40,183990,1,4,1:3:0:0:
498,210,184140,2,0,P|456:168|458:110,1,120,12|0,1:2|1:3,0:0:0:0:
0,50,184440,5,12,1:2:0:0:
78,77,184590,1,4,1:3:0:0:
28,299,184740,5,12,1:2:0:0:
106,326,184890,1,4,1:3:0:0:
156,104,185040,5,12,1:2:0:0:
234,131,185190,1,4,1:3:0:0:
184,353,185340,5,12,1:2:0:0:
262,380,185490,1,4,1:3:0:0:
303,316,185640,5,12,1:2:0:0:
381,289,185790,1,4,1:3:0:0:
331,67,185940,5,12,1:2:0:0:
409,40,186090,1,4,1:3:0:0:
459,262,186240,5,12,1:2:0:0:
487,13,186390,1,4,1:3:0:0:
507,330,186540,5,12,1:2:0:0:
507,330,186690,1,4,1:3:0:0:
3,383,186840,6,0,P|16:310|30:237,1,144,4|0,1:2|2:0,0:0:0:0:
43,101,187140,2,0,P|88:138|94:197,1,120,10|2,1:2|1:3,0:0:0:0:
142,322,187440,6,0,P|173:318|239:310,1,96,4|4,1:3|1:3,0:0:0:0:
270,245,187740,1,10,1:2:0:0:
244,38,187890,1,0,1:3:0:0:
216,108,188040,6,0,P|263:113|311:119,1,96,4|0,1:3|1:3,0:0:0:0:
359,180,188265,1,0,0:0:0:0:
359,180,188340,2,0,P|406:173|454:168,1,96,12|2,1:2|1:3,0:0:0:0:
443,245,188640,5,4,1:3:0:0:
474,30,188790,1,4,1:3:0:0:
512,216,188940,2,0,P|513:274|471:315,1,120,12|0,1:2|1:3,0:0:0:0:
0,50,189240,5,12,1:2:0:0:
28,299,189390,1,4,1:3:0:0:
78,77,189540,5,12,1:2:0:0:
156,104,189690,1,4,1:3:0:0:
106,326,189840,5,12,1:2:0:0:
184,353,189990,1,4,1:3:0:0:
234,131,190140,5,12,1:2:0:0:
262,380,190290,1,4,1:3:0:0:
303,316,190440,5,12,1:2:0:0:
331,67,190590,1,4,1:3:0:0:
381,289,190740,5,12,1:2:0:0:
459,262,190890,1,4,1:3:0:0:
409,40,191040,5,12,1:2:0:0:
487,13,191190,1,4,1:3:0:0:
507,330,191340,5,12,1:2:0:0:
507,330,191490,1,4,1:3:0:0:
0,264,191640,6,0,P|41:253|144:235,1,144,4|0,1:2|2:0,0:0:0:0:
198,182,191940,2,0,P|215:129|182:67,1,120,10|2,1:2|1:3,0:0:0:0:
176,303,192240,5,4,1:3:0:0:
317,343,192390,1,4,1:3:0:0:
234,375,192540,2,0,P|246:324|261:276,1,96,10|0,1:2|1:3,0:0:0:0:
302,13,192840,6,0,P|314:64|329:112,1,96,4|0,1:3|1:3,0:0:0:0:
313,181,193065,1,0,0:0:0:0:
313,181,193140,2,0,P|364:193|412:208,1,96,12|2,1:2|1:3,0:0:0:0:
478,373,193440,5,4,1:3:0:0:
476,101,193590,1,4,1:3:0:0:
462,264,193740,2,0,P|498:246|507:167,1,120,12|0,1:2|1:3,0:0:0:0:
0,50,194040,5,12,1:2:0:0:
78,77,194190,1,4,1:3:0:0:
28,299,194340,5,12,1:2:0:0:
106,326,194490,1,4,1:3:0:0:
156,104,194640,5,12,1:2:0:0:
184,353,194790,1,4,1:3:0:0:
234,131,194940,5,12,1:2:0:0:
262,380,195090,1,4,1:3:0:0:
303,316,195240,5,12,1:2:0:0:
381,289,195390,1,4,1:3:0:0:
331,67,195540,5,12,1:2:0:0:
409,40,195690,1,4,1:3:0:0:
459,262,195840,5,12,1:2:0:0:
487,13,195990,1,4,1:3:0:0:
507,330,196140,5,12,1:2:0:0:
507,330,196290,1,4,1:3:0:0:
0,264,196440,6,0,P|41:253|144:235,1,144,4|0,1:2|2:0,0:0:0:0:
204,276,196740,2,0,P|221:329|188:391,1,120,10|2,1:2|1:3,0:0:0:0:
155,164,197040,5,4,1:3:0:0:
299,128,197190,1,4,1:3:0:0:
216,96,197340,2,0,P|228:147|243:195,1,96,10|0,1:2|1:3,0:0:0:0:
306,382,197640,6,0,P|318:331|333:283,1,96,4|0,1:3|1:3,0:0:0:0:
317,214,197865,1,0,0:0:0:0:
317,214,197940,2,0,P|368:202|416:187,1,96,12|2,1:2|1:3,0:0:0:0:
475,86,198240,5,4,1:3:0:0:
448,340,198390,1,4,1:3:0:0:
512,148,198540,2,0,P|511:206|464:240,1,120,12|0,1:2|1:3,0:0:0:0:
0,50,198840,5,12,1:2:0:0:
28,299,198990,1,4,1:3:0:0:
78,77,199140,5,12,1:2:0:0:
106,326,199290,1,4,1:3:0:0:
156,104,199440,5,12,1:2:0:0:
184,353,199590,1,4,1:3:0:0:
234,131,199740,5,12,1:2:0:0:
262,380,199890,1,4,1:3:0:0:
303,316,200040,5,12,1:2:0:0:
331,67,200190,1,4,1:3:0:0:
381,289,200340,5,12,1:2:0:0:
409,40,200490,1,4,1:3:0:0:
459,262,200640,5,12,1:2:0:0:
487,13,200790,1,4,1:3:0:0:
507,330,200940,5,12,1:2:0:0:
507,330,201090,1,4,1:3:0:0:
0,50,201240,5,12,1:2:0:0:
106,326,201390,1,4,1:3:0:0:
156,104,201540,5,12,1:2:0:0:
262,380,201690,1,4,1:3:0:0:
303,316,201840,5,12,1:2:0:0:
331,67,201990,1,4,1:3:0:0:
459,262,202140,5,12,1:2:0:0:
487,13,202290,1,4,1:3:0:0:
0,50,202440,5,4,1:2:0:0:
507,330,202740,1,0,0:0:0:0:
220,262,203040,6,0,P|261:250|303:239,1,71.9999978027344,0|0,0:0|2:0,0:0:0:0:
339,191,203190,6,0,P|373:200|408:210,1,71.9999978027344,0|0,0:0|2:0,0:0:0:0:
459,262,203340,5,0,0:0:0:0:
0,287,203490,6,0,P|-18:199|155:167,1,287.999991210938,4|4,1:2|1:3,0:0:0:0:
41,354,203940,2,0,P|97:358|137:369,1,96,10|0,1:2|0:0,0:0:0:0:
77,49,204240,2,0,P|133:45|173:34,1,96,4|0,1:3|0:0,0:0:0:0:
190,315,204540,1,10,1:2:0:0:
170,129,204690,6,0,P|152:217|325:249,1,287.999991210938,4|4,1:2|1:3,0:0:0:0:
211,62,205140,2,0,P|267:58|307:47,1,96,10|0,1:2|0:0,0:0:0:0:
247,367,205440,2,0,P|303:371|343:382,1,96,4|0,1:3|0:0,0:0:0:0:
363,98,205740,1,10,1:2:0:0:
340,282,205890,6,0,P|322:194|495:162,1,287.999991210938,4|4,1:2|1:3,0:0:0:0:
381,349,206340,2,0,P|437:353|477:364,1,96,10|0,1:2|0:0,0:0:0:0:
417,44,206640,2,0,P|473:40|513:29,1,96,4|0,1:3|0:0,0:0:0:0:
512,294,206940,1,10,1:2:0:0:
0,201,207090,6,0,P|40:208|199:241,1,192,4|4,1:2|1:3,0:0:0:0:
169,107,207540,2,0,P|179:57|189:8,1,96,4|0,1:2|0:0,0:0:0:0:
343,276,207840,2,0,P|333:323|324:371,1,96,4|0,1:2|0:0,0:0:0:0:
403,216,208140,1,4,1:2:0:0:
138,149,208290,6,0,P|7:155|0:287,1,287.999991210938,4|4,1:2|1:3,0:0:0:0:
135,368,208740,2,0,P|88:356|41:354,1,96,10|0,1:2|0:0,0:0:0:0:
171,34,209040,2,0,P|124:46|77:49,1,96,4|0,1:3|0:0,0:0:0:0:
190,315,209340,1,10,1:2:0:0:
308,266,209490,6,0,P|177:260|170:129,1,287.999991210938,4|4,1:2|1:3,0:0:0:0:
305,47,209940,2,0,P|258:59|211:62,1,96,10|0,1:2|0:0,0:0:0:0:
341,381,210240,2,0,P|294:369|247:367,1,96,4|0,1:3|0:0,0:0:0:0:
363,98,210540,1,10,1:2:0:0:
478,144,210690,6,0,P|347:150|340:282,1,287.999991210938,4|4,1:2|1:3,0:0:0:0:
475,363,211140,2,0,P|428:351|381:349,1,96,10|0,1:2|0:0,0:0:0:0:
511,29,211440,2,0,P|464:41|417:44,1,96,4|0,1:3|0:0,0:0:0:0:
512,294,211740,1,10,1:2:0:0:
472,217,211890,1,0,1:2:0:0:
0,254,212040,6,0,P|5:302|10:360,1,96,4|4,1:2|1:3,0:0:0:0:
101,297,212340,2,0,P|145:307|201:261,1,96,4|0,1:2|0:0,0:0:0:0:
204,62,212640,2,0,P|275:73|390:98,1,180,4|0,1:2|2:0,0:0:0:0:
437,147,212940,1,4,1:2:0:0:
512,0,213090,5,4,1:2:0:0:
0,158,213390,5,0,0:0:0:0:
63,191,213540,1,0,0:0:0:0:
103,167,213690,1,0,0:0:0:0:
135,69,213840,5,0,1:0:0:0:
162,271,213990,1,4,0:0:0:0:
207,209,214140,1,0,0:0:0:0:
249,384,214290,5,4,0:1:0:0:
272,368,214440,1,0,0:0:0:0:
342,382,214590,1,0,0:0:0:0:
384,282,214740,1,0,0:0:0:0:
397,286,214890,1,0,0:0:0:0:
455,336,215040,5,0,1:0:0:0:
512,0,215190,1,8,1:2:0:0:
512,384,215490,5,4,1:1:0:0:
0,229,215790,5,0,0:0:0:0:
20,240,215940,1,0,0:0:0:0:
78,190,216090,1,0,0:0:0:0:
107,384,216240,5,0,1:0:0:0:
148,213,216390,1,4,0:0:0:0:
220,237,216540,1,4,0:0:0:0:
247,24,216690,6,0,P|257:93|272:176,1,144,4|0,1:2|2:2,0:0:0:0:
285,178,216990,1,4,1:3:0:0:
300,334,217140,2,0,P|347:338|395:346,1,96,4|0,1:2|0:0,0:0:0:0:
393,176,217440,2,0,P|421:143|496:158,1,96,4|0,1:2|0:0,0:0:0:0:
512,204,217740,1,4,1:2:0:0:
0,180,217890,1,4,1:2:0:0:
0,180,221490,6,0,B|40:161|23:211|63:205|69:188|84:152|116:186|100:232,1,143.999995605469,4|0,1:2|2:0,0:0:0:0:
89,238,221790,1,4,1:3:0:0:
135,365,221940,2,0,B|138:333|161:309|161:268,1,96,4|0,1:2|0:0,0:0:0:0:
199,35,222240,1,4,1:2:0:0:
223,356,222390,2,0,B|271:336|294:350|336:328,1,96,0|4,0:0|1:2,0:0:0:0:
392,343,222690,1,4,1:2:0:0:
7,315,222990,6,0,P|35:317|79:291,1,71.9999978027344,0|2,0:0|0:3,0:0:0:0:
116,239,223290,1,0,0:0:0:0:
97,37,223440,2,0,P|161:39|189:122,1,143.999995605469,8|0,1:2|0:0,0:0:0:0:
171,180,223890,2,0,P|215:175|321:161,1,143.999995605469,4|0,0:3|0:0,0:0:0:0:
349,290,224340,2,0,P|365:254|363:209,1,71.9999978027344,2|0,0:3|0:0,0:0:0:0:
380,61,224640,2,0,P|370:95|449:159,1,143.999995605469,8|0,1:2|0:0,0:0:0:0:
505,0,225090,6,0,P|497:61|490:127,1,107.999996704102,4|0,0:3|2:0,0:0:0:0:
504,119,225390,1,0,0:0:0:0:
482,224,225540,2,0,P|485:261|487:305,1,71.9999978027344,2|0,0:3|0:0,0:0:0:0:
511,363,225840,1,8,1:2:0:0:
13,200,226290,6,0,B|40:233|65:170|100:196|105:285|160:200,1,144,4|0,1:2|2:0,0:0:0:0:
157,214,226590,1,4,1:3:0:0:
200,106,226740,2,0,B|200:168|232:137|233:207,1,96,4|0,1:2|0:0,0:0:0:0:
249,373,227040,1,4,1:2:0:0:
297,236,227190,2,0,B|375:227|366:223|399:249,1,96,0|4,0:0|1:2,0:0:0:0:
443,290,227490,6,0,B|453:324|471:369|486:365|500:201,1,192,4|0,1:2|0:0,0:0:0:0:
6,105,228090,5,0,0:0:0:0:
24,246,228240,1,8,1:2:0:0:
82,69,228390,2,0,P|81:106|77:154,1,71.9999978027344
131,203,228690,2,0,P|155:168|228:169,1,107.999996704102,4|0,0:3|2:0,0:0:0:0:
231,172,228990,1,0,0:0:0:0:
252,82,229140,2,0,P|295:98|375:116,1,107.999996704102,2|0,0:3|2:0,0:0:0:0:
370,104,229440,2,0,P|384:144|392:186,1,71.9999978027344,8|0,1:2|0:0,0:0:0:0:
363,27,229740,1,0,0:0:0:0:
441,52,229890,6,0,P|452:107|470:170,1,107.999996704102,4|0,0:3|2:0,0:0:0:0:
477,167,230190,2,0,P|496:182|500:237,1,71.9999978027344,0|2,0:0|0:3,0:0:0:0:
475,296,230490,1,0,0:0:0:0:
512,363,230640,1,8,1:2:0:0:
3,200,231090,6,0,B|68:214|40:128|171:184|105:239|154:221,1,144,4|0,1:2|2:0,0:0:0:0:
135,233,231390,1,4,1:3:0:0:
160,358,231540,2,0,B|157:304|189:291|240:319,1,96,4|0,1:2|0:0,0:0:0:0:
294,332,231840,1,4,1:2:0:0:
278,156,231990,2,0,B|300:198|292:213|303:248,1,96,0|4,0:0|1:2,0:0:0:0:
368,293,232290,6,0,B|407:308|389:239|464:258|481:296|464:364|503:374,1,192,4|0,1:2|2:0,0:0:0:0:
21,268,232890,5,0,0:0:0:0:
21,268,233040,1,8,1:2:0:0:
45,70,233190,2,0,P|56:122|67:175,1,107.999996704102,0|0,0:0|2:0,0:0:0:0:
59,196,233490,6,0,P|100:193|135:266,1,107.999996704102,4|0,0:3|2:0,0:0:0:0:
136,257,233790,1,0,0:0:0:0:
208,199,233940,2,0,P|218:154|218:116,1,71.9999978027344,2|0,0:3|0:0,0:0:0:0:
253,256,234240,2,0,P|278:287|330:287,1,71.9999978027344,8|0,1:2|0:0,0:0:0:0:
296,84,234540,2,0,P|345:72|416:58,1,107.999996704102,0|0,0:0|2:0,0:0:0:0:
416,43,234840,6,0,P|427:86|438:122,1,71.9999978027344
457,346,235140,2,0,P|468:303|479:267,1,71.9999978027344,2|0,0:3|2:0,0:0:0:0:
506,208,235440,1,8,1:2:0:0:
6,178,235740,1,0,0:0:0:0:
44,111,235890,6,0,B|77:80|69:147|117:156|103:79|180:128,1,144,4|0,1:2|2:0,0:0:0:0:
183,140,236190,1,4,1:3:0:0:
225,18,236340,2,0,B|219:60|244:75|255:111,1,96,4|0,1:2|0:0,0:0:0:0:
276,327,236640,1,4,1:2:0:0:
305,173,236790,2,0,B|321:133|337:125|385:135,1,96,0|4,0:0|1:2,0:0:0:0:
447,180,237090,6,0,B|466:54|494:137|513:0,1,192,4|0,1:2|0:0,0:0:0:0:
0,75,237690,5,0,0:0:0:0:
48,132,237840,2,0,P|57:175|61:211,2,71.9999978027344,8|0|0,1:2|0:0|0:0,0:0:0:0:
111,13,238290,2,0,P|128:64|187:57,1,107.999996704102,4|0,0:3|2:0,0:0:0:0:
192,53,238590,1,0,0:0:0:0:
224,126,238740,1,2,0:3:0:0:
256,197,238890,6,0,P|260:240|267:280,1,71.9999978027344,0|8,0:0|1:2,0:0:0:0:
297,81,239190,2,0,P|301:38|308:-2,1,71.9999978027344
333,155,239490,2,0,P|337:198|402:210,1,107.999996704102,4|0,0:3|2:0,0:0:0:0:
410,204,239790,2,0,P|424:252|419:285,1,71.9999978027344,0|2,0:0|0:3,0:0:0:0:
411,350,240090,5,0,0:0:0:0:
411,350,240240,1,8,1:2:0:0:
500,286,240390,1,0,0:0:0:0:
1,190,240690,6,0,B|42:226|59:176|122:179|85:213|125:239|158:189,1,144,4|0,1:2|2:0,0:0:0:0:
149,198,240990,1,4,1:3:0:0:
217,160,241140,2,0,B|238:141|245:187|268:176|283:143|297:194,1,96,4|0,1:2|0:0,0:0:0:0:
326,259,241440,1,4,1:2:0:0:
351,136,241590,2,0,B|372:155|379:109|402:120|417:153|431:102,1,96,0|4,0:0|1:2,0:0:0:0:
488,51,241890,6,0,B|481:79|519:67|526:129|445:156|516:236,1,192,4|0,1:2|0:0,0:0:0:0:
8,195,243090,6,0,B|101:205|101:205|111:218|111:218|70:214,2,143.999995605469
119,133,243840,1,4,0:2:0:0:
153,279,244290,6,0,B|246:269|246:269|256:256|256:256|215:260,1,143.999995605469
217,29,245490,6,0,B|231:129|231:129|266:157,1,144,4|0,1:2|2:0,0:0:0:0:
278,166,245790,1,4,1:3:0:0:
293,330,245940,6,0,B|302:262|302:262|325:244,1,96,4|0,1:2|0:0,0:0:0:0:
336,106,246240,5,4,1:2:0:0:
410,123,246390,1,0,0:0:0:0:
484,140,246540,1,4,1:2:0:0:
512,338,246690,1,4,1:2:0:0:
8,189,247890,6,0,B|101:179|101:179|111:166|111:166|70:170,2,143.999995605469
119,251,248640,1,4,0:2:0:0:
153,105,249090,6,0,B|246:115|246:115|256:128|256:128|215:124,1,143.999995605469
217,355,250290,6,0,B|231:255|231:255|266:227,1,144,4|0,1:2|2:0,0:0:0:0:
278,218,250590,1,4,1:3:0:0:
293,54,250740,6,0,B|302:121|302:121|325:139,1,96,4|0,1:2|0:0,0:0:0:0:
336,278,251040,5,4,1:2:0:0:
410,261,251190,1,0,0:0:0:0:
484,244,251340,1,4,1:2:0:0:
512,46,251490,1,4,1:2:0:0:
0,262,252690,6,0,B|19:252|52:264|78:299|40:334|40:334|52:318|70:319,2,143.999995605469
56,187,253440,1,4,0:2:0:0:
117,237,253890,6,0,B|136:247|169:235|195:200|157:165|157:165|169:181|187:180,1,143.999995605469
217,29,255090,6,0,B|231:129|231:129|266:157,1,144,4|0,1:2|2:0,0:0:0:0:
278,166,255390,1,4,1:3:0:0:
293,330,255540,6,0,B|302:262|302:262|325:244,1,96,4|0,1:2|0:0,0:0:0:0:
336,106,255840,5,4,1:2:0:0:
410,123,255990,1,0,0:0:0:0:
484,140,256140,1,4,1:2:0:0:
512,338,256290,1,4,1:2:0:0:
0,122,257490,6,0,B|19:132|52:120|78:85|40:50|40:50|52:66|70:65,2,143.999995605469
56,197,258240,1,4,0:2:0:0:
117,147,258690,6,0,B|136:137|169:149|195:184|157:219|157:219|169:203|187:204,1,143.999995605469
217,355,259890,6,0,B|231:255|231:255|266:227,1,144,4|0,1:2|2:0,0:0:0:0:
278,218,260190,1,4,1:3:0:0:
293,54,260340,6,0,B|302:121|302:121|325:139,1,96,4|0,1:2|0:0,0:0:0:0:
336,278,260640,5,4,1:2:0:0:
410,261,260790,1,0,0:0:0:0:
484,244,260940,1,4,1:2:0:0:
477,36,261090,2,0,P|487:127|501:230,1,192,4|0,1:2|1:0,0:0:0:0:
6,317,261690,5,0,1:0:0:0:
68,368,261840,2,0,P|77:321|84:277,2,71.9999978027344,8|0|2,1:2|0:0|0:3,0:0:0:0:
130,243,262290,6,0,P|164:241|200:261,1,71.9999978027344,4|0,1:3|0:0,0:0:0:0:
208,330,262590,2,0,P|255:319|291:314,1,71.9999978027344,0|2,1:0|0:3,0:0:0:0:
342,354,262890,1,0,1:0:0:0:
359,192,263040,1,8,1:2:0:0:
396,258,263190,5,0,0:0:0:0:
414,137,263340,2,0,P|446:140|512:146,1,71.9999978027344,2|4,0:3|1:3,0:0:0:0:
82,198,263640,5,0,0:0:0:0:
82,198,263790,2,0,P|129:187|165:182,1,71.9999978027344,0|2,1:0|0:3,0:0:0:0:
216,222,264090,1,0,1:0:0:0:
245,111,264240,1,8,1:2:0:0:
278,177,264390,2,0,P|310:180|376:186,1,71.9999978027344,0|2,0:0|0:3,0:0:0:0:
67,119,264690,6,0,P|120:106|217:95,1,144,4|0,1:2|2:0,0:0:0:0:
245,111,264990,1,4,1:3:0:0:
306,13,265140,2,0,P|302:53|331:105,1,96,4|0,1:2|0:0,0:0:0:0:
377,319,265440,1,4,1:2:0:0:
392,243,265590,2,0,P|401:202|414:149,1,96,0|4,0:0|1:2,0:0:0:0:
442,384,265890,6,0,P|462:297|487:194,1,192,4|0,1:2|1:0,0:0:0:0:
6,67,266490,5,0,1:0:0:0:
68,16,266640,2,0,P|77:63|84:107,2,71.9999978027344,8|0|2,1:2|0:0|0:3,0:0:0:0:
130,141,267090,6,0,P|164:143|200:123,1,71.9999978027344,4|0,1:3|0:0,0:0:0:0:
208,54,267390,2,0,P|255:65|291:70,1,71.9999978027344,0|2,1:0|0:3,0:0:0:0:
342,30,267690,1,0,1:0:0:0:
359,192,267840,1,8,1:2:0:0:
396,126,267990,5,0,0:0:0:0:
485,240,268140,1,2,0:3:0:0:
485,240,268290,2,0,P|449:243|414:247,1,71.9999978027344,4|0,1:3|0:0,0:0:0:0:
82,186,268590,6,0,P|129:197|165:202,1,71.9999978027344,0|2,1:0|0:3,0:0:0:0:
216,162,268890,1,0,1:0:0:0:
251,365,269040,1,8,1:2:0:0:
284,299,269190,2,0,P|316:296|382:290,1,71.9999978027344,0|2,0:0|0:3,0:0:0:0:
146,116,269490,6,0,P|199:129|296:140,1,144,4|0,1:2|2:0,0:0:0:0:
305,126,269790,1,4,1:3:0:0:
366,224,269940,2,0,P|362:184|391:132,1,96,4|0,1:2|0:0,0:0:0:0:
436,375,270240,1,4,1:2:0:0:
451,299,270390,2,0,P|460:258|473:205,1,96,0|4,0:0|1:2,0:0:0:0:
0,107,270690,6,0,P|102:105|103:21,1,192,4|0,1:2|1:0,0:0:0:0:
110,33,271290,1,0,1:0:0:0:
91,292,271440,1,8,1:2:0:0:
91,292,271890,6,0,P|193:294|194:378,1,192,4|0,1:3|1:0,0:0:0:0:
201,366,272490,1,0,1:0:0:0:
182,107,272640,1,8,1:2:0:0:
182,107,273090,6,0,P|284:105|285:21,1,192,4|0,1:3|1:0,0:0:0:0:
292,33,273690,1,0,1:0:0:0:
273,292,273840,1,8,1:2:0:0:
273,292,274140,1,2,0:3:0:0:
368,114,274290,6,0,P|359:162|344:269,1,144,4|0,1:2|0:0,0:0:0:0:
354,270,274590,1,4,1:3:0:0:
447,42,274740,2,0,P|450:78|457:144,1,96,4|0,1:2|0:0,0:0:0:0:
418,321,275040,2,0,P|457:333|512:357,1,96,4|0,1:2|0:0,0:0:0:0:
191,190,275340,5,4,1:2:0:0:
258,27,275490,6,0,P|263:122|266:218,1,192,4|4,1:2|1:3,0:0:0:0:
315,363,275940,2,0,P|319:319|325:264,1,96,4|0,1:2|0:0,0:0:0:0:
361,76,276240,1,4,1:2:0:0:
380,209,276390,1,0,0:0:0:0:
99,182,276540,5,4,1:2:0:0:
166,344,276690,6,0,P|171:248|174:152,1,192,4|4,1:2|1:3,0:0:0:0:
223,9,277140,2,0,P|227:53|233:108,1,96,4|0,1:2|0:0,0:0:0:0:
269,296,277440,1,4,1:2:0:0:
288,163,277590,1,0,0:0:0:0:
288,163,277740,1,4,1:2:0:0:
0,192,277890,5,0,0:0:0:0:
72,124,278040,6,0,P|77:171|81:219,1,96,4|0,1:2|0:0,0:0:0:0:
131,363,278340,2,0,P|135:319|141:264,1,96,4|0,1:2|0:0,0:0:0:0:
177,76,278640,1,4,1:2:0:0:
196,209,278790,1,0,0:0:0:0:
242,0,278940,6,0,P|247:47|251:95,1,96,4|0,1:2|0:0,0:0:0:0:
281,289,279240,5,4,1:2:0:0:
300,156,279390,1,4,1:3:0:0:
319,23,279540,5,4,1:2:0:0:
361,195,279690,1,4,1:3:0:0:
403,367,279840,5,4,1:2:0:0:
422,234,279990,1,4,1:3:0:0:
441,101,280140,5,4,1:2:0:0:
483,273,280290,6,0,L|500:367,1,96,4|0,1:3|0:0,0:0:0:0:
63,192,284640,5,4,1:3:0:0:
236,159,284790,1,4,1:3:0:0:
276,229,284940,5,4,1:3:0:0:
449,196,285090,1,4,1:3:0:0:
256,192,285240,12,0,287640,2:2:0:0:
449,196,287940,6,0,P|478:202|507:207,1,60,4|0,1:3|2:0,0:0:0:0:
449,196,288390,6,0,P|478:202|507:207,1,60,4|0,1:3|2:0,0:0:0:0:
29,142,288840,6,0,P|35:109|39:93,1,35.9999989013672,0|0,0:0|2:0,0:0:0:0:
29,142,289140,6,0,P|35:109|39:93,1,35.9999989013672,0|0,0:0|2:0,0:0:0:0:
29,142,289440,6,0,P|35:109|39:93,1,35.9999989013672,0|0,0:0|2:0,0:0:0:0:
29,142,289740,6,0,P|35:109|39:93,1,35.9999989013672,0|0,0:0|2:0,0:0:0:0:
3,1,290040,6,0,P|16:74|30:147,1,144,4|0,1:2|2:0,0:0:0:0:
43,282,290340,2,0,P|88:245|94:187,1,120,10|2,1:2|1:3,0:0:0:0:
188,282,290640,6,0,P|193:330|200:378,1,96,4|4,1:3|1:3,0:0:0:0:
255,243,290940,1,10,1:2:0:0:
212,98,291090,1,0,1:3:0:0:
236,170,291240,6,0,P|283:165|331:159,1,96,4|0,1:3|1:3,0:0:0:0:
372,93,291465,1,0,0:0:0:0:
372,93,291540,2,0,P|419:100|467:105,1,96,12|2,1:2|1:3,0:0:0:0:
429,22,291840,5,4,1:3:0:0:
485,344,291990,1,4,1:3:0:0:
498,174,292140,2,0,P|456:216|458:274,1,120,12|0,1:2|1:3,0:0:0:0:
0,334,292440,5,12,1:2:0:0:
78,307,292590,1,4,1:3:0:0:
28,85,292740,5,12,1:2:0:0:
106,58,292890,1,4,1:3:0:0:
156,280,293040,5,12,1:2:0:0:
234,253,293190,1,4,1:3:0:0:
184,31,293340,5,12,1:2:0:0:
262,4,293490,1,4,1:3:0:0:
303,68,293640,5,12,1:2:0:0:
381,95,293790,1,4,1:3:0:0:
331,317,293940,5,12,1:2:0:0:
409,344,294090,1,4,1:3:0:0:
459,122,294240,5,12,1:2:0:0:
487,371,294390,1,4,1:3:0:0:
507,54,294540,5,12,1:2:0:0:
507,54,294690,1,4,1:3:0:0:
3,1,294840,6,0,P|16:74|30:147,1,144,4|0,1:2|2:0,0:0:0:0:
94,187,295140,2,0,P|88:245|43:283,1,120,10|2,1:2|1:3,0:0:0:0:
142,62,295440,6,0,P|173:66|239:74,1,96,4|4,1:3|1:3,0:0:0:0:
244,346,295740,1,10,1:2:0:0:
270,139,295890,1,0,1:3:0:0:
216,276,296040,6,0,P|263:271|311:265,1,96,4|0,1:3|1:3,0:0:0:0:
359,204,296265,1,0,0:0:0:0:
359,204,296340,2,0,P|406:211|454:216,1,96,12|2,1:2|1:3,0:0:0:0:
443,139,296640,5,4,1:3:0:0:
474,354,296790,1,4,1:3:0:0:
470,68,296940,2,0,P|512:109|512:168,1,120,12|0,1:2|1:3,0:0:0:0:
0,334,297240,5,12,1:2:0:0:
28,85,297390,1,4,1:3:0:0:
78,307,297540,5,12,1:2:0:0:
156,280,297690,1,4,1:3:0:0:
106,58,297840,5,12,1:2:0:0:
184,31,297990,1,4,1:3:0:0:
234,253,298140,5,12,1:2:0:0:
262,4,298290,1,4,1:3:0:0:
303,68,298440,5,12,1:2:0:0:
331,317,298590,1,4,1:3:0:0:
381,95,298740,5,12,1:2:0:0:
459,122,298890,1,4,1:3:0:0:
409,344,299040,5,12,1:2:0:0:
487,371,299190,1,4,1:3:0:0:
507,54,299340,5,12,1:2:0:0:
507,54,299490,1,4,1:3:0:0:
0,120,299640,6,0,P|41:131|144:149,1,144,4|0,1:2|2:0,0:0:0:0:
198,202,299940,2,0,P|215:255|182:317,1,120,10|2,1:2|1:3,0:0:0:0:
176,81,300240,5,4,1:3:0:0:
317,41,300390,1,4,1:3:0:0:
258,101,300540,2,0,P|244:55|234:9,1,96,10|0,1:2|1:3,0:0:0:0:
302,371,300840,6,0,P|314:320|329:272,1,96,4|0,1:3|1:3,0:0:0:0:
313,203,301065,1,0,0:0:0:0:
313,203,301140,2,0,P|364:191|412:176,1,96,12|2,1:2|1:3,0:0:0:0:
476,283,301440,5,4,1:3:0:0:
478,11,301590,1,4,1:3:0:0:
510,211,301740,2,0,P|509:153|462:120,1,120,12|0,1:2|1:3,0:0:0:0:
0,334,302040,5,12,1:2:0:0:
78,307,302190,1,4,1:3:0:0:
28,85,302340,5,12,1:2:0:0:
106,58,302490,1,4,1:3:0:0:
156,280,302640,5,12,1:2:0:0:
184,31,302790,1,4,1:3:0:0:
234,253,302940,5,12,1:2:0:0:
262,4,303090,1,4,1:3:0:0:
303,68,303240,5,12,1:2:0:0:
381,95,303390,1,4,1:3:0:0:
331,317,303540,5,12,1:2:0:0:
409,344,303690,1,4,1:3:0:0:
459,122,303840,5,12,1:2:0:0:
487,371,303990,1,4,1:3:0:0:
507,54,304140,5,12,1:2:0:0:
507,54,304290,1,4,1:3:0:0:
0,120,304440,6,0,P|41:131|144:149,1,144,4|0,1:2|2:0,0:0:0:0:
204,108,304740,2,0,P|221:55|188:-7,1,120,10|2,1:2|1:3,0:0:0:0:
155,220,305040,5,4,1:3:0:0:
299,256,305190,1,4,1:3:0:0:
240,195,305340,2,0,P|226:241|216:288,1,96,10|0,1:2|1:3,0:0:0:0:
306,2,305640,6,0,P|316:48|330:94,1,96,4|0,1:3|1:3,0:0:0:0:
317,170,305865,1,0,0:0:0:0:
317,170,305940,2,0,P|368:182|416:197,1,96,12|2,1:2|1:3,0:0:0:0:
448,44,306240,5,4,1:3:0:0:
475,298,306390,1,4,1:3:0:0:
464,144,306540,2,0,P|511:178|512:236,1,120,12|0,1:2|1:3,0:0:0:0:
0,334,306840,5,12,1:2:0:0:
28,85,306990,1,4,1:3:0:0:
78,307,307140,5,12,1:2:0:0:
106,58,307290,1,4,1:3:0:0:
156,280,307440,5,12,1:2:0:0:
184,31,307590,1,4,1:3:0:0:
234,253,307740,5,12,1:2:0:0:
262,4,307890,1,4,1:3:0:0:
303,68,308040,5,12,1:2:0:0:
331,317,308190,1,4,1:3:0:0:
381,95,308340,5,12,1:2:0:0:
409,344,308490,1,4,1:3:0:0:
459,122,308640,5,12,1:2:0:0:
487,371,308790,1,4,1:3:0:0:
507,54,308940,5,12,1:2:0:0:
507,54,309090,1,4,1:3:0:0:
0,334,309240,5,12,1:2:0:0:
106,58,309390,1,4,1:3:0:0:
156,280,309540,5,12,1:2:0:0:
262,4,309690,1,4,1:3:0:0:
303,68,309840,5,12,1:2:0:0:
331,317,309990,1,4,1:3:0:0:
459,122,310140,5,12,1:2:0:0:
487,371,310290,1,4,1:3:0:0:
0,334,310440,5,4,1:2:0:0:
507,54,310740,1,0,0:0:0:0:
220,262,311040,6,0,P|261:250|303:239,1,71.9999978027344,0|0,0:0|2:0,0:0:0:0:
339,191,311190,6,0,P|373:200|408:210,1,71.9999978027344,0|0,0:0|2:2,0:0:0:0:
459,262,311340,5,0,0:0:0:0:
0,125,311490,6,0,B|90:105|69:193|157:167|157:167|84:191,1,240,4|4,1:2|1:3,0:0:0:0:
21,204,311940,2,0,P|29:251|34:299,1,96,10|0,1:2|0:0,0:0:0:0:
133,96,312240,2,0,P|124:48|119:0,1,96,4|0,1:3|0:0,0:0:0:0:
199,37,312540,1,10,1:2:0:0:
223,260,312690,6,0,B|313:280|292:192|380:217|380:217|307:194,1,240,4|4,1:2|1:3,0:0:0:0:
244,181,313140,2,0,P|252:133|257:85,1,96,10|0,1:2|0:0,0:0:0:0:
356,289,313440,2,0,P|347:336|342:384,1,96,4|0,1:3|0:0,0:0:0:0:
422,348,313740,1,10,1:2:0:0:
452,232,313890,6,0,B|472:142|384:163|409:74|409:74|386:148,1,240,4|4,1:2|1:3,0:0:0:0:
505,286,314340,2,0,P|497:334|492:382,1,96,10|0,1:2|0:0,0:0:0:0:
484,94,314640,1,4,1:3:0:0:
497,21,314790,1,0,0:0:0:0:
484,94,314940,1,10,1:2:0:0:
0,201,315090,6,0,P|40:208|199:241,1,192,4|4,1:2|1:3,0:0:0:0:
169,107,315540,2,0,P|179:57|189:8,1,96,4|0,1:2|0:0,0:0:0:0:
343,276,315840,2,0,P|333:323|324:371,1,96,4|0,1:2|0:0,0:0:0:0:
403,216,316140,1,4,1:2:0:0:
0,125,316290,6,0,B|90:105|69:193|157:167|157:167|84:191,1,240,4|4,1:2|1:3,0:0:0:0:
34,299,316740,2,0,P|29:251|21:204,1,96,10|0,1:2|0:0,0:0:0:0:
119,1,317040,2,0,P|124:48|133:96,1,96,4|0,1:3|0:0,0:0:0:0:
199,37,317340,1,10,1:2:0:0:
223,260,317490,6,0,B|313:280|292:192|380:217|380:217|307:194,1,240,4|4,1:2|1:3,0:0:0:0:
256,85,317940,2,0,P|251:133|244:181,1,96,10|0,1:2|0:0,0:0:0:0:
342,383,318240,2,0,P|346:336|356:289,1,96,4|0,1:3|0:0,0:0:0:0:
484,94,318540,1,10,1:2:0:0:
389,137,318690,6,0,B|409:74|409:74|384:163|472:142|452:232,1,240,4|4,1:2|1:3,0:0:0:0:
492,381,319140,2,0,P|497:333|505:286,1,96,10|0,1:2|0:0,0:0:0:0:
484,94,319440,1,4,1:3:0:0:
511,20,319590,2,0,P|516:67|526:116,1,96,0|10,0:0|1:2,0:0:0:0:
23,260,319890,5,4,1:2:0:0:
93,288,320040,2,0,P|123:252|119:206,1,96,4|0,1:2|0:3,0:0:0:0:
174,19,320340,2,0,P|186:70|205:179,1,144,4|0,1:2|2:0,0:0:0:0:
196,176,320640,2,0,B|251:159|239:197|300:178,1,96,4|0,1:2|0:0,0:0:0:0:
348,125,320940,1,4,1:2:0:0:
485,357,321090,5,4,1:2:0:0:
0,226,321390,5,0,0:0:0:0:
63,193,321540,1,0,0:0:0:0:
103,217,321690,1,0,0:0:0:0:
135,315,321840,5,0,1:0:0:0:
162,113,321990,1,4,0:0:0:0:
207,175,322140,1,0,0:0:0:0:
249,0,322290,5,4,0:1:0:0:
272,16,322440,1,0,0:0:0:0:
342,2,322590,1,0,0:0:0:0:
384,102,322740,1,0,0:0:0:0:
397,98,322890,1,0,0:0:0:0:
455,48,323040,5,0,1:0:0:0:
465,125,323190,1,0,1:0:0:0:
510,189,323340,1,0,0:0:0:0:
496,264,323490,6,0,P|505:312|511:364,1,96,4|0,1:1|0:0,0:0:0:0:
0,155,323790,5,0,0:0:0:0:
20,144,323940,1,0,0:0:0:0:
78,194,324090,1,0,0:0:0:0:
107,0,324240,5,0,1:0:0:0:
148,171,324390,1,4,0:0:0:0:
220,147,324540,1,4,0:0:0:0:
247,360,324690,6,0,P|257:291|271:209,1,143.999995605469,4|0,1:2|2:0,0:0:0:0:
283,204,324990,1,4,1:3:0:0:
275,55,325140,2,0,P|335:37|395:129,1,180,4|0,1:2|2:0,0:0:0:0:
361,197,325440,6,0,B|377:194|377:194|378:196|378:196|391:192|391:192|394:197|394:197|410:190|410:190|414:198|414:198|432:186|432:186|439:199|439:199|454:182|454:182|461:197|461:197|474:186|474:186|482:194|482:194|492:188|492:188|499:191|499:191|510:189|510:189|533:187,1,215.999993408203,4|0,1:2|0:0,0:0:0:0:
464,234,325740,2,0,P|451:304|441:376,1,143.999995605469,4|0,1:2|0:0,0:0:0:0:
0,188,326040,5,4,1:2:0:0:
12,199,326340,5,0,0:0:0:0:
82,213,326415,1,0,0:0:0:0:
96,143,326490,1,0,1:0:0:0:
108,132,326790,5,0,0:0:0:0:
178,118,326865,1,0,0:0:0:0:
192,188,326940,1,0,1:0:0:0:
180,354,327240,5,0,0:0:0:0:
250,368,327315,1,0,0:0:0:0:
264,298,327390,1,0,1:0:0:0:
245,101,327690,5,0,0:0:0:0:
259,31,327765,1,0,0:0:0:0:
316,77,327840,1,0,1:0:0:0:
324,70,328140,5,0,0:0:0:0:
338,140,328215,1,0,0:0:0:0:
352,210,328290,1,0,1:0:0:0:
405,305,328590,5,0,0:0:0:0:
419,375,328665,1,0,0:0:0:0:
476,329,328740,1,0,1:0:0:0:
484,336,329040,5,0,0:0:0:0:
498,266,329115,1,0,0:0:0:0:
512,196,329190,1,0,1:0:0:0:
11,205,329490,5,0,0:0:0:0:
11,205,329565,1,0,0:0:0:0:
28,219,329640,6,0,L|115:232,1,71.9999978027344,0|0,1:0|0:0,0:0:0:0:
161,184,329790,6,0,L|248:171,1,71.9999978027344,0|0,1:1|0:0,0:0:0:0:
278,235,329940,5,0,0:0:0:0:
282,231,330015,1,0,0:0:0:0:
286,227,330090,1,0,0:0:0:0:
290,223,330165,1,0,0:0:0:0:
294,219,330240,6,0,L|381:232,3,71.9999978027344,0|0|0|0,1:0|0:0|0:0|0:0,0:0:0:0:
427,184,330540,6,0,L|514:171,1,71.9999978027344,0|0,1:0|0:0,0:0:0:0:
503,158,330690,1,0,1:0:0:0:
486,359,330840,1,0,1:0:0:0:
0,155,331140,5,0,0:0:0:0:
70,169,331215,1,0,0:0:0:0:
84,99,331290,2,0,L|73:0,1,96,0|0,1:0|0:0,0:0:0:0:
97,90,331590,5,0,0:0:0:0:
167,76,331665,1,0,0:0:0:0:
181,146,331740,2,0,L|170:245,1,96,0|0,1:0|0:0,0:0:0:0:
227,296,332040,5,0,0:0:0:0:
297,310,332115,1,0,0:0:0:0:
311,240,332190,2,0,L|300:141,1,96,0|0,1:0|0:0,0:0:0:0:
341,14,332490,5,0,0:0:0:0:
411,0,332565,1,0,0:0:0:0:
388,71,332640,2,0,L|377:170,1,96,0|0,1:0|0:0,0:0:0:0:
399,369,332940,5,0,0:0:0:0:
469,383,333015,1,0,0:0:0:0:
446,312,333090,2,0,L|435:213,1,96,0|0,1:0|1:0,0:0:0:0:
467,148,333390,5,0,1:0:0:0:
2,315,333540,5,0,1:0:0:0:
107,289,333690,1,0,1:0:0:0:
169,336,333840,1,0,1:0:0:0:
208,65,333990,5,0,1:0:0:0:
239,308,334140,1,0,1:0:0:0:
441,10,334290,1,0,1:0:0:0:
472,253,334440,6,0,B|467:296|467:296|464:299|464:299|467:296|467:296|462:336|462:336|459:339|459:339|462:336|462:336|458:369|458:369|461:378,1,144,0|0,0:0|0:0,2:0:0:0:
1,114,335640,6,0,B|38:115|74:57|74:57|57:155|44:245|44:245|10:248|10:248|85:255,1,384,4|0,1:2|3:2,0:0:0:0:
142,197,336090,2,0,B|157:129|234:135|280:206|199:271|129:328|129:328|173:316|212:334,1,384,4|0,0:2|3:0,0:0:0:0:
319,36,336540,2,0,B|362:-1|421:27|418:89|373:112|373:112|411:144|429:213|325:260|298:179,1,384,4|0,1:2|3:3,0:0:0:0:
477,201,336990,2,0,B|416:297|416:297|522:319|522:319|510:269|510:269|453:370,1,384,4|0,0:2|3:0,0:0:0:0:
33,242,337440,6,0,B|-1:269|-1:269|81:253|81:253|45:280,4,167.999994873047,4|0|0|0|0,1:2|3:0|3:0|3:0|3:2,0:0:0:0:
146,35,337890,6,0,B|189:-2|248:26|245:88|200:111|200:111|238:143|256:212|152:259|125:178,1,384,4|0,0:2|3:0,0:0:0:0:
296,212,338340,2,0,B|311:144|388:150|434:221|353:286|283:343|283:343|327:331|366:349,1,384,4|0,1:2|3:3,0:0:0:0:
441,104,338790,2,0,B|478:105|514:47|514:47|497:145|484:235|484:235|450:238|450:238|525:245,1,384,4|0,0:2|3:0,0:0:0:0:
8,341,339240,6,0,P|26:347|80:318,3,83.9999974365235,12|0|0|0,1:2|3:0|3:0|3:0,0:0:0:0:
127,250,339540,2,0,P|125:208|124:166,3,83.9999974365235,12|0|0|0,1:2|3:0|3:0|3:0,0:0:0:0:
170,18,339840,6,0,P|188:12|242:41,1,83.9999974365235,12|0,1:2|3:0,0:0:0:0:
289,109,339990,2,0,P|287:150|286:192,1,83.9999974365235,0|0,0:0|3:0,0:0:0:0:
320,267,340140,2,0,P|375:282|405:175,1,167.999994873047,12|0,1:2|0:0,0:0:0:0:
0,158,340440,5,4,0:2:0:0:
63,191,340590,1,0,0:0:0:0:
103,167,340740,1,10,1:2:0:0:
130,96,340890,1,0,0:0:0:0:
162,271,341040,5,0,0:0:0:0:
186,261,341190,1,0,0:0:0:0:
232,125,341340,5,10,1:2:0:0:
255,298,341490,1,0,0:0:0:0:
318,334,341640,5,0,0:0:0:0:
340,320,341790,1,0,0:0:0:0:
370,249,341940,1,10,1:2:0:0:
403,366,342090,1,0,0:0:0:0:
436,205,342240,6,0,P|443:175|448:146,1,60,0|0,1:0|3:0,0:0:0:0:
512,299,342390,2,0,P|506:269|500:240,1,60,0|0,1:0|3:0,0:0:0:0:
501,97,342540,1,10,1:2:0:0:
2,199,342690,5,0,0:0:0:0:
26,210,342765,1,0,0:0:0:0:
76,186,342840,5,0,0:0:0:0:
109,160,342915,1,0,0:0:0:0:
150,155,342990,1,0,0:0:0:0:
170,177,343065,1,0,0:0:0:0:
185,181,343140,1,10,1:2:0:0:
216,221,343215,1,0,0:0:0:0:
256,211,343290,1,0,0:0:0:0:
264,203,343365,1,0,0:0:0:0:
312,241,343440,1,0,0:0:0:0:
365,209,343515,1,0,0:0:0:0:
431,240,343590,1,0,0:0:0:0:
447,249,343665,1,0,0:0:0:0:
511,206,343740,1,10,1:2:0:0:
0,68,344040,6,0,P|50:90|152:116,1,120,12|0,1:2|0:0,0:0:0:0:
181,384,344340,2,0,P|231:362|333:336,1,120,14|0,1:2|0:0,0:0:0:0:
393,20,344640,2,0,P|417:137|438:214,1,180,12|0,1:2|2:0,0:0:0:0:
399,262,344940,2,0,P|456:269|498:229,1,120,14|0,1:2|0:0,0:0:0:0:
9,334,345240,6,0,P|21:293|27:263,3,60,4|0|0|0,1:0|0:0|0:0|0:0,0:0:0:0:
69,218,345538,5,14,1:2:0:0:
95,231,345613,1,0,0:0:0:0:
121,261,345687,1,0,0:0:0:0:
134,336,345762,1,0,0:0:0:0:
149,266,345837,5,12,1:2:0:0:
199,209,345911,1,0,0:0:0:0:
222,184,345986,1,0,0:0:0:0:
233,165,346060,1,0,0:0:0:0:
236,151,346135,6,0,P|229:121|220:93,3,60,14|0|0|0,1:2|0:0|0:0|0:0,0:0:0:0:
288,30,346434,5,4,1:0:0:0:
301,78,346507,1,0,0:0:0:0:
317,99,346580,1,0,0:0:0:0:
319,134,346653,1,0,0:0:0:0:
349,179,346726,5,14,1:2:0:0:
369,218,346799,1,0,0:0:0:0:
371,234,346873,1,0,0:0:0:0:
381,245,346946,1,0,0:0:0:0:
403,312,347019,6,0,P|396:348|392:384,3,60,12|0|0|0,1:2|0:0|0:0|0:0,0:0:0:0:
467,277,347312,2,0,P|483:233|436:174,1,120,14|0,1:2|0:0,0:0:0:0:
0,214,347604,5,4,1:0:0:0:
41,227,347677,1,0,0:0:0:0:
60,215,347751,2,0,P|77:221|121:239,1,60
110,331,347897,5,14,1:2:0:0:
174,290,347970,1,0,0:0:0:0:
183,277,348044,2,0,P|193:248|188:216,1,60
185,140,348190,5,12,1:2:0:0:
209,146,348263,1,0,0:0:0:0:
245,148,348336,1,0,0:0:0:0:
256,159,348409,1,0,0:0:0:0:
292,125,348482,1,14,1:2:0:0:
294,100,348555,1,0,0:0:0:0:
304,92,348629,1,0,0:0:0:0:
328,51,348702,1,0,0:0:0:0:
335,55,348775,6,0,P|365:54|426:45,3,60,4|0|0|0,1:0|0:0|0:0|0:0,0:0:0:0:
372,141,349082,2,0,P|402:142|463:151,3,60,14|0|0|0,1:2|0:0|0:0|0:0,0:0:0:0:
382,243,349390,6,0,P|412:244|473:253,1,60,4|0,1:2|0:0,0:0:0:0:
419,157,349544,2,0,P|449:156|510:147,1,60
453,257,349698,2,0,P|483:258|544:267,2,60,14|0|0,1:2|0:0|0:0,0:0:0:0:
17,0,350005,6,0,P|27:61|41:128,1,120,12|0,1:2|0:0,0:0:0:0:
85,227,350230,1,0,0:0:0:0:
85,227,350305,2,0,P|89:194|98:152,1,60,4|0,1:3|0:0,0:0:0:0:
98,29,350455,6,0,P|108:90|122:157,1,120,12|0,1:2|0:0,0:0:0:0:
166,256,350680,1,0,0:0:0:0:
166,256,350755,2,0,P|170:223|179:181,1,60,4|0,1:3|0:0,0:0:0:0:
179,58,350905,6,0,P|189:119|203:186,1,120,12|0,1:2|0:0,0:0:0:0:
247,285,351130,1,0,0:0:0:0:
247,285,351205,2,0,P|251:252|260:210,1,60,4|0,1:3|0:0,0:0:0:0:
260,87,351355,6,0,P|270:148|284:215,1,120,12|0,1:2|0:0,0:0:0:0:
328,314,351580,1,0,0:0:0:0:
328,314,351655,2,0,P|332:281|341:239,1,60,4|0,1:3|0:0,0:0:0:0:
341,116,351805,6,0,P|345:146|350:176,1,60,12|0,1:2|0:0,0:0:0:0:
409,343,351955,1,0,0:0:0:0:
409,343,352105,1,4,1:3:0:0:
422,145,352255,6,0,P|426:175|431:205,1,60,12|0,1:2|0:0,0:0:0:0:
511,254,352421,2,0,P|499:312|490:372,1,120,0|4,0:0|1:3,0:0:0:0:
69,336,352733,5,8,1:2:0:0:
138,275,352808,5,8,1:2:0:0:
212,307,352883,5,8,1:2:0:0:
271,279,352958,5,8,1:2:0:0:
316,317,353033,5,8,1:2:0:0:
361,308,353108,5,8,1:2:0:0:
409,343,353183,5,8,1:2:0:0:
