osu file format v14

[General]
AudioFilename: audio.mp3
AudioLeadIn: 0
PreviewTime: 141765
Countdown: 0
SampleSet: Drum
StackLeniency: 0.3
Mode: 0
LetterboxInBreaks: 0
WidescreenStoryboard: 1

[Editor]
DistanceSpacing: 1.2
BeatDivisor: 4
GridSize: 32
TimelineZoom: 2

[Metadata]
Title:Guilty All The Same (feat. Rakim)
TitleUnicode:Guilty All The Same (feat. Rakim)
Artist:Linkin Park
ArtistUnicode:Linkin Park
Creator:pw384
Version:ACT 1 | "SHATTERED HOMECOMING"
Source:
Tags:gats marathon lp The Hunting Party English rock nu metal alternative rap project spark
BeatmapID:3541737
BeatmapSetID:1590600

[Difficulty]
HPDrainRate:5
CircleSize:4
OverallDifficulty:7
ApproachRate:8
SliderMultiplier:1.5
SliderTickRate:1

[Events]
//Background and Video events
0,0,"bg.jpg",0,0
//Break Periods
2,19290,22740
2,57440,60990
2,62239,65490
2,153540,161490
2,218340,220740
2,280790,283890
2,285290,287190
//Storyboard Layer 0 (Background)
//Storyboard Layer 1 (Fail)
//Storyboard Layer 2 (Pass)
//Storyboard Layer 3 (Foreground)
//Storyboard Layer 4 (Overlay)
//Storyboard Sound Samples

[TimingPoints]
90,300,4,3,1,40,1,0
1290,-142.857142857143,4,3,1,40,0,0
4890,-142.857142857143,4,3,1,40,0,0
6090,-142.857142857143,4,3,1,40,0,0
9390,-142.857142857143,4,3,1,50,0,0
9690,-142.857142857143,4,3,1,60,0,0
10890,-117.647058823529,4,1,1,75,0,0
11490,-117.647058823529,4,1,1,75,0,0
11790,-117.647058823529,4,1,1,75,0,0
12390,-117.647058823529,4,1,1,75,0,0
12690,-117.647058823529,4,1,1,75,0,0
13290,-117.647058823529,4,1,1,75,0,0
13590,-117.647058823529,4,1,1,75,0,0
14190,-117.647058823529,4,1,1,75,0,0
14490,-117.647058823529,4,1,1,75,0,0
18840,300,4,1,1,75,1,0
19290,-133.333333333333,4,3,1,40,0,0
28440,-133.333333333333,4,3,1,50,0,0
30240,-133.333333333333,4,3,1,52,0,0
32040,-133.333333333333,4,3,1,55,0,0
33240,-133.333333333333,4,3,1,57,0,0
33690,-133.333333333333,4,3,1,57,0,0
35040,-133.333333333333,4,3,1,60,0,0
35490,-133.333333333333,4,3,1,60,0,0
36840,-133.333333333333,4,3,1,62,0,0
38040,-133.333333333333,4,3,1,67,0,0
39840,-133.333333333333,4,3,1,72,0,0
41640,-133.333333333333,4,3,1,77,0,0
42840,-133.333333333333,4,3,1,80,0,0
44640,-133.333333333333,4,3,1,82,0,0
46440,-133.333333333333,4,3,1,85,0,0
47640,-117.647058823529,4,3,1,90,0,0
52440,-117.647058823529,4,3,1,95,0,0
56640,-117.647058823529,4,3,1,95,0,0
56940,-117.647058823529,4,3,1,95,0,0
57240,-166.666666666667,4,3,1,95,0,0
57315,-166.666666666667,4,2,1,5,0,0
58140,-166.666666666667,4,2,1,40,0,0
58215,-166.666666666667,4,2,1,5,0,0
58440,-166.666666666667,4,2,1,40,0,0
58515,-166.666666666667,4,2,1,5,0,0
59340,-166.666666666667,4,2,1,40,0,0
59490,-166.666666666667,4,1,1,40,0,0
59527,-166.666666666667,4,2,1,40,0,0
59640,-166.666666666667,4,2,1,40,0,0
60690,-166.666666666667,4,1,1,40,0,0
60727,-166.666666666667,4,2,1,40,0,0
60915,-166.666666666667,4,2,1,5,0,0
61440,-166.666666666667,4,2,1,5,0,0
61740,-166.666666666667,4,2,1,70,0,0
61940,-166.666666666667,4,2,1,70,0,0
62040,-166.666666666667,4,2,1,40,0,0
62115,-166.666666666667,4,2,1,5,0,0
62940,-166.666666666667,4,2,1,40,0,0
63015,-166.666666666667,4,2,1,5,0,0
63240,-166.666666666667,4,2,1,40,0,0
63315,-166.666666666667,4,2,1,5,0,0
64140,-166.666666666667,4,2,1,40,0,0
64290,-166.666666666667,4,1,1,40,0,0
64327,-166.666666666667,4,2,1,40,0,0
64440,-166.666666666667,4,2,1,40,0,0
65490,-166.666666666667,4,1,1,40,0,0
65527,-166.666666666667,4,2,1,40,0,0
66240,-133.333333333333,4,3,1,60,0,0
66840,-133.333333333333,4,3,1,60,0,0
67440,-133.333333333333,4,3,1,50,0,0
71040,-133.333333333333,4,3,1,60,0,0
73290,-133.333333333333,4,3,1,70,0,0
74040,-133.333333333333,4,3,1,70,0,0
75240,-133.333333333333,4,3,1,70,0,0
75315,-133.333333333333,4,3,1,5,0,0
75540,-133.333333333333,4,3,1,70,0,0
75615,-133.333333333333,4,3,1,5,0,0
75840,-133.333333333333,4,3,1,70,0,0
75915,-133.333333333333,4,3,1,5,0,0
76140,-133.333333333333,4,3,1,70,0,0
76215,-133.333333333333,4,3,1,5,0,0
76290,-133.333333333333,4,3,1,70,0,0
76365,-133.333333333333,4,3,1,5,0,0
76440,-100,4,1,1,95,0,0
76740,-100,4,1,1,95,0,0
77340,-100,4,1,1,95,0,0
77640,-100,4,1,1,95,0,0
77940,-100,4,1,1,95,0,0
79140,-100,4,1,1,95,0,0
79440,-100,4,1,1,95,0,0
80040,-100,4,1,1,95,0,0
80340,-100,4,1,1,95,0,0
81240,-100,4,1,1,95,0,0
81540,-100,4,1,1,95,0,0
82440,-100,4,1,1,95,0,0
82740,-100,4,1,1,95,0,0
86040,-100,4,1,1,95,0,0
86340,-100,4,1,1,95,0,0
86940,-100,4,1,1,95,0,0
87240,-100,4,1,1,95,0,0
87540,-100,4,1,1,95,0,0
88740,-100,4,1,1,95,0,0
89040,-100,4,1,1,95,0,0
89640,-100,4,1,1,95,0,0
89940,-100,4,1,1,95,0,0
90840,-100,4,1,1,95,0,0
91140,-100,4,1,1,95,0,0
92040,-100,4,1,1,95,0,0
92340,-100,4,1,1,95,0,0
93240,-100,4,1,1,95,0,0
95640,-133.333333333333,4,3,1,60,0,0
114240,-133.333333333333,4,3,1,70,0,0
119940,-133.333333333333,4,3,1,70,0,0
122040,-133.333333333333,4,3,1,75,0,0
123240,-117.647058823529,4,3,1,80,0,0
123840,-117.647058823529,4,3,1,85,0,0
124440,-133.333333333333,4,3,1,85,0,0
124515,-133.333333333333,4,3,1,30,0,0
126840,-133.333333333333,4,3,1,30,0,0
131640,-133.333333333333,4,3,1,40,0,0
132840,-133.333333333333,4,3,1,50,0,0
134040,-133.333333333333,4,3,1,65,0,0
138840,-133.333333333333,4,3,1,70,0,0
140640,-133.333333333333,4,3,1,75,0,0
141240,-133.333333333333,4,3,1,80,0,0
141840,-133.333333333333,4,3,1,85,0,0
142440,-100,4,3,1,85,0,0
143340,-100,4,3,1,85,0,0
143640,-100,4,1,1,95,0,0
143940,-100,4,1,1,95,0,0
144540,-100,4,1,1,95,0,0
144840,-100,4,1,1,95,0,0
146340,-100,4,1,1,95,0,0
146640,-100,4,1,1,95,0,0
147240,-100,4,1,1,95,0,0
147540,-100,4,1,1,95,0,0
148440,-100,4,1,1,95,0,0
148740,-100,4,1,1,95,0,0
149340,-100,4,1,1,95,0,0
149640,-100,4,1,1,95,0,0
149940,-100,4,1,1,95,0,0
153240,-117.647058823529,4,3,1,75,0,0
172440,-100,4,3,1,75,0,0
179640,-100,4,3,1,85,0,0
180240,-100,4,3,1,90,0,0
180840,-100,4,3,1,90,0,0
180915,-100,4,3,1,20,0,0
182040,-100,4,1,1,95,0,0
182340,-100,4,1,1,95,0,0
182640,-100,4,1,1,95,0,0
186840,-100,4,1,1,95,0,0
187140,-100,4,1,1,95,0,0
188640,-100,4,1,1,95,0,0
189240,-100,4,1,1,95,0,0
191640,-100,4,1,1,95,0,0
191940,-100,4,1,1,95,0,0
193440,-100,4,1,1,95,0,0
194040,-100,4,1,1,95,0,0
196440,-100,4,1,1,95,0,0
196740,-100,4,1,1,95,0,0
197040,-100,4,1,1,95,0,0
198240,-100,4,1,1,95,0,0
198840,-100,4,1,1,95,0,0
203040,-100,4,1,1,95,0,0
203490,-100,4,1,1,95,0,0
203940,-100,4,1,1,95,0,0
204690,-100,4,1,1,95,0,0
205140,-100,4,1,1,95,0,0
205890,-100,4,1,1,95,0,0
206340,-100,4,1,1,95,0,0
208290,-100,4,1,1,95,0,0
208740,-100,4,1,1,95,0,0
209490,-100,4,1,1,95,0,0
209940,-100,4,1,1,95,0,0
210690,-100,4,1,1,95,0,0
211140,-100,4,1,1,95,0,0
212640,-100,4,1,1,95,0,0
212940,-100,4,1,1,95,0,0
213090,-133.333333333333,4,1,1,95,0,0
213240,-133.333333333333,4,3,1,70,0,0
213390,-133.333333333333,4,3,1,70,0,0
214290,-133.333333333333,4,3,1,70,0,0
214590,-133.333333333333,4,3,1,70,0,0
216390,-100,4,3,1,70,0,0
216690,-100,4,3,1,85,0,0
217140,-100,4,3,1,85,0,0
217890,-100,4,3,1,85,0,0
218340,-100,4,3,1,85,0,0
221490,-100,4,3,1,85,0,0
221940,-100,4,3,1,85,0,0
222990,-133.333333333333,4,3,1,85,0,0
226290,-100,4,3,1,85,0,0
228090,-125,4,3,1,85,0,0
231090,-100,4,3,1,85,0,0
232890,-125,4,3,1,85,0,0
235890,-100,4,3,1,85,0,0
237690,-125,4,3,1,85,0,0
240690,-100,4,3,1,85,0,0
242040,-125,4,3,1,50,0,0
243090,-125,4,3,1,50,0,0
245490,-100,4,3,1,85,0,0
246840,-100,4,3,1,50,0,0
247890,-125,4,3,1,50,0,0
250290,-100,4,3,1,85,0,0
251640,-100,4,3,1,50,0,0
252690,-125,4,3,1,50,0,0
255090,-100,4,3,1,85,0,0
256440,-100,4,3,1,50,0,0
257490,-125,4,3,1,50,0,0
259890,-100,4,3,1,85,0,0
261390,-100,4,3,1,75,0,0
261690,-100,4,3,1,75,0,0
264690,-100,4,3,1,85,0,0
266190,-100,4,3,1,75,0,0
266490,-100,4,3,1,75,0,0
269490,-100,4,3,1,85,0,0
279840,-100,4,3,1,90,0,0
280290,-100,4,3,1,90,0,0
280440,-100,4,3,1,50,0,0
284640,-100,4,1,1,80,0,0
287640,-100,4,1,1,5,0,0
287940,-133.333333333333,4,1,1,80,0,0
288015,-100,4,1,1,80,0,0
288390,-100,4,1,1,80,0,0
288465,-100,4,1,1,80,0,0
288840,-100,4,1,1,80,0,0
290040,-100,4,1,1,95,0,0
290340,-100,4,1,1,95,0,0
290640,-100,4,1,1,95,0,0
294840,-100,4,1,1,95,0,0
295140,-100,4,1,1,95,0,0
296640,-100,4,1,1,95,0,0
297240,-100,4,1,1,95,0,0
299640,-100,4,1,1,95,0,0
299940,-100,4,1,1,95,0,0
300240,-100,4,1,1,95,0,0
301440,-100,4,1,1,95,0,0
302040,-100,4,1,1,95,0,0
304440,-100,4,1,1,95,0,0
304740,-100,4,1,1,95,0,0
305040,-100,4,1,1,95,0,0
306240,-100,4,1,1,95,0,0
306840,-100,4,1,1,95,0,0
311040,-100,4,1,1,95,0,0
311490,-100,4,1,1,95,0,0
311940,-100,4,1,1,95,0,0
312690,-100,4,1,1,95,0,0
313140,-100,4,1,1,95,0,0
313890,-100,4,1,1,95,0,0
314340,-100,4,1,1,95,0,0
315840,-100,4,1,1,95,0,0
316290,-100,4,1,1,95,0,0
316740,-100,4,1,1,95,0,0
317490,-100,4,1,1,95,0,0
317940,-100,4,1,1,95,0,0
318690,-100,4,1,1,95,0,0
319140,-100,4,1,1,95,0,0
321090,-133.333333333333,4,1,1,95,0,0
321240,-133.333333333333,4,3,1,70,0,0
324390,-100,4,3,1,70,0,0
324690,-100,4,3,1,85,0,0
325140,-100,4,3,1,85,0,0
325440,-100,4,3,1,85,0,0
326040,-100,4,3,1,85,0,0
326190,-100,4,3,1,65,0,0
329640,-100,4,3,1,65,0,0
330840,-100,4,3,1,65,0,0
332640,-100,4,3,1,70,0,0
333090,-100,4,3,1,75,0,0
333390,-100,4,3,1,80,0,0
333540,-100,4,3,1,85,0,0
333840,-100,4,3,1,90,0,0
334440,-100,4,3,1,90,0,0
335640,-100,4,1,1,95,0,0
337440,-100,4,1,1,95,0,0
337740,-100,4,1,1,95,0,0
339240,-100,4,1,1,95,0,0
340440,-100,4,1,1,95,0,0
344040,-100,4,1,1,95,0,0
345240,298.507462686567,4,1,1,95,1,1
346434,292.682926829268,4,1,1,95,1,1
348775,307.692307692308,4,1,1,80,1,1
349390,-117.647058823529,4,1,1,80,0,1
350005,300,4,1,1,75,1,1
350005,-117.647058823529,4,1,1,75,0,1
352255,333.333333333333,4,1,1,70,1,1
352255,-117.647058823529,4,1,1,70,0,1
352733,300,4,1,1,70,1,1
352733,-117.647058823529,4,1,1,70,0,1
353183,-100,4,1,1,70,0,0

[Colours]
Combo1 : 207,187,118
Combo2 : 170,105,74
Combo3 : 120,89,54

[HitObjects]
124,244,1290,6,0,L|99:88,1,157.499995193482,4|2,0:2|0:0,0:0:0:0:
100,89,2190,2,0,L|255:113,1,157.499995193482,4|2,0:2|0:0,0:0:0:0:
387,244,3090,6,0,L|411:88,1,157.499995193482,4|2,0:2|0:0,0:0:0:0:
411,89,3990,2,0,L|255:113,1,157.499995193482,4|2,0:2|0:0,0:0:0:0:
217,310,4890,6,0,L|208:257,1,52.4999983978272,4|0,0:2|0:0,0:0:0:0:
295,310,5190,2,0,L|303:257,1,52.4999983978272,4|0,0:2|0:0,0:0:0:0:
256,192,5490,5,4,0:2:0:0:
256,192,5790,1,4,0:2:0:0:
124,244,6090,6,0,L|99:88,1,157.499995193482,4|2,0:2|0:0,0:0:0:0:
411,88,6990,2,0,L|387:244,1,157.499995193482,4|2,0:2|0:0,0:0:0:0:
255,113,7890,6,0,L|100:89,1,157.499995193482,4|2,0:2|0:0,0:0:0:0:
255,113,8790,2,0,L|411:89,1,157.499995193482,0|0,1:0|1:0,0:0:0:0:
347,16,9390,6,0,L|340:78,1,52.4999983978272,0|0,1:0|1:0,0:0:0:0:
255,60,9690,2,0,L|255:113,1,52.4999983978272,0|0,1:0|1:0,0:0:0:0:
165,16,9990,2,0,L|172:78,1,52.4999983978272,0|0,1:0|1:0,0:0:0:0:
29,306,10890,5,8,1:2:0:0:
17,168,11190,6,0,L|7:103,1,63.7500012159348,8|0,1:2|0:0,0:0:0:0:
21,172,11490,2,0,L|86:162,1,63.7500012159348,8|0,1:2|0:0,0:0:0:0:
83,85,11790,1,8,1:2:0:0:
154,204,12090,6,0,L|144:269,1,63.7500012159348,8|0,1:2|0:0,0:0:0:0:
221,209,12390,2,0,L|157:199,1,63.7500012159348,8|0,1:2|0:0,0:0:0:0:
220,287,12690,1,8,1:2:0:0:
279,95,12990,6,0,L|288:158,1,63.7500012159348,8|0,1:2|0:0,0:0:0:0:
292,162,13290,2,0,L|357:152,1,63.7500012159348,8|0,1:2|0:0,0:0:0:0:
354,75,13590,1,8,1:2:0:0:
401,282,13890,6,0,L|410:218,1,63.7500012159348,8|0,1:2|0:0,0:0:0:0:
477,224,14190,2,0,L|413:214,1,63.7500012159348,8|0,1:2|0:0,0:0:0:0:
476,301,14490,5,12,1:2:0:0:
324,322,14790,1,12,1:2:0:0:
172,343,15090,1,12,1:2:0:0:
20,364,15390,1,12,1:2:0:0:
110,300,15540,5,0,0:0:0:0:
110,300,15615,1,0,0:0:0:0:
110,300,15690,6,0,L|122:169,1,127.50000243187,12|4,1:2|1:3,0:0:0:0:
5,226,16140,2,0,L|121:173,1,127.50000243187,12|4,1:2|1:3,0:0:0:0:
192,81,16590,6,0,L|256:192,1,127.50000243187,12|4,1:2|1:3,0:0:0:0:
320,80,17040,2,0,L|256:191,1,127.50000243187,12|4,1:2|1:3,0:0:0:0:
402,300,17490,6,0,L|390:169,1,127.50000243187,12|0,1:2|0:0,0:0:0:0:
506,226,17940,2,0,L|391:173,1,127.50000243187,12|0,1:2|0:0,0:0:0:0:
256,40,18390,6,0,L|256:8,6,31.8750006079674,4|4|4|4|4|4|4,1:3|1:3|1:3|1:3|1:3|1:3|1:3,0:0:0:0:
256,68,23490,6,0,L|256:40,2,28.1250010728836,8|8|0,0:0|0:0|1:0,0:0:0:0:
53,180,23940,5,4,0:0:0:0:
57,184,24090,2,0,L|173:199,1,112.500004291535,0|4,1:0|0:0,0:0:0:0:
172,202,24540,1,0,1:0:0:0:
92,337,24840,5,4,0:0:0:0:
96,341,24990,2,0,L|212:326,1,112.500004291535,0|4,1:0|0:0,0:0:0:0:
211,322,25440,6,0,L|218:266,2,56.2500021457673,0|0|4,1:0|0:0|0:0,0:0:0:0:
282,225,25890,2,0,L|398:240,1,112.500004291535,0|4,1:0|0:0,0:0:0:0:
397,244,26340,6,0,L|404:299,2,56.2500021457673,0|0|4,1:0|0:0|0:0,0:0:0:0:
453,197,26790,2,0,L|468:81,1,112.500004291535,0|4,1:0|0:0,0:0:0:0:
463,81,27240,5,0,1:0:0:0:
393,103,27390,1,0,1:0:0:0:
341,51,27540,2,0,L|352:-5,1,56.2500021457673,4|4,0:0|0:0,0:0:0:0:
337,55,27840,2,0,L|221:70,1,112.500004291535,0|0,1:0|1:0,0:0:0:0:
163,30,28290,1,0,1:0:0:0:
163,30,28440,1,0,1:0:0:0:
188,213,28740,5,4,0:0:0:0:
192,217,28890,2,0,L|308:202,1,112.500004291535,0|4,1:0|0:0,0:0:0:0:
349,259,29340,2,0,L|303:366,1,112.500004291535,0|4,1:0|0:0,0:0:0:0:
234,373,29790,2,0,L|163:280,1,112.500004291535,0|4,1:0|0:0,0:0:0:0:
115,230,30240,5,0,1:0:0:0:
79,50,30540,1,4,0:0:0:0:
79,50,30690,1,0,1:0:0:0:
261,14,30990,1,4,0:0:0:0:
261,14,31140,1,0,1:0:0:0:
295,194,31440,1,4,0:0:0:0:
295,194,31590,1,0,1:0:0:0:
190,82,31890,1,4,0:0:0:0:
190,82,32040,6,0,L|244:68,1,56.2500021457673,0|0,1:0|1:0,0:0:0:0:
284,108,32340,2,0,L|244:67,1,56.2500021457673,4|4,0:0|0:0,0:0:0:0:
261,14,32640,2,0,L|245:68,1,56.2500021457673,0|4,1:0|0:0,0:0:0:0:
190,82,32940,5,0,1:0:0:0:
284,108,33090,1,0,1:0:0:0:
261,14,33240,1,4,1:3:0:0:
324,213,33540,5,4,0:0:0:0:
320,217,33690,2,0,L|204:202,1,112.500004291535,4|4,1:3|0:0,0:0:0:0:
163,259,34140,2,0,L|209:366,1,112.500004291535,4|4,1:3|0:0,0:0:0:0:
278,373,34590,2,0,L|349:280,1,112.500004291535,4|4,1:3|0:0,0:0:0:0:
397,230,35040,5,4,1:3:0:0:
433,50,35340,1,4,0:0:0:0:
433,50,35490,1,4,1:3:0:0:
251,14,35790,1,4,0:0:0:0:
251,14,35940,1,4,1:3:0:0:
217,194,36240,1,4,0:0:0:0:
217,194,36390,1,4,1:3:0:0:
322,82,36690,1,4,0:0:0:0:
322,82,36840,6,0,L|268:68,1,56.2500021457673,0|0,1:0|1:0,0:0:0:0:
228,108,37140,2,0,L|268:67,1,56.2500021457673,4|4,0:0|0:0,0:0:0:0:
251,14,37440,2,0,L|267:68,1,56.2500021457673,0|4,1:0|0:0,0:0:0:0:
322,82,37740,5,0,1:0:0:0:
228,108,37890,1,0,1:0:0:0:
157,41,38040,6,0,L|36:63,1,112.500004291535,4|4,1:2|1:3,0:0:0:0:
42,65,38490,1,8,1:2:0:0:
120,242,38790,1,4,1:3:0:0:
120,242,38940,2,0,L|132:176,1,56.2500021457673,8|0,1:2|0:0,0:0:0:0:
43,198,39240,1,4,1:3:0:0:
43,198,39390,2,0,L|55:132,1,56.2500021457673,8|0,1:2|1:0,0:0:0:0:
147,117,39690,6,0,L|188:109,2,28.1250010728836,4|4|8,1:3|1:3|1:2,0:0:0:0:
351,45,40140,5,4,1:3:0:0:
355,41,40291,2,0,L|465:61,1,112.500004291535,8|4,1:2|1:3,0:0:0:0:
458,142,40740,2,0,L|469:198,2,56.2500021457673,8|0|4,1:2|1:0|1:3,0:0:0:0:
392,242,41190,2,0,L|381:186,2,56.2500021457673,8|0|4,1:2|0:0|1:3,0:0:0:0:
411,317,41640,5,4,1:2:0:0:
213,241,41940,6,0,L|141:257,1,56.2500021457673,4|4,1:3|1:3,0:0:0:0:
93,218,42240,5,8,1:2:0:0:
93,218,42390,1,8,1:2:0:0:
213,241,42540,1,8,1:2:0:0:
213,241,42690,1,8,1:2:0:0:
256,104,42840,6,0,L|377:85,1,112.500004291535,4|4,1:2|1:3,0:0:0:0:
474,17,43290,2,0,L|429:131,1,112.500004291535,8|4,1:2|1:3,0:0:0:0:
314,170,43740,6,0,L|369:161,2,56.2500021457673,8|0|4,1:2|1:0|1:3,0:0:0:0:
435,196,44190,2,0,L|414:248,2,56.2500021457673,8|0|4,1:2|1:0|1:3,0:0:0:0:
468,349,44640,6,0,L|356:366,1,112.500004291535,8|4,1:2|1:3,0:0:0:0:
352,290,45090,2,0,L|316:246,2,56.2500021457673,8|0|4,1:2|1:0|1:3,0:0:0:0:
435,196,45540,2,0,L|414:248,2,56.2500021457673,8|0|4,1:2|1:0|1:3,0:0:0:0:
314,170,45990,2,0,L|369:161,1,56.2500021457673,8|0,1:2|1:0,0:0:0:0:
256,104,46290,1,4,1:3:0:0:
256,104,46440,6,0,L|135:85,1,112.500004291535,4|4,1:2|1:3,0:0:0:0:
91,36,46890,1,4,1:3:0:0:
33,125,47040,2,0,L|88:133,1,56.2500021457673,8|8,1:2|1:2,0:0:0:0:
256,104,47340,2,0,L|311:112,1,56.2500021457673,8|8,1:2|1:2,0:0:0:0:
162,309,47640,6,0,L|155:168,1,127.50000243187,4|4,1:2|1:3,0:0:0:0:
256,224,48090,1,8,1:2:0:0:
256,224,48240,1,4,1:3:0:0:
256,224,48390,1,4,1:3:0:0:
350,309,48540,6,0,L|357:168,1,127.50000243187,4|4,1:2|1:3,0:0:0:0:
432,88,48990,5,8,1:2:0:0:
432,88,49140,1,4,1:3:0:0:
432,88,49290,1,4,1:3:0:0:
439,216,49440,6,0,L|432:75,1,127.50000243187,4|4,1:2|1:3,0:0:0:0:
256,128,49890,1,8,1:2:0:0:
256,128,50040,1,4,1:3:0:0:
256,128,50190,1,4,1:3:0:0:
73,216,50340,6,0,L|80:75,1,127.50000243187,4|4,1:2|1:3,0:0:0:0:
231,54,50790,5,8,1:2:0:0:
231,54,50940,1,4,1:3:0:0:
231,54,51090,1,4,1:3:0:0:
322,172,51240,6,0,L|313:245,1,63.7500012159348,4|0,1:2|0:0,0:0:0:0:
190,172,51540,2,0,L|199:245,1,63.7500012159348,4|4,1:3|1:3,0:0:0:0:
338,309,51840,6,0,L|329:236,1,63.7500012159348,8|8,1:2|1:2,0:0:0:0:
174,309,52140,2,0,L|183:236,1,63.7500012159348,8|8,1:2|1:2,0:0:0:0:
105,356,52440,5,4,1:2:0:0:
407,356,52740,5,4,1:3:0:0:
440,287,52890,1,8,1:2:0:0:
509,319,53040,1,8,1:2:0:0:
407,356,53190,2,0,L|337:365,1,63.7500012159348,8|4,1:2|1:2,0:0:0:0:
105,356,53640,5,4,1:3:0:0:
72,287,53790,1,8,1:2:0:0:
3,319,53940,1,8,1:2:0:0:
105,356,54090,2,0,L|175:365,1,63.7500012159348,8|4,1:2|1:2,0:0:0:0:
288,240,54540,5,4,1:3:0:0:
208,224,54690,1,8,1:2:0:0:
224,144,54840,1,8,1:2:0:0:
304,160,54990,1,8,1:2:0:0:
256,192,55140,5,4,1:2:0:0:
185,16,55440,6,0,L|103:-2,1,63.7500012159348,4|8,1:3|1:2,0:0:0:0:
327,16,55740,2,0,L|409:-2,1,63.7500012159348,8|8,1:2|1:2,0:0:0:0:
256,50,56040,5,4,1:2:0:0:
256,192,56340,2,0,L|256:256,1,63.7500012159348,4|4,1:3|1:3,0:0:0:0:
256,334,56640,5,8,1:2:0:0:
398,192,56940,1,8,1:2:0:0:
114,192,57240,1,4,1:2:0:0:
256,192,61740,6,0,L|261:154,3,29.9999990844727,0|0|0|4,1:0|1:0|1:0|0:2,0:0:0:0:
290,157,66240,6,0,L|237:175,1,56.2500021457673,8|8,1:2|1:2,0:0:0:0:
194,137,66540,2,0,L|237:175,1,56.2500021457673,8|8,1:2|1:2,0:0:0:0:
237,175,66840,6,0,L|211:298,1,112.500004291535,4|4,1:2|0:0,0:0:0:0:
256,84,67440,5,0,0:0:0:0:
302,143,67590,2,0,L|489:178,1,168.750006437302,8|8,1:2|1:2,0:0:0:0:
181,144,68340,5,0,0:0:0:0:
227,203,68490,2,0,L|414:238,1,168.750006437302,8|8,1:2|1:2,0:0:0:0:
106,204,69240,5,0,0:0:0:0:
152,263,69390,2,0,L|339:298,1,168.750006437302,8|8,1:2|1:2,0:0:0:0:
31,264,70140,5,0,0:0:0:0:
77,323,70290,2,0,L|187:343,1,112.500004291535,8|0,1:2|0:0,0:0:0:0:
253,307,70740,2,0,L|308:296,1,56.2500021457673,8|0,1:2|0:0,0:0:0:0:
445,344,71040,6,0,L|392:326,1,56.2500021457673,8|8,1:2|1:2,0:0:0:0:
349,364,71340,2,0,L|392:326,1,56.2500021457673,8|8,1:2|1:2,0:0:0:0:
392,326,71640,6,0,L|366:203,1,112.500004291535,4|8,1:2|1:2,0:0:0:0:
174,381,72240,5,0,1:0:0:0:
120,326,72390,2,0,L|146:203,1,112.500004291535,8|0,1:2|1:0,0:0:0:0:
33,192,72840,2,0,L|144:216,1,112.500004291535,8|0,1:2|1:0,0:0:0:0:
256,192,73290,5,8,1:2:0:0:
325,155,73440,2,0,L|331:97,1,56.2500021457673,8|8,1:2|1:2,0:0:0:0:
181,99,73740,2,0,L|187:155,1,56.2500021457673,8|8,1:2|1:2,0:0:0:0:
369,216,74040,6,0,L|479:192,1,112.500004291535,4|0,1:3|0:0,0:0:0:0:
192,148,76440,6,0,L|210:221,1,75,4|0,1:2|0:0,0:0:0:0:
126,363,76740,2,0,L|192:147,1,225,10|4,1:2|1:3,0:0:0:0:
144,34,77340,2,0,L|62:27,1,75,10|0,1:2|0:0,0:0:0:0:
115,117,77640,6,0,L|90:188,1,75,4|0,1:3|1:3,0:0:0:0:
28,135,77940,2,0,L|249:90,1,225,12|4,1:2|1:3,0:0:0:0:
410,152,78540,1,10,1:2:0:0:
410,152,78690,1,0,1:3:0:0:
319,44,78840,6,0,L|332:125,1,75,4|0,1:2|1:3,0:0:0:0:
490,187,79140,2,0,L|477:268,1,75,10|0,1:2|0:0,0:0:0:0:
342,334,79440,2,0,L|416:322,1,75,4|4,1:3|1:3,0:0:0:0:
396,241,79740,5,10,1:2:0:0:
396,241,79890,1,0,1:3:0:0:
240,216,80040,6,0,L|314:227,1,75,4|0,1:3|0:0,0:0:0:0:
396,241,80340,2,0,L|172:266,1,225,12|4,1:2|1:3,0:0:0:0:
97,215,80940,1,10,1:2:0:0:
97,215,81090,1,0,1:3:0:0:
24,279,81240,6,0,L|45:361,1,75,4|0,1:2|0:0,0:0:0:0:
42,351,81540,2,0,L|83:130,1,225,10|4,1:2|1:3,0:0:0:0:
228,153,82140,2,0,L|154:164,1,75,10|0,1:2|1:3,0:0:0:0:
206,8,82440,6,0,L|195:82,1,75,4|0,1:3|0:0,0:0:0:0:
239,230,82740,2,0,L|206:8,1,225,12|4,1:2|1:3,0:0:0:0:
126,33,83340,1,10,1:2:0:0:
126,33,83490,1,0,1:3:0:0:
299,64,83640,6,0,L|373:50,1,75,12|4,1:2|1:3,0:0:0:0:
466,35,83940,2,0,L|441:106,1,75,12|4,1:2|1:3,0:0:0:0:
407,194,84240,2,0,L|357:136,1,75,12|4,1:2|1:3,0:0:0:0:
299,64,84540,5,12,1:2:0:0:
299,64,84690,1,4,1:3:0:0:
194,96,84840,6,0,L|140:151,1,75,12|4,1:2|1:3,0:0:0:0:
163,221,85140,2,0,L|141:147,1,75,12|4,1:2|1:3,0:0:0:0:
68,131,85440,2,0,L|143:149,1,75,12|4,1:2|1:3,0:0:0:0:
229,169,85740,5,12,1:2:0:0:
229,169,85890,1,4,1:3:0:0:
302,221,86040,6,0,L|320:146,1,75,4|0,1:2|0:0,0:0:0:0:
386,363,86340,2,0,L|320:147,1,225,10|4,1:2|1:3,0:0:0:0:
368,34,86940,2,0,L|450:27,1,75,10|0,1:2|0:0,0:0:0:0:
422,188,87240,6,0,L|391:101,1,75,4|0,1:3|1:3,0:0:0:0:
484,135,87540,2,0,L|263:90,1,225,12|4,1:2|1:3,0:0:0:0:
102,152,88140,1,10,1:2:0:0:
102,152,88290,1,0,1:3:0:0:
193,44,88440,6,0,L|180:125,1,75,4|0,1:2|1:3,0:0:0:0:
22,187,88740,2,0,L|35:268,1,75,10|0,1:2|0:0,0:0:0:0:
170,334,89040,2,0,L|96:322,1,75,4|4,1:3|1:3,0:0:0:0:
116,241,89340,5,10,1:2:0:0:
116,241,89490,1,0,1:3:0:0:
266,276,89640,6,0,L|340:265,1,75,4|0,1:3|0:0,0:0:0:0:
116,241,89940,2,0,L|340:266,1,225,12|4,1:2|1:3,0:0:0:0:
415,215,90540,1,10,1:2:0:0:
415,215,90690,1,0,1:3:0:0:
501,287,90840,6,0,L|480:369,1,75,4|0,1:2|0:0,0:0:0:0:
442,138,91140,2,0,L|483:359,1,225,10|4,1:2|1:3,0:0:0:0:
341,178,91740,2,0,L|267:167,1,75,10|0,1:2|1:3,0:0:0:0:
303,285,92040,6,0,L|377:274,1,75,4|0,1:3|0:0,0:0:0:0:
155,240,92340,2,0,L|377:273,1,225,12|4,1:2|1:3,0:0:0:0:
227,333,92940,1,10,1:2:0:0:
227,333,93090,1,0,1:3:0:0:
155,240,93240,6,0,L|80:228,1,75,12|4,1:2|1:3,0:0:0:0:
183,87,93540,2,0,L|171:161,1,75,12|4,1:2|1:3,0:0:0:0:
30,59,93840,2,0,L|104:70,1,75,12|4,1:2|1:3,0:0:0:0:
92,149,94140,5,12,1:2:0:0:
92,149,94290,1,4,1:3:0:0:
2,212,94440,6,0,L|13:137,1,75,12|4,1:2|1:3,0:0:0:0:
30,59,94740,2,0,L|104:70,1,75,12|4,1:2|1:3,0:0:0:0:
183,87,95040,2,0,L|171:161,1,75,12|4,1:2|1:3,0:0:0:0:
148,319,95340,5,12,1:2:0:0:
171,315,95415,1,0,0:0:0:0:
194,311,95490,1,4,1:3:0:0:
267,350,95640,5,4,1:2:0:0:
430,283,95940,5,0,0:0:0:0:
385,224,96090,2,0,L|414:53,2,168.750006437302,8|8|8,0:2|0:2|0:2,0:0:0:0:
179,241,97440,6,0,L|67:259,1,112.500004291535,0|8,1:3|0:2,0:0:0:0:
31,323,97890,1,8,0:2:0:0:
12,212,98040,6,0,L|179:241,1,168.750006437302,0|8,1:0|0:2,0:0:0:0:
118,71,98790,1,0,0:0:0:0:
180,32,98940,6,0,L|291:50,1,112.500004291535,8|0,0:2|0:0,0:0:0:0:
295,54,99390,2,0,L|276:165,1,112.500004291535,8|0,0:2|0:0,0:0:0:0:
344,313,99840,6,0,L|399:303,1,56.2500021457673,8|4,1:2|1:3,0:0:0:0:
403,299,100140,2,0,L|393:243,1,56.2500021457673,8|4,0:2|1:3,0:0:0:0:
380,168,100440,5,0,1:0:0:0:
262,360,100740,5,0,0:0:0:0:
203,315,100890,2,0,L|32:344,2,168.750006437302,8|8|8,0:2|0:2|0:2,0:0:0:0:
52,262,102240,6,0,L|70:150,1,112.500004291535,0|8,1:3|0:2,0:0:0:0:
137,121,102690,1,8,0:2:0:0:
23,95,102840,6,0,L|52:262,1,168.750006437302,0|8,1:0|0:2,0:0:0:0:
269,77,103590,1,0,0:0:0:0:
209,28,103740,6,0,L|98:46,1,112.500004291535,8|0,0:2|0:0,0:0:0:0:
94,50,104190,2,0,L|113:161,1,112.500004291535,8|0,0:2|0:0,0:0:0:0:
128,319,104640,6,0,L|137:263,1,56.2500021457673,8|4,1:2|1:3,0:0:0:0:
142,260,104940,2,0,L|197:269,1,56.2500021457673,8|4,0:2|1:3,0:0:0:0:
249,332,105240,5,4,1:2:0:0:
474,216,105540,6,0,L|463:160,1,56.2500021457673,0|8,0:0|0:2,0:0:0:0:
311,285,105990,2,0,L|300:229,1,56.2500021457673,0|8,0:0|0:2,0:0:0:0:
192,105,106440,2,0,L|202:49,1,56.2500021457673,0|8,0:0|0:2,0:0:0:0:
355,174,106890,6,0,L|365:118,2,56.2500021457673,0|0|0,0:0|1:3|1:3,0:0:0:0:
300,229,107340,2,0,L|311:285,1,56.2500021457673,8|8,0:2|0:2,0:0:0:0:
365,341,107640,5,0,1:0:0:0:
107,301,107940,1,0,0:0:0:0:
107,301,108090,1,8,0:2:0:0:
147,43,108390,1,0,0:0:0:0:
147,43,108540,1,8,0:2:0:0:
405,83,108840,1,0,0:0:0:0:
405,83,108990,1,8,0:2:0:0:
221,209,109290,1,0,0:0:0:0:
221,209,109440,6,0,L|165:198,1,56.2500021457673,8|4,1:2|1:3,0:0:0:0:
291,175,109740,2,0,L|346:185,1,56.2500021457673,8|4,0:2|1:3,0:0:0:0:
270,64,110040,6,0,L|290:174,1,112.500004291535,0|0,1:0|0:0,0:0:0:0:
200,98,110490,2,0,L|220:208,1,112.500004291535,8|0,0:2|0:0,0:0:0:0:
130,132,110940,2,0,L|150:242,1,112.500004291535,8|0,0:2|0:0,0:0:0:0:
60,166,111390,2,0,L|80:276,1,112.500004291535,8|0,0:2|0:0,0:0:0:0:
97,348,111840,6,0,L|207:368,1,112.500004291535,0|8,1:3|0:2,0:0:0:0:
331,350,112290,1,8,0:2:0:0:
263,317,112440,6,0,L|97:347,1,168.750006437302,0|8,1:0|0:2,0:0:0:0:
173,195,113190,1,0,0:0:0:0:
210,131,113340,2,0,L|320:151,1,112.500004291535,8|0,0:2|1:0,0:0:0:0:
21,365,114240,5,8,1:2:0:0:
25,369,114840,1,4,1:2:0:0:
116,284,115140,6,0,L|63:302,1,56.2500021457673,0|8,0:0|0:2,0:0:0:0:
226,235,115590,6,0,L|190:277,1,56.2500021457673,0|8,0:0|0:2,0:0:0:0:
297,137,116040,6,0,L|287:191,1,56.2500021457673,0|8,0:0|0:2,0:0:0:0:
308,17,116490,6,0,L|327:69,1,56.2500021457673,0|8,0:0|1:2,0:0:0:0:
297,137,116790,2,0,L|339:172,1,56.2500021457673,4|8,1:3|0:2,0:0:0:0:
347,246,117090,2,0,L|401:255,1,56.2500021457673,4|4,1:3|1:3,0:0:0:0:
493,46,117540,5,0,0:0:0:0:
437,93,117690,2,0,L|326:69,1,112.500004291535,8|0,0:2|0:0,0:0:0:0:
283,10,118140,2,0,L|174:44,1,112.500004291535,8|0,0:2|0:0,0:0:0:0:
195,115,118590,2,0,L|118:199,1,112.500004291535,8|0,0:2|0:0,0:0:0:0:
52,168,119040,2,0,L|27:278,1,112.500004291535,8|8,1:2|0:2,0:0:0:0:
81,328,119490,1,4,1:3:0:0:
81,328,119640,1,4,1:2:0:0:
427,273,119940,6,0,L|418:214,1,56.2500021457673,0|8,0:0|0:2,0:0:0:0:
109,251,120390,1,0,0:0:0:0:
109,251,120540,1,8,0:2:0:0:
365,166,120840,6,0,L|356:107,1,56.2500021457673,0|8,0:0|0:2,0:0:0:0:
135,175,121290,1,0,0:0:0:0:
135,175,121440,1,8,1:2:0:0:
306,55,121740,6,0,L|297:-4,1,56.2500021457673,8|8,0:2|1:2,0:0:0:0:
205,106,122040,6,0,L|214:165,1,56.2500021457673,0|0,1:0|1:0,0:0:0:0:
170,243,122340,2,0,L|229:234,1,56.2500021457673,0|0,1:0|1:0,0:0:0:0:
307,278,122640,2,0,L|298:219,1,56.2500021457673,0|0,1:0|1:0,0:0:0:0:
342,141,122940,2,0,L|283:150,1,56.2500021457673,0|0,1:0|1:0,0:0:0:0:
205,106,123240,6,0,L|187:176,1,63.7500012159348,4|4,1:3|1:3,0:0:0:0:
170,243,123540,2,0,L|240:261,1,63.7500012159348,4|4,1:3|1:3,0:0:0:0:
307,278,123840,2,0,L|325:208,1,63.7500012159348,4|4,1:3|1:3,0:0:0:0:
342,141,124140,2,0,L|272:123,1,63.7500012159348,4|4,1:3|1:3,0:0:0:0:
75,191,124440,5,4,1:3:0:0:
256,192,124590,12,0,126840,2:0:0:0:
256,192,126990,12,0,129240,2:0:0:0:
256,192,129390,12,0,131640,0:0:0:0:
256,192,131790,12,0,132840,0:0:0:0:
256,64,134040,6,0,L|78:83,1,168.750006437302,4|8,0:2|0:2,0:0:0:0:
256,320,134940,2,0,L|434:301,1,168.750006437302,8|8,0:2|0:2,0:0:0:0:
222,162,135840,6,0,L|166:167,1,56.2500021457673,8|0,1:2|0:0,0:0:0:0:
290,222,136140,2,0,L|345:216,1,56.2500021457673,8|4,0:2|1:3,0:0:0:0:
280,102,136440,5,4,1:3:0:0:
231,281,136740,5,0,0:0:0:0:
231,281,136890,1,8,0:2:0:0:
166,167,137190,5,0,0:0:0:0:
166,167,137340,1,8,0:2:0:0:
345,216,137640,5,0,0:0:0:0:
345,216,137790,1,8,0:2:0:0:
280,102,138090,5,0,0:0:0:0:
280,102,138240,1,8,1:2:0:0:
236,337,138540,6,0,L|231:281,1,56.2500021457673,8|4,0:2|1:3,0:0:0:0:
166,246,138840,6,0,L|54:234,1,112.500004291535,4|0,1:2|0:0,0:0:0:0:
144,87,139290,2,0,L|256:76,1,112.500004291535,8|0,0:2|0:0,0:0:0:0:
346,246,139740,6,0,L|457:234,1,112.500004291535,8|0,0:2|0:0,0:0:0:0:
367,87,140190,2,0,L|256:76,1,112.500004291535,8|0,0:2|0:0,0:0:0:0:
256,192,140640,6,0,L|256:320,1,112.500004291535,8|8,1:2|1:2,0:0:0:0:
256,304,141090,1,8,1:2:0:0:
171,339,141240,6,0,L|182:273,1,56.2500021457673,4|8,1:3|1:2,0:0:0:0:
331,283,141540,2,0,L|341:339,1,56.2500021457673,4|8,1:3|1:2,0:0:0:0:
122,234,141840,6,0,L|112:178,1,56.2500021457673,4|8,1:3|1:2,0:0:0:0:
399,178,142140,2,0,L|390:234,1,56.2500021457673,4|8,1:3|1:2,0:0:0:0:
256,352,142440,5,8,1:1:0:0:
86,243,143640,6,0,L|161:225,1,75,4|0,1:2|0:0,0:0:0:0:
15,181,143940,2,0,L|171:229,1,150,10|4,1:2|1:3,0:0:0:0:
238,198,144390,1,4,1:3:0:0:
83,115,144540,2,0,L|76:33,1,75,10|0,1:2|0:0,0:0:0:0:
308,30,144840,6,0,L|221:61,1,75,4|0,1:3|1:3,0:0:0:0:
383,131,145140,2,0,L|162:86,1,225,12|4,1:2|1:3,0:0:0:0:
15,181,145740,1,10,1:2:0:0:
15,181,145890,1,0,1:3:0:0:
76,237,146040,6,0,L|89:318,1,75,4|0,1:2|1:3,0:0:0:0:
227,173,146340,2,0,L|214:254,1,75,10|0,1:2|0:0,0:0:0:0:
277,300,146640,2,0,L|351:288,1,75,4|4,1:3|1:3,0:0:0:0:
416,237,146940,5,10,1:2:0:0:
500,354,147090,1,0,1:3:0:0:
467,165,147240,6,0,L|393:154,1,75,4|0,1:3|0:0,0:0:0:0:
391,13,147540,2,0,L|416:237,1,225,12|4,1:2|1:3,0:0:0:0:
473,48,148140,1,10,1:2:0:0:
473,48,148290,1,0,1:3:0:0:
318,81,148440,6,0,L|243:69,1,75,4|0,1:2|0:0,0:0:0:0:
318,81,148740,2,0,L|169:104,1,150,10|4,1:2|1:3,0:0:0:0:
102,57,149190,1,4,1:3:0:0:
27,163,149340,6,0,L|11:242,1,75,10|0,1:2|1:3,0:0:0:0:
161,240,149640,2,0,L|100:187,1,75,4|0,1:3|0:0,0:0:0:0:
26,318,149940,2,0,L|238:244,1,225,12|4,1:2|1:3,0:0:0:0:
394,315,150540,1,10,1:2:0:0:
394,315,150690,1,0,1:3:0:0:
319,361,150840,6,0,L|307:276,1,75,12|4,1:2|1:3,0:0:0:0:
475,343,151140,2,0,L|463:258,1,75,12|4,1:2|1:3,0:0:0:0:
357,227,151440,2,0,L|367:152,1,75,12|4,1:2|1:3,0:0:0:0:
282,181,151739,5,12,1:2:0:0:
282,181,151889,1,4,1:3:0:0:
201,209,152040,6,0,L|213:124,1,75,12|4,1:2|1:3,0:0:0:0:
266,20,152340,2,0,L|276:94,1,75,12|4,1:2|1:3,0:0:0:0:
422,2,152640,2,0,L|432:76,1,75,12|4,1:2|1:3,0:0:0:0:
347,48,152940,5,12,1:2:0:0:
347,48,153090,1,4,1:3:0:0:
211,134,153240,5,4,1:2:0:0:
77,252,162240,6,0,L|143:229,1,63.7500012159348,4|4,1:3|1:3,0:0:0:0:
215,203,162540,2,0,L|162:157,1,63.7500012159348,4|4,1:3|1:3,0:0:0:0:
103,107,162840,6,0,L|76:256,1,127.50000243187,4|8,1:2|0:2,0:0:0:0:
258,377,163440,2,0,L|285:228,1,127.50000243187,4|8,0:3|0:2,0:0:0:0:
295,169,163890,2,0,L|427:123,1,127.50000243187,4|4,0:3|0:3,0:0:0:0:
493,97,164340,5,8,0:2:0:0:
270,16,164640,1,4,0:3:0:0:
281,252,164940,2,0,L|347:229,1,63.7500012159348,8|0,0:2|0:0,0:0:0:0:
341,231,165240,6,0,L|318:356,1,127.50000243187,0|8,1:2|0:2,0:0:0:0:
171,153,165840,2,0,L|193:27,1,127.50000243187,4|8,0:3|0:2,0:0:0:0:
73,70,166290,2,0,L|171:153,1,127.50000243187,4|4,0:3|0:3,0:0:0:0:
193,26,166740,2,0,L|73:70,1,127.50000243187,8|4,0:2|0:3,0:0:0:0:
42,320,167340,5,8,0:2:0:0:
42,320,167490,1,0,0:0:0:0:
16,241,167640,6,0,L|141:264,1,127.50000243187,0|8,1:2|0:2,0:0:0:0:
371,120,168240,2,0,L|496:143,1,127.50000243187,4|8,0:3|0:2,0:0:0:0:
348,245,168690,2,0,L|371:120,1,127.50000243187,4|4,0:3|0:3,0:0:0:0:
323,50,169140,1,8,0:2:0:0:
348,245,169440,6,0,L|410:256,1,63.7500012159348,4|4,0:3|0:3,0:0:0:0:
484,205,169740,2,0,L|496:143,1,63.7500012159348,8|0,0:2|0:0,0:0:0:0:
451,72,170040,5,0,1:2:0:0:
293,124,170340,1,8,0:2:0:0:
293,124,170490,1,0,0:0:0:0:
135,176,170790,1,0,0:0:0:0:
135,176,170940,2,0,L|72:164,1,63.7500012159348,8|0,0:2|0:0,0:0:0:0:
9,199,171240,2,0,L|134:176,1,127.50000243187,0|8,0:0|0:2,0:0:0:0:
288,384,171840,5,4,1:3:0:0:
208,368,171990,1,4,1:3:0:0:
224,288,172140,1,4,1:3:0:0:
304,304,172290,1,4,1:3:0:0:
256,336,172440,5,4,1:1:0:0:
222,159,172740,6,0,L|291:188,1,75,8|0,0:2|0:0,0:0:0:0:
361,217,173040,2,0,L|373:67,1,150,4|8,0:3|0:2,0:0:0:0:
507,182,173490,2,0,L|361:217,1,150,4|4,0:3|0:3,0:0:0:0:
400,281,173940,2,0,L|439:345,1,75,8|0,0:2|0:0,0:0:0:0:
263,331,174240,2,0,L|361:217,2,150,4|8|0,0:3|0:2|1:2,0:0:0:0:
291,188,175140,6,0,L|222:159,1,75,8|0,0:2|0:0,0:0:0:0:
152,130,175440,2,0,L|140:280,1,150,4|8,0:3|0:2,0:0:0:0:
6,165,175890,2,0,L|152:130,1,150,4|4,0:3|0:3,0:0:0:0:
113,66,176340,2,0,L|74:2,1,75,8|0,0:2|0:0,0:0:0:0:
250,16,176640,2,0,L|152:130,1,150,4|8,0:3|0:2,0:0:0:0:
418,209,177240,6,0,L|507:226,1,75,0|0,1:2|0:0,0:0:0:0:
284,150,177540,2,0,L|223:105,1,75,8|0,0:2|0:0,0:0:0:0:
284,332,177840,2,0,L|345:195,1,150,4|8,0:3|0:2,0:0:0:0:
459,98,178290,2,0,L|345:195,1,150,4|4,0:3|0:3,0:0:0:0:
200,234,178740,2,0,L|272:214,1,75,8|0,0:2|0:0,0:0:0:0:
345,195,179040,2,0,L|380:261,1,75,4|4,0:3|0:3,0:0:0:0:
345,195,179340,2,0,L|341:104,1,75,8|4,1:2|1:3,0:0:0:0:
382,48,179640,5,0,1:0:0:0:
382,48,179790,1,0,1:0:0:0:
256,84,179940,6,0,L|256:9,1,75,0|0,1:0|1:0,0:0:0:0:
130,48,180240,5,0,1:0:0:0:
130,48,180390,1,0,1:0:0:0:
167,195,180540,2,0,L|171:104,1,75,0|0,1:0|1:0,0:0:0:0:
256,160,180840,5,8,1:0:0:0:
141,342,182040,6,0,L|257:322,1,112.5,4|0,1:2|2:0,0:0:0:0:
256,318,182340,2,0,L|268:244,1,75,10|2,1:2|1:3,0:0:0:0:
212,121,182640,2,0,L|200:195,1,75,4|4,1:3|1:3,0:0:0:0:
145,257,182940,2,0,L|72:270,1,75,10|0,1:2|1:3,0:0:0:0:
0,227,183240,5,4,1:3:0:0:
256,318,183540,1,12,1:2:0:0:
72,270,183840,6,0,L|145:257,1,75,4|4,1:3|1:3,0:0:0:0:
200,195,184140,2,0,L|212:121,1,75,12|0,1:2|1:3,0:0:0:0:
165,52,184440,5,12,1:2:0:0:
200,195,184740,1,12,1:2:0:0:
343,160,185040,1,12,1:2:0:0:
308,17,185340,1,12,1:2:0:0:
165,52,185640,5,12,1:2:0:0:
71,270,185940,1,12,1:2:0:0:
290,364,186240,1,12,1:2:0:0:
383,145,186540,1,12,1:2:0:0:
383,145,186690,1,4,1:3:0:0:
427,56,186840,6,0,L|311:76,1,112.5,4|0,1:2|2:0,0:0:0:0:
312,80,187140,2,0,L|300:154,1,75,10|2,1:2|1:3,0:0:0:0:
285,235,187440,5,4,1:3:0:0:
383,145,187590,1,4,1:3:0:0:
433,210,187740,2,0,L|413:326,1,112.5,10|0,1:2|2:0,0:0:0:0:
409,325,188040,6,0,L|335:337,1,75,4|0,1:3|1:3,0:0:0:0:
433,210,188340,2,0,L|507:198,1,75,12|2,1:2|1:3,0:0:0:0:
500,278,188640,5,4,1:3:0:0:
500,278,188790,1,4,1:3:0:0:
433,210,188940,2,0,L|359:222,1,75,12|0,1:2|1:3,0:0:0:0:
298,165,189240,5,12,1:2:0:0:
433,210,189540,1,12,1:2:0:0:
388,345,189840,1,12,1:2:0:0:
253,300,190140,1,12,1:2:0:0:
231,53,190440,5,12,1:2:0:0:
478,31,190740,1,12,1:2:0:0:
500,278,191040,1,12,1:2:0:0:
253,300,191340,1,12,1:2:0:0:
253,300,191490,1,4,1:3:0:0:
192,243,191640,6,0,L|204:115,1,112.5,4|0,1:2|2:0,0:0:0:0:
198,134,191940,2,0,L|123:141,1,75,10|2,1:2|1:3,0:0:0:0:
69,78,192240,2,0,L|76:3,1,75,4|4,1:3|1:3,0:0:0:0:
205,59,192540,2,0,L|197:133,1,75,10|0,1:2|1:3,0:0:0:0:
274,163,192840,5,4,1:3:0:0:
13,164,193140,1,12,1:2:0:0:
197,133,193440,6,0,L|205:59,1,75,4|4,1:3|1:3,0:0:0:0:
76,3,193740,2,0,L|69:78,1,75,12|0,1:2|1:3,0:0:0:0:
13,164,194040,5,12,1:2:0:0:
197,133,194340,1,12,1:2:0:0:
228,317,194640,1,12,1:2:0:0:
44,348,194940,1,12,1:2:0:0:
50,48,195240,5,12,1:2:0:0:
274,93,195540,1,12,1:2:0:0:
228,317,195840,1,12,1:2:0:0:
4,272,196140,1,12,1:2:0:0:
4,272,196290,1,4,1:3:0:0:
11,189,196440,6,0,L|139:177,1,112.5,4|0,1:2|2:0,0:0:0:0:
120,183,196740,2,0,L|113:258,1,75,10|2,1:2|1:3,0:0:0:0:
11,189,197040,1,4,1:3:0:0:
11,189,197190,1,4,1:3:0:0:
99,104,197340,2,0,L|227:92,1,112.5,10|0,1:2|2:0,0:0:0:0:
208,98,197640,6,0,L|201:173,1,75,4|0,1:3|1:3,0:0:0:0:
99,104,197940,2,0,L|106:29,1,75,12|2,1:2|1:3,0:0:0:0:
220,16,198240,1,4,1:3:0:0:
278,141,198390,1,4,1:3:0:0:
348,97,198540,2,0,L|423:104,1,75,12|0,1:2|1:3,0:0:0:0:
488,158,198840,5,12,1:2:0:0:
348,97,199140,1,12,1:2:0:0:
246,211,199440,1,12,1:2:0:0:
323,342,199740,1,12,1:2:0:0:
472,310,200040,5,12,1:2:0:0:
214,281,200340,1,12,1:2:0:0:
243,23,200640,1,12,1:2:0:0:
501,52,200940,1,12,1:2:0:0:
472,310,201240,5,12,1:2:0:0:
243,23,201540,1,12,1:2:0:0:
109,365,201840,1,12,1:2:0:0:
472,310,202140,1,12,1:2:0:0:
275,233,202440,5,4,1:2:0:0:
275,233,203040,6,0,L|196:255,1,75
202,253,203490,6,0,L|428:296,1,225,4|10,1:2|1:2,0:0:0:0:
248,121,204240,6,0,L|225:46,1,75,4|0,1:3|0:0,0:0:0:0:
136,188,204540,1,10,1:2:0:0:
202,253,204690,6,0,L|428:296,1,225,4|10,1:2|1:2,0:0:0:0:
248,121,205440,6,0,L|174:106,1,75,4|0,1:3|0:0,0:0:0:0:
174,106,205740,1,10,1:2:0:0:
202,253,205890,6,0,L|428:296,1,225,4|10,1:2|1:2,0:0:0:0:
174,106,206640,6,0,L|188:179,1,75,4|0,1:3|0:0,0:0:0:0:
202,253,206940,1,10,1:2:0:0:
145,337,207090,6,0,L|296:308,1,150,4|4,1:2|1:3,0:0:0:0:
337,239,207540,2,0,L|410:253,1,75,4|0,1:2|0:0,0:0:0:0:
352,364,207840,2,0,L|503:335,1,150,4|4,1:2|1:2,0:0:0:0:
410,253,208290,6,0,L|188:210,1,225,4|10,1:2|1:2,0:0:0:0:
364,121,209040,6,0,L|387:46,1,75,4|0,1:3|0:0,0:0:0:0:
476,188,209340,1,10,1:2:0:0:
410,253,209490,6,0,L|188:210,1,225,4|10,1:2|1:2,0:0:0:0:
364,121,210240,6,0,L|438:106,1,75,4|0,1:3|0:0,0:0:0:0:
438,106,210540,1,10,1:2:0:0:
410,253,210690,6,0,L|188:210,1,225,4|10,1:2|1:2,0:0:0:0:
438,106,211440,6,0,L|424:179,1,75,4|0,1:3|0:0,0:0:0:0:
322,262,211740,2,0,L|336:335,1,75,10|0,1:2|1:2,0:0:0:0:
483,363,212040,6,0,L|331:334,1,150,4|4,1:2|1:2,0:0:0:0:
293,94,212640,2,0,L|141:65,1,150,4|4,1:2|1:2,0:0:0:0:
75,86,213090,6,0,L|351:138,1,281.250010728836,4|0,1:2|1:0,0:0:0:0:
293,94,213990,1,4,0:0:0:0:
130,179,214290,6,0,L|406:231,1,281.250010728836,4|0,0:1|1:0,0:0:0:0:
480,204,215190,1,8,1:2:0:0:
185,272,215490,6,0,L|461:324,1,281.250010728836,4|0,1:1|1:0,0:0:0:0:
350,335,216390,2,0,L|276:320,1,75,4|4,0:0|0:0,0:0:0:0:
185,272,216690,6,0,L|156:124,1,150,4|4,1:2|1:3,0:0:0:0:
170,345,217140,2,0,L|184:271,1,75,4|0,1:2|0:0,0:0:0:0:
96,241,217440,6,0,L|67:93,1,150,4|4,1:2|1:2,0:0:0:0:
82,315,217890,1,4,1:2:0:0:
82,315,221490,6,0,L|129:166,1,150,4|4,1:2|1:3,0:0:0:0:
108,99,221940,2,0,L|129:179,1,75,4|0,1:2|0:0,0:0:0:0:
177,279,222240,2,0,L|224:130,1,150,4|4,1:2|1:2,0:0:0:0:
203,63,222690,1,4,1:2:0:0:
72,156,222990,6,0,L|126:171,1,56.2500021457673,0|2,0:0|0:3,0:0:0:0:
177,279,223290,1,0,0:0:0:0:
177,279,223440,2,0,L|285:250,1,112.500004291535,8|0,1:2|0:0,0:0:0:0:
335,192,223890,6,0,L|363:83,2,112.500004291535,4|0|0,0:3|0:0|0:0,0:0:0:0:
335,192,224640,2,0,L|442:246,1,112.500004291535,8|0,1:2|0:0,0:0:0:0:
435,242,225090,6,0,L|255:290,1,168.750006437302,4|2,0:3|0:3,0:0:0:0:
22,363,225840,1,8,1:2:0:0:
22,363,226140,1,0,0:0:0:0:
22,363,226290,6,0,L|67:204,1,150,4|4,1:2|1:3,0:0:0:0:
29,135,226740,2,0,L|117:117,1,75,4|0,1:2|0:0,0:0:0:0:
29,135,227040,2,0,L|187:175,1,150,4|4,1:2|1:2,0:0:0:0:
256,192,227490,2,0,L|237:36,1,150,4|0,1:2|0:0,0:0:0:0:
488,157,228090,5,0,0:0:0:0:
488,157,228240,2,0,L|472:32,1,120,8|0,1:2|0:0,0:0:0:0:
377,110,228690,2,0,L|492:159,1,120,4|0,0:3|0:0,0:0:0:0:
473,38,229140,2,0,L|372:113,1,120,2|8,0:3|1:2,0:0:0:0:
25,157,229740,5,0,0:0:0:0:
25,157,229890,1,4,0:3:0:0:
40,38,230190,1,0,0:0:0:0:
136,110,230490,1,0,0:0:0:0:
136,110,230640,1,8,1:2:0:0:
136,282,230940,1,0,0:0:0:0:
136,282,231090,6,0,L|256:192,1,150,4|4,1:2|1:3,0:0:0:0:
371,85,231540,2,0,L|384:175,1,75,4|0,1:2|0:0,0:0:0:0:
394,250,231840,2,0,L|256:192,1,150,4|4,1:2|1:2,0:0:0:0:
256,192,232290,2,0,L|237:36,1,150,4|0,1:2|2:0,0:0:0:0:
115,341,232890,6,0,L|35:360,1,60,0|8,0:0|1:2,0:0:0:0:
1,306,233190,2,0,L|115:341,1,120,0|4,0:0|0:3,0:0:0:0:
256,263,233790,5,0,0:0:0:0:
331,227,233940,2,0,L|345:286,1,60,2|0,0:3|0:0,0:0:0:0:
397,341,234240,2,0,L|477:360,1,60,8|0,1:2|0:0,0:0:0:0:
511,306,234540,2,0,L|397:341,1,120
321,373,234990,5,0,0:0:0:0:
256,323,235140,2,0,L|256:259,2,60,2|0|8,0:3|2:0|1:2,0:0:0:0:
404,209,235740,1,0,0:0:0:0:
404,209,235890,6,0,L|256:192,1,150,4|4,1:2|1:3,0:0:0:0:
102,156,236340,2,0,L|136:241,1,75,4|0,1:2|0:0,0:0:0:0:
165,311,236640,2,0,L|256:192,1,150,4|4,1:2|1:2,0:0:0:0:
256,192,237090,2,0,L|194:47,1,150,4|0,1:2|0:0,0:0:0:0:
0,0,237690,5,0,0:0:0:0:
0,0,237840,1,8,1:2:0:0:
66,273,238140,1,0,0:0:0:0:
66,273,238290,6,0,L|56:203,1,60,4|0,0:3|0:0,0:0:0:0:
166,229,238590,2,0,L|122:173,1,60,0|2,0:0|0:3,0:0:0:0:
230,140,238890,2,0,L|164:113,1,60,0|8,0:0|1:2,0:0:0:0:
240,30,239190,2,0,L|170:40,1,60
109,80,239490,6,0,L|415:39,1,300,4|8,0:3|1:2,0:0:0:0:
406,40,240540,1,0,0:0:0:0:
490,21,240690,6,0,L|445:180,1,150,4|4,1:2|1:3,0:0:0:0:
483,249,241140,2,0,L|395:267,1,75,4|0,1:2|0:0,0:0:0:0:
483,249,241440,2,0,L|325:209,1,150,4|4,1:2|1:2,0:0:0:0:
256,192,241890,2,0,L|275:348,1,150,4|0,1:2|0:0,0:0:0:0:
256,192,243090,12,4,243840,0:2:0:0:
256,192,244290,6,0,L|244:319,1,120
245,312,245490,6,0,L|75:330,1,150,4|4,1:2|1:3,0:0:0:0:
307,363,245940,2,0,L|477:345,2,150,4|4|4,1:2|1:2|1:2,0:0:0:0:
372,279,246690,1,4,1:2:0:0:
256,192,247890,12,4,248640,0:2:0:0:
256,192,249090,6,0,L|268:319,1,120
267,312,250290,6,0,L|437:330,1,150,4|4,1:2|1:3,0:0:0:0:
205,363,250740,2,0,L|35:345,2,150,4|4|4,1:2|1:2|1:2,0:0:0:0:
140,279,251490,1,4,1:2:0:0:
256,192,252690,12,4,253440,0:2:0:0:
256,192,253890,6,0,L|244:65,1,120
245,72,255090,6,0,L|75:54,1,150,4|4,1:2|1:3,0:0:0:0:
256,192,255540,2,0,L|426:210,2,150,4|4|4,1:2|1:2|1:2,0:0:0:0:
267,312,256290,1,4,1:2:0:0:
256,192,257490,12,4,258240,0:2:0:0:
256,192,258690,6,0,L|268:65,1,120
267,72,259890,6,0,L|437:54,1,150,4|4,1:2|1:3,0:0:0:0:
256,192,260340,2,0,L|86:210,2,150,4|4|4,1:2|1:2|1:2,0:0:0:0:
335,234,261090,2,0,L|317:404,1,150,4|0,1:2|1:3,0:0:0:0:
27,54,261840,5,8,1:2:0:0:
27,54,261990,1,0,0:0:0:0:
184,88,262290,5,4,1:3:0:0:
52,132,262590,1,0,1:0:0:0:
253,136,262890,2,0,L|265:57,1,75,0|8,1:0|1:2,0:0:0:0:
332,21,263190,1,0,0:0:0:0:
332,21,263340,1,0,1:3:0:0:
471,95,263640,5,0,0:0:0:0:
471,95,263790,1,0,1:0:0:0:
182,171,264090,1,0,1:0:0:0:
182,171,264240,1,8,1:2:0:0:
512,384,264540,1,0,1:3:0:0:
512,384,264690,6,0,L|489:219,1,150,4|4,1:2|1:3,0:0:0:0:
417,224,265140,2,0,L|491:235,1,75,4|0,1:2|0:0,0:0:0:0:
417,224,265440,2,0,L|394:59,1,150,4|4,1:2|1:2,0:0:0:0:
491,235,265890,2,0,L|326:258,1,150,4|0,1:2|1:0,0:0:0:0:
32,181,266640,5,8,1:2:0:0:
32,181,266790,1,0,0:0:0:0:
130,0,267090,6,0,L|100:177,1,150,4|0,1:3|1:0,0:0:0:0:
217,346,267690,1,0,1:0:0:0:
217,346,267840,2,0,L|297:333,1,75,8|0,1:2|0:0,0:0:0:0:
15,255,268290,6,0,L|192:285,1,150,4|0,1:3|1:0,0:0:0:0:
223,235,268740,2,0,L|210:155,1,75,0|0,1:3|1:0,0:0:0:0:
264,108,269040,2,0,L|441:138,1,150,8|0,1:2|1:3,0:0:0:0:
512,255,269490,6,0,L|335:285,1,150,4|4,1:2|1:3,0:0:0:0:
317,160,269940,2,0,L|304:234,1,75,4|0,1:2|0:0,0:0:0:0:
264,108,270240,2,0,L|87:138,1,150,4|4,1:2|1:2,0:0:0:0:
50,44,270690,6,0,L|20:221,1,150,4|0,1:2|1:0,0:0:0:0:
256,352,271290,5,0,1:0:0:0:
256,352,271440,1,8,1:2:0:0:
462,44,271890,6,0,L|492:221,1,150,4|0,1:3|1:0,0:0:0:0:
256,352,272490,5,0,1:0:0:0:
256,352,272640,1,8,1:2:0:0:
461,43,273090,6,0,L|314:69,1,150,4|0,1:3|1:0,0:0:0:0:
50,43,273690,5,0,1:0:0:0:
50,43,273840,1,8,1:2:0:0:
198,69,274140,5,0,0:0:0:0:
198,69,274290,2,0,L|21:39,1,150,4|4,1:2|1:3,0:0:0:0:
90,133,274740,2,0,L|102:214,1,75,4|0,1:2|0:0,0:0:0:0:
185,176,275040,2,0,L|362:206,1,150,4|4,1:2|1:2,0:0:0:0:
413,160,275490,6,0,L|298:298,1,150,4|4,1:2|1:3,0:0:0:0:
136,339,275940,2,0,L|228:328,1,75,4|0,1:2|0:0,0:0:0:0:
312,365,276240,2,0,L|249:196,1,150,4|4,1:2|1:2,0:0:0:0:
293,101,276690,6,0,L|431:215,1,150,4|4,1:2|1:3,0:0:0:0:
472,378,277140,2,0,L|461:286,1,75,4|0,1:2|0:0,0:0:0:0:
498,202,277440,2,0,L|329:264,1,150,4|4,1:2|1:2,0:0:0:0:
136,320,278040,6,0,L|170:247,1,75,4|0,1:2|0:0,0:0:0:0:
42,241,278340,2,0,L|107:194,1,75,4|0,1:2|0:0,0:0:0:0:
0,126,278640,2,0,L|80:118,1,75,4|0,1:2|0:0,0:0:0:0:
21,5,278940,2,0,L|94:39,1,75,4|0,1:2|0:0,0:0:0:0:
170,87,279240,6,0,L|201:19,1,75,4|4,1:2|1:3,0:0:0:0:
233,140,279540,2,0,L|294:96,1,75,4|4,1:2|1:3,0:0:0:0:
262,219,279840,2,0,L|336:212,1,75,4|4,1:2|1:3,0:0:0:0:
401,275,280140,1,4,1:2:0:0:
345,345,280290,2,0,L|519:368,1,150,4|0,1:3|0:0,0:0:0:0:
224,384,284640,5,4,1:3:0:0:
304,368,284790,1,4,1:3:0:0:
288,288,284940,1,4,1:3:0:0:
208,304,285090,1,4,1:3:0:0:
256,192,287940,6,0,L|64:224,1,168.750006437302,4|4,1:3|1:3,0:0:0:0:
362,334,290040,6,0,L|246:314,1,112.5,4|0,1:2|2:0,0:0:0:0:
247,310,290340,2,0,L|235:236,1,75,10|2,1:2|1:3,0:0:0:0:
431,262,290640,2,0,L|358:249,1,75,4|4,1:3|1:3,0:0:0:0:
303,187,290940,2,0,L|291:113,1,75,10|0,1:2|1:3,0:0:0:0:
325,42,291240,5,4,1:3:0:0:
247,310,291540,1,12,1:2:0:0:
291,113,291840,6,0,L|303:187,1,75,4|4,1:3|1:3,0:0:0:0:
358,249,292140,2,0,L|431:262,1,75,12|0,1:2|1:3,0:0:0:0:
503,219,292440,5,12,1:2:0:0:
303,187,292740,1,12,1:2:0:0:
430,29,293040,1,12,1:2:0:0:
503,219,293340,1,12,1:2:0:0:
273,256,293640,5,12,1:2:0:0:
231,0,293940,1,12,1:2:0:0:
380,107,294240,1,12,1:2:0:0:
129,145,294540,1,12,1:2:0:0:
129,145,294690,1,4,1:3:0:0:
85,56,294840,6,0,L|201:76,1,112.5,4|0,1:2|2:0,0:0:0:0:
200,80,295140,2,0,L|212:154,1,75,10|2,1:2|1:3,0:0:0:0:
227,235,295440,5,4,1:3:0:0:
129,145,295590,1,4,1:3:0:0:
79,210,295740,2,0,L|99:326,1,112.5,10|0,1:2|2:0,0:0:0:0:
103,325,296040,6,0,L|177:337,1,75,4|0,1:3|1:3,0:0:0:0:
153,222,296340,2,0,L|79:210,1,75,12|2,1:2|1:3,0:0:0:0:
106,70,296640,5,4,1:3:0:0:
106,70,296790,1,4,1:3:0:0:
5,198,296940,2,0,L|79:210,1,75,12|0,1:2|1:3,0:0:0:0:
214,165,297240,5,12,1:2:0:0:
79,210,297540,1,12,1:2:0:0:
124,345,297840,1,12,1:2:0:0:
259,300,298140,1,12,1:2:0:0:
281,53,298440,5,12,1:2:0:0:
12,278,298740,1,12,1:2:0:0:
34,31,299040,1,12,1:2:0:0:
259,300,299340,1,12,1:2:0:0:
259,300,299490,1,4,1:3:0:0:
320,243,299640,6,0,L|308:115,1,112.5,4|0,1:2|2:0,0:0:0:0:
314,134,299940,2,0,L|389:141,1,75,10|2,1:2|1:3,0:0:0:0:
436,3,300240,2,0,L|443:78,1,75,4|4,1:3|1:3,0:0:0:0:
315,133,300540,2,0,L|307:59,1,75,10|0,1:2|1:3,0:0:0:0:
238,163,300840,5,4,1:3:0:0:
499,164,301140,1,12,1:2:0:0:
307,59,301440,6,0,L|315:133,1,75,4|4,1:3|1:3,0:0:0:0:
436,3,301740,2,0,L|443:78,1,75,12|0,1:2|1:3,0:0:0:0:
499,164,302040,5,12,1:2:0:0:
315,133,302340,1,12,1:2:0:0:
284,317,302640,1,12,1:2:0:0:
468,348,302940,1,12,1:2:0:0:
462,48,303240,5,12,1:2:0:0:
284,317,303540,1,12,1:2:0:0:
238,93,303840,1,12,1:2:0:0:
508,272,304140,1,12,1:2:0:0:
508,272,304290,1,4,1:3:0:0:
501,189,304440,6,0,L|373:177,1,112.5,4|0,1:2|2:0,0:0:0:0:
392,183,304740,2,0,L|399:258,1,75,10|2,1:2|1:3,0:0:0:0:
501,189,305040,1,4,1:3:0:0:
501,189,305190,1,4,1:3:0:0:
413,104,305340,2,0,L|285:92,1,112.5,10|0,1:2|2:0,0:0:0:0:
304,98,305640,6,0,L|311:173,1,75,4|0,1:3|1:3,0:0:0:0:
406,29,305940,2,0,L|413:104,1,75,12|2,1:2|1:3,0:0:0:0:
292,16,306240,1,4,1:3:0:0:
234,141,306390,1,4,1:3:0:0:
164,97,306540,2,0,L|89:104,1,75,12|0,1:2|1:3,0:0:0:0:
24,158,306840,5,12,1:2:0:0:
164,97,307140,1,12,1:2:0:0:
266,211,307440,1,12,1:2:0:0:
189,342,307740,1,12,1:2:0:0:
40,310,308040,5,12,1:2:0:0:
298,281,308340,1,12,1:2:0:0:
269,23,308640,1,12,1:2:0:0:
11,52,308940,1,12,1:2:0:0:
40,310,309240,5,12,1:2:0:0:
269,23,309540,1,12,1:2:0:0:
403,365,309840,1,12,1:2:0:0:
40,310,310140,1,12,1:2:0:0:
237,233,310440,5,4,1:2:0:0:
237,233,311040,6,0,L|316:255,1,75
310,253,311490,6,0,L|84:296,1,225,4|10,1:2|1:2,0:0:0:0:
264,121,312240,6,0,L|287:46,1,75,4|0,1:3|0:0,0:0:0:0:
376,188,312540,1,10,1:2:0:0:
310,253,312690,6,0,L|84:296,1,225,4|10,1:2|1:2,0:0:0:0:
264,121,313440,6,0,L|338:106,1,75,4|0,1:3|0:0,0:0:0:0:
338,106,313740,1,10,1:2:0:0:
310,253,313890,6,0,L|84:296,1,225,4|10,1:2|1:2,0:0:0:0:
338,106,314640,6,0,L|324:179,1,75,4|0,1:3|0:0,0:0:0:0:
310,253,314940,1,10,1:2:0:0:
367,337,315090,6,0,L|216:308,1,150,4|4,1:2|1:3,0:0:0:0:
175,239,315540,2,0,L|102:253,1,75,4|0,1:2|0:0,0:0:0:0:
160,364,315840,2,0,L|9:335,1,150,4|4,1:2|1:2,0:0:0:0:
102,253,316290,6,0,L|324:210,1,225,4|10,1:2|1:2,0:0:0:0:
148,121,317040,6,0,L|125:46,1,75,4|0,1:3|0:0,0:0:0:0:
36,188,317340,1,10,1:2:0:0:
102,253,317490,6,0,L|324:210,1,225,4|10,1:2|1:2,0:0:0:0:
148,121,318240,6,0,L|74:106,1,75,4|0,1:3|0:0,0:0:0:0:
74,106,318540,1,10,1:2:0:0:
102,253,318690,6,0,L|324:210,1,225,4|10,1:2|1:2,0:0:0:0:
74,106,319440,6,0,L|88:179,1,75,4|0,1:3|0:0,0:0:0:0:
190,262,319740,2,0,L|176:335,1,75,10|4,1:2|1:2,0:0:0:0:
29,363,320040,6,0,L|181:334,1,150,4|4,1:2|1:2,0:0:0:0:
219,94,320640,2,0,L|371:65,1,150,4|4,1:2|1:2,0:0:0:0:
437,86,321090,6,0,L|161:138,1,281.250010728836,4|0,1:2|1:0,0:0:0:0:
219,94,321990,1,4,0:0:0:0:
382,179,322290,6,0,L|106:231,1,281.250010728836,4|0,0:1|1:0,0:0:0:0:
32,204,323190,1,0,1:0:0:0:
327,272,323490,6,0,L|51:324,1,281.250010728836,4|0,1:1|1:0,0:0:0:0:
162,335,324390,2,0,L|236:320,1,75,4|4,0:0|0:0,0:0:0:0:
327,272,324690,6,0,L|356:124,1,150,4|4,1:2|1:3,0:0:0:0:
342,345,325140,2,0,L|328:271,1,75,4|0,1:2|0:0,0:0:0:0:
416,241,325440,6,0,L|445:93,1,150,4|4,1:2|1:2,0:0:0:0:
30,35,326040,5,4,1:2:0:0:
214,119,326340,2,0,L|207:166,2,37.5,0|0|0,0:0|0:0|1:0,0:0:0:0:
372,31,326790,2,0,L|414:15,2,37.5,0|0|0,0:0|0:0|1:0,0:0:0:0:
124,114,327240,2,0,L|104:71,2,37.5,0|0|0,0:0|0:0|1:0,0:0:0:0:
242,231,327690,6,0,L|234:273,2,37.5,0|0|0,0:0|0:0|1:0,0:0:0:0:
286,8,328140,2,0,L|297:51,2,37.5,0|0|0,0:0|0:0|1:0,0:0:0:0:
300,373,328590,2,0,L|289:330,2,37.5,0|0|0,0:0|0:0|1:0,0:0:0:0:
484,145,329040,2,0,L|439:154,2,37.5,0|0|0,0:0|0:0|1:0,0:0:0:0:
44,104,329640,6,0,L|55:22,1,75,0|0,1:0|1:1,0:0:0:0:
191,76,329940,2,0,L|181:150,1,75
44,104,330240,2,0,L|213:73,1,150,0|0,1:0|1:0,0:0:0:0:
263,23,330690,1,0,1:0:0:0:
347,54,330840,5,0,1:0:0:0:
99,209,331140,2,0,L|106:256,2,37.5,0|0|0,0:0|0:0|1:0,0:0:0:0:
330,139,331590,2,0,L|288:123,2,37.5,0|0|0,0:0|0:0|1:0,0:0:0:0:
134,343,332040,2,0,L|154:300,2,37.5,0|0|0,0:0|0:0|1:0,0:0:0:0:
235,177,332490,6,0,L|243:219,2,37.5,0|0|0,0:0|0:0|1:0,0:0:0:0:
445,76,332940,2,0,L|403:83,2,37.5,0|0|0,0:0|0:0|1:0,0:0:0:0:
511,137,333240,1,0,1:0:0:0:
511,137,333390,1,0,1:0:0:0:
439,191,333540,6,0,L|452:266,1,75,0|0,1:0|1:0,0:0:0:0:
393,312,333840,1,0,1:0:0:0:
312,213,333990,6,0,L|370:164,1,75,0|0,1:0|1:0,0:0:0:0:
393,312,334290,2,0,L|321:285,1,75,0|0,1:0|0:0,0:0:0:0:
62,76,335640,6,0,L|234:64,1,150,4|0,1:2|3:2,0:0:0:0:
215,69,336090,2,0,L|227:241,1,150,4|0,0:2|3:0,0:0:0:0:
221,222,336540,2,0,L|49:234,1,150,4|0,1:2|3:3,0:0:0:0:
68,229,336990,2,0,L|56:57,1,150,4|0,0:2|3:0,0:0:0:0:
296,162,337440,6,0,L|285:311,1,150,4|0,1:2|3:0,0:0:0:0:
282,315,337890,2,0,L|132:304,1,150,4|0,0:2|3:0,0:0:0:0:
128,301,338340,2,0,L|138:151,1,150,4|0,1:2|3:3,0:0:0:0:
141,148,338790,2,0,L|290:158,1,150,4|0,0:2|3:0,0:0:0:0:
500,136,339240,6,0,L|427:170,1,75,12|0,1:2|3:0,0:0:0:0:
421,42,339540,2,0,L|374:107,1,75,12|0,1:2|3:0,0:0:0:0:
306,0,339840,2,0,L|298:80,1,75,12|0,1:2|0:0,0:0:0:0:
185,21,340140,2,0,L|219:94,1,75,12|0,1:2|0:0,0:0:0:0:
315,153,340440,6,0,L|346:220,1,75,4|0,0:2|0:0,0:0:0:0:
233,167,340740,2,0,L|225:241,1,75,10|0,1:2|0:0,0:0:0:0:
154,139,341040,2,0,L|110:199,1,75
99,74,341340,2,0,L|31:105,1,75,10|0,1:2|0:0,0:0:0:0:
21,195,341640,5,0,0:0:0:0:
21,195,341790,1,0,0:0:0:0:
149,277,341940,1,10,1:2:0:0:
149,277,342090,1,0,0:0:0:0:
78,339,342240,6,0,L|66:249,2,75,0|0|10,1:0|1:0|1:2,0:0:0:0:
0,376,342690,2,0,L|520:301,1,525,0|10,0:0|1:2,0:0:0:0:
392,71,344040,6,0,L|341:12,1,75,12|0,1:2|0:0,0:0:0:0:
315,102,344340,2,0,L|289:175,1,75,14|0,1:2|0:0,0:0:0:0:
290,172,344640,2,0,L|443:142,1,150,12|14,1:2|1:2,0:0:0:0:
214,84,345240,6,0,L|209:36,2,37.5,4|0|0,1:0|0:0|0:0,0:0:0:0:
290,172,345538,6,0,L|295:124,2,37.5,14|0|4,1:2|0:0|1:3,0:0:0:0:
181,267,345837,6,0,L|176:219,2,37.5,12|0|4,1:2|0:0|1:3,0:0:0:0:
326,347,346135,6,0,L|331:299,2,37.5,14|0|0,1:2|0:0|0:0,0:0:0:0:
400,274,346434,5,4,1:0:0:0:
400,274,346580,1,0,0:0:0:0:
280,250,346726,1,14,1:2:0:0:
280,250,346873,1,4,1:3:0:0:
191,345,347019,6,0,L|42:327,1,150,12|14,1:2|1:2,0:0:0:0:
186,50,347604,6,0,L|181:98,2,37.5,4|0|0,1:0|0:0|0:0,0:0:0:0:
331,130,347897,6,0,L|336:178,2,37.5,14|0|4,1:2|0:0|1:3,0:0:0:0:
222,225,348190,6,0,L|217:273,2,37.5,12|0|4,1:2|0:0|1:3,0:0:0:0:
298,313,348482,6,0,L|303:361,2,37.5,14|0|0,1:2|0:0|0:0,0:0:0:0:
331,130,348775,6,0,L|490:149,1,150,4|14,1:0|1:2,0:0:0:0:
302,350,349390,2,0,L|174:334,1,127.50000243187,12|14,1:2|1:2,0:0:0:0:
110,293,349851,5,4,1:3:0:0:
110,293,349928,1,4,1:3:0:0:
110,293,350005,6,0,L|122:162,1,127.50000243187,12|4,1:2|1:3,0:0:0:0:
5,219,350455,2,0,L|121:166,1,127.50000243187,12|4,1:2|1:3,0:0:0:0:
192,74,350905,6,0,L|256:185,1,127.50000243187,12|4,1:2|1:3,0:0:0:0:
320,73,351355,2,0,L|256:184,1,127.50000243187,12|4,1:2|1:3,0:0:0:0:
402,293,351805,6,0,L|390:162,1,127.50000243187,12|0,1:2|0:0,0:0:0:0:
506,219,352255,2,0,L|391:166,1,127.50000243187,12|0,1:2|0:0,0:0:0:0:
256,33,352733,6,0,L|256:1,6,31.8750006079674,8|8|8|8|8|8|8,1:2|1:2|1:2|1:2|1:2|1:2|1:2,0:0:0:0:
