osu file format v14

[General]
AudioFilename: audio.mp3
AudioLeadIn: 0
PreviewTime: 180390
Countdown: 0
SampleSet: Normal
StackLeniency: 0.2
Mode: 0
LetterboxInBreaks: 0
WidescreenStoryboard: 0

[Editor]
DistanceSpacing: 1
BeatDivisor: 4
GridSize: 16
TimelineZoom: 2.599999

[Metadata]
Title:Guilty All The Same (feat. Rakim)
TitleUnicode:Guilty All The Same (feat. Rakim)
Artist:Linkin Park
ArtistUnicode:Linkin Park
Creator:fieryrage
Version:Shame
Source:
Tags:marathon lp the hunting party nu metal alternative rap project spark
BeatmapID:1187302
BeatmapSetID:518596

[Difficulty]
HPDrainRate:5
CircleSize:4
OverallDifficulty:9.8
ApproachRate:9.8
SliderMultiplier:2.1
SliderTickRate:1

[Events]
//Background and Video events
0,0,"1885326.jpg",0,0
//Break Periods
2,280890,284040
//Storyboard Layer 0 (Background)
//Storyboard Layer 1 (Fail)
//Storyboard Layer 2 (Pass)
//Storyboard Layer 3 (Foreground)
//Storyboard Sound Samples

[TimingPoints]
90,300,4,1,1,5,1,0
90,-1000,4,1,1,5,0,0
1290,-200,4,2,1,40,0,0
9690,-200,4,2,2,45,0,0
9840,-200,4,2,2,50,0,0
9990,-200,4,2,2,55,0,0
10140,-200,4,2,2,60,0,0
10290,-200,4,2,1,20,0,0
10890,-100,4,1,1,70,0,1
10965,-100,4,1,2,70,0,0
14490,-100,4,1,1,70,0,0
18390,-100,4,1,1,60,0,0
18840,300,4,1,1,60,1,0
18840,-200,4,1,1,60,0,0
19140,-200,4,2,5,5,0,0
19290,-200,4,2,1,15,0,0
19440,-200,4,2,5,5,0,0
19740,-200,4,2,1,15,0,0
20490,-200,4,2,5,5,0,0
20640,-200,4,2,1,15,0,0
20790,-200,4,2,5,5,0,0
21090,-200,4,2,1,15,0,0
21840,-200,4,2,5,5,0,0
21990,-200,4,2,1,15,0,0
22140,-200,4,2,5,5,0,0
22440,-200,4,2,1,15,0,0
23490,-125,4,1,1,35,0,0
23640,-125,4,1,1,40,0,0
28440,-111.111111111111,4,1,1,45,0,0
38040,-100,4,1,1,50,0,0
46440,-100,4,1,1,40,0,0
46590,-100,4,1,1,50,0,0
47640,-90.9090909090909,4,1,1,55,0,0
49440,-90.9090909090909,4,1,1,60,0,0
52440,-83.3333333333333,4,1,1,65,0,0
54240,-83.3333333333333,4,1,1,70,0,0
56940,-125,4,1,1,70,0,0
57240,-400,4,1,1,60,0,0
57540,-400,4,2,5,5,0,0
58140,-400,4,2,1,20,0,0
58740,-400,4,2,5,5,0,0
59340,-400,4,2,1,20,0,0
61140,-400,4,2,5,5,0,0
61740,-125,4,2,1,40,0,0
62040,-400,4,2,1,55,0,0
62340,-400,4,2,5,5,0,0
62940,-400,4,2,1,20,0,0
63540,-400,4,2,5,5,0,0
64140,-400,4,2,1,20,0,0
66240,-200,4,2,1,40,0,0
66840,-125,4,1,1,40,0,0
71040,-125,4,1,1,60,0,0
71190,-125,4,1,1,50,0,0
71640,-125,4,1,1,40,0,0
74340,-400,4,2,1,20,0,0
76440,-100,4,1,1,70,0,1
76515,-100,4,1,1,70,0,0
83640,-76.9230769230769,4,1,1,75,0,1
86040,-100,4,1,1,70,0,0
93240,-76.9230769230769,4,1,1,75,0,1
95040,-100,4,1,1,75,0,1
95640,-125,4,1,1,50,0,0
95940,-125,4,1,1,45,0,0
114840,-125,4,1,1,50,0,0
123240,-100,4,1,1,60,0,0
124440,-200,4,1,1,55,0,0
124740,-200,4,2,1,25,0,0
131640,-200,4,2,1,30,0,0
132840,-200,4,2,1,35,0,0
133740,-200,4,2,1,40,0,0
134040,-125,4,2,1,45,0,0
136365,-125,4,2,1,5,0,0
136440,-125,4,2,1,45,0,0
141240,-125,4,2,1,50,0,0
141840,-125,4,2,1,55,0,0
142440,-200,4,2,1,60,0,0
142740,-200,4,2,1,25,0,0
143340,-100,4,2,1,40,0,0
143415,-100,4,2,1,5,0,0
143490,-66.6666666666667,4,2,1,40,0,0
143565,-66.6666666666667,4,2,1,5,0,0
143640,-100,4,1,1,70,0,1
143715,-100,4,1,1,70,0,0
150840,-76.9230769230769,4,1,1,75,0,1
152640,-86.9565217391304,4,1,1,75,0,1
153240,-100,4,1,1,55,0,0
179640,-100,4,1,1,60,0,0
180240,-100,4,1,1,65,0,0
180840,-200,4,1,1,60,0,0
180915,-200,4,2,1,25,0,0
182040,-83.3333333333333,4,1,1,80,0,1
184440,-62.5,4,1,1,80,0,1
186840,-83.3333333333333,4,1,1,80,0,1
189240,-62.5,4,1,1,80,0,1
191640,-83.3333333333333,4,1,1,80,0,1
194040,-62.5,4,1,1,80,0,1
196440,-83.3333333333333,4,1,1,80,0,1
198840,-62.5,4,1,1,80,0,1
201240,-50,4,1,1,80,0,1
202440,-100,4,1,1,80,0,1
202740,-100,4,2,1,50,0,1
203040,-125,4,3,1,50,0,0
203490,-200,4,1,1,90,0,1
203565,-200,4,1,1,80,0,1
203940,-71.4285714285714,4,1,1,80,0,1
204690,-100,4,1,1,80,0,1
205140,-71.4285714285714,4,1,1,80,0,1
205890,-100,4,1,1,80,0,1
206340,-71.4285714285714,4,1,1,80,0,1
207240,-62.5,4,1,1,90,0,1
208290,-200,4,1,1,90,0,1
208365,-200,4,1,1,80,0,1
208740,-71.4285714285714,4,1,1,80,0,1
209490,-100,4,1,1,80,0,1
209940,-71.4285714285714,4,1,1,80,0,1
210690,-100,4,1,1,80,0,1
211140,-71.4285714285714,4,1,1,80,0,1
212040,-62.5,4,1,1,90,0,1
213090,-125,4,1,1,70,0,0
215265,-125,4,1,1,5,0,0
215490,-125,4,1,1,70,0,0
216690,-100,4,1,1,75,0,0
217890,-400,4,1,1,70,0,0
218040,-400,4,2,1,40,0,0
221490,-200,4,1,1,70,0,0
224640,-133.333333333333,4,1,1,70,0,0
225090,-200,4,1,1,70,0,0
229440,-133.333333333333,4,1,1,70,0,0
229890,-200,4,1,1,70,0,0
234240,-133.333333333333,4,1,1,70,0,0
234390,-133.333333333333,4,1,1,40,0,0
234540,-133.333333333333,4,1,1,70,0,0
234690,-200,4,1,1,70,0,0
239040,-133.333333333333,4,1,1,70,0,0
239490,-200,4,1,1,70,0,0
241890,-400,4,1,1,70,0,0
242190,-400,4,2,1,40,0,0
245490,-200,4,1,1,70,0,0
246690,-400,4,1,1,70,0,0
246990,-400,4,2,1,40,0,0
250290,-200,4,1,1,70,0,0
251490,-400,4,1,1,70,0,0
251790,-400,4,2,1,40,0,0
255090,-200,4,1,1,70,0,0
256290,-400,4,1,1,70,0,0
256590,-400,4,2,1,40,0,0
259890,-200,4,1,1,70,0,0
263040,-133.333333333333,4,1,1,70,0,0
263490,-200,4,1,1,70,0,0
267840,-133.333333333333,4,1,1,70,0,0
268290,-200,4,1,1,70,0,0
270690,-125,4,1,1,70,0,0
271815,-125,4,1,1,5,0,0
271890,-125,4,1,1,70,0,0
272640,-83.3333333333333,4,1,1,70,0,0
273090,-125,4,1,1,70,0,0
274215,-125,4,1,1,5,0,0
274290,-100,4,1,1,70,0,0
275490,-83.3333333333333,4,1,1,70,0,0
276690,-71.4285714285714,4,1,1,70,0,0
278040,-62.5,4,1,1,75,0,0
278640,-62.5,4,1,1,80,0,0
279240,-50,4,1,1,85,0,1
280290,-200,4,1,1,70,0,0
280590,-200,4,2,1,30,0,0
280740,-400,4,2,1,20,0,0
280890,-400,4,2,1,15,0,0
282840,-400,4,2,1,20,0,0
284640,-125,4,1,1,70,0,0
285165,-125,4,2,1,30,0,0
286440,-125,4,2,1,40,0,0
287790,-125,4,2,1,5,0,0
287940,-125,4,1,1,70,0,0
288540,-125,4,2,1,40,0,0
288840,-200,4,2,1,40,0,0
288915,-200,4,2,1,5,0,0
289140,-200,4,2,1,40,0,0
289215,-200,4,2,1,5,0,0
289440,-200,4,2,1,40,0,0
289515,-200,4,2,1,5,0,0
289740,-200,4,2,1,50,0,0
289890,-200,4,2,1,30,0,0
290040,-83.3333333333333,4,1,1,80,0,1
292440,-62.5,4,1,1,80,0,1
294840,-83.3333333333333,4,1,1,80,0,1
297240,-62.5,4,1,1,80,0,1
299640,-83.3333333333333,4,1,1,80,0,1
302040,-62.5,4,1,1,80,0,1
304440,-83.3333333333333,4,1,1,80,0,1
306840,-62.5,4,1,1,80,0,1
309240,-50,4,1,1,80,0,1
310440,-100,4,1,1,80,0,1
310740,-100,4,2,1,50,0,1
311040,-125,4,3,1,50,0,0
311490,-200,4,1,1,90,0,1
311565,-200,4,1,1,80,0,1
311940,-71.4285714285714,4,1,1,80,0,1
312690,-100,4,1,1,80,0,1
313140,-71.4285714285714,4,1,1,80,0,1
313890,-100,4,1,1,80,0,1
314340,-71.4285714285714,4,1,1,80,0,1
315240,-62.5,4,1,1,90,0,1
316290,-200,4,1,1,90,0,1
316365,-200,4,1,1,80,0,1
316740,-71.4285714285714,4,1,1,80,0,1
317490,-100,4,1,1,80,0,1
317940,-71.4285714285714,4,1,1,80,0,1
318690,-100,4,1,1,80,0,1
319140,-71.4285714285714,4,1,1,80,0,1
320040,-62.5,4,1,1,90,0,1
321090,-125,4,1,1,70,0,0
324690,-100,4,1,1,70,0,0
325140,-200,4,1,1,60,0,0
326040,-100,4,1,1,70,0,1
326115,-100,4,1,1,40,0,0
326490,-100,4,1,1,70,0,0
326565,-100,4,1,1,40,0,0
326940,-100,4,1,1,70,0,0
327015,-100,4,1,1,40,0,0
327390,-100,4,1,1,70,0,0
327465,-100,4,1,1,40,0,0
327840,-100,4,1,1,70,0,0
327915,-100,4,1,1,40,0,0
328290,-100,4,1,1,70,0,0
328365,-100,4,1,1,40,0,0
328740,-100,4,1,1,70,0,0
328815,-100,4,1,1,40,0,0
329190,-100,4,1,1,70,0,0
329265,-100,4,1,1,40,0,0
329640,-83.3333333333333,4,1,1,70,0,0
329715,-83.3333333333333,4,1,1,40,0,0
329790,-83.3333333333333,4,1,1,70,0,0
329865,-83.3333333333333,4,1,1,40,0,0
330240,-83.3333333333333,4,1,1,70,0,0
330315,-83.3333333333333,4,1,1,40,0,0
330390,-83.3333333333333,4,1,1,60,0,0
330540,-83.3333333333333,4,1,1,70,0,0
330840,-100,4,1,1,70,0,0
330915,-100,4,1,1,40,0,0
331290,-100,4,1,1,70,0,0
331365,-100,4,1,1,40,0,0
331740,-100,4,1,1,70,0,0
331815,-100,4,1,1,40,0,0
331890,-66.6666666666667,4,1,1,40,0,0
332040,-100,4,1,1,40,0,0
332190,-100,4,1,1,70,0,0
332265,-100,4,1,1,40,0,0
332640,-100,4,1,1,70,0,0
332715,-100,4,1,1,40,0,0
333090,-100,4,1,1,70,0,0
333165,-100,4,1,1,40,0,0
333390,-100,4,1,1,50,0,0
333540,-100,4,1,1,60,0,0
333690,-100,4,1,1,65,0,0
333840,-100,4,1,1,70,0,0
334440,-200,4,1,1,70,0,0
334590,-200,4,2,1,35,0,0
335040,-200,4,2,1,30,0,0
335340,-200,4,2,1,25,0,0
335490,-200,4,2,1,20,0,0
335640,-71.4285714285714,4,1,1,85,0,1
335715,-71.4285714285714,4,1,1,75,0,1
337440,-50,4,1,1,75,0,1
337477,-50,4,2,1,35,0,1
337590,-50,4,2,1,45,0,1
337627,-50,4,2,1,35,0,1
337665,-50,4,2,1,25,0,1
337702,-50,4,2,1,15,0,1
337740,-71.4285714285714,4,1,1,75,0,1
339240,-50,4,1,1,75,0,1
339315,-50,4,1,1,45,0,1
339390,-50,4,1,1,75,0,1
339465,-50,4,1,1,45,0,1
339540,-50,4,1,1,75,0,1
339615,-50,4,1,1,45,0,1
339690,-50,4,1,1,75,0,1
339765,-50,4,1,1,45,0,1
339840,-83.3333333333333,4,1,1,75,0,1
339915,-83.3333333333333,4,1,1,45,0,1
339990,-83.3333333333333,4,1,1,75,0,1
340065,-83.3333333333333,4,1,1,45,0,1
340140,-83.3333333333333,4,1,1,75,0,1
340215,-83.3333333333333,4,1,1,45,0,1
340290,-83.3333333333333,4,1,1,75,0,1
340365,-83.3333333333333,4,1,1,45,0,1
340440,-71.4285714285714,4,1,1,85,0,1
340515,-71.4285714285714,4,1,1,75,0,1
344040,-50,4,1,1,75,0,1
344940,-100,4,1,1,75,0,0
345240,298.507462686567,4,1,1,80,1,1
345240,-55.5555555555556,4,1,1,80,0,1
346434,292.682926829268,4,1,1,80,1,1
346434,-55.5555555555556,4,1,1,80,0,1
348775,307.692307692308,4,1,1,80,1,1
348775,-71.4285714285714,4,1,1,80,0,1
349390,-55.5555555555556,4,1,1,80,0,1
350005,300,4,1,1,80,1,1
350005,-71.4285714285714,4,1,1,80,0,1
350080,-71.4285714285714,4,1,1,60,0,1
350305,-71.4285714285714,4,1,1,80,0,1
350380,-71.4285714285714,4,1,1,60,0,1
350455,-71.4285714285714,4,1,1,80,0,1
350530,-71.4285714285714,4,1,1,60,0,1
350755,-71.4285714285714,4,1,1,80,0,1
350830,-71.4285714285714,4,1,1,60,0,1
350905,-71.4285714285714,4,1,1,80,0,1
350980,-71.4285714285714,4,1,1,60,0,1
351205,-71.4285714285714,4,1,1,80,0,1
351280,-71.4285714285714,4,1,1,60,0,1
351355,-71.4285714285714,4,1,1,80,0,1
351430,-71.4285714285714,4,1,1,60,0,1
351655,-71.4285714285714,4,1,1,80,0,1
351730,-71.4285714285714,4,1,1,60,0,1
351805,-83.3333333333333,4,1,1,80,0,1
351880,-83.3333333333333,4,1,1,50,0,1
352105,-83.3333333333333,4,1,1,80,0,1
352180,-83.3333333333333,4,1,1,50,0,1
352255,333.333333333333,4,1,1,80,1,1
352255,-83.3333333333333,4,1,1,80,0,1
352338,-83.3333333333333,4,1,1,50,0,1
352588,-83.3333333333333,4,1,1,80,0,1
352671,-83.3333333333333,4,1,1,35,0,1
352733,300,4,1,1,60,1,0
353174,300,4,1,1,60,1,1
353174,-66.6666666666667,4,1,1,60,0,1
353436,-100,4,2,1,5,0,0

[Colours]
Combo1 : 95,120,113
Combo2 : 131,87,134
Combo3 : 145,118,169
Combo4 : 121,136,162

[HitObjects]
234,332,90,6,0,L|258:331,3,21,4|4|4|4,3:3|3:3|3:3|3:3,3:0:0:0:
255,332,1290,6,0,P|272:282|264:220,1,105,6|12,0:3|0:3,0:0:0:0:
172,108,1740,1,2,0:3:0:0:
172,108,1890,2,0,L|245:110,1,52.5,14|0,0:3|0:3,0:0:0:0:
429,68,2190,2,0,L|325:73,1,105,14|12,0:3|0:3,0:0:0:0:
120,106,2640,6,0,L|172:108,1,52.5,2|12,0:3|0:3,0:0:0:0:
267,230,2940,1,0,0:0:0:0:
429,68,3090,2,0,L|325:73,1,105,14|12,0:3|0:3,0:0:0:0:
120,106,3540,1,2,0:3:0:0:
120,106,3690,2,0,L|172:108,1,52.5,12|0,0:3|0:3,0:0:0:0:
255,332,3990,6,0,P|272:282|264:220,1,105,14|12,0:3|0:3,0:0:0:0:
172,108,4440,1,2,0:3:0:0:
383,203,4590,2,0,L|386:146,1,52.5,12|0,0:3|0:0,0:0:0:0:
18,264,4890,5,14,0:3:0:0:
27,111,5040,1,0,0:3:0:0:
103,269,5190,1,14,0:3:0:0:
112,116,5340,1,0,0:3:0:0:
291,364,5490,5,14,0:3:0:0:
282,211,5640,1,0,0:3:0:0:
206,369,5790,1,14,0:3:0:0:
197,216,5940,1,0,0:3:0:0:
383,203,6090,6,0,B|336:221|336:221|275:210,1,105,14|12,0:3|0:3,0:0:0:0:
349,22,6540,1,2,0:3:0:0:
349,22,6690,2,0,L|355:89,1,52.5,12|0,0:3|0:3,0:0:0:0:
166,99,6990,6,0,B|219:89|219:89|266:107,1,105,14|12,0:3|0:3,0:0:0:0:
186,291,7440,1,2,0:3:0:0:
186,291,7590,2,0,L|190:238,1,52.5,12|0,0:3|0:3,0:0:0:0:
392,374,7890,6,0,P|355:380|283:359,1,105,14|12,0:3|0:3,0:0:0:0:
350,285,8340,1,2,0:3:0:0:
105,344,8490,1,12,0:3:0:0:
105,344,8790,6,0,L|109:234,1,105,2|0,0:3|0:0,0:0:0:0:
112,126,9240,1,2,0:3:0:0:
236,160,9390,5,8,0:1:0:0:
2,189,9540,1,8,0:1:0:0:
282,256,9690,5,10,0:1:0:0:
90,211,9840,1,8,0:1:0:0:
328,352,9990,5,10,0:1:0:0:
112,126,10140,1,8,0:1:0:0:
376,227,10290,6,0,L|381:284,3,52.5,2|0|2|0,0:0|0:0|0:0|0:0,0:0:0:0:
89,291,10890,6,0,B|194:311|194:311|295:247,1,210,6|8,0:0|0:0,0:0:0:0:
112,126,11340,1,2,0:0:0:0:
376,227,11490,2,0,L|507:230,1,105,8|0,0:0|0:0,0:0:0:0:
127,148,11790,2,0,L|-4:151,1,105,10|0,0:0|0:0,0:0:0:0:
288,337,12090,5,8,0:0:0:0:
269,159,12240,1,2,0:0:0:0:
89,291,12390,1,8,0:0:0:0:
376,227,12540,1,0,0:0:0:0:
127,148,12690,2,0,L|-4:151,1,105,10|0,0:0|0:0,0:0:0:0:
376,227,12990,1,8,0:0:0:0:
194,360,13140,1,2,0:0:0:0:
365,132,13290,6,0,P|314:132|269:158,1,105,8|0,0:0|0:0,0:0:0:0:
194,360,13590,2,0,L|190:255,1,105,10|0,0:0|0:0,0:0:0:0:
247,25,13890,1,8,0:0:0:0:
269,159,14040,1,2,0:0:0:0:
54,75,14190,1,8,0:0:0:0:
36,70,14340,1,0,0:0:0:0:
269,159,14490,6,0,P|281:209|276:261,1,105,10|0,0:0|0:0,0:0:0:0:
81,330,14790,2,0,P|75:277|88:227,1,105,10|0,0:0|0:0,0:0:0:0:
346,315,15090,2,0,P|302:342|250:345,1,105,10|0,0:0|0:0,0:0:0:0:
60,139,15391,2,0,P|111:142|156:169,1,105,10|0,0:0|0:0,0:0:0:0:
494,127,15690,6,0,L|253:139,1,210,10|0,0:0|0:0,0:0:0:0:
18,257,16140,2,0,L|259:269,1,210,10|0,0:0|0:0,0:0:0:0:
468,54,16590,6,0,L|241:34,1,210,10|0,0:0|0:0,0:0:0:0:
44,330,17040,2,0,L|271:310,1,210,10|0,0:0|0:0,0:0:0:0:
161,60,17490,6,0,P|86:56|166:109,1,210,8|0,0:0|0:0,0:0:0:0:
351,324,17940,2,0,P|408:260|323:248,1,210,8|0,0:0|0:0,0:0:0:0:
79,309,18390,5,8,0:0:0:0:
110,312,18465,1,8,0:0:0:0:
141,317,18540,1,8,0:0:0:0:
172,320,18615,1,8,0:0:0:0:
203,325,18690,1,8,0:0:0:0:
234,330,18765,1,8,0:0:0:0:
270,329,18840,6,0,B|280:246|280:246|263:164,2,157.5,2|2|2,0:2|0:0|0:0,0:0:0:0:
171,132,20190,6,0,P|225:80|313:83,2,157.5,2|2|2,0:0|0:0|0:0,0:0:0:0:
369,200,21540,6,0,P|445:199|501:146,2,157.5,2|2|2,0:0|0:0|0:0,0:0:0:0:
178,167,22740,5,0,0:0:0:0:
178,167,23040,2,0,L|285:161,1,105,2|0,0:0|0:0,0:0:0:0:
274,297,23490,1,0,0:3:0:0:
272,313,23565,1,8,0:3:0:0:
270,329,23640,6,0,L|176:334,2,84,10|0|0,0:3|0:0|0:0,0:0:0:0:
383,284,24090,2,0,L|477:289,2,84,8|0|0,0:0|0:0|0:0,0:0:0:0:
182,225,24540,6,0,L|88:230,2,84,8|0|0,0:0|0:0|0:0,0:0:0:0:
295,180,24990,2,0,L|389:185,2,84,8|0|0,0:0|0:0|0:0,0:0:0:0:
97,124,25440,5,8,0:0:0:0:
255,50,25590,1,0,0:0:0:0:
271,44,25740,1,0,0:0:0:0:
97,124,25890,5,8,0:0:0:0:
295,180,26040,1,0,0:0:0:0:
311,185,26190,1,0,0:0:0:0:
201,349,26340,5,8,0:0:0:0:
179,162,26490,1,0,0:0:0:0:
177,145,26640,1,0,0:0:0:0:
201,349,26790,5,8,0:0:0:0:
225,85,26940,1,0,0:0:0:0:
228,68,27090,1,0,0:0:0:0:
410,207,27240,5,8,0:0:0:0:
179,162,27390,1,8,0:0:0:0:
353,112,27540,1,4,0:3:0:0:
369,107,27690,1,0,0:0:0:0:
201,349,27840,6,0,L|242:346,1,42,8|0,0:0|0:0,0:0:0:0:
410,207,27990,2,0,L|368:204,1,42,0|0,0:3|0:3,0:0:0:0:
155,272,28140,1,8,0:3:0:0:
384,327,28290,1,8,0:0:0:0:
159,90,28440,6,0,B|133:172|133:172|157:280,1,188.999994232178,2|0,0:2|0:0,0:0:0:0:
410,207,28890,2,0,P|359:194|313:199,2,94.499997116089,8|0|0,0:0|0:0|0:0,0:0:0:0:
201,349,29340,2,0,P|252:362|298:357,2,94.499997116089,8|0|0,0:0|0:0|0:0,0:0:0:0:
238,54,29790,6,0,L|248:180,2,94.499997116089,8|0|0,0:0|0:0|0:0,0:0:0:0:
410,207,30240,2,0,L|417:112,2,94.499997116089,8|0|0,0:0|0:0|0:0,0:0:0:0:
57,202,30690,5,8,0:0:0:0:
245,148,30840,1,0,0:0:0:0:
263,143,30990,1,0,0:0:0:0:
421,315,31140,5,8,0:0:0:0:
233,261,31290,1,0,0:0:0:0:
215,256,31440,1,0,0:0:0:0:
372,18,31590,5,8,0:0:0:0:
354,230,31740,1,0,0:0:0:0:
352,248,31890,1,0,0:0:0:0:
57,202,32040,5,8,0:0:0:0:
263,143,32190,1,8,0:0:0:0:
146,307,32340,1,4,0:3:0:0:
352,248,32490,1,0,0:0:0:0:
151,147,32640,6,0,L|147:194,1,47.2499985580445,8|0,0:0|0:0,0:0:0:0:
355,295,32790,2,0,L|350:230,1,47.2499985580445
275,39,32940,1,8,0:3:0:0:
389,152,33090,1,8,0:0:0:0:
101,360,33240,6,0,P|66:337|145:331,1,188.999994232178,2|0,0:3|0:0,0:0:0:0:
445,253,33690,2,0,L|333:246,1,94.499997116089,8|0,0:0|0:0,0:0:0:0:
211,242,33990,1,0,0:0:0:0:
499,112,34140,6,0,L|387:105,1,94.499997116089,8|0,0:0|0:0,0:0:0:0:
265,101,34440,1,0,0:0:0:0:
116,247,34590,6,0,L|228:240,1,94.499997116089,8|0,0:0|0:0,0:0:0:0:
350,236,34890,1,0,0:0:0:0:
507,94,35040,6,0,L|395:87,1,94.499997116089,8|0,0:0|0:0,0:0:0:0:
273,83,35340,1,0,0:0:0:0:
109,264,35490,6,0,L|221:257,1,94.499997116089,8|0,0:0|0:0,0:0:0:0:
343,252,35790,1,0,0:0:0:0:
38,126,35940,6,0,B|31:81|31:81|41:34,2,94.499997116089,8|0|0,0:0|0:0|0:0,0:0:0:0:
200,165,36390,2,0,B|210:212|210:212|203:258,2,94.499997116089,8|0|0,0:0|0:0|0:0,0:0:0:0:
2,289,36840,5,8,0:0:0:0:
200,165,36990,1,8,0:0:0:0:
38,126,37140,1,4,0:3:0:0:
163,326,37290,1,0,0:0:0:0:
356,183,37440,6,0,L|309:187,1,47.2499985580445,8|0,0:0|0:0,0:0:0:0:
187,70,37590,1,0,0:0:0:0:
210,67,37665,1,0,0:0:0:0:
233,65,37740,2,0,L|358:76,1,94.499997116089,8|8,0:3|0:0,0:0:0:0:
163,326,38040,6,0,P|111:290|135:147,1,210,4|0,0:0|0:0,0:0:0:0:
349,58,38490,2,0,P|401:94|377:237,1,210,8|0,0:0|0:0,0:0:0:0:
163,326,38940,6,0,L|44:331,1,105,8|0,0:0|0:0,0:0:0:0:
217,204,39240,1,0,0:0:0:0:
146,340,39390,6,0,L|27:345,1,105,8|0,0:0|0:0,0:0:0:0:
217,204,39690,1,0,0:0:0:0:
242,198,39765,1,8,0:3:0:0:
267,193,39840,6,0,B|284:244|284:244|276:298,2,105,8|0|0,0:0|0:0|0:0,0:0:0:0:
122,157,40290,2,0,B|114:106|114:106|131:55,2,105,8|0|0,0:0|0:0|0:0,0:0:0:0:
362,346,40740,6,0,L|368:234,2,105,8|0|0,0:0|0:0|0:0,0:0:0:0:
122,157,41190,2,0,L|128:262,2,105,8|0|0,0:0|0:0|0:0,0:0:0:0:
372,3,41640,5,4,0:0:0:0:
391,95,41790,1,0,0:0:0:0:
326,164,41940,1,8,0:3:0:0:
508,127,42090,1,8,0:3:0:0:
296,81,42240,5,8,0:3:0:0:
429,238,42390,1,8,0:0:0:0:
507,34,42540,1,8,0:0:0:0:
268,90,42690,1,8,0:0:0:0:
426,351,42840,6,0,B|443:268|443:268|416:140,1,210,4|0,0:0|0:0,0:0:0:0:
207,124,43290,2,0,P|270:132|322:117,1,105,8|0,0:0|0:0,0:0:0:0:
439,63,43590,1,0,0:0:0:0:
425,350,43740,6,0,L|430:246,1,105,8|0,0:0|0:0,0:0:0:0:
439,63,44040,1,0,0:0:0:0:
217,332,44190,2,0,L|211:227,1,105,8|0,0:0|0:0,0:0:0:0:
202,99,44490,1,0,0:0:0:0:
439,63,44640,5,8,0:0:0:0:
325,226,44790,1,0,0:0:0:0:
313,243,44940,1,0,0:0:0:0:
512,157,45090,5,8,0:0:0:0:
290,117,45240,1,0,0:0:0:0:
269,113,45390,1,0,0:0:0:0:
325,226,45540,5,8,0:0:0:0:
268,21,45690,1,0,0:0:0:0:
261,0,45840,1,0,0:0:0:0:
211,227,45990,5,8,0:0:0:0:
436,132,46140,1,8,0:3:0:0:
131,83,46290,1,8,0:0:0:0:
335,245,46440,5,4,0:0:0:0:
122,201,46590,1,0,0:0:0:0:
290,117,46740,1,8,0:3:0:0:
202,310,46890,1,8,0:0:0:0:
103,75,47040,5,4,0:0:0:0:
290,117,47190,1,8,0:3:0:0:
36,183,47340,1,8,0:0:0:0:
316,111,47490,1,8,0:0:0:0:
132,339,47640,6,0,B|114:212|114:212|143:102,1,231.000007049561,4|0,0:0|0:0,0:0:0:0:
410,51,48090,1,8,0:3:0:0:
420,241,48240,1,8,0:3:0:0:
251,155,48390,1,8,0:0:0:0:
500,116,48540,6,0,L|511:358,1,231.000007049561,4|0,0:0|0:0,0:0:0:0:
251,155,48990,1,8,0:3:0:0:
410,51,49140,1,8,0:0:0:0:
343,277,49290,1,8,0:0:0:0:
176,51,49440,6,0,P|106:20|153:107,1,231.000007049561,4|0,0:0|0:0,0:0:0:0:
410,51,49890,1,8,0:0:0:0:
343,277,50040,1,8,0:0:0:0:
284,0,50190,1,8,0:0:0:0:
346,309,50340,6,0,B|186:323|186:323|121:295,1,231.000007049561,4|0,0:0|0:0,0:0:0:0:
337,60,50790,1,8,0:3:0:0:
126,179,50940,1,8,0:0:0:0:
432,252,51090,1,8,0:0:0:0:
111,165,51240,5,4,0:0:0:0:
366,128,51390,1,0,0:0:0:0:
121,295,51540,1,0,0:0:0:0:
432,252,51690,1,8,0:3:0:0:
176,51,51840,5,4,0:0:0:0:
227,341,51990,1,8,0:3:0:0:
170,29,52140,1,8,0:0:0:0:
121,295,52290,1,8,0:0:0:0:
432,252,52440,6,0,P|468:190|338:189,1,251.999992309571,4|0,0:0|0:0,0:0:0:0:
242,367,52890,1,8,0:3:0:0:
144,213,53040,1,8,0:0:0:0:
432,252,53190,1,8,0:0:0:0:
121,295,53340,6,0,B|79:209|79:209|88:36,1,251.999992309571,4|0,0:0|0:0,0:0:0:0:
399,126,53790,1,8,0:3:0:0:
241,298,53940,1,8,0:0:0:0:
182,21,54090,1,8,0:0:0:0:
432,252,54240,6,0,B|367:305|367:305|285:304|256:233|286:182,1,251.999992309571,4|0,0:0|0:0,0:0:0:0:
404,36,54690,1,8,0:3:0:0:
193,122,54840,1,8,0:3:0:0:
498,190,54990,1,8,0:0:0:0:
204,368,55140,6,0,B|177:295|177:295|193:120,1,251.999992309571,4|0,0:0|0:0,0:0:0:0:
308,0,55590,1,8,0:3:0:0:
464,127,55740,1,8,0:0:0:0:
121,214,55890,1,8,0:0:0:0:
366,255,56040,5,4,0:0:0:0:
94,207,56190,1,8,0:3:0:0:
390,260,56340,1,8,0:0:0:0:
66,200,56490,1,8,0:0:0:0:
408,351,56640,6,0,B|469:326|469:326|496:260,1,125.999996154785,8|0,0:0|0:0,0:0:0:0:
72,116,56940,2,0,L|65:208,1,84,8|2,0:0|0:2,0:0:0:0:
383,52,57240,6,0,P|352:109|418:111,1,157.5,4|2,0:0|0:0,0:0:0:0:
323,223,58440,2,0,B|246:249|244:208|166:234,1,157.5,2|2,0:0|0:0,0:0:0:0:
81,292,59490,1,0,0:0:0:0:
81,292,59640,6,0,L|18:286,3,52.5,2|2|2|2,0:0|0:0|0:0|0:0,0:0:0:0:
143,360,60690,1,0,0:0:0:0:
143,360,60840,2,0,B|163:317|163:317|168:225,1,131.25,2|0,0:0|0:0,0:0:0:0:
304,164,61740,6,0,L|385:156,2,56,2|0|0,3:0|3:0|3:0,3:0:0:0:
445,282,62040,6,0,P|434:243|481:135,1,157.5,8|2,1:0|0:0,0:0:0:0:
389,37,63240,2,0,P|309:63|233:51,1,157.5,2|2,0:0|0:0,0:0:0:0:
143,77,64290,1,0,0:0:0:0:
143,77,64440,6,0,L|138:137,2,52.5,2|2|2,0:0|0:0|0:0,0:0:0:0:
46,217,65340,2,0,L|42:182,1,26.25,2|2,0:0|0:0,0:0:0:0:
167,233,65640,2,0,L|162:286,1,52.5,2|2,0:0|0:0,0:0:0:0:
79,297,66240,5,8,1:0:0:0:
162,285,66390,1,8,1:0:0:0:
245,273,66540,1,8,1:0:0:0:
328,262,66690,1,8,1:0:0:0:
488,148,66840,6,0,B|414:122|414:122|314:138,1,168,4|0,0:0|0:0,0:0:0:0:
68,129,67440,1,0,0:0:0:0:
210,76,67590,2,0,L|204:179,1,84,8|0,0:0|0:0,0:0:0:0:
79,297,68040,6,0,L|68:126,1,168,8|0,0:0|0:0,0:0:0:0:
285,146,68490,2,0,B|245:163|245:163|193:158,2,84,8|0|0,0:0|0:0|0:0,0:0:0:0:
400,275,68940,2,0,B|359:278|359:278|319:261,1,84,8|0,0:0|0:0,0:0:0:0:
465,137,69240,5,0,0:0:0:0:
285,146,69390,2,0,L|402:141,1,84,8|0,0:0|0:0,0:0:0:0:
79,297,69690,1,0,0:0:0:0:
79,297,69840,2,0,L|246:304,1,168,8|0,0:0|0:0,0:0:0:0:
400,275,70290,1,8,0:0:0:0:
202,216,70440,5,0,0:0:0:0:
231,96,70590,1,0,0:0:0:0:
321,250,70740,1,8,0:0:0:0:
350,130,70890,1,0,0:0:0:0:
98,292,71040,5,8,0:0:0:0:
370,119,71190,1,8,0:0:0:0:
319,342,71340,1,8,0:0:0:0:
148,67,71490,1,8,0:0:0:0:
403,299,71640,6,0,P|412:357|403:394,1,84,4|0,0:0|0:0,0:0:0:0:
309,227,71940,2,0,B|360:190|360:190|465:183,1,168,8|0,0:0|0:0,0:0:0:0:
317,24,72390,1,8,0:0:0:0:
317,24,72540,2,0,L|314:134,1,84
166,346,72840,6,0,L|159:175,1,168,8|0,0:0|0:0,0:0:0:0:
154,78,73290,1,8,0:0:0:0:
400,275,73440,5,8,0:0:0:0:
371,152,73590,1,8,0:0:0:0:
512,294,73740,1,8,0:0:0:0:
467,107,73890,1,8,0:0:0:0:
274,293,74040,6,0,P|217:290|272:242,1,168,10|2,0:0|0:0,0:0:0:0:
400,275,74640,1,2,0:0:0:0:
400,275,74940,6,0,L|369:276,1,26.25,2|0,0:0|0:0,0:0:0:0:
221,291,75240,2,0,L|278:293,2,52.5,2|2|2,0:0|0:0|0:0,0:0:0:0:
109,205,76140,5,2,0:0:0:0:
93,124,76290,1,0,0:0:0:0:
399,68,76440,6,0,B|419:155|419:155|395:303,1,210,4|8,0:0|0:0,0:0:0:0:
278,358,76890,1,0,0:0:0:0:
109,205,77040,2,0,P|180:182|229:188,1,105
393,159,77340,1,8,0:0:0:0:
285,378,77490,1,0,0:0:0:0:
265,28,77640,6,0,L|272:159,1,105,2|0,0:3|0:0,0:0:0:0:
209,183,77865,1,0,0:0:0:0:
209,183,77940,2,0,P|156:181|108:161,1,105,12|0,0:0|0:0,0:0:0:0:
325,258,78240,2,0,P|373:238|425:236,1,105
209,183,78540,5,8,0:0:0:0:
192,366,78690,1,0,0:0:0:0:
31,79,78840,6,0,L|241:71,2,210,4|8|0,0:0|0:0|0:0,0:0:0:0:
109,205,79590,1,0,0:0:0:0:
134,1,79740,1,8,0:0:0:0:
31,79,79890,1,0,0:0:0:0:
262,167,80040,6,0,L|367:173,1,105,2|0,0:3|0:0,0:0:0:0:
191,366,80340,2,0,B|172:319|117:313|117:313|96:268|96:268|108:205,1,210,12|0,0:0|0:0,0:0:0:0:
262,167,80790,1,0,0:0:0:0:
399,329,80940,5,8,0:0:0:0:
191,366,81090,1,0,0:0:0:0:
433,134,81240,6,0,P|492:182|397:186,1,210,4|8,0:0|0:0,0:0:0:0:
240,267,81690,1,0,0:0:0:0:
331,123,81840,2,0,P|382:117|432:133,1,105
240,267,82140,2,0,P|190:282|138:277,1,105,8|0,0:0|0:0,0:0:0:0:
448,32,82440,6,0,L|454:154,1,105,2|0,0:3|0:0,0:0:0:0:
450,219,82665,1,0,0:0:0:0:
450,219,82740,2,0,B|398:238|398:238|339:234,1,105,12|0,0:0|0:0,0:0:0:0:
170,80,83040,2,0,B|219:76|219:76|271:95,1,105
195,304,83340,5,8,0:0:0:0:
170,80,83490,1,0,0:0:0:0:
59,317,83640,5,12,0:0:0:0:
348,234,83790,1,0,0:0:0:0:
49,179,83940,5,12,0:0:0:0:
267,366,84090,1,0,0:0:0:0:
170,80,84240,5,12,0:0:0:0:
149,380,84390,1,0,0:0:0:0:
313,157,84540,5,12,0:0:0:0:
0,251,84690,1,0,0:0:0:0:
274,292,84840,5,12,0:0:0:0:
170,80,84990,1,0,0:0:0:0:
271,319,85140,5,12,0:0:0:0:
255,54,85290,1,0,0:0:0:0:
269,342,85440,5,12,0:0:0:0:
343,73,85590,1,0,0:0:0:0:
267,366,85740,5,8,0:0:0:0:
512,199,85890,1,8,0:0:0:0:
42,105,86040,6,0,B|189:97|189:97|263:127,1,210,4|8,0:0|0:0,0:0:0:0:
434,272,86490,1,0,0:0:0:0:
197,362,86640,2,0,L|202:248,1,105
443,46,86940,2,0,L|448:151,1,105,8|0,0:0|0:0,0:0:0:0:
201,257,87240,5,2,0:3:0:0:
265,24,87390,1,0,0:0:0:0:
266,44,87465,1,0,0:0:0:0:
267,64,87540,1,12,0:0:0:0:
448,151,87690,1,0,0:0:0:0:
201,257,87840,6,0,B|138:263|138:263|87:242,1,105
346,160,88140,2,0,B|409:166|409:166|460:145,1,105,8|0,0:0|0:0,0:0:0:0:
128,38,88440,6,0,P|115:104|125:153,1,105,4|0,0:0|0:0,0:0:0:0:
338,262,88740,2,0,P|351:196|341:147,1,105,8|0,0:0|0:0,0:0:0:0:
128,38,89040,5,0,0:0:0:0:
203,228,89190,1,0,0:0:0:0:
325,63,89340,1,8,0:0:0:0:
78,134,89490,1,0,0:0:0:0:
394,351,89640,6,0,L|397:232,1,105,2|0,0:3|0:0,0:0:0:0:
190,0,89940,2,0,L|192:104,1,105,12|0,0:0|0:0,0:0:0:0:
396,246,90240,5,0,0:0:0:0:
469,46,90390,1,0,0:0:0:0:
192,104,90540,1,8,0:0:0:0:
470,175,90690,1,0,0:0:0:0:
208,360,90840,6,0,P|134:368|196:308,1,210,4|8,0:0|0:0,0:0:0:0:
394,351,91290,1,0,0:0:0:0:
49,214,91440,2,0,L|165:208,1,105
412,266,91740,2,0,L|296:260,1,105,8|0,0:0|0:0,0:0:0:0:
94,79,92040,6,0,B|149:77|149:77|197:107,1,105,2|0,0:3|0:0,0:0:0:0:
251,153,92265,1,0,0:0:0:0:
251,153,92340,2,0,L|374:150,1,105,12|0,0:0|0:0,0:0:0:0:
191,305,92640,2,0,L|68:302,1,105
263,37,92940,5,8,0:0:0:0:
284,259,93090,1,0,0:0:0:0:
77,209,93240,5,12,1:0:0:0:
327,156,93390,1,0,1:0:0:0:
113,98,93540,5,12,1:0:0:0:
290,265,93690,1,0,1:0:0:0:
47,215,93840,5,12,1:0:0:0:
352,149,93990,1,0,1:0:0:0:
92,78,94140,5,12,1:0:0:0:
310,285,94290,1,0,1:0:0:0:
192,4,94440,5,12,0:0:0:0:
154,301,94590,1,0,0:0:0:0:
381,144,94740,5,12,0:0:0:0:
92,78,94890,1,0,0:0:0:0:
268,348,95040,5,8,0:0:0:0:
307,106,95190,1,0,0:0:0:0:
14,223,95340,2,0,L|134:228,1,105,8|0,0:3|0:0,0:0:0:0:
503,302,95640,6,0,L|331:310,1,168,4|0,0:0|0:0,0:0:0:0:
118,227,96090,1,8,0:0:0:0:
189,165,96240,1,0,0:0:0:0:
170,384,96540,1,8,0:0:0:0:
34,232,96840,5,0,0:0:0:0:
34,232,96990,2,0,L|134:226,1,84,8|0,0:0|0:0,0:0:0:0:
335,309,97440,2,0,L|277:306,1,42,8|8,0:0|0:3,0:0:0:0:
211,220,97590,2,0,L|269:217,1,42,8|0,0:3|0:0,0:0:0:0:
438,207,97740,2,0,L|345:211,1,84,8|0,0:0|0:0,0:0:0:0:
96,115,98040,6,0,P|46:159|123:164,1,168,10|0,0:3|0:0,0:0:0:0:
370,128,98490,1,8,0:0:0:0:
353,209,98640,1,0,0:0:0:0:
250,28,98940,1,8,0:0:0:0:
454,125,99240,5,0,0:0:0:0:
454,125,99390,2,0,L|344:130,1,84,8|0,0:0|0:0,0:0:0:0:
192,258,99840,1,8,0:3:0:0:
315,299,99990,1,8,0:3:0:0:
231,169,100140,1,8,0:3:0:0:
353,209,100290,1,8,0:3:0:0:
129,343,100440,6,0,P|95:303|117:183,1,168,10|0,0:3|0:0,0:0:0:0:
275,252,100890,2,0,L|177:258,1,84,8|0,0:0|0:0,0:0:0:0:
429,169,101340,1,8,0:0:0:0:
227,85,101640,5,0,0:0:0:0:
227,85,101790,2,0,L|232:191,1,84,8|0,0:0|0:0,0:0:0:0:
129,343,102240,2,0,L|133:272,1,42,8|8,0:0|0:3,0:0:0:0:
230,168,102390,2,0,L|233:210,1,42,8|0,0:3|0:0,0:0:0:0:
68,112,102540,1,8,0:0:0:0:
68,112,102690,1,0,0:0:0:0:
131,301,102840,6,0,L|303:294,1,168,10|0,0:3|0:0,0:0:0:0:
429,169,103290,2,0,P|386:132|395:203,1,168,8|0,0:0|0:0,0:0:0:0:
360,28,103740,2,0,B|316:41|316:41|284:76,1,84,8|0,0:0|0:0,0:0:0:0:
238,293,104040,5,0,0:0:0:0:
238,293,104190,2,0,L|232:201,1,84,8|0,0:0|0:0,0:0:0:0:
384,355,104640,1,8,0:0:0:0:
385,338,104715,1,8,0:3:0:0:
386,321,104790,1,8,0:3:0:0:
387,304,104865,1,0,0:0:0:0:
388,287,104940,1,8,0:0:0:0:
491,237,105090,1,8,0:0:0:0:
232,209,105240,6,0,L|405:203,1,168,6|0,0:0|0:0,0:0:0:0:
512,76,105690,1,8,0:0:0:0:
437,52,105840,1,0,0:0:0:0:
388,287,106140,1,8,0:0:0:0:
232,209,106440,5,0,0:0:0:0:
232,209,106590,2,0,L|135:213,1,84,8|0,0:0|0:0,0:0:0:0:
329,36,107040,2,0,L|333:95,1,42,8|8,0:0|0:3,0:0:0:0:
232,209,107190,2,0,L|235:168,1,42,8|0,0:3|0:0,0:0:0:0:
399,203,107340,1,8,0:0:0:0:
399,203,107490,1,0,0:0:0:0:
145,360,107640,6,0,B|121:307|140:240|140:240|161:267|158:302,1,168,10|0,0:3|0:0,0:0:0:0:
399,203,108090,2,0,L|404:119,2,84,8|0|0,0:0|0:0|0:0,0:0:0:0:
316,301,108540,2,0,L|321:384,1,84,8|0,0:0|0:0,0:0:0:0:
231,208,108840,5,0,0:0:0:0:
403,119,108990,1,8,0:0:0:0:
204,223,109140,1,0,0:0:0:0:
363,16,109440,5,8,0:3:0:0:
468,203,109590,1,8,0:3:0:0:
276,70,109740,1,8,0:3:0:0:
497,106,109890,1,8,0:3:0:0:
204,223,110040,6,0,P|159:181|226:196,1,168,10|0,0:3|0:0,0:0:0:0:
326,383,110490,2,0,L|329:292,2,84,8|0|0,0:0|0:0|0:0,0:0:0:0:
468,203,110940,2,0,L|471:294,1,84,8|0,0:0|0:0,0:0:0:0:
204,223,111240,5,0,0:0:0:0:
369,117,111390,1,8,0:0:0:0:
276,70,111540,1,0,0:0:0:0:
52,112,111840,5,8,0:0:0:0:
68,114,111915,1,8,0:3:0:0:
84,116,111990,1,8,0:3:0:0:
100,118,112065,1,0,0:0:0:0:
116,120,112140,1,8,0:0:0:0:
204,223,112290,1,8,0:0:0:0:
369,117,112440,6,0,B|387:199|387:199|373:299,1,168,10|0,0:3|0:0,0:0:0:0:
204,223,112890,2,0,P|262:208|300:215,2,84,8|0|0,0:0|0:0|0:0,0:0:0:0:
98,311,113340,1,8,0:0:0:0:
194,55,113640,6,0,L|205:246,1,168,2|0,0:3|0:0,0:0:0:0:
208,318,114090,1,8,0:3:0:0:
44,191,114240,1,8,0:3:0:0:
60,187,114315,1,8,0:3:0:0:
76,183,114390,1,8,0:3:0:0:
92,179,114465,1,0,0:0:0:0:
108,175,114540,1,8,0:0:0:0:
347,257,114690,1,8,0:0:0:0:
53,358,114840,6,0,L|43:184,1,168,4|0,0:0|0:0,0:0:0:0:
247,330,115290,2,0,B|207:318|207:318|162:322,2,84,8|0|0,0:0|0:0|0:0,0:0:0:0:
429,248,115740,2,0,B|386:244|386:244|346:256,2,84,8|0|0,0:0|0:0|0:0,0:0:0:0:
280,79,116190,2,0,L|286:176,2,84,8|0|0,0:0|0:0|0:0,0:0:0:0:
207,317,116640,5,8,0:0:0:0:
197,302,116715,1,8,0:3:0:0:
193,285,116790,1,8,0:3:0:0:
192,268,116865,1,0,0:0:0:0:
194,251,116940,1,8,0:0:0:0:
369,167,117090,1,8,0:0:0:0:
91,230,117240,6,0,P|47:214|114:196,1,168,8|0,0:0|0:0,0:0:0:0:
277,256,117690,2,0,L|189:250,2,84,8|0|0,0:0|0:0|0:0,0:0:0:0:
452,161,118140,2,0,L|369:167,1,84,8|0,0:0|0:0,0:0:0:0:
196,56,118440,5,0,0:0:0:0:
277,256,118590,2,0,L|280:162,2,84,8|0|0,0:0|0:0|0:0,0:0:0:0:
57,149,119040,1,8,0:0:0:0:
67,162,119115,1,8,0:3:0:0:
80,172,119190,1,8,0:3:0:0:
95,179,119265,1,0,0:0:0:0:
111,183,119340,1,8,0:0:0:0:
283,89,119490,1,8,0:0:0:0:
203,363,119640,6,0,B|188:277|188:277|199:189,1,168,4|0,0:0|0:0,0:0:0:0:
446,246,120090,1,8,0:0:0:0:
307,218,120240,1,0,0:0:0:0:
290,215,120390,1,0,0:0:0:0:
422,64,120540,5,8,0:0:0:0:
446,246,120690,1,0,0:0:0:0:
449,262,120840,1,0,0:0:0:0:
224,128,120990,5,8,0:0:0:0:
422,64,121140,1,0,0:0:0:0:
438,59,121290,1,0,0:0:0:0:
340,350,121440,6,0,L|337:292,1,42,8|8,0:0|0:3,0:0:0:0:
451,220,121590,2,0,L|449:262,1,42,8|0,0:3|0:0,0:0:0:0:
208,292,121740,1,8,0:3:0:0:
388,165,121890,1,8,0:0:0:0:
186,308,122040,6,0,B|48:302|48:302|84:277,1,168,8|8,0:0|0:3,0:0:0:0:
388,165,122490,2,0,L|304:169,1,84,8|0,0:0|0:0,0:0:0:0:
190,174,122790,1,8,0:3:0:0:
435,103,122940,5,8,0:0:0:0:
235,77,123090,1,8,0:0:0:0:
390,247,123240,5,8,0:0:0:0:
355,3,123390,1,8,0:0:0:0:
252,354,123540,5,8,0:0:0:0:
473,191,123690,1,8,0:0:0:0:
71,213,123840,5,8,0:0:0:0:
357,311,123990,1,8,0:0:0:0:
186,25,124140,5,8,0:0:0:0:
134,341,124290,1,8,0:0:0:0:
473,191,124440,6,0,L|359:187,1,105,8|0,0:0|3:0,0:0:0:0:
221,183,125040,1,0,3:0:0:0:
221,183,125340,2,0,L|293:185,1,52.5,0|0,3:0|0:0,0:0:0:0:
148,260,125640,6,0,B|120:220|120:220|112:154,2,105,0|0|0,3:0|3:0|3:0,0:0:0:0:
242,75,126540,1,0,3:0:0:0:
152,61,126690,1,0,0:0:0:0:
288,204,126840,6,0,L|291:142,1,52.5,0|0,3:0|0:0,0:0:0:0:
152,61,127140,2,0,L|154:114,1,52.5,0|0,3:0|0:0,0:0:0:0:
162,270,127440,2,0,L|160:217,1,52.5,0|0,3:0|0:0,0:0:0:0:
288,204,127740,6,0,B|336:192|336:192|390:199,2,105,0|0|0,3:0|3:0|3:0,0:0:0:0:
167,323,128490,2,0,L|162:266,1,52.5,0|0,0:0|3:0,0:0:0:0:
288,369,128790,2,0,L|293:312,1,52.5,0|0,0:0|3:0,0:0:0:0:
28,213,129090,1,0,0:0:0:0:
28,213,129240,6,0,P|68:192|141:198,1,105,0|0,3:0|3:0,0:0:0:0:
221,230,129690,1,0,0:0:0:0:
205,98,129840,1,0,3:0:0:0:
355,131,129990,1,0,0:0:0:0:
355,131,130140,2,0,L|295:127,1,52.5,0|0,3:0|0:0,0:0:0:0:
169,233,130440,6,0,L|229:229,1,52.5,0|0,3:0|0:0,0:0:0:0:
408,134,130740,2,0,L|348:130,1,52.5,0|0,3:0|0:0,0:0:0:0:
280,327,131040,1,0,3:0:0:0:
301,247,131190,1,0,0:0:0:0:
437,280,131340,1,0,3:0:0:0:
359,305,131490,1,0,0:0:0:0:
169,233,131640,6,0,L|229:229,1,52.5,2|0,3:0|0:0,0:0:0:0:
411,308,131940,2,0,L|351:304,1,52.5,2|0,3:0|0:0,0:0:0:0:
149,226,132240,6,0,L|209:222,1,52.5,2|0,3:0|0:0,0:0:0:0:
433,315,132540,2,0,L|373:311,1,52.5,2|0,3:0|0:0,0:0:0:0:
320,94,132840,6,0,B|334:147|334:147|326:199,2,105,2|2|2,3:0|3:0|3:0,0:0:0:0:
118,117,133740,1,2,3:0:0:0:
189,160,133890,1,0,0:0:0:0:
146,15,134040,6,0,P|82:17|14:106,1,168,4|0,3:1|3:0,0:0:0:0:
184,243,134490,2,0,L|190:138,1,84,8|0,0:1|3:0,0:0:0:0:
34,335,134790,1,0,0:0:0:0:
34,335,134940,2,0,L|29:251,1,84,8|0,3:1|0:0,0:0:0:0:
188,159,135240,5,0,3:0:0:0:
318,295,135390,1,8,0:1:0:0:
104,164,135540,2,0,L|204:158,1,84,0|0,3:0|0:0,0:0:0:0:
446,217,135840,2,0,L|346:211,1,84,8|0,3:1|0:0,0:0:0:0:
298,179,136065,1,0,0:0:0:0:
298,179,136140,2,0,B|281:118|281:118|288:52,1,126,8|0,3:1|0:0,0:0:0:0:
454,138,136440,6,0,L|440:328,1,168,8|0,3:1|3:0,0:0:0:0:
209,357,136890,2,0,P|260:353|303:366,2,84,8|0|0,0:1|3:0|0:0,0:0:0:0:
354,239,137340,2,0,P|313:247|271:242,1,84,8|0,0:1|3:0,0:0:0:0:
104,164,137640,5,0,3:0:0:0:
34,335,137790,1,8,0:1:0:0:
272,243,137940,2,0,L|169:236,1,84,0|0,3:0|0:0,0:0:0:0:
34,335,138240,1,8,3:1:0:0:
50,333,138315,1,8,0:3:0:0:
66,331,138390,1,8,0:3:0:0:
82,329,138465,1,0,0:0:0:0:
98,328,138540,1,8,3:1:0:0:
272,243,138690,1,8,0:1:0:0:
104,164,138840,6,0,P|69:118|144:114,1,168,4|0,3:1|3:0,0:0:0:0:
272,243,139290,2,0,L|169:236,1,84,8|0,0:1|3:0,0:0:0:0:
345,60,139590,1,0,0:0:0:0:
345,60,139740,2,0,B|353:105|353:105|347:152,1,84,8|0,3:1|0:0,0:0:0:0:
174,331,140040,5,0,3:0:0:0:
379,279,140190,1,8,0:1:0:0:
174,331,140340,2,0,B|169:290|169:290|178:245,1,84,0|0,3:0|0:0,0:0:0:0:
348,142,140640,1,8,3:1:0:0:
365,143,140715,1,0,0:0:0:0:
382,144,140790,1,8,0:3:0:0:
399,146,140865,1,8,0:3:0:0:
416,148,140940,5,8,0:1:0:0:
224,130,141090,1,8,0:3:0:0:
379,279,141240,5,8,0:1:0:0:
285,54,141390,1,8,0:1:0:0:
271,343,141540,5,8,1:0:0:0:
378,63,141690,1,8,1:0:0:0:
130,261,141840,5,8,1:0:0:0:
416,148,141990,1,8,1:0:0:0:
67,174,142140,5,8,1:0:0:0:
455,231,142290,1,8,1:0:0:0:
192,0,142440,6,0,B|197:26|188:48|188:48|195:62|199:81|199:81|211:71|211:54,2,105,8|2|0,1:0|0:0|0:0,0:0:0:0:
416,152,143340,6,0,L|357:155,1,52.5,2|0,0:0|0:0,0:0:0:0:
89,264,143490,2,0,L|167:267,1,78.7500030040742,2|0,0:0|0:0,0:0:0:0:
397,354,143640,6,0,B|429:286|429:286|414:141,1,210,4|8,0:0|0:0,0:0:0:0:
401,31,144090,1,0,0:0:0:0:
83,155,144240,2,0,L|202:151,1,105
397,354,144540,2,0,L|278:350,1,105,8|0,0:0|0:0,0:0:0:0:
41,251,144840,6,0,B|90:231|90:231|149:238,1,105,2|0,0:3|0:0,0:0:0:0:
215,267,145065,1,0,0:0:0:0:
215,267,145140,2,0,L|221:152,1,105,12|0,0:0|0:0,0:0:0:0:
391,249,145440,2,0,L|396:353,1,105
103,318,145740,1,8,0:0:0:0:
220,162,145890,1,0,0:0:0:0:
396,353,146040,5,4,0:0:0:0:
190,255,146190,1,0,0:0:0:0:
468,284,146340,1,8,0:0:0:0:
216,354,146490,1,0,0:0:0:0:
439,144,146640,5,0,0:0:0:0:
396,353,146790,1,0,0:0:0:0:
354,97,146940,1,8,0:0:0:0:
400,384,147090,1,0,0:0:0:0:
202,224,147240,6,0,L|97:229,1,105,2|0,0:3|0:0,0:0:0:0:
396,353,147540,2,0,B|390:268|390:268|402:229|402:229|395:135,1,210,12|0,0:0|0:0,0:0:0:0:
385,41,147990,1,0,0:0:0:0:
132,340,148140,5,8,0:0:0:0:
94,100,148290,1,0,0:0:0:0:
406,219,148440,6,0,B|335:244|335:244|189:222,1,210,4|8,0:0|0:0,0:0:0:0:
485,75,148890,1,0,0:0:0:0:
485,75,149040,2,0,L|495:205,1,105
322,364,149340,2,0,L|330:259,1,105,8|0,0:0|0:0,0:0:0:0:
278,85,149640,5,2,0:3:0:0:
87,204,149790,1,0,0:0:0:0:
107,202,149865,1,0,0:0:0:0:
127,200,149940,1,12,0:0:0:0:
329,259,150090,1,0,0:0:0:0:
92,101,150240,2,0,P|79:161|90:212,1,105
278,14,150540,5,8,0:0:0:0:
87,204,150690,1,0,0:0:0:0:
419,128,150840,5,12,0:0:0:0:
140,108,150990,1,0,0:0:0:0:
404,253,151140,5,12,0:0:0:0:
278,14,151290,1,0,0:0:0:0:
220,288,151440,5,12,0:0:0:0:
451,123,151590,1,0,0:0:0:0:
140,108,151740,5,12,0:0:0:0:
404,253,151890,1,0,0:0:0:0:
278,14,152040,5,12,0:0:0:0:
305,327,152190,1,0,0:0:0:0:
451,123,152340,5,12,0:0:0:0:
129,201,152490,1,0,0:0:0:0:
456,326,152640,6,0,P|466:273|447:191,1,120.750002303124,8|0,0:0|0:0,0:0:0:0:
127,79,152940,1,8,0:3:0:0:
127,79,153090,1,0,0:0:0:0:
480,60,153240,6,0,B|353:77|353:77|300:140,1,210,4|8,0:0|0:0,0:0:0:0:
318,313,153690,1,0,0:0:0:0:
318,313,153765,1,0,0:0:0:0:
318,313,153840,2,0,P|273:291|210:288,1,105
25,344,154140,1,8,0:0:0:0:
70,96,154290,1,0,0:0:0:0:
301,140,154440,6,0,L|186:133,1,105
10,184,154740,2,0,L|125:177,1,105,8|0,0:0|0:0,0:0:0:0:
207,352,155040,1,4,3:0:0:0:
213,332,155115,1,0,0:0:0:0:
215,311,155190,1,0,0:0:0:0:
214,290,155265,1,0,0:0:0:0:
210,269,155340,1,8,0:0:0:0:
301,140,155490,1,0,0:0:0:0:
10,184,155640,6,0,L|229:177,1,210,2|8,0:3|0:0,0:0:0:0:
305,330,156090,1,0,0:0:0:0:
305,330,156165,1,0,0:0:0:0:
305,330,156240,2,0,B|257:355|257:355|193:350,1,105
301,140,156540,2,0,B|351:136|351:136|399:161,1,105,8|0,0:0|0:0,0:0:0:0:
131,285,156840,5,0,0:0:0:0:
88,62,156990,1,0,0:0:0:0:
301,140,157140,1,8,0:0:0:0:
301,140,157290,1,0,0:0:0:0:
78,280,157440,6,0,L|130:284,1,52.5,4|0,3:0|0:0,0:0:0:0:
301,140,157590,2,0,L|248:144,1,52.5
88,62,157740,1,8,0:0:0:0:
88,62,157890,1,0,0:0:0:0:
261,351,158040,6,0,B|267:221|267:221|245:132,1,210,2|8,0:3|0:0,0:0:0:0:
464,86,158490,1,0,0:0:0:0:
464,86,158565,1,0,0:0:0:0:
464,86,158640,2,0,L|339:92,1,105
88,62,158940,2,0,L|213:68,1,105,8|0,0:0|0:0,0:0:0:0:
345,261,159240,5,0,0:0:0:0:
293,127,159390,1,0,0:0:0:0:
159,364,159540,2,0,P|212:367|261:350,1,105,8|0,0:0|0:0,0:0:0:0:
293,127,159840,5,4,3:0:0:0:
290,106,159915,1,0,0:0:0:0:
287,85,159990,1,0,0:0:0:0:
284,64,160065,1,0,0:0:0:0:
281,43,160140,1,8,0:0:0:0:
176,178,160290,1,0,0:0:0:0:
427,344,160440,6,0,L|433:127,1,210,2|8,0:3|0:0,0:0:0:0:
176,178,160890,1,0,0:0:0:0:
176,178,160965,1,0,0:0:0:0:
176,178,161040,2,0,B|228:195|228:195|288:191,1,105
436,47,161340,1,8,0:0:0:0:
351,306,161490,1,0,0:0:0:0:
310,71,161640,5,0,0:0:0:0:
404,128,161790,1,0,0:0:0:0:
190,85,161940,1,8,0:0:0:0:
432,134,162090,1,0,0:0:0:0:
155,203,162240,5,8,0:0:0:0:
319,52,162390,1,8,0:0:0:0:
273,268,162540,1,8,0:0:0:0:
201,0,162690,1,8,0:0:0:0:
432,134,162840,6,0,B|322:168|334:110|222:140,1,210,4|8,0:0|0:0,0:0:0:0:
50,207,163290,1,0,0:0:0:0:
50,207,163365,1,0,0:0:0:0:
50,207,163440,2,0,L|165:202,1,105
270,356,163740,2,0,L|155:351,1,105,8|0,0:0|0:0,0:0:0:0:
432,134,164040,5,0,0:0:0:0:
462,229,164190,1,0,0:0:0:0:
225,139,164340,2,0,L|338:134,1,105,8|0,0:0|0:0,0:0:0:0:
270,356,164640,5,4,3:0:0:0:
273,335,164715,1,0,0:0:0:0:
276,314,164790,1,0,0:0:0:0:
279,293,164865,1,0,0:0:0:0:
282,272,164940,1,8,0:0:0:0:
462,229,165090,1,0,0:0:0:0:
225,139,165240,6,0,P|173:99|265:97,1,210,2|8,0:3|0:0,0:0:0:0:
462,229,165690,1,0,0:0:0:0:
462,229,165765,1,0,0:0:0:0:
462,229,165840,2,0,L|348:232,1,105
62,322,166140,2,0,L|176:325,1,105,8|0,0:0|0:0,0:0:0:0:
341,121,166440,5,0,0:0:0:0:
368,282,166590,1,0,0:0:0:0:
325,25,166740,1,8,0:0:0:0:
325,25,166890,1,0,0:0:0:0:
220,191,167040,6,0,L|225:129,1,52.5,4|0,3:0|0:0,0:0:0:0:
368,282,167190,2,0,L|372:334,1,52.5
458,78,167340,1,8,0:0:0:0:
458,78,167490,1,0,0:0:0:0:
265,336,167640,6,0,P|210:355|259:287,1,210,2|8,0:3|0:0,0:0:0:0:
483,322,168090,1,0,0:0:0:0:
483,322,168165,1,0,0:0:0:0:
483,322,168240,2,0,L|369:330,1,105
115,183,168540,2,0,L|229:191,1,105,8|0,0:0|0:0,0:0:0:0:
458,154,168840,5,0,0:0:0:0:
497,299,168990,1,0,0:0:0:0:
219,190,169140,2,0,L|333:198,1,105,8|0,0:0|0:0,0:0:0:0:
485,144,169440,6,0,L|492:217,1,52.5,4|0,3:0|0:0,0:0:0:0:
378,329,169590,2,0,L|383:276,1,52.5
352,55,169740,1,8,0:0:0:0:
352,55,169890,1,0,0:0:0:0:
116,208,170040,6,0,B|219:189|219:189|318:231,1,210,2|8,0:3|0:0,0:0:0:0:
63,384,170490,1,0,0:0:0:0:
63,384,170565,1,0,0:0:0:0:
63,384,170640,2,0,L|60:272,1,105
221,85,170940,2,0,L|218:189,1,105,8|0,0:0|0:0,0:0:0:0:
219,374,171240,5,2,0:3:0:0:
60,279,171390,1,0,0:0:0:0:
145,91,171540,1,8,0:0:0:0:
178,253,171690,1,0,0:0:0:0:
139,71,171840,5,8,0:0:0:0:
373,71,171990,1,8,0:0:0:0:
144,176,172140,1,8,0:0:0:0:
368,176,172290,1,8,0:0:0:0:
256,368,172440,5,4,0:0:0:0:
139,71,172740,2,0,L|144:191,1,105,8|0,0:0|0:0,0:0:0:0:
256,256,173040,1,0,0:0:0:0:
256,256,173340,5,8,0:0:0:0:
97,335,173490,2,0,P|36:291|123:283,1,210
350,355,173940,1,8,0:0:0:0:
350,355,174240,6,0,L|352:286,1,52.5,6|0,0:3|0:0,0:0:0:0:
254,203,174390,2,0,L|255:255,1,52.5
373,166,174540,2,0,P|379:110|362:51,1,105,8|0,0:0|0:0,0:0:0:0:
142,174,174840,6,0,L|136:61,1,105,2|0,0:3|0:0,0:0:0:0:
373,166,175140,1,8,0:0:0:0:
254,203,175290,1,0,0:0:0:0:
368,64,175440,1,0,0:0:0:0:
368,64,175740,2,0,L|472:67,1,105,8|0,0:0|0:0,0:0:0:0:
308,253,176040,6,0,L|191:257,1,105,2|0,0:3|0:0,0:0:0:0:
384,77,176340,2,0,L|488:80,1,105,8|0,0:0|0:0,0:0:0:0:
163,150,176640,1,6,0:3:0:0:
150,133,176715,1,0,0:0:0:0:
142,113,176790,1,0,0:0:0:0:
138,92,176865,1,0,0:0:0:0:
137,71,176940,2,0,L|254:75,1,105,8|0,0:0|0:0,0:0:0:0:
412,249,177240,6,0,L|295:253,1,105,2|0,0:3|0:0,0:0:0:0:
163,150,177540,1,8,0:0:0:0:
254,181,177690,1,0,0:0:0:0:
75,239,177840,1,0,0:0:0:0:
236,84,178140,5,8,0:0:0:0:
190,309,178290,1,0,0:0:0:0:
148,29,178590,5,0,0:0:0:0:
193,327,178740,1,8,0:0:0:0:
292,179,179040,5,6,0:3:0:0:
271,174,179115,1,0,0:0:0:0:
250,169,179190,1,0,0:0:0:0:
229,165,179265,1,0,0:0:0:0:
208,160,179340,1,8,0:0:0:0:
385,205,179490,1,0,0:0:0:0:
256,320,179640,5,8,0:0:0:0:
208,160,179790,1,8,0:0:0:0:
256,336,179940,1,8,0:0:0:0:
304,128,180090,1,8,0:0:0:0:
256,352,180240,5,8,0:0:0:0:
64,224,180390,1,8,0:0:0:0:
432,112,180540,1,8,0:0:0:0:
256,368,180690,1,8,0:0:0:0:
160,0,180840,5,10,0:0:0:0:
229,25,181140,1,2,0:0:0:0:
297,52,181440,1,2,0:0:0:0:
365,79,181740,2,0,L|369:139,1,52.5,2|0,0:0|0:0,0:0:0:0:
80,256,182040,6,0,B|168:207|168:207|335:249,1,251.999992309571,4|8,0:0|0:0,0:0:0:0:
503,297,182490,1,0,0:0:0:0:
369,111,182640,1,0,0:0:0:0:
391,360,182790,1,0,0:0:0:0:
365,79,182940,2,0,B|304:62|304:62|234:69,1,125.999996154785,8|0,0:0|0:0,0:0:0:0:
80,256,183240,6,0,B|142:262|142:262|203:245,1,125.999996154785,2|0,0:3|0:0,0:0:0:0:
280,216,183465,1,0,0:0:0:0:
280,216,183540,2,0,L|290:355,1,125.999996154785,12|0,0:0|0:0,0:0:0:0:
130,162,183840,2,0,L|139:36,1,125.999996154785
466,94,184140,2,0,B|408:121|408:121|324:103,1,125.999996154785,8|0,0:0|0:0,0:0:0:0:
80,256,184440,5,12,0:0:0:0:
280,216,184590,1,0,0:0:0:0:
115,145,184740,5,12,0:0:0:0:
275,324,184890,1,0,0:0:0:0:
347,108,185040,5,12,0:0:0:0:
90,161,185190,1,0,0:0:0:0:
278,344,185340,5,12,0:0:0:0:
232,67,185490,1,0,0:0:0:0:
457,172,185640,5,12,0:0:0:0:
155,241,185790,1,0,0:0:0:0:
493,274,185940,5,12,0:0:0:0:
169,259,186090,1,0,0:0:0:0:
381,61,186240,5,12,0:0:0:0:
413,361,186390,1,0,0:0:0:0:
129,161,186540,5,8,0:0:0:0:
467,88,186690,1,8,0:0:0:0:
80,256,186840,6,0,B|40:208|40:208|29:130,1,125.999996154785,4|0,0:0|0:0,0:0:0:0:
457,172,187140,2,0,B|336:223|331:143|209:192,1,251.999992309571,8|0,0:0|0:0,0:0:0:0:
80,256,187590,1,0,0:0:0:0:
270,384,187740,2,0,L|276:252,1,125.999996154785,8|0,0:0|0:0,0:0:0:0:
124,36,188040,6,0,L|129:161,1,125.999996154785,2|0,0:3|0:0,0:0:0:0:
381,337,188340,2,0,P|461:274|356:225,1,251.999992309571,12|0,0:0|0:0,0:0:0:0:
159,297,188790,1,0,0:0:0:0:
247,126,188940,1,8,0:0:0:0:
270,384,189090,1,0,0:0:0:0:
68,208,189240,5,12,0:0:0:0:
371,246,189390,1,0,0:0:0:0:
68,302,189540,5,12,0:0:0:0:
317,174,189690,1,0,0:0:0:0:
49,204,189840,5,12,0:0:0:0:
390,250,189990,1,0,0:0:0:0:
50,313,190140,5,12,0:0:0:0:
337,162,190290,1,0,0:0:0:0:
228,358,190440,5,12,0:0:0:0:
156,89,190590,1,0,0:0:0:0:
390,250,190740,5,12,0:0:0:0:
70,209,190890,1,0,0:0:0:0:
380,87,191040,5,12,0:0:0:0:
228,358,191190,1,0,0:0:0:0:
194,2,191340,5,8,0:0:0:0:
390,250,191490,1,8,0:0:0:0:
70,209,191640,6,0,P|61:129|170:181,1,251.999992309571,4|8,0:0|0:0,0:0:0:0:
102,351,192090,1,0,0:0:0:0:
425,238,192240,2,0,L|284:245,1,125.999996154785
102,351,192540,2,0,L|243:358,1,125.999996154785,8|0,0:0|0:0,0:0:0:0:
436,318,192840,5,2,0:3:0:0:
171,173,192990,2,0,L|236:209,1,62.9999980773926
371,161,193140,2,0,P|414:111|306:120,1,251.999992309571,12|0,0:0|0:0,0:0:0:0:
358,320,193590,1,0,0:0:0:0:
210,222,193740,1,8,0:0:0:0:
463,195,193890,1,0,0:0:0:0:
227,357,194040,5,12,0:0:0:0:
259,88,194190,1,0,0:0:0:0:
358,320,194340,5,12,0:0:0:0:
175,119,194490,1,0,0:0:0:0:
426,204,194640,5,12,0:0:0:0:
98,157,194790,1,0,0:0:0:0:
392,72,194940,5,12,0:0:0:0:
131,266,195090,1,0,0:0:0:0:
275,4,195240,5,12,0:0:0:0:
347,274,195390,1,0,0:0:0:0:
98,157,195540,5,12,0:0:0:0:
392,72,195690,1,0,0:0:0:0:
227,357,195840,5,12,0:0:0:0:
155,79,195990,1,0,0:0:0:0:
426,204,196140,5,8,0:0:0:0:
110,286,196290,1,8,0:0:0:0:
392,72,196440,5,4,0:0:0:0:
358,320,196590,1,0,0:0:0:0:
74,155,196740,2,0,L|212:147,1,125.999996154785,8|0,0:0|0:0,0:0:0:0:
426,204,197040,1,0,0:0:0:0:
110,286,197190,1,0,0:0:0:0:
275,4,197340,2,0,L|285:146,1,125.999996154785,8|0,0:0|0:0,0:0:0:0:
227,357,197640,6,0,L|218:231,1,125.999996154785,2|0,0:3|0:0,0:0:0:0:
417,78,197940,2,0,L|426:204,1,125.999996154785,12|0,0:0|0:0,0:0:0:0:
136,146,198240,2,0,P|195:115|254:118,1,125.999996154785,4|0,0:3|0:0,0:0:0:0:
460,316,198540,1,8,0:0:0:0:
250,239,198690,1,0,0:0:0:0:
417,78,198840,5,12,0:0:0:0:
236,218,198990,1,0,0:0:0:0:
472,146,199140,5,12,0:0:0:0:
205,228,199290,1,0,0:0:0:0:
487,235,199440,5,12,0:0:0:0:
177,240,199590,1,0,0:0:0:0:
478,325,199740,5,12,0:0:0:0:
148,252,199890,1,0,0:0:0:0:
416,75,200040,5,12,0:0:0:0:
478,325,200190,1,0,0:0:0:0:
413,52,200340,5,12,0:0:0:0:
389,356,200490,1,0,0:0:0:0:
410,29,200640,5,12,0:0:0:0:
296,346,200790,1,0,0:0:0:0:
406,4,200940,5,12,0:0:0:0:
222,290,201090,1,0,0:0:0:0:
446,161,201240,5,12,0:0:0:0:
66,161,201390,1,0,0:0:0:0:
384,374,201540,5,12,0:0:0:0:
256,16,201690,1,0,0:0:0:0:
128,374,201840,5,12,0:0:0:0:
446,161,201990,1,0,0:0:0:0:
66,161,202140,5,12,0:0:0:0:
256,374,202290,1,0,0:0:0:0:
256,16,202440,5,14,0:0:0:0:
256,16,202740,1,0,0:0:0:0:
256,16,203040,6,0,L|256:112,2,84,2|2|0,0:0|0:0|2:0,0:0:0:0:
155,259,203490,6,0,P|189:263|260:236,1,105,6|0,0:0|0:0,0:0:0:0:
401,72,203940,6,0,B|416:155|416:155|394:236,1,146.999995513916,8|0,0:0|0:0,0:0:0:0:
256,383,204240,2,0,B|239:322|239:322|254:239,1,146.999995513916
503,97,204540,1,8,0:0:0:0:
29,145,204690,6,0,B|116:137|116:137|139:155|139:155|253:145,1,210,4|0,0:0|0:0,0:0:0:0:
494,312,205140,6,0,L|330:297,1,146.999995513916,8|0,0:0|0:0,0:0:0:0:
85,160,205440,2,0,L|249:145,1,146.999995513916
503,97,205740,1,8,0:0:0:0:
363,365,205890,6,0,B|364:320|347:298|347:298|364:275|361:242|361:242|336:215|330:166,1,210,4|0,0:0|0:0,0:0:0:0:
139,156,206340,6,0,B|28:145|28:145|85:105,1,146.999995513916,8|0,0:0|0:0,0:0:0:0:
474,76,206640,2,0,B|504:97|504:97|394:107,1,146.999995513916
170,348,206940,1,8,0:0:0:0:
203,75,207090,1,4,0:3:0:0:
491,255,207240,6,0,L|323:246,1,168,4|0,0:0|0:0,0:0:0:0:
36,84,207539,2,0,L|203:75,1,168,12|0,0:0|0:0,0:0:0:0:
101,372,207840,6,0,P|14:289|130:331,1,336,4|10,0:0|0:0,0:0:0:0:
424,360,208290,6,0,L|313:355,1,105,6|0,0:0|0:0,0:0:0:0:
69,318,208740,6,0,P|125:291|212:289,1,146.999995513916,8|0,0:0|0:0,0:0:0:0:
491,255,209040,2,0,P|418:254|351:225,1,146.999995513916
80,159,209340,1,8,0:0:0:0:
313,60,209490,6,0,B|354:47|354:47|386:54|386:54|420:46|420:46|472:74|464:140,1,210,4|0,0:0|0:0,0:0:0:0:
377,302,209940,6,0,B|261:286|261:286|304:267,1,146.999995513916,8|0,0:0|0:0,0:0:0:0:
80,159,210240,2,0,B|196:143|196:143|153:124,1,146.999995513916
421,36,210540,1,8,0:0:0:0:
413,356,210690,6,0,B|418:265|418:265|409:234|409:234|415:132,1,210,4|0,0:0|0:0,0:0:0:0:
85,111,211140,6,0,L|240:102,1,146.999995513916,8|0,0:0|0:0,0:0:0:0:
418,270,211440,2,0,L|263:261,1,146.999995513916
11,252,211740,1,8,0:0:0:0:
231,102,211890,1,4,0:3:0:0:
144,384,212040,6,0,B|134:300|134:300|142:203,1,168,4|0,0:0|0:0,0:0:0:0:
422,102,212340,2,0,B|428:185|428:185|418:269,1,168,12|0,0:0|0:0,0:0:0:0:
41,114,212640,6,0,P|133:73|206:87,1,168,4|0,0:0|0:0,0:0:0:0:
417,269,212940,1,10,0:0:0:0:
30,376,213090,6,0,B|17:358|13:335|13:335|24:296|11:252|11:252|39:265|38:295,1,168,6|0,0:0|0:0,0:0:0:0:
144,384,213540,1,0,0:0:0:0:
144,384,213690,1,0,0:0:0:0:
167,203,213840,2,0,L|171:292,1,84,8|0,0:0|0:0,0:0:0:0:
77,133,214140,1,0,0:0:0:0:
77,133,214290,6,0,B|147:89|147:89|236:105,1,168,4|0,0:0|0:0,0:0:0:0:
431,191,214740,2,0,L|333:194,1,84
167,203,215040,1,10,0:0:0:0:
502,299,215190,2,0,L|371:302,1,126,10|0,0:0|0:0,0:0:0:0:
314,386,215490,6,0,B|288:314|288:314|293:212,1,168,10|0,0:0|0:0,0:0:0:0:
300,96,215940,1,0,0:0:0:0:
300,96,216090,1,0,0:0:0:0:
83,207,216240,2,0,L|175:202,1,84,8|0,0:0|0:0,0:0:0:0:
370,194,216540,1,0,0:0:0:0:
142,24,216690,6,0,P|76:49|157:84,1,210,4|8,0:0|0:0,0:0:0:0:
370,24,217140,2,0,P|436:49|355:84,2,210,4|12|8,0:0|0:0|0:0,0:0:0:0:
256,352,217890,5,4,0:0:0:0:
256,352,219090,6,0,L|256:288,1,52.5,2|0,0:0|0:0,0:0:0:0:
144,304,220290,6,0,L|144:240,1,52.5,2|0,0:0|0:0,0:0:0:0:
368,240,221490,6,0,L|368:128,1,105,4|8,0:0|0:0,0:0:0:0:
224,74,221940,2,0,P|265:68|291:72,1,52.5,4|0,0:0|0:0,0:0:0:0:
164,188,222240,2,0,B|124:159|124:159|103:107,1,105,12|8,0:0|0:0,0:0:0:0:
472,233,222690,6,0,L|353:240,1,105,4|0,0:0|0:0,0:0:0:0:
258,276,223140,1,0,0:0:0:0:
258,276,223290,1,0,0:0:0:0:
275,68,223440,2,0,B|286:124|286:124|280:181,1,105,8|0,0:0|0:0,0:0:0:0:
258,276,223890,6,0,L|139:283,2,105,2|0|0,0:3|0:0|0:0,0:0:0:0:
428,94,224640,6,0,P|444:155|387:119,1,157.500006008148,10|0,0:0|0:0,0:0:0:0:
176,177,225090,6,0,L|280:170,1,105,2|0,0:3|0:0,0:0:0:0:
386,130,225540,1,0,0:0:0:0:
386,130,225690,1,0,0:0:0:0:
351,353,225840,1,8,0:0:0:0:
351,353,226290,6,0,P|403:330|453:333,1,105,4|8,0:0|0:0,0:0:0:0:
257,283,226740,2,0,L|200:280,1,52.5,4|0,0:0|0:0,0:0:0:0:
386,218,227040,2,0,L|443:215,1,52.5,12|0,0:0|0:0,0:0:0:0:
305,73,227340,1,8,0:0:0:0:
257,283,227490,6,0,P|241:231|247:173,1,105,4|0,0:0|0:0,0:0:0:0:
305,73,227940,1,0,0:0:0:0:
305,73,228090,1,0,0:0:0:0:
68,100,228240,2,0,L|191:96,1,105,8|0,0:0|0:0,0:0:0:0:
386,218,228690,6,0,L|263:214,1,105,2|0,0:3|0:0,0:0:0:0:
147,190,229140,1,0,0:0:0:0:
225,152,229290,1,0,0:0:0:0:
158,364,229440,6,0,P|121:324|191:325,1,157.500006008148,10|0,0:0|0:0,0:0:0:0:
42,194,229890,6,0,L|155:189,1,105,2|0,0:3|0:0,0:0:0:0:
281,214,230340,1,0,0:0:0:0:
225,152,230490,1,0,0:0:0:0:
402,342,230640,1,8,0:0:0:0:
402,342,231090,6,0,P|420:296|413:224,1,105,4|8,0:0|0:0,0:0:0:0:
352,72,231540,2,0,L|355:133,1,52.5,4|0,0:0|0:0,0:0:0:0:
510,229,231840,2,0,L|512:176,1,52.5,12|0,0:0|0:0,0:0:0:0:
461,0,232140,1,8,0:0:0:0:
354,124,232290,6,0,L|358:243,1,105,4|0,0:0|0:0,0:0:0:0:
361,341,232740,1,0,0:0:0:0:
361,341,232890,1,0,0:0:0:0:
178,272,233040,2,0,P|237:274|295:308,1,105,8|0,0:0|0:0,0:0:0:0:
510,229,233490,6,0,P|451:231|393:265,1,105,2|0,0:3|0:0,0:0:0:0:
213,185,233940,2,0,L|280:182,1,52.5
456,77,234240,6,0,L|367:73,2,78.7500030040742,10|2|0,0:0|2:0|0:0,0:0:0:0:
273,234,234690,6,0,P|267:210|266:174,1,52.5,2|0,0:3|0:0,0:0:0:0:
410,250,234990,1,0,0:0:0:0:
410,250,235140,2,0,P|408:276|402:301,1,52.5
130,353,235440,2,0,L|243:349,1,105,8|0,0:0|0:0,0:0:0:0:
459,165,235890,6,0,L|346:161,1,105,4|8,0:0|0:0,0:0:0:0:
218,95,236340,1,4,0:0:0:0:
218,95,236490,1,0,0:0:0:0:
269,286,236640,2,0,P|273:251|271:222,1,52.5,12|0,0:0|0:0,0:0:0:0:
130,353,236940,1,8,0:0:0:0:
269,286,237090,6,0,P|324:272|382:279,1,105,4|0,0:0|0:0,0:0:0:0:
459,165,237540,1,0,0:0:0:0:
459,165,237690,1,0,0:0:0:0:
218,95,237840,1,8,0:0:0:0:
400,63,237990,2,0,L|342:58,1,52.5
218,95,238290,6,0,B|209:155|209:155|215:214,2,105,2|0|0,0:3|0:0|0:0,0:0:0:0:
157,309,239040,6,0,P|119:325|145:261,1,157.500006008148,10|0,0:0|0:0,0:0:0:0:
391,300,239490,6,0,L|273:304,1,105,2|0,0:3|0:0,0:0:0:0:
157,309,239940,1,0,0:0:0:0:
157,309,240090,1,0,0:0:0:0:
218,95,240240,2,0,B|227:155|227:155|221:214,1,105,8|0,0:0|0:0,0:0:0:0:
57,329,240690,6,0,P|104:308|161:309,1,105,4|8,0:0|0:0,0:0:0:0:
287,354,241140,1,4,0:0:0:0:
255,276,241290,1,0,0:0:0:0:
476,319,241440,2,0,L|423:316,1,52.5,12|0,0:0|0:0,0:0:0:0:
222,199,241740,1,8,0:0:0:0:
409,43,241890,6,0,P|415:72|413:103,1,52.5,4|0,0:0|0:0,0:0:0:0:
414,94,243090,6,0,L|417:153,2,52.5,2|0|0,0:0|0:0|0:0,0:0:0:0:
421,257,243840,1,6,0:3:0:0:
414,94,244290,6,0,L|417:153,1,52.5,2|0,0:0|0:0,0:0:0:0:
421,257,245490,6,0,P|370:245|319:251,1,105,4|8,0:0|0:0,0:0:0:0:
217,351,245940,2,0,L|220:294,1,52.5,4|0,0:0|0:0,0:0:0:0:
100,167,246240,2,0,L|102:219,1,52.5,12|0,0:0|0:0,0:0:0:0:
302,325,246540,1,8,0:0:0:0:
134,75,246690,6,0,B|107:68|107:68|79:71,1,52.5,4|0,0:0|0:0,0:0:0:0:
82,70,247890,6,0,L|79:129,2,52.5,2|0|0,0:0|0:0|0:0,0:0:0:0:
74,233,248640,1,6,0:3:0:0:
82,70,249090,6,0,L|79:129,1,52.5,2|0,0:0|0:0,0:0:0:0:
74,233,250290,6,0,P|132:247|181:243,1,105,4|8,0:0|0:0,0:0:0:0:
371,198,250740,2,0,L|300:195,1,52.5,4|0,0:0|0:0,0:0:0:0:
202,344,251040,2,0,L|273:341,1,52.5,12|0,0:0|0:0,0:0:0:0:
466,277,251340,1,8,0:0:0:0:
227,77,251490,6,0,L|232:135,1,52.5,4|0,0:0|0:0,0:0:0:0:
231,129,252690,6,0,L|235:181,2,52.5,2|0|0,0:0|0:0|0:0,0:0:0:0:
243,292,253440,1,6,0:3:0:0:
231,129,253890,6,0,L|235:181,1,52.5,2|0,0:0|0:0,0:0:0:0:
243,292,255090,6,0,B|192:312|192:312|131:305,1,105,4|8,0:0|0:0,0:0:0:0:
337,155,255540,2,0,L|340:220,1,52.5,4|0,0:0|0:0,0:0:0:0:
241,344,255840,2,0,L|243:291,1,52.5,12|0,0:0|0:0,0:0:0:0:
153,116,256140,1,8,0:0:0:0:
424,209,256290,6,0,P|420:234|410:259,1,52.5,4|0,0:0|0:0,0:0:0:0:
410,259,257490,6,0,L|407:321,2,52.5,2|0|0,0:0|0:0|0:0,0:0:0:0:
415,118,258240,1,6,0:3:0:0:
410,259,258690,6,0,L|407:321,1,52.5,2|0,0:0|0:0,0:0:0:0:
162,202,259890,6,0,B|137:242|137:242|129:301,1,105,4|8,0:0|0:0,0:0:0:0:
313,377,260340,2,0,L|309:322,1,52.5,4|0,0:0|0:0,0:0:0:0:
166,149,260640,2,0,L|162:201,1,52.5,12|0,0:0|0:0,0:0:0:0:
415,118,260940,1,8,0:0:0:0:
313,377,261090,6,0,L|304:255,1,105,4|0,0:0|0:0,0:0:0:0:
294,135,261540,1,0,0:0:0:0:
294,135,261690,1,0,0:0:0:0:
116,224,261840,2,0,P|157:227|223:207,1,105,8|0,0:0|0:0,0:0:0:0:
415,118,262290,6,0,L|410:189,1,52.5,2|0,0:3|0:0,0:0:0:0:
305,272,262590,2,0,L|301:219,2,52.5
449,353,263040,6,0,P|485:323|416:318,1,157.500006008148,10|0,0:0|0:0,0:0:0:0:
230,360,263490,5,2,0:3:0:0:
297,167,263640,1,0,0:0:0:0:
297,167,263790,2,0,L|301:220,1,52.5
143,125,264090,1,0,0:0:0:0:
409,88,264240,5,8,0:0:0:0:
300,219,264390,1,0,0:0:0:0:
338,0,264540,1,0,0:0:0:0:
404,226,264690,6,0,L|283:217,1,105,4|8,0:0|0:0,0:0:0:0:
143,125,265140,2,0,L|212:120,1,52.5,4|0,0:0|0:0,0:0:0:0:
109,295,265440,2,0,L|40:290,1,52.5,12|0,0:0|0:0,0:0:0:0:
284,134,265740,1,8,0:0:0:0:
213,384,265890,6,0,P|202:318|213:268,1,105,4|0,0:0|0:0,0:0:0:0:
299,218,266340,1,0,0:0:0:0:
299,218,266490,1,0,0:0:0:0:
38,129,266640,2,0,L|153:124,1,105,8|0,0:0|0:0,0:0:0:0:
403,222,267090,6,0,L|288:217,1,105,2|0,0:3|0:0,0:0:0:0:
142,124,267540,1,0,0:0:0:0:
215,80,267690,1,0,0:0:0:0:
403,222,267840,6,0,P|439:203|374:193,1,157.500006008148,10|0,0:0|0:0,0:0:0:0:
215,80,268290,6,0,L|327:75,1,105,2|0,0:3|0:0,0:0:0:0:
445,69,268740,1,0,0:0:0:0:
445,69,268890,1,0,0:0:0:0:
383,280,269040,2,0,P|368:209|381:163,1,105,8|0,0:0|0:0,0:0:0:0:
215,80,269490,6,0,L|105:74,1,105,4|8,0:0|0:0,0:0:0:0:
12,125,269940,1,4,0:0:0:0:
74,190,270090,1,0,0:0:0:0:
53,6,270240,1,12,0:0:0:0:
10,253,270390,1,0,0:0:0:0:
246,169,270540,1,8,0:0:0:0:
53,6,270690,6,0,B|44:71|44:71|74:191,1,168,4|0,0:0|0:0,0:0:0:0:
203,298,271140,1,0,0:0:0:0:
161,209,271290,1,0,0:0:0:0:
39,365,271440,1,8,0:0:0:0:
39,365,271740,2,0,L|92:363,1,42
314,260,271890,6,0,B|261:219|261:219|144:207,1,168,4|0,0:0|0:0,0:0:0:0:
367,41,272340,1,0,0:0:0:0:
380,128,272490,1,0,0:0:0:0:
123,257,272640,6,0,P|67:236|158:222,1,251.999992309571,10|0,0:0|0:0,0:0:0:0:
283,381,273090,6,0,L|289:206,1,168,4|0,0:0|0:0,0:0:0:0:
248,41,273540,1,0,0:0:0:0:
218,129,273690,1,0,0:0:0:0:
503,67,273840,1,8,0:0:0:0:
503,67,274140,2,0,L|441:71,1,42
218,129,274290,6,0,B|189:208|189:208|200:350,1,210,4|8,0:0|0:0,0:0:0:0:
482,198,274740,2,0,L|356:186,1,105,4|0,0:0|0:0,0:0:0:0:
113,138,275040,2,0,L|239:126,1,105,14|0,0:0|0:0,0:0:0:0:
348,332,275340,1,8,0:0:0:0:
113,138,275490,5,4,0:0:0:0:
388,62,275640,2,0,L|377:188,1,125.999996154785,0|8,0:0|0:0,0:0:0:0:
142,384,275940,2,0,L|131:258,1,125.999996154785,4|0,0:0|0:0,0:0:0:0:
303,119,276240,1,14,0:0:0:0:
287,242,276390,1,0,0:0:0:0:
29,88,276540,1,8,0:0:0:0:
388,62,276690,5,4,0:0:0:0:
287,242,276840,2,0,B|254:175|254:175|261:86,1,146.999995513916,0|8,0:0|0:0,0:0:0:0:
512,245,277140,2,0,B|517:317|517:317|484:384,1,146.999995513916,4|0,0:0|0:0,0:0:0:0:
100,184,277440,5,14,1:0:0:0:
349,161,277590,1,0,1:0:0:0:
107,297,277740,1,12,1:0:0:0:
355,274,277890,1,0,1:0:0:0:
141,99,278040,5,12,0:0:0:0:
251,314,278190,1,0,0:0:0:0:
221,62,278340,5,12,0:0:0:0:
254,332,278490,1,0,0:0:0:0:
310,65,278640,5,14,0:0:0:0:
258,353,278790,1,0,0:0:0:0:
388,119,278940,5,12,0:0:0:0:
77,253,279090,1,0,0:0:0:0:
471,342,279240,5,12,0:0:0:0:
127,167,279390,1,12,0:0:0:0:
512,192,279540,5,12,0:0:0:0:
108,338,279690,1,12,0:0:0:0:
382,12,279840,5,14,0:0:0:0:
325,363,279990,1,12,0:0:0:0:
47,139,280140,1,12,0:0:0:0:
512,192,280290,6,0,L|393:187,1,105,12|2,0:0|0:0,0:0:0:0:
407,187,284640,5,8,0:0:0:0:
191,171,284790,1,8,0:0:0:0:
361,367,284940,1,8,0:0:0:0:
145,351,285090,1,8,0:0:0:0:
256,192,285165,12,0,287790,0:0:0:0:
361,367,287940,5,10,0:0:0:0:
138,116,288390,5,10,0:0:0:0:
352,165,288540,1,2,0:0:0:0:
352,165,288840,6,0,L|289:168,1,52.5,6|0,0:3|0:0,0:0:0:0:
377,268,289140,2,0,L|430:266,1,52.5,6|0,0:3|0:0,0:0:0:0:
300,167,289440,6,0,L|247:169,1,52.5,6|0,0:3|0:0,0:0:0:0:
430,266,289740,2,0,L|482:263,1,52.5,6|0,0:3|0:0,0:0:0:0:
230,331,290040,6,0,P|147:348|223:284,1,251.999992309571,4|8,0:0|0:0,0:0:0:0:
387,337,290490,1,0,0:0:0:0:
300,167,290640,2,0,L|161:156,1,125.999996154785
387,337,290940,2,0,L|526:326,1,125.999996154785,8|0,0:0|0:0,0:0:0:0:
348,46,291240,6,0,B|282:42|282:42|215:71,1,125.999996154785,2|0,0:3|0:0,0:0:0:0:
159,86,291465,1,0,0:0:0:0:
159,86,291540,2,0,L|20:80,1,125.999996154785,12|0,0:0|0:0,0:0:0:0:
300,167,291840,2,0,L|439:161,1,125.999996154785
163,282,292140,1,8,0:0:0:0:
258,88,292290,1,0,0:0:0:0:
142,301,292440,5,12,0:0:0:0:
407,227,292590,1,0,0:0:0:0:
126,196,292740,5,12,0:0:0:0:
433,225,292890,1,0,0:0:0:0:
223,384,293040,5,12,0:0:0:0:
271,116,293190,1,0,0:0:0:0:
350,379,293340,5,12,0:0:0:0:
265,90,293490,1,0,0:0:0:0:
130,333,293640,5,12,0:0:0:0:
352,171,293790,1,0,0:0:0:0:
78,239,293940,5,12,0:0:0:0:
372,160,294090,1,0,0:0:0:0:
63,133,294240,5,12,0:0:0:0:
393,149,294390,1,0,0:0:0:0:
110,347,294540,5,8,0:0:0:0:
417,139,294690,1,8,0:0:0:0:
127,59,294840,6,0,P|61:64|146:109,1,251.999992309571,4|8,0:0|0:0,0:0:0:0:
400,70,295290,1,0,0:0:0:0:
270,253,295440,2,0,B|252:308|252:308|257:384,1,125.999996154785
445,224,295740,2,0,B|449:156|449:156|431:101,1,125.999996154785,8|0,0:0|0:0,0:0:0:0:
230,27,296040,5,2,0:3:0:0:
270,253,296190,1,0,0:0:0:0:
273,228,296265,1,0,0:0:0:0:
276,203,296340,1,12,0:0:0:0:
431,101,296490,1,0,0:0:0:0:
182,137,296640,5,0,0:0:0:0:
268,278,296790,1,0,0:0:0:0:
287,98,296940,1,8,0:0:0:0:
265,303,297090,1,0,0:0:0:0:
10,87,297240,5,12,0:0:0:0:
273,132,297390,1,0,0:0:0:0:
51,207,297540,5,12,0:0:0:0:
293,136,297690,1,0,0:0:0:0:
86,328,297840,5,12,0:0:0:0:
317,141,297990,1,0,0:0:0:0:
51,207,298140,5,12,0:0:0:0:
359,276,298290,1,0,0:0:0:0:
176,66,298440,5,12,0:0:0:0:
197,381,298590,1,0,0:0:0:0:
332,144,298740,5,12,0:0:0:0:
22,281,298890,1,0,0:0:0:0:
407,296,299040,5,12,0:0:0:0:
64,177,299190,1,0,0:0:0:0:
197,381,299340,5,8,0:0:0:0:
175,45,299490,1,8,0:0:0:0:
407,296,299640,6,0,P|418:231|306:281,1,251.999992309571,4|8,0:0|0:0,0:0:0:0:
197,381,300090,1,0,0:0:0:0:
71,126,300240,2,0,L|78:252,1,125.999996154785
327,375,300540,2,0,L|334:250,1,125.999996154785,8|0,0:0|0:0,0:0:0:0:
71,126,300840,5,2,0:3:0:0:
334,250,300990,2,0,L|262:215,1,62.9999980773926
410,136,301140,2,0,P|477:118|417:206,1,251.999992309571,12|0,0:0|0:0,0:0:0:0:
281,98,301590,1,0,0:0:0:0:
347,328,301740,1,8,0:0:0:0:
410,136,301890,1,0,0:0:0:0:
339,355,302040,5,12,0:0:0:0:
155,181,302190,1,0,0:0:0:0:
431,253,302340,5,12,0:0:0:0:
133,279,302490,1,0,0:0:0:0:
410,136,302640,5,12,0:0:0:0:
194,371,302790,1,0,0:0:0:0:
272,74,302940,5,12,0:0:0:0:
338,354,303090,1,0,0:0:0:0:
57,208,303240,5,12,0:0:0:0:
272,74,303390,1,0,0:0:0:0:
257,388,303540,5,12,0:0:0:0:
125,119,303690,1,0,0:0:0:0:
427,195,303840,5,12,0:0:0:0:
151,340,303990,1,0,0:0:0:0:
238,8,304140,5,8,0:0:0:0:
389,325,304290,1,8,0:0:0:0:
64,136,304440,6,0,B|223:125|223:125|314:160,1,251.999992309571,4|8,0:0|0:0,0:0:0:0:
190,247,304890,1,0,0:0:0:0:
413,96,305040,2,0,P|422:168|408:227,1,125.999996154785
194,371,305340,2,0,P|182:309|191:247,1,125.999996154785,8|0,0:0|0:0,0:0:0:0:
302,32,305640,6,0,L|309:161,1,125.999996154785,2|0,0:3|0:0,0:0:0:0:
194,371,305940,2,0,L|190:245,1,125.999996154785,12|0,0:0|0:0,0:0:0:0:
485,257,306240,2,0,P|426:279|352:259,1,125.999996154785,2|0,0:3|0:0,0:0:0:0:
116,91,306540,1,8,0:0:0:0:
190,245,306690,1,0,0:0:0:0:
320,64,306840,5,12,0:0:0:0:
256,320,306990,1,0,0:0:0:0:
192,64,307140,5,12,0:0:0:0:
256,336,307290,1,0,0:0:0:0:
352,48,307440,5,12,0:0:0:0:
256,352,307590,1,0,0:0:0:0:
160,48,307740,5,12,0:0:0:0:
256,368,307890,1,0,0:0:0:0:
417,142,308040,5,12,0:0:0:0:
96,213,308190,1,0,0:0:0:0:
352,48,308340,5,12,0:0:0:0:
256,368,308490,1,0,0:0:0:0:
160,48,308640,5,12,0:0:0:0:
378,279,308790,1,0,0:0:0:0:
74,218,308940,5,12,0:0:0:0:
417,142,309090,1,0,0:0:0:0:
128,0,309240,5,12,0:0:0:0:
256,368,309390,1,0,0:0:0:0:
384,0,309540,5,12,0:0:0:0:
48,192,309690,1,0,0:0:0:0:
464,192,309840,5,12,0:0:0:0:
128,0,309990,1,0,0:0:0:0:
256,368,310140,5,12,0:0:0:0:
384,0,310290,1,0,0:0:0:0:
48,192,310440,5,10,0:0:0:0:
48,192,310740,1,0,0:0:0:0:
48,192,311040,6,0,L|160:192,2,84,2|2|0,0:0|0:0|2:0,0:0:0:0:
256,16,311490,6,0,B|266:69|266:69|259:123,1,105,6|0,0:0|0:0,0:0:0:0:
45,288,311940,6,0,P|126:247|198:247,1,146.999995513916,8|0,0:0|0:0,0:0:0:0:
471,331,312240,2,0,P|398:323|335:287,1,146.999995513916
256,16,312540,1,8,0:0:0:0:
194,375,312690,6,0,B|180:238|180:238|206:150,1,210,4|0,0:0|0:0,0:0:0:0:
487,227,313140,6,0,B|370:230|370:230|400:207,1,146.999995513916,8|0,0:0|0:0,0:0:0:0:
83,165,313440,2,0,B|200:168|200:168|170:145,1,146.999995513916
415,12,313740,1,8,0:0:0:0:
250,361,313890,6,0,P|178:363|252:319,1,210,4|0,0:0|0:0,0:0:0:0:
469,369,314340,6,0,B|494:289|494:289|485:213,1,146.999995513916,8|0,0:0|0:0,0:0:0:0:
256,16,314640,2,0,B|248:78|248:78|273:158,1,146.999995513916
469,369,314940,1,8,0:0:0:0:
117,296,315090,1,4,0:3:0:0:
503,89,315240,6,0,L|326:73,1,168,4|0,0:0|0:0,0:0:0:0:
110,323,315540,2,0,L|287:307,1,168,12|0,0:0|0:0,0:0:0:0:
512,65,315840,6,0,L|335:49,1,168,4|0,0:0|0:0,0:0:0:0:
104,353,316140,1,10,0:0:0:0:
344,49,316290,6,0,P|328:100|343:166,1,105,6|0,0:0|0:0,0:0:0:0:
469,369,316740,6,0,L|314:354,1,146.999995513916,8|0,0:0|0:0,0:0:0:0:
21,208,317040,2,0,L|176:193,1,146.999995513916
512,65,317340,1,8,0:0:0:0:
239,382,317490,6,0,B|208:348|206:312|206:312|206:270|206:270|204:222|166:192,1,210,4|0,0:0|0:0,0:0:0:0:
512,65,317940,6,0,B|439:90|439:90|362:79,1,146.999995513916,8|0,0:0|0:0,0:0:0:0:
21,208,318240,2,0,B|94:183|94:183|163:192,1,146.999995513916
469,369,318540,1,8,0:0:0:0:
163,192,318690,6,0,P|145:114|187:-7,1,210,4|0,0:0|0:0,0:0:0:0:
489,232,319140,6,0,P|500:304|461:376,1,146.999995513916,8|0,0:0|0:0,0:0:0:0:
163,192,319440,2,0,P|152:120|189:46,1,146.999995513916
511,113,319740,1,8,0:0:0:0:
154,321,319890,1,4,0:3:0:0:
392,0,320040,6,0,L|404:199,1,168,4|0,0:0|0:0,0:0:0:0:
53,381,320340,2,0,L|63:213,1,168,12|0,0:0|0:0,0:0:0:0:
412,271,320640,6,0,P|499:354|383:312,1,336,4|0,0:0|0:0,0:0:0:0:
72,101,321090,6,0,L|261:94,1,168,12|0,0:0|0:0,0:0:0:0:
370,135,321540,1,0,0:0:0:0:
370,135,321690,1,0,0:0:0:0:
294,315,321840,2,0,P|284:266|286:223,1,84,8|0,0:3|0:0,0:0:0:0:
458,245,322140,1,0,0:0:0:0:
209,352,322290,6,0,B|82:345|82:345|119:322,1,168,8|0,0:0|0:0,0:0:0:0:
368,237,322740,2,0,L|275:231,1,84,8|0,0:0|0:0,0:0:0:0:
65,111,323040,1,8,0:0:0:0:
176,68,323190,1,0,0:0:0:0:
176,68,323340,1,0,0:0:0:0:
116,323,323490,6,0,B|108:197|108:197|141:234,1,168,8|0,0:0|0:0,0:0:0:0:
376,307,323940,2,0,P|330:318|287:312,1,84,8|0,0:0|0:0,0:0:0:0:
370,135,324240,2,0,P|416:124|459:130,1,84,8|0,0:0|0:0,0:0:0:0:
223,262,324540,1,0,0:0:0:0:
342,4,324690,6,0,B|373:81|373:81|365:223,1,210,12|0,0:0|0:0,0:0:0:0:
151,183,325140,6,0,P|197:159|259:161,2,105,4|4|6,0:0|0:0|0:0,0:0:0:0:
356,361,326040,6,0,P|374:293|365:207,1,157.5,6|0,0:0|0:0,0:0:0:0:
151,183,326340,1,0,0:0:0:0:
151,183,326415,1,0,0:0:0:0:
151,183,326490,2,0,L|150:304,1,105,8|0,0:0|0:0,0:0:0:0:
364,206,326790,1,0,0:0:0:0:
364,206,326865,1,0,0:0:0:0:
364,206,326940,2,0,L|363:101,1,105,8|0,0:0|0:0,0:0:0:0:
159,3,327240,1,0,0:0:0:0:
462,79,327390,6,0,P|404:103|356:98,1,105,8|0,0:0|0:0,0:0:0:0:
159,3,327690,1,0,0:0:0:0:
364,206,327840,2,0,B|374:241|374:241|374:266|374:266|367:279|367:279|373:299|371:316,2,105,8|0|0,0:0|0:0|0:0,0:0:0:0:
368,185,328215,1,0,0:0:0:0:
372,164,328290,6,0,B|302:148|302:148|145:163,1,210,8|0,0:0|0:0,0:0:0:0:
447,106,328740,2,0,P|507:55|412:55,1,210,8|0,0:0|0:0,0:0:0:0:
111,163,329190,2,0,L|172:160,1,52.5,8|0,0:0|0:0,0:0:0:0:
364,206,329340,2,0,L|303:203,1,52.5,2|0,0:2|0:0,0:0:0:0:
134,269,329490,2,0,L|195:266,1,52.5,2|0,0:2|0:0,0:0:0:0:
406,357,329640,6,0,P|413:317|409:283,1,62.9999980773926,8|0,0:0|0:0,0:0:0:0:
283,59,329790,2,0,P|281:90|288:121,1,62.9999980773926,8|0,0:0|0:0,0:0:0:0:
512,215,329940,2,0,P|481:209|449:212,3,62.9999980773926,2|0|2|0,0:2|0:0|0:2|0:0,0:0:0:0:
257,340,330240,5,8,0:0:0:0:
163,160,330390,1,0,0:0:0:0:
163,160,330465,1,0,0:0:0:0:
163,160,330540,1,8,0:0:0:0:
449,211,330690,1,8,0:0:0:0:
257,340,330840,6,0,B|234:330|213:329|213:329|205:334|189:332|189:332|179:327|165:326|165:326|150:327|138:335|138:335|95:320|49:332,1,210,10|0,0:0|0:0,0:0:0:0:
220,81,331290,2,0,B|243:91|264:92|264:92|272:87|288:89|288:89|298:94|312:95|312:95|327:94|339:86|339:86|382:101|428:89,1,210,8|0,0:0|0:0,0:0:0:0:
151,233,331740,1,8,0:0:0:0:
449,210,331890,2,2,B|429:205|412:207|412:207|400:201|400:201|386:207|367:205,2,78.7500030040742,2|2|0,0:2|0:2|0:2,0:2:0:0:
136,253,332190,6,0,P|98:174|115:56,1,210,8|0,0:0|0:0,0:0:0:0:
162,33,332565,1,0,0:0:0:0:
162,33,332640,2,0,B|190:33|206:23|206:23|223:27|231:34|231:34|248:28|271:32,1,105,8|0,0:0|0:0,0:0:0:0:
437,103,332940,1,2,0:2:0:0:
136,253,333090,1,8,0:0:0:0:
266,126,333240,5,8,0:0:0:0:
314,358,333390,1,8,0:0:0:0:
373,47,333540,5,8,0:0:0:0:
309,383,333690,1,8,0:0:0:0:
162,33,333840,5,8,0:0:0:0:
479,185,333990,1,8,0:0:0:0:
78,270,334140,5,8,0:0:0:0:
388,31,334290,1,8,0:0:0:0:
56,289,334440,6,0,L|53:216,3,52.5,8|0|2|2,0:0|0:0|0:0|0:0,0:0:0:0:
215,194,335040,2,0,L|213:247,3,52.5,2|2|0|2,0:0|0:0|0:0|0:0,0:0:0:0:
68,85,335640,6,2,B|109:89|133:71|133:71|159:78|171:92|171:92|192:77|192:77|210:78|228:71|228:71|253:78|270:103|270:103|299:120|370:104,1,293.999991027832,6|8,0:0|0:0,0:0:0:0:
144,332,336090,2,2,B|120:315|96:313|96:313|92:287|77:268|77:268|76:238|97:217|97:217|131:194|174:208|174:208|184:236|216:247,1,293.999991027832,2|0,0:2|0:0,0:0:0:0:
505,334,336540,6,2,B|478:358|446:351|446:351|434:334|411:321|411:321|397:328|381:326|381:326|367:346|343:337|343:337|320:347|300:335|300:335|272:352|233:346,1,293.999991027832,14|0,0:0|0:0,0:0:0:0:
334,58,336990,1,2,0:2:0:0:
494,184,337140,1,8,0:0:0:0:
199,252,337290,1,0,0:0:0:0:
334,58,337440,6,2,B|331:76|331:76|334:86|334:86|331:98|333:111,6,52.5,6|2|2|2|2|2|2,0:0|0:0|0:0|0:0|0:0|0:0|0:0,0:0:0:0:
332,190,337740,1,8,0:0:0:0:
116,238,337890,2,2,B|91:232|75:218|75:218|56:234|32:237|32:237|30:268|19:285|19:285|25:316|52:330|52:330|77:326|106:335|106:335|128:329|152:333,1,293.999991027832,2|0,0:2|0:0,0:0:0:0:
427,106,338340,6,2,B|441:128|437:155|437:155|428:175|410:184|410:184|410:211|432:241|432:241|417:254|391:255|391:255|413:277|421:303|421:303|413:327|416:341,1,293.999991027832,14|0,0:0|0:0,0:0:0:0:
116,238,338790,1,2,0:2:0:0:
334,57,338940,1,8,0:0:0:0:
251,363,339090,1,0,0:0:0:0:
251,363,339165,1,0,0:0:0:0:
251,363,339240,6,2,B|250:335|250:335|246:314|246:314|250:295|250:295|253:255,1,105,14|0,0:0|0:0,0:0:0:0:
126,113,339390,2,2,B|128:149|128:149|132:168|132:168|128:189|128:189|127:217,1,105,2|0,0:3|0:0,0:0:0:0:
350,319,339540,6,2,B|354:284|354:284|349:258|349:258|355:250|355:250|351:237|351:237|353:204,1,105,14|0,0:0|0:0,0:0:0:0:
27,159,339690,2,2,B|23:194|23:194|28:220|28:220|22:228|22:228|26:241|26:241|24:274,1,105,2|0,0:3|0:0,0:0:0:0:
458,133,339840,6,0,B|460:114|457:101|457:101|461:88|461:88|457:69|457:69|459:50,3,62.9999980773926,14|0|2|0,0:0|0:0|0:3|0:0,0:0:0:0:
253,197,340140,2,0,B|253:200|253:200|249:219|249:219|253:232|253:232|250:245|252:264,3,62.9999980773926,14|0|2|0,0:0|0:0|0:3|0:0,0:0:0:0:
132,20,340440,5,6,0:0:0:0:
233,75,340590,1,0,0:0:0:0:
27,159,340740,1,8,0:0:0:0:
150,313,340890,1,2,0:2:0:0:
132,20,341040,1,0,0:0:0:0:
29,267,341190,1,0,0:0:0:0:
346,172,341340,5,14,0:0:0:0:
77,86,341490,1,0,0:0:0:0:
375,181,341640,2,2,B|397:185|397:185|415:178|415:178|423:191|423:191|436:184|436:184|451:190|451:190|475:185|475:185|488:191|488:191|512:189,1,146.999995513916,2|2,0:3|0:2,0:0:0:0:
162,258,341940,2,2,B|140:262|140:262|122:255|122:255|114:268|114:268|101:261|101:261|86:267|86:267|62:262|62:262|49:268|49:268|25:266,1,146.999995513916,8|2,0:0|0:3,0:0:0:0:
319,53,342240,5,6,0:0:0:0:
278,345,342390,1,0,0:0:0:0:
156,161,342540,1,8,0:0:0:0:
177,157,342615,1,0,0:0:0:0:
198,153,342690,1,2,0:2:0:0:
219,150,342765,1,0,0:0:0:0:
240,147,342840,1,2,0:3:0:0:
261,144,342915,1,0,0:3:0:0:
282,141,342990,1,0,0:0:0:0:
302,137,343065,1,0,0:0:0:0:
324,135,343140,5,14,0:0:0:0:
306,175,343215,1,0,0:3:0:0:
315,218,343290,1,2,0:3:0:0:
346,248,343365,1,0,0:3:0:0:
388,261,343440,1,2,0:3:0:0:
431,251,343515,1,0,0:3:0:0:
460,218,343590,6,2,B|464:237|464:237|466:254|466:254|462:264|462:264|464:273|464:273|466:300,1,73.4999977569581,2|0,0:2|0:0,0:0:0:0:
492,126,343740,1,8,0:0:0:0:
192,27,343890,1,0,0:0:0:0:
192,27,343965,1,0,0:0:0:0:
192,27,344040,5,14,0:0:0:0:
210,360,344190,1,0,0:0:0:0:
391,81,344340,1,14,0:0:0:0:
79,200,344490,1,0,0:0:0:0:
402,287,344640,1,14,0:0:0:0:
192,27,344790,1,0,0:0:0:0:
210,360,344940,5,8,0:0:0:0:
210,360,345015,1,8,0:3:0:0:
210,360,345090,2,0,L|212:287,1,52.5,2|0,0:3|0:0,0:0:0:0:
243,109,345240,5,14,0:0:0:0:
284,86,345314,1,2,0:3:0:0:
331,85,345389,1,2,0:3:0:0:
373,103,345463,1,0,0:0:0:0:
404,138,345538,1,12,0:0:0:0:
417,183,345613,1,2,0:3:0:0:
408,229,345687,1,2,0:2:0:0:
376,264,345762,1,0,0:0:0:0:
333,285,345837,6,0,L|221:280,1,94.499997116089,12|0,0:0|0:0,0:0:0:0:
63,221,345986,2,0,L|175:216,1,94.499997116089,2|0,0:3|0:0,0:0:0:0:
404,138,346135,2,0,L|292:133,1,94.499997116089,14|0,0:0|0:0,0:0:0:0:
134,74,346284,2,0,L|246:69,1,94.499997116089
55,314,346434,5,12,0:0:0:0:
55,314,346507,1,0,0:0:0:0:
55,314,346580,2,0,P|30:261|31:210,1,94.499997116089,2|0,0:2|0:0,0:0:0:0:
309,133,346726,1,12,0:0:0:0:
306,151,346799,1,0,0:0:0:0:
303,169,346873,1,2,0:3:0:0:
300,187,346946,1,0,0:0:0:0:
297,205,347019,5,14,0:0:0:0:
242,191,347092,1,0,0:0:0:0:
212,142,347165,1,0,0:0:0:0:
216,85,347238,1,0,0:0:0:0:
259,47,347312,1,12,0:0:0:0:
315,44,347385,1,0,0:0:0:0:
363,73,347458,1,2,0:2:0:0:
385,124,347531,1,0,0:0:0:0:
373,179,347604,6,0,L|380:283,1,94.499997116089,12|0,0:0|0:0,0:0:0:0:
169,374,347751,1,2,0:3:0:0:
169,374,347824,1,0,0:0:0:0:
169,374,347897,2,0,L|175:279,1,94.499997116089,14|0,0:0|0:0,0:0:0:0:
478,215,348043,1,2,0:3:0:0:
478,215,348116,1,0,0:0:0:0:
478,215,348190,6,0,L|472:310,1,94.499997116089,12|0,0:0|0:0,0:0:0:0:
253,141,348336,2,0,L|259:46,1,94.499997116089,2|0,0:2|0:0,0:0:0:0:
378,332,348482,1,12,0:0:0:0:
324,349,348555,1,0,0:0:0:0:
266,345,348629,1,2,0:3:0:0:
214,321,348702,1,0,0:0:0:0:
174,279,348775,6,0,L|171:362,3,73.4999977569581,14|0|2|0,0:0|0:0|0:3|0:0,0:0:0:0:
320,140,349082,2,0,L|316:55,3,73.4999977569581,14|0|2|0,0:0|0:0|0:3|0:0,0:0:0:0:
344,351,349390,5,14,0:0:0:0:
310,303,349467,1,0,0:0:0:0:
300,248,349544,1,2,0:3:0:0:
303,192,349621,1,0,0:0:0:0:
320,140,349698,5,14,0:0:0:0:
264,188,349775,1,0,0:0:0:0:
195,215,349851,1,2,0:3:0:0:
122,209,349928,1,0,0:0:0:0:
59,172,350005,6,0,L|62:76,3,73.4999977569581,14|0|0|0,0:0|0:0|0:0|0:0,0:0:0:0:
264,188,350305,1,2,0:3:0:0:
264,188,350380,1,0,0:0:0:0:
264,188,350455,2,0,L|266:270,3,73.4999977569581,14|0|0|0,0:0|0:0|0:0|0:0,0:0:0:0:
59,172,350755,1,2,0:3:0:0:
59,172,350830,1,0,0:0:0:0:
59,172,350905,6,0,P|52:132|59:85,3,73.4999977569581,14|0|2|0,0:0|0:0|0:3|0:0,0:0:0:0:
264,188,351205,1,2,0:3:0:0:
264,188,351280,1,0,0:0:0:0:
264,188,351355,2,0,P|271:228|264:275,3,73.4999977569581,14|0|2|0,0:0|0:0|0:3|0:0,0:0:0:0:
217,80,351655,1,2,0:3:0:0:
217,80,351730,1,0,0:0:0:0:
217,80,351805,6,0,P|248:70|284:72,3,62.9999980773926,10|0|2|0,0:0|0:0|0:3|0:0,0:0:0:0:
139,161,352105,1,2,0:3:0:0:
139,161,352180,1,0,0:0:0:0:
139,161,352255,6,0,P|105:171|72:170,5,62.9999980773926,10|0|2|2|2|0,0:0|0:0|0:3|0:3|0:3|0:0,0:0:0:0:
315,355,352733,5,8,0:0:0:0:
350,323,352808,1,8,0:0:0:0:
372,281,352883,1,8,0:0:0:0:
384,235,352958,1,8,0:0:0:0:
385,187,353033,1,8,0:0:0:0:
379,140,353108,1,8,0:0:0:0:
360,96,353174,6,2,B|139:89|139:89|189:138,1,275.62501051426,8|0,0:0|0:0,0:0:0:0:
