osu file format v14

[General]
AudioFilename: audio.mp3
AudioLeadIn: 0
PreviewTime: 180540
Countdown: 0
SampleSet: None
StackLeniency: 0.7
Mode: 3
LetterboxInBreaks: 0
SpecialStyle: 0
WidescreenStoryboard: 0

[Editor]
DistanceSpacing: 1
BeatDivisor: 4
GridSize: 16
TimelineZoom: 2.7

[Metadata]
Title:Guilty All The Same (feat. Rakim)
TitleUnicode:Guilty All The Same (feat. Rakim)
Artist:Linkin Park
ArtistUnicode:Linkin Park
Creator:Violet-Fox
Version:Ashamed
Source:
Tags:
BeatmapID:1718779
BeatmapSetID:819826

[Difficulty]
HPDrainRate:7
CircleSize:4
OverallDifficulty:8
ApproachRate:5
SliderMultiplier:1.4
SliderTickRate:1

[Events]
//Background and Video events
0,0,"1885326.jpg",0,0
//Break Periods
//Storyboard Layer 0 (Background)
//Storyboard Layer 1 (Fail)
//Storyboard Layer 2 (Pass)
//Storyboard Layer 3 (Foreground)
//Storyboard Sound Samples

[TimingPoints]
90,300,4,3,0,10,1,0
90,-100,4,3,0,10,0,0
1290,-100,4,3,0,40,0,0
9090,-100,4,3,0,10,0,0
9240,-100,4,3,0,20,0,0
9390,-100,4,3,0,30,0,0
9540,-100,4,3,0,40,0,0
9690,-100,4,3,0,50,0,0
10290,-100,4,3,0,30,0,0
10890,-100,4,3,0,45,0,0
16590,-100,4,3,0,70,0,0
17490,-100,4,3,0,40,0,0
18390,-100,4,3,0,70,0,0
18840,300,4,3,0,20,1,0
18840,-100,4,3,0,20,0,0
23490,-100,4,3,0,40,0,0
38040,-100,4,3,0,50,0,0
44640,-100,4,3,0,60,0,0
61890,-100,4,3,0,50,0,0
66240,-100,4,3,0,60,0,0
76440,-100,4,3,0,70,0,0
95640,-100,4,3,0,30,0,0
114840,-100,4,3,0,50,0,0
134040,-100,4,3,0,40,0,0
143640,-100,4,3,0,60,0,0
153240,-100,4,3,0,40,0,0
182040,-100,4,3,0,70,0,1
202440,-100,4,3,0,50,0,0
207240,-100,4,3,0,60,0,0
208590,-100,4,3,0,50,0,0
219090,-100,4,2,0,20,0,0
221490,-100,4,3,0,40,0,0
242340,-100,4,2,0,40,0,0
245490,-100,4,3,0,40,0,0
247890,-100,4,2,0,40,0,0
250290,-100,4,3,0,40,0,0
252690,-100,4,2,0,40,0,0
255090,-100,4,3,0,40,0,0
257490,-100,4,2,0,40,0,0
259890,-100,4,3,0,50,0,0
284640,-100,4,3,0,30,0,0
290040,-100,4,3,0,70,0,1
310440,-100,4,3,0,70,0,0
311490,-100,4,3,0,50,0,0
345240,298.507462686567,4,3,0,70,1,0
345240,-100,4,3,0,50,0,0
346434,292.682926829268,4,3,0,50,1,0
346434,-102.040816326531,4,3,0,50,0,0
348775,307.692307692308,4,3,0,50,1,0
348775,-97.0873786407767,4,3,0,50,0,0
350005,300,4,3,0,50,1,0
350005,-100,4,3,0,50,0,0
352255,333.333333333333,4,3,0,50,1,0
352255,-90.0900900900901,4,3,0,50,0,0
352733,300,4,3,0,50,1,0
352733,-100,4,3,0,50,0,0
353174,300,4,3,0,50,1,0
353174,-100,4,3,0,50,0,0

[HitObjects]
320,192,90,5,0,0:0:0:0:
320,192,390,1,0,0:0:0:0:
320,192,690,1,0,0:0:0:0:
320,192,990,1,0,0:0:0:0:
192,192,1290,128,0,1440:0:0:0:0:
64,192,1290,1,4,0:1:0:0:
448,192,1590,1,0,0:0:0:0:
64,192,1740,128,0,2040:0:0:0:0:
320,192,1740,1,0,0:0:0:0:
448,192,2190,1,0,0:0:0:0:
192,192,2190,128,0,2490:0:0:0:0:
320,192,2490,1,0,0:0:0:0:
448,192,2640,128,0,2940:0:0:0:0:
64,192,2640,1,0,0:0:0:0:
64,192,2940,1,0,0:0:0:0:
192,192,3090,128,0,3390:0:0:0:0:
320,192,3090,1,0,0:0:0:0:
192,192,3540,1,0,0:0:0:0:
448,192,3540,128,0,3690:0:0:0:0:
320,192,3690,1,0,0:0:0:0:
64,192,3840,1,0,0:0:0:0:
448,192,3990,1,0,0:0:0:0:
320,192,3990,128,0,4140:0:0:0:0:
320,192,4290,1,0,0:0:0:0:
192,192,4440,128,0,4740:0:0:0:0:
64,192,4440,1,0,0:0:0:0:
448,192,4890,1,0,0:0:0:0:
64,192,4890,1,0,0:0:0:0:
320,192,5040,1,0,0:0:0:0:
192,192,5190,1,0,0:0:0:0:
448,192,5340,1,0,0:0:0:0:
64,192,5490,1,0,0:0:0:0:
320,192,5490,1,0,0:0:0:0:
192,192,5640,1,0,0:0:0:0:
320,192,5790,1,0,0:0:0:0:
64,192,5940,1,0,0:0:0:0:
448,192,6090,1,0,0:0:0:0:
192,192,6090,128,0,6390:0:0:0:0:
320,192,6390,1,0,0:0:0:0:
64,192,6390,1,0,0:0:0:0:
320,192,6540,128,0,6690:0:0:0:0:
448,192,6540,1,0,0:0:0:0:
192,192,6840,1,0,0:0:0:0:
64,192,6990,1,0,0:0:0:0:
448,192,6990,1,0,0:0:0:0:
320,192,7140,1,0,0:0:0:0:
64,192,7290,1,0,0:0:0:0:
448,192,7440,1,0,0:0:0:0:
192,192,7440,128,0,7590:0:0:0:0:
320,192,7740,1,0,0:0:0:0:
64,192,7890,128,0,8190:0:0:0:0:
192,192,7890,1,0,0:0:0:0:
448,192,8190,1,0,0:0:0:0:
320,192,8340,128,0,8490:0:0:0:0:
192,192,8340,1,0,0:0:0:0:
64,192,8640,1,0,0:0:0:0:
192,192,8790,128,0,8940:0:0:0:0:
448,192,8790,1,0,0:0:0:0:
320,192,9090,1,0,0:0:0:0:
448,192,9090,1,0,0:0:0:0:
64,192,9240,1,0,0:0:0:0:
192,192,9240,1,0,0:0:0:0:
320,192,9390,1,0,0:0:0:0:
448,192,9390,1,0,0:0:0:0:
320,192,9540,1,0,0:0:0:0:
192,192,9540,1,0,0:0:0:0:
64,192,9690,1,0,0:0:0:0:
192,192,9690,1,0,0:0:0:0:
192,192,9840,1,0,0:0:0:0:
320,192,9840,1,0,0:0:0:0:
192,192,9990,1,0,0:0:0:0:
320,192,9990,1,0,0:0:0:0:
320,192,10140,1,0,0:0:0:0:
192,192,10140,1,0,0:0:0:0:
448,192,10290,1,0,0:0:0:0:
448,192,10440,1,0,0:0:0:0:
64,192,10590,1,0,0:0:0:0:
64,192,10740,1,0,0:0:0:0:
320,192,10890,1,0,0:0:0:0:
192,192,10890,1,0,0:0:0:0:
448,192,10890,1,4,0:2:0:0:
320,192,11040,1,0,0:0:0:0:
64,192,11190,1,0,0:0:0:0:
192,192,11190,1,0,0:0:0:0:
320,192,11340,128,0,11490:0:0:0:0:
64,192,11490,1,0,0:0:0:0:
448,192,11490,1,0,0:0:0:0:
192,192,11640,1,0,0:0:0:0:
320,192,11790,1,0,0:0:0:0:
448,192,11790,1,0,0:0:0:0:
64,192,11940,1,0,0:0:0:0:
320,192,12090,1,0,0:0:0:0:
192,192,12240,1,0,0:0:0:0:
448,192,12240,1,0,0:0:0:0:
320,192,12390,1,0,0:0:0:0:
64,192,12390,1,0,0:0:0:0:
192,192,12540,1,0,0:0:0:0:
320,192,12690,1,0,0:0:0:0:
448,192,12690,1,0,0:0:0:0:
64,192,12840,1,0,0:0:0:0:
320,192,12990,1,0,0:0:0:0:
192,192,13140,1,0,0:0:0:0:
448,192,13140,1,0,0:0:0:0:
320,192,13290,1,0,0:0:0:0:
64,192,13440,1,0,0:0:0:0:
320,192,13590,1,0,0:0:0:0:
448,192,13590,1,0,0:0:0:0:
192,192,13740,1,0,0:0:0:0:
320,192,13890,1,0,0:0:0:0:
448,192,14040,1,0,0:0:0:0:
64,192,14040,1,0,0:0:0:0:
192,192,14190,1,0,0:0:0:0:
448,192,14340,1,0,0:0:0:0:
320,192,14490,1,0,0:0:0:0:
64,192,14490,1,0,0:0:0:0:
192,192,14640,1,0,0:0:0:0:
64,192,14790,1,0,0:0:0:0:
320,192,14790,1,0,0:0:0:0:
192,192,14940,1,0,0:0:0:0:
448,192,15090,1,0,0:0:0:0:
64,192,15090,1,0,0:0:0:0:
320,192,15240,1,0,0:0:0:0:
64,192,15390,1,0,0:0:0:0:
448,192,15390,1,0,0:0:0:0:
320,192,15540,1,0,0:0:0:0:
448,192,15690,1,0,0:0:0:0:
64,192,15690,1,0,0:0:0:0:
192,192,15690,128,0,15990:0:0:0:0:
320,192,15990,1,0,0:0:0:0:
448,192,15990,1,0,0:0:0:0:
192,192,16140,128,0,16440:0:0:0:0:
320,192,16440,1,0,0:0:0:0:
448,192,16440,1,0,0:0:0:0:
192,192,16590,128,0,16890:0:0:0:0:
320,192,16890,1,0,0:0:0:0:
192,192,17040,128,0,17340:0:0:0:0:
320,192,17340,1,0,0:0:0:0:
64,192,17490,128,0,17790:0:0:0:0:
448,192,17490,128,0,17790:0:0:0:0:
448,192,17940,128,0,18240:0:0:0:0:
64,192,17940,128,0,18240:0:0:0:0:
192,192,18390,1,0,0:0:0:0:
320,192,18465,1,0,0:0:0:0:
448,192,18540,1,0,0:0:0:0:
64,192,18615,1,0,0:0:0:0:
192,192,18690,1,0,0:0:0:0:
320,192,18765,1,0,0:0:0:0:
448,192,18840,128,0,19290:0:0:0:0:
192,192,19290,128,0,19740:0:0:0:0:
320,192,19740,128,0,20190:0:0:0:0:
64,192,20190,128,0,20640:0:0:0:0:
192,192,20640,128,0,21090:0:0:0:0:
448,192,21090,128,0,21540:0:0:0:0:
192,192,21540,128,0,21990:0:0:0:0:
320,192,21990,128,0,22290:0:0:0:0:
192,192,22440,1,0,0:0:0:0:
192,192,22740,1,0,0:0:0:0:
64,192,23040,1,0,0:0:0:0:
64,192,23340,1,0,0:0:0:0:
448,192,23490,1,0,0:0:0:0:
320,192,23565,1,0,0:0:0:0:
192,192,23640,1,0,0:0:0:0:
64,192,23640,1,0,0:0:0:0:
320,192,23790,1,0,0:0:0:0:
448,192,23790,1,0,0:0:0:0:
320,192,23940,1,0,0:0:0:0:
64,192,24090,1,0,0:0:0:0:
448,192,24090,1,0,0:0:0:0:
192,192,24240,1,0,0:0:0:0:
192,192,24390,1,0,0:0:0:0:
320,192,24540,1,0,0:0:0:0:
64,192,24540,1,0,0:0:0:0:
448,192,24690,1,0,0:0:0:0:
448,192,24840,1,0,0:0:0:0:
192,192,24990,1,0,0:0:0:0:
64,192,24990,1,0,0:0:0:0:
320,192,25140,1,0,0:0:0:0:
320,192,25290,1,0,0:0:0:0:
64,192,25440,1,0,0:0:0:0:
448,192,25440,1,0,0:0:0:0:
192,192,25590,1,0,0:0:0:0:
192,192,25740,1,0,0:0:0:0:
320,192,25890,1,0,0:0:0:0:
64,192,25890,1,0,0:0:0:0:
448,192,26040,1,0,0:0:0:0:
448,192,26190,1,0,0:0:0:0:
192,192,26340,1,0,0:0:0:0:
320,192,26340,1,0,0:0:0:0:
64,192,26490,1,0,0:0:0:0:
64,192,26640,1,0,0:0:0:0:
192,192,26790,1,0,0:0:0:0:
448,192,26790,1,0,0:0:0:0:
320,192,26940,1,0,0:0:0:0:
320,192,27090,1,0,0:0:0:0:
192,192,27240,1,0,0:0:0:0:
64,192,27240,1,0,0:0:0:0:
192,192,27390,1,0,0:0:0:0:
320,192,27390,1,0,0:0:0:0:
448,192,27540,1,0,0:0:0:0:
64,192,27690,1,0,0:0:0:0:
448,192,27840,1,0,0:0:0:0:
320,192,27840,1,0,0:0:0:0:
192,192,27915,1,0,0:0:0:0:
64,192,27990,1,0,0:0:0:0:
448,192,28065,1,0,0:0:0:0:
320,192,28140,1,0,0:0:0:0:
192,192,28215,1,0,0:0:0:0:
64,192,28290,1,0,0:0:0:0:
448,192,28290,1,0,0:0:0:0:
320,192,28440,1,0,0:0:0:0:
192,192,28440,1,0,0:0:0:0:
64,192,28590,1,0,0:0:0:0:
448,192,28740,1,0,0:0:0:0:
320,192,28890,1,0,0:0:0:0:
64,192,28890,1,0,0:0:0:0:
192,192,29040,1,0,0:0:0:0:
320,192,29190,1,0,0:0:0:0:
448,192,29340,1,0,0:0:0:0:
192,192,29340,1,0,0:0:0:0:
320,192,29490,1,0,0:0:0:0:
192,192,29640,1,0,0:0:0:0:
320,192,29790,1,0,0:0:0:0:
448,192,29790,1,0,0:0:0:0:
64,192,29940,1,0,0:0:0:0:
192,192,30090,1,0,0:0:0:0:
448,192,30240,1,0,0:0:0:0:
64,192,30240,1,0,0:0:0:0:
320,192,30390,1,0,0:0:0:0:
64,192,30540,1,0,0:0:0:0:
320,192,30690,1,0,0:0:0:0:
448,192,30690,1,0,0:0:0:0:
192,192,30840,1,0,0:0:0:0:
448,192,30990,1,0,0:0:0:0:
192,192,31140,1,0,0:0:0:0:
64,192,31140,1,0,0:0:0:0:
320,192,31290,1,0,0:0:0:0:
64,192,31440,1,0,0:0:0:0:
192,192,31590,1,0,0:0:0:0:
320,192,31590,1,0,0:0:0:0:
448,192,31740,1,0,0:0:0:0:
64,192,31890,1,0,0:0:0:0:
320,192,32040,1,0,0:0:0:0:
448,192,32040,1,0,0:0:0:0:
192,192,32190,1,0,0:0:0:0:
64,192,32190,1,0,0:0:0:0:
320,192,32340,1,0,0:0:0:0:
320,192,32490,1,0,0:0:0:0:
448,192,32640,1,0,0:0:0:0:
64,192,32640,1,0,0:0:0:0:
320,192,32715,1,0,0:0:0:0:
192,192,32790,1,0,0:0:0:0:
192,192,32940,1,0,0:0:0:0:
320,192,33090,1,0,0:0:0:0:
64,192,33090,1,0,0:0:0:0:
448,192,33240,1,0,0:0:0:0:
320,192,33240,1,0,0:0:0:0:
192,192,33390,1,0,0:0:0:0:
64,192,33540,1,0,0:0:0:0:
192,192,33690,1,0,0:0:0:0:
448,192,33690,1,0,0:0:0:0:
320,192,33840,1,0,0:0:0:0:
64,192,33990,1,0,0:0:0:0:
192,192,34140,1,0,0:0:0:0:
320,192,34140,1,0,0:0:0:0:
448,192,34290,1,0,0:0:0:0:
192,192,34440,1,0,0:0:0:0:
64,192,34590,1,0,0:0:0:0:
320,192,34590,1,0,0:0:0:0:
192,192,34740,1,0,0:0:0:0:
320,192,34890,1,0,0:0:0:0:
448,192,35040,1,0,0:0:0:0:
64,192,35040,1,0,0:0:0:0:
192,192,35190,1,0,0:0:0:0:
448,192,35340,1,0,0:0:0:0:
192,192,35490,1,0,0:0:0:0:
64,192,35490,1,0,0:0:0:0:
448,192,35640,1,0,0:0:0:0:
192,192,35640,1,0,0:0:0:0:
320,192,35790,1,0,0:0:0:0:
64,192,35940,1,0,0:0:0:0:
448,192,35940,1,0,0:0:0:0:
192,192,36090,1,0,0:0:0:0:
192,192,36240,1,0,0:0:0:0:
448,192,36390,1,0,0:0:0:0:
320,192,36390,1,0,0:0:0:0:
64,192,36540,1,0,0:0:0:0:
192,192,36690,1,0,0:0:0:0:
448,192,36840,1,0,0:0:0:0:
64,192,36840,1,0,0:0:0:0:
64,192,36990,1,0,0:0:0:0:
320,192,36990,1,0,0:0:0:0:
64,192,37140,1,0,0:0:0:0:
192,192,37140,1,0,0:0:0:0:
448,192,37290,1,0,0:0:0:0:
320,192,37290,1,0,0:0:0:0:
64,192,37440,1,0,0:0:0:0:
192,192,37440,1,0,0:0:0:0:
320,192,37515,1,0,0:0:0:0:
448,192,37590,1,0,0:0:0:0:
64,192,37590,1,0,0:0:0:0:
192,192,37665,1,0,0:0:0:0:
320,192,37740,1,0,0:0:0:0:
448,192,37740,1,0,0:0:0:0:
192,192,37890,1,0,0:0:0:0:
64,192,37890,1,0,0:0:0:0:
64,192,38040,1,0,0:2:0:0:
192,192,38040,1,0,0:2:0:0:
448,192,38040,1,4,0:2:0:0:
320,192,38190,1,0,0:0:0:0:
320,192,38340,1,0,0:0:0:0:
64,192,38490,1,0,0:0:0:0:
448,192,38490,1,0,0:0:0:0:
192,192,38640,1,0,0:0:0:0:
448,192,38790,1,0,0:0:0:0:
64,192,38940,1,0,0:0:0:0:
192,192,38940,1,0,0:0:0:0:
320,192,39090,1,0,0:0:0:0:
448,192,39240,1,0,0:0:0:0:
64,192,39390,1,0,0:0:0:0:
320,192,39390,1,0,0:0:0:0:
192,192,39540,1,0,0:0:0:0:
320,192,39690,1,0,0:0:0:0:
192,192,39765,1,0,0:0:0:0:
64,192,39840,1,0,0:0:0:0:
320,192,39990,1,0,0:0:0:0:
448,192,40140,1,0,0:0:0:0:
192,192,40290,1,0,0:0:0:0:
320,192,40290,1,0,0:0:0:0:
64,192,40440,1,0,0:0:0:0:
448,192,40590,1,0,0:0:0:0:
320,192,40740,1,0,0:0:0:0:
64,192,40740,1,0,0:0:0:0:
192,192,40890,1,0,0:0:0:0:
448,192,41040,1,0,0:0:0:0:
64,192,41190,1,0,0:0:0:0:
192,192,41190,1,0,0:0:0:0:
320,192,41340,1,0,0:0:0:0:
192,192,41490,1,0,0:0:0:0:
64,192,41640,1,0,0:0:0:0:
448,192,41640,1,4,0:2:0:0:
320,192,41640,1,0,0:2:0:0:
192,192,41790,1,0,0:0:0:0:
320,192,41940,1,0,0:0:0:0:
64,192,41940,1,0,0:0:0:0:
192,192,42090,1,0,0:0:0:0:
320,192,42240,1,0,0:0:0:0:
448,192,42240,1,0,0:0:0:0:
64,192,42390,1,0,0:0:0:0:
192,192,42390,1,0,0:0:0:0:
448,192,42540,1,0,0:0:0:0:
320,192,42540,1,0,0:0:0:0:
64,192,42690,1,0,0:0:0:0:
192,192,42690,1,0,0:0:0:0:
64,192,42840,1,0,0:0:0:0:
320,192,42840,1,4,0:2:0:0:
448,192,42840,1,0,0:0:0:0:
192,192,42990,1,0,0:0:0:0:
192,192,43140,1,0,0:0:0:0:
448,192,43290,1,0,0:0:0:0:
64,192,43290,1,0,0:0:0:0:
320,192,43440,1,0,0:0:0:0:
320,192,43590,1,0,0:0:0:0:
64,192,43740,1,4,0:2:0:0:
192,192,43740,1,0,0:0:0:0:
448,192,43890,1,0,0:0:0:0:
448,192,44040,1,0,0:0:0:0:
320,192,44190,1,0,0:0:0:0:
192,192,44190,1,0,0:0:0:0:
64,192,44340,1,0,0:0:0:0:
64,192,44490,1,0,0:0:0:0:
320,192,44640,1,4,0:2:0:0:
448,192,44640,1,0,0:0:0:0:
192,192,44790,1,0,0:0:0:0:
64,192,44940,1,0,0:0:0:0:
192,192,45090,1,0,0:0:0:0:
320,192,45090,1,0,0:0:0:0:
448,192,45240,1,0,0:0:0:0:
64,192,45390,1,0,0:0:0:0:
320,192,45540,1,0,0:0:0:0:
448,192,45540,1,0,0:0:0:0:
192,192,45690,1,0,0:0:0:0:
448,192,45840,1,0,0:0:0:0:
192,192,45990,1,0,0:0:0:0:
64,192,45990,1,0,0:0:0:0:
320,192,46140,1,0,0:0:0:0:
448,192,46140,1,0,0:0:0:0:
192,192,46290,1,0,0:0:0:0:
320,192,46290,1,0,0:0:0:0:
64,192,46440,1,4,0:2:0:0:
448,192,46440,1,0,0:0:0:0:
192,192,46440,1,0,0:0:0:0:
320,192,46590,1,0,0:0:0:0:
192,192,46740,1,0,0:0:0:0:
64,192,46740,1,0,0:0:0:0:
448,192,46890,1,0,0:0:0:0:
320,192,46890,1,0,0:0:0:0:
192,192,47040,1,0,0:0:0:0:
320,192,47190,1,0,0:0:0:0:
448,192,47190,1,0,0:0:0:0:
192,192,47340,1,0,0:0:0:0:
320,192,47490,1,0,0:0:0:0:
448,192,47490,1,0,0:0:0:0:
448,192,47640,1,0,0:0:0:0:
64,192,47640,1,4,0:2:0:0:
320,192,47640,1,0,0:0:0:0:
192,192,47790,1,0,0:0:0:0:
64,192,47940,1,0,0:0:0:0:
192,192,48090,1,0,0:0:0:0:
448,192,48090,1,0,0:0:0:0:
320,192,48240,1,0,0:0:0:0:
64,192,48390,1,0,0:0:0:0:
192,192,48390,1,0,0:0:0:0:
64,192,48540,1,4,0:2:0:0:
192,192,48540,1,0,0:0:0:0:
320,192,48540,1,0,0:0:0:0:
448,192,48690,1,0,0:0:0:0:
192,192,48840,1,0,0:0:0:0:
320,192,48990,1,0,0:0:0:0:
448,192,48990,1,0,0:0:0:0:
64,192,49140,1,0,0:0:0:0:
192,192,49140,1,0,0:0:0:0:
320,192,49290,1,0,0:0:0:0:
448,192,49290,1,0,0:0:0:0:
448,192,49440,1,0,0:0:0:0:
64,192,49440,1,0,0:0:0:0:
192,192,49440,1,4,0:2:0:0:
320,192,49590,1,0,0:0:0:0:
192,192,49740,1,0,0:0:0:0:
64,192,49890,1,0,0:0:0:0:
448,192,49890,1,0,0:0:0:0:
192,192,50040,1,0,0:0:0:0:
320,192,50040,1,0,0:0:0:0:
64,192,50190,1,0,0:0:0:0:
448,192,50190,1,0,0:0:0:0:
192,192,50340,1,4,0:2:0:0:
448,192,50340,1,0,0:0:0:0:
64,192,50340,1,0,0:2:0:0:
320,192,50490,1,0,0:0:0:0:
320,192,50640,1,0,0:0:0:0:
64,192,50790,1,0,0:0:0:0:
448,192,50790,1,0,0:0:0:0:
448,192,50940,1,0,0:0:0:0:
192,192,50940,1,0,0:0:0:0:
448,192,51090,1,0,0:0:0:0:
320,192,51090,1,0,0:0:0:0:
64,192,51240,1,0,0:0:0:0:
192,192,51240,1,4,0:2:0:0:
320,192,51240,1,0,0:0:0:0:
448,192,51390,1,0,0:0:0:0:
64,192,51540,1,0,0:0:0:0:
192,192,51540,1,0,0:0:0:0:
320,192,51690,1,0,0:0:0:0:
448,192,51840,1,0,0:0:0:0:
192,192,51840,1,4,0:2:0:0:
64,192,51840,1,0,0:0:0:0:
320,192,51990,1,0,0:0:0:0:
448,192,51990,1,0,0:0:0:0:
64,192,52140,1,0,0:0:0:0:
192,192,52140,1,0,0:0:0:0:
448,192,52290,1,0,0:0:0:0:
320,192,52290,1,0,0:0:0:0:
448,192,52440,1,0,0:0:0:0:
320,192,52440,1,0,0:0:0:0:
192,192,52440,1,4,0:2:0:0:
64,192,52590,1,0,0:0:0:0:
320,192,52740,1,0,0:0:0:0:
448,192,52890,1,0,0:0:0:0:
64,192,52890,1,0,0:0:0:0:
192,192,53040,1,0,0:0:0:0:
448,192,53190,1,0,0:0:0:0:
192,192,53340,1,0,0:0:0:0:
64,192,53340,1,4,0:2:0:0:
448,192,53340,1,0,0:0:0:0:
320,192,53490,1,0,0:0:0:0:
192,192,53640,1,0,0:0:0:0:
64,192,53790,1,0,0:0:0:0:
320,192,53790,1,0,0:0:0:0:
192,192,53940,1,0,0:0:0:0:
320,192,54090,1,0,0:0:0:0:
448,192,54240,1,4,0:2:0:0:
192,192,54240,1,0,0:0:0:0:
64,192,54240,1,0,0:0:0:0:
320,192,54390,1,0,0:0:0:0:
64,192,54540,1,0,0:0:0:0:
320,192,54690,1,0,0:0:0:0:
448,192,54690,1,0,0:0:0:0:
192,192,54840,1,0,0:0:0:0:
64,192,54990,1,0,0:0:0:0:
192,192,55140,1,0,0:0:0:0:
320,192,55140,1,4,0:2:0:0:
448,192,55140,1,0,0:0:0:0:
64,192,55290,1,0,0:0:0:0:
320,192,55440,1,0,0:0:0:0:
64,192,55590,1,0,0:0:0:0:
192,192,55590,1,0,0:0:0:0:
64,192,55740,1,0,0:0:0:0:
192,192,55740,1,0,0:0:0:0:
320,192,55890,1,0,0:0:0:0:
448,192,55890,1,0,0:0:0:0:
448,192,56040,1,0,0:0:0:0:
320,192,56040,1,0,0:0:0:0:
192,192,56040,1,4,0:2:0:0:
64,192,56190,1,0,0:0:0:0:
320,192,56340,1,0,0:0:0:0:
448,192,56340,1,0,0:0:0:0:
192,192,56490,1,0,0:0:0:0:
320,192,56640,1,0,0:0:0:0:
448,192,56640,1,0,0:0:0:0:
64,192,56640,1,4,0:2:0:0:
192,192,56790,1,0,0:0:0:0:
320,192,56940,1,0,0:0:0:0:
448,192,56940,1,0,0:0:0:0:
192,192,57090,1,0,0:0:0:0:
320,192,57165,1,0,0:0:0:0:
448,192,57240,128,0,58140:0:0:0:0:
192,192,58140,1,0,0:0:0:0:
320,192,58440,128,0,59340:0:0:0:0:
64,192,59340,1,0,0:0:0:0:
192,192,59490,1,0,0:0:0:0:
448,192,59640,1,0,0:0:0:0:
448,192,59940,1,0,0:0:0:0:
320,192,60240,1,0,0:0:0:0:
64,192,60540,1,0,0:0:0:0:
192,192,60690,1,0,0:0:0:0:
320,192,60840,128,0,61740:0:0:0:0:
64,192,61740,1,0,0:0:0:0:
192,192,61740,1,2,0:0:0:0:
448,192,61890,1,0,0:0:0:0:
320,192,61965,1,2,0:0:0:0:
192,192,62040,1,2,3:0:0:0:
64,192,62040,128,0,62940:0:0:0:0:
320,192,62940,128,0,63240:0:0:0:0:
192,192,63240,128,0,64140:0:0:0:0:
64,192,64140,1,0,0:0:0:0:
448,192,64290,1,0,0:0:0:0:
320,192,64440,128,0,64740:0:0:0:0:
192,192,64740,128,0,65040:0:0:0:0:
64,192,65040,128,0,65340:0:0:0:0:
448,192,65340,1,0,0:0:0:0:
320,192,65490,1,0,0:0:0:0:
192,192,65640,128,0,65940:0:0:0:0:
320,192,65940,128,0,66240:0:0:0:0:
64,192,66240,1,0,0:0:0:0:
448,192,66240,1,0,0:0:0:0:
192,192,66390,1,0,0:0:0:0:
448,192,66390,1,0,0:0:0:0:
320,192,66540,1,0,0:0:0:0:
448,192,66540,1,0,0:0:0:0:
64,192,66690,1,0,0:0:0:0:
64,192,66840,1,0,0:0:0:0:
192,192,66840,1,4,0:2:0:0:
320,192,66840,1,4,0:1:0:0:
320,192,66990,1,0,0:0:0:0:
64,192,67140,1,0,0:0:0:0:
448,192,67140,128,0,67440:0:0:0:0:
192,192,67440,1,0,0:0:0:0:
320,192,67590,1,0,0:0:0:0:
64,192,67590,1,0,0:0:0:0:
448,192,67740,1,0,0:0:0:0:
192,192,67890,1,0,0:0:0:0:
448,192,68040,1,0,0:0:0:0:
320,192,68040,1,0,0:0:0:0:
64,192,68190,1,0,0:0:0:0:
448,192,68340,1,0,0:0:0:0:
192,192,68490,1,0,0:0:0:0:
64,192,68490,1,0,0:0:0:0:
320,192,68640,1,0,0:0:0:0:
64,192,68790,1,0,0:0:0:0:
192,192,68940,1,0,0:0:0:0:
448,192,68940,1,0,0:0:0:0:
320,192,69090,1,0,0:0:0:0:
64,192,69240,1,0,0:0:0:0:
192,192,69240,1,0,0:0:0:0:
320,192,69390,1,0,0:0:0:0:
448,192,69390,1,0,0:0:0:0:
64,192,69540,1,0,0:0:0:0:
192,192,69540,1,0,0:0:0:0:
320,192,69690,1,0,0:0:0:0:
448,192,69840,1,0,0:0:0:0:
64,192,69840,1,0,0:0:0:0:
192,192,69990,1,0,0:0:0:0:
448,192,70140,1,0,0:0:0:0:
192,192,70290,1,0,0:0:0:0:
64,192,70290,1,0,0:0:0:0:
320,192,70440,1,0,0:0:0:0:
448,192,70590,1,0,0:0:0:0:
64,192,70590,1,0,0:0:0:0:
192,192,70740,1,0,0:0:0:0:
64,192,70740,1,0,0:0:0:0:
448,192,70890,1,0,0:0:0:0:
192,192,71040,1,0,0:0:0:0:
320,192,71040,1,0,0:0:0:0:
64,192,71190,1,0,0:0:0:0:
192,192,71190,1,0,0:0:0:0:
320,192,71340,1,0,0:0:0:0:
448,192,71340,1,0,0:0:0:0:
64,192,71490,1,0,0:0:0:0:
192,192,71490,1,0,0:0:0:0:
448,192,71640,1,4,0:1:0:0:
192,192,71640,1,4,0:2:0:0:
64,192,71640,1,0,0:0:0:0:
448,192,71940,1,0,0:0:0:0:
64,192,71940,1,0,0:0:0:0:
192,192,72240,1,0,0:0:0:0:
320,192,72390,1,0,0:0:0:0:
448,192,72390,1,0,0:0:0:0:
64,192,72540,1,0,0:0:0:0:
320,192,72690,1,0,0:0:0:0:
64,192,72840,1,0,0:0:0:0:
192,192,72840,1,0,0:0:0:0:
448,192,72990,1,0,0:0:0:0:
192,192,73140,1,0,0:0:0:0:
448,192,73290,1,0,0:0:0:0:
64,192,73290,1,0,0:0:0:0:
64,192,73440,1,0,0:0:0:0:
320,192,73440,1,0,0:0:0:0:
192,192,73590,1,0,0:0:0:0:
64,192,73590,1,0,0:0:0:0:
448,192,73740,1,0,0:0:0:0:
320,192,73740,1,0,0:0:0:0:
448,192,73890,1,0,0:0:0:0:
64,192,73890,1,0,0:0:0:0:
192,192,74040,1,0,0:0:0:0:
448,192,74040,1,0,0:0:0:0:
320,192,74340,1,0,0:0:0:0:
320,192,74640,1,0,0:0:0:0:
320,192,74940,1,0,0:0:0:0:
64,192,75090,1,0,0:0:0:0:
192,192,75240,1,0,0:0:0:0:
192,192,75540,1,0,0:0:0:0:
192,192,75840,1,0,0:0:0:0:
192,192,76140,1,0,0:0:0:0:
320,192,76290,1,0,0:0:0:0:
64,192,76440,1,4,0:2:0:0:
192,192,76440,1,4,0:2:0:0:
448,192,76440,1,4,0:1:0:0:
320,192,76590,1,0,0:0:0:0:
64,192,76740,1,0,0:0:0:0:
192,192,76740,1,0,0:0:0:0:
448,192,76890,1,0,0:0:0:0:
320,192,77040,1,0,0:0:0:0:
192,192,77040,1,0,0:0:0:0:
64,192,77190,1,0,0:0:0:0:
192,192,77340,1,0,0:0:0:0:
448,192,77340,1,0,0:0:0:0:
320,192,77490,1,0,0:0:0:0:
64,192,77490,1,0,0:0:0:0:
64,192,77640,1,0,0:0:0:0:
448,192,77640,1,0,0:0:0:0:
192,192,77790,1,0,0:0:0:0:
320,192,77940,1,4,0:2:0:0:
64,192,77940,1,0,0:0:0:0:
192,192,78090,1,0,0:0:0:0:
448,192,78240,1,0,0:0:0:0:
64,192,78390,1,0,0:0:0:0:
192,192,78540,1,0,0:0:0:0:
320,192,78540,1,0,0:0:0:0:
448,192,78690,1,0,0:0:0:0:
192,192,78840,1,0,0:0:0:0:
64,192,78840,1,0,0:0:0:0:
320,192,78990,1,0,0:0:0:0:
64,192,79140,1,0,0:0:0:0:
448,192,79140,1,0,0:0:0:0:
192,192,79290,1,0,0:0:0:0:
320,192,79440,1,0,0:0:0:0:
448,192,79440,1,0,0:0:0:0:
64,192,79590,1,0,0:0:0:0:
320,192,79740,1,0,0:0:0:0:
192,192,79890,1,0,0:0:0:0:
448,192,80040,1,0,0:0:0:0:
64,192,80040,1,0,0:0:0:0:
320,192,80190,1,0,0:0:0:0:
64,192,80340,1,4,0:2:0:0:
192,192,80340,1,0,0:2:0:0:
448,192,80340,1,0,0:0:0:0:
320,192,80490,1,0,0:0:0:0:
64,192,80640,1,0,0:0:0:0:
448,192,80790,1,0,0:0:0:0:
64,192,80940,1,0,0:0:0:0:
320,192,80940,1,0,0:0:0:0:
192,192,81090,1,0,0:0:0:0:
448,192,81240,1,0,0:0:0:0:
320,192,81240,1,4,0:2:0:0:
64,192,81240,1,0,0:0:0:0:
192,192,81390,1,0,0:0:0:0:
320,192,81540,1,0,0:0:0:0:
448,192,81540,1,0,0:0:0:0:
64,192,81690,1,0,0:0:0:0:
192,192,81840,1,0,0:0:0:0:
448,192,81990,1,0,0:0:0:0:
64,192,82140,1,0,0:0:0:0:
192,192,82140,1,0,0:0:0:0:
320,192,82290,1,0,0:0:0:0:
64,192,82440,1,4,0:2:0:0:
448,192,82440,1,0,0:0:0:0:
192,192,82590,1,0,0:0:0:0:
320,192,82740,1,0,0:2:0:0:
448,192,82740,1,0,0:0:0:0:
64,192,82890,1,0,0:0:0:0:
320,192,83040,1,0,0:0:0:0:
192,192,83190,1,0,0:0:0:0:
320,192,83340,1,4,0:2:0:0:
64,192,83340,1,0,0:0:0:0:
448,192,83490,1,0,0:0:0:0:
192,192,83640,1,0,0:2:0:0:
64,192,83640,1,4,0:2:0:0:
320,192,83790,1,0,0:0:0:0:
64,192,83940,1,4,0:2:0:0:
192,192,83940,1,0,0:2:0:0:
448,192,84090,1,0,0:0:0:0:
192,192,84240,1,4,0:0:0:0:
64,192,84240,1,4,0:2:0:0:
320,192,84390,1,0,0:0:0:0:
64,192,84540,1,0,0:0:0:0:
192,192,84540,1,0,0:2:0:0:
64,192,84690,1,4,0:2:0:0:
448,192,84840,1,0,0:0:0:0:
320,192,84840,1,0,0:2:0:0:
192,192,84990,1,0,0:0:0:0:
320,192,85140,1,0,0:2:0:0:
448,192,85140,1,4,0:2:0:0:
64,192,85290,1,0,0:0:0:0:
448,192,85440,1,4,0:2:0:0:
320,192,85440,1,0,0:2:0:0:
192,192,85590,1,0,0:0:0:0:
64,192,85740,1,0,0:0:0:0:
192,192,85740,1,0,0:0:0:0:
320,192,85890,1,0,0:0:0:0:
448,192,85890,1,0,0:0:0:0:
192,192,86040,1,4,0:2:0:0:
320,192,86040,1,4,0:1:0:0:
448,192,86040,1,0,0:0:0:0:
64,192,86190,1,0,0:0:0:0:
192,192,86340,1,0,0:0:0:0:
448,192,86490,1,0,0:0:0:0:
320,192,86640,1,0,0:0:0:0:
192,192,86790,1,0,0:0:0:0:
64,192,86940,1,0,0:0:0:0:
448,192,86940,1,0,0:0:0:0:
320,192,87090,1,0,0:0:0:0:
64,192,87240,1,0,0:0:0:0:
192,192,87240,1,0,0:0:0:0:
448,192,87390,1,0,0:0:0:0:
320,192,87540,1,0,0:0:0:0:
192,192,87540,1,4,0:2:0:0:
64,192,87690,1,0,0:0:0:0:
448,192,87840,1,0,0:0:0:0:
192,192,87990,1,0,0:0:0:0:
448,192,88140,1,0,0:0:0:0:
320,192,88140,1,0,0:0:0:0:
64,192,88290,1,0,0:0:0:0:
192,192,88440,1,0,0:0:0:0:
320,192,88440,1,0,0:0:0:0:
448,192,88590,1,0,0:0:0:0:
64,192,88740,1,0,0:0:0:0:
192,192,88740,1,0,0:0:0:0:
320,192,88890,1,0,0:0:0:0:
448,192,89040,1,0,0:0:0:0:
192,192,89040,1,0,0:0:0:0:
64,192,89190,1,0,0:0:0:0:
448,192,89340,1,0,0:0:0:0:
320,192,89340,1,0,0:0:0:0:
64,192,89490,1,0,0:0:0:0:
192,192,89490,1,0,0:0:0:0:
320,192,89640,1,0,0:0:0:0:
448,192,89640,1,0,0:0:0:0:
192,192,89790,1,0,0:0:0:0:
64,192,89940,1,4,0:2:0:0:
448,192,89940,1,2,0:0:0:0:
320,192,90090,1,0,0:0:0:0:
64,192,90240,1,0,0:0:0:0:
320,192,90390,1,0,0:0:0:0:
192,192,90540,1,0,0:0:0:0:
64,192,90540,1,0,0:0:0:0:
448,192,90690,1,0,0:0:0:0:
320,192,90690,1,0,0:0:0:0:
192,192,90840,1,0,0:0:0:0:
320,192,90840,1,0,0:0:0:0:
64,192,90840,1,4,0:2:0:0:
192,192,90990,1,0,0:0:0:0:
448,192,91140,1,0,0:0:0:0:
64,192,91140,1,0,0:0:0:0:
192,192,91290,1,0,0:0:0:0:
320,192,91440,1,0,0:0:0:0:
64,192,91590,1,0,0:0:0:0:
448,192,91740,1,0,0:0:0:0:
320,192,91740,1,0,0:0:0:0:
192,192,91890,1,0,0:0:0:0:
64,192,92040,1,4,0:2:0:0:
320,192,92040,1,0,0:0:0:0:
192,192,92190,1,0,0:0:0:0:
320,192,92340,1,0,0:2:0:0:
64,192,92340,1,0,0:0:0:0:
448,192,92490,1,0,0:0:0:0:
192,192,92640,1,0,0:0:0:0:
320,192,92790,1,0,0:0:0:0:
64,192,92940,1,0,0:0:0:0:
192,192,92940,1,4,0:2:0:0:
320,192,93090,1,0,0:0:0:0:
448,192,93240,1,0,0:0:0:0:
192,192,93240,1,0,0:2:0:0:
320,192,93390,1,0,0:0:0:0:
448,192,93540,1,0,0:0:0:0:
192,192,93540,1,0,0:2:0:0:
320,192,93690,1,0,0:0:0:0:
448,192,93840,1,0,0:0:0:0:
192,192,93840,1,4,0:2:0:0:
320,192,93990,1,0,0:0:0:0:
192,192,94140,1,0,0:2:0:0:
448,192,94140,1,0,0:0:0:0:
192,192,94290,1,4,0:2:0:0:
320,192,94440,1,4,0:2:0:0:
64,192,94440,1,0,0:0:0:0:
192,192,94590,1,0,0:0:0:0:
64,192,94740,1,0,0:0:0:0:
320,192,94740,1,4,0:2:0:0:
192,192,94890,1,0,0:0:0:0:
320,192,95040,1,4,0:2:0:0:
64,192,95040,1,0,0:0:0:0:
192,192,95190,1,0,0:0:0:0:
320,192,95340,1,0,0:0:0:0:
448,192,95340,1,0,0:0:0:0:
64,192,95490,1,0,0:0:0:0:
192,192,95490,1,0,0:0:0:0:
448,192,95640,1,0,0:0:0:0:
320,192,95790,1,0,0:0:0:0:
64,192,95940,1,0,0:0:0:0:
192,192,96090,1,0,0:0:0:0:
320,192,96090,1,0,0:0:0:0:
448,192,96240,1,0,0:0:0:0:
320,192,96390,1,0,0:0:0:0:
64,192,96540,1,0,0:0:0:0:
448,192,96540,1,0,0:0:0:0:
192,192,96690,1,0,0:0:0:0:
448,192,96840,1,0,0:0:0:0:
64,192,96990,1,0,0:0:0:0:
320,192,96990,1,0,0:0:0:0:
448,192,97140,1,0,0:0:0:0:
64,192,97140,1,0,0:0:0:0:
192,192,97290,1,0,0:0:0:0:
448,192,97440,1,0,0:0:0:0:
64,192,97440,1,0,0:0:0:0:
320,192,97515,1,0,0:0:0:0:
192,192,97590,1,0,0:0:0:0:
64,192,97665,1,0,0:0:0:0:
448,192,97740,1,0,0:0:0:0:
320,192,97890,1,0,0:0:0:0:
192,192,98040,1,0,0:0:0:0:
64,192,98040,1,0,0:0:0:0:
448,192,98190,1,0,0:0:0:0:
192,192,98340,1,0,0:0:0:0:
320,192,98490,1,0,0:0:0:0:
448,192,98490,1,0,0:0:0:0:
64,192,98640,1,0,0:0:0:0:
320,192,98790,1,0,0:0:0:0:
64,192,98940,1,0,0:0:0:0:
448,192,98940,1,0,0:0:0:0:
192,192,99090,1,0,0:0:0:0:
320,192,99240,1,0,0:0:0:0:
64,192,99240,1,0,0:0:0:0:
192,192,99390,1,0,0:0:0:0:
448,192,99390,1,0,0:0:0:0:
320,192,99540,1,0,0:0:0:0:
448,192,99540,1,0,0:0:0:0:
64,192,99690,1,0,0:0:0:0:
320,192,99840,1,0,0:0:0:0:
448,192,99840,1,0,0:0:0:0:
64,192,99990,1,0,0:0:0:0:
192,192,99990,1,0,0:0:0:0:
320,192,100140,1,0,0:0:0:0:
448,192,100140,1,0,0:0:0:0:
64,192,100290,1,0,0:0:0:0:
192,192,100290,1,0,0:0:0:0:
448,192,100440,1,4,0:2:0:0:
192,192,100440,1,0,0:0:0:0:
64,192,100590,1,0,0:0:0:0:
320,192,100740,1,0,0:0:0:0:
64,192,100890,1,0,0:0:0:0:
448,192,100890,1,0,0:0:0:0:
192,192,101040,1,0,0:0:0:0:
448,192,101190,1,0,0:0:0:0:
320,192,101265,1,0,0:0:0:0:
192,192,101340,1,0,0:0:0:0:
64,192,101340,1,0,0:0:0:0:
448,192,101490,1,0,0:0:0:0:
192,192,101640,1,0,0:0:0:0:
64,192,101790,1,0,0:0:0:0:
448,192,101790,1,0,0:0:0:0:
192,192,101940,1,0,0:0:0:0:
320,192,102090,1,0,0:0:0:0:
448,192,102240,1,0,0:0:0:0:
64,192,102240,1,0,0:0:0:0:
320,192,102315,1,0,0:0:0:0:
192,192,102390,1,0,0:0:0:0:
64,192,102465,1,0,0:0:0:0:
448,192,102540,1,0,0:0:0:0:
320,192,102540,1,0,0:0:0:0:
192,192,102690,1,0,0:0:0:0:
64,192,102840,1,0,0:0:0:0:
320,192,102840,1,0,0:0:0:0:
448,192,102990,1,0,0:0:0:0:
192,192,103140,1,0,0:0:0:0:
448,192,103290,1,0,0:0:0:0:
320,192,103290,1,0,0:0:0:0:
192,192,103440,1,0,0:0:0:0:
64,192,103590,1,0,0:0:0:0:
320,192,103590,1,0,0:0:0:0:
448,192,103740,1,0,0:0:0:0:
192,192,103890,1,0,0:0:0:0:
448,192,104040,1,0,0:0:0:0:
64,192,104040,1,0,0:0:0:0:
320,192,104190,1,0,0:0:0:0:
192,192,104190,1,0,0:0:0:0:
64,192,104340,1,0,0:0:0:0:
448,192,104490,1,0,0:0:0:0:
64,192,104640,1,0,0:0:0:0:
192,192,104715,1,0,0:0:0:0:
320,192,104790,1,0,0:0:0:0:
448,192,104865,1,0,0:0:0:0:
64,192,104940,1,0,0:0:0:0:
192,192,104940,1,0,0:0:0:0:
320,192,105090,1,0,0:0:0:0:
448,192,105240,1,0,0:0:0:0:
192,192,105240,1,4,0:2:0:0:
64,192,105240,1,4,0:2:0:0:
320,192,105390,1,0,0:0:0:0:
64,192,105540,1,0,0:0:0:0:
320,192,105690,1,0,0:0:0:0:
448,192,105690,1,0,0:0:0:0:
64,192,105840,1,0,0:0:0:0:
192,192,105840,1,0,0:0:0:0:
320,192,105990,1,0,0:0:0:0:
192,192,106140,1,0,0:0:0:0:
448,192,106140,1,0,0:0:0:0:
64,192,106290,1,0,0:0:0:0:
320,192,106440,1,0,0:0:0:0:
192,192,106440,1,0,0:0:0:0:
448,192,106590,1,0,0:0:0:0:
64,192,106590,1,0,0:0:0:0:
320,192,106740,1,0,0:0:0:0:
192,192,106890,1,0,0:0:0:0:
448,192,107040,1,0,0:0:0:0:
320,192,107115,1,0,0:0:0:0:
192,192,107190,1,0,0:0:0:0:
64,192,107265,1,0,0:0:0:0:
448,192,107340,1,0,0:0:0:0:
320,192,107340,1,0,0:0:0:0:
192,192,107490,1,0,0:0:0:0:
64,192,107640,1,0,0:0:0:0:
448,192,107640,1,0,0:0:0:0:
320,192,107790,1,0,0:0:0:0:
448,192,107940,1,0,0:0:0:0:
192,192,108090,1,0,0:0:0:0:
320,192,108090,1,0,0:0:0:0:
448,192,108240,1,0,0:0:0:0:
64,192,108240,1,0,0:0:0:0:
320,192,108390,1,0,0:0:0:0:
192,192,108540,1,0,0:0:0:0:
64,192,108540,1,0,0:0:0:0:
448,192,108690,1,0,0:0:0:0:
320,192,108840,1,0,0:0:0:0:
192,192,108840,1,0,0:0:0:0:
64,192,108990,1,0,0:0:0:0:
192,192,108990,1,0,0:0:0:0:
320,192,109140,1,0,0:0:0:0:
448,192,109140,1,0,0:0:0:0:
192,192,109290,1,0,0:0:0:0:
448,192,109440,1,0,0:0:0:0:
320,192,109440,1,0,0:0:0:0:
64,192,109440,1,0,0:0:0:0:
64,192,109590,1,0,0:0:0:0:
320,192,109590,1,0,0:0:0:0:
448,192,109590,1,0,0:0:0:0:
320,192,109740,1,0,0:0:0:0:
448,192,109740,1,0,0:0:0:0:
64,192,109740,1,0,0:0:0:0:
192,192,109890,1,0,0:0:0:0:
320,192,110040,1,0,0:0:0:0:
64,192,110040,1,0,0:0:0:0:
448,192,110190,1,0,0:0:0:0:
64,192,110340,1,0,0:0:0:0:
192,192,110490,1,0,0:0:0:0:
320,192,110640,1,0,0:0:0:0:
448,192,110640,1,0,0:0:0:0:
64,192,110790,1,0,0:0:0:0:
192,192,110940,1,0,0:0:0:0:
320,192,110940,1,0,0:0:0:0:
448,192,111090,1,0,0:0:0:0:
64,192,111240,1,0,0:0:0:0:
192,192,111240,1,0,0:0:0:0:
448,192,111390,1,0,0:0:0:0:
320,192,111390,1,0,0:0:0:0:
192,192,111540,1,0,0:0:0:0:
320,192,111690,1,0,0:0:0:0:
64,192,111840,1,0,0:0:0:0:
192,192,111915,1,0,0:0:0:0:
320,192,111990,1,0,0:0:0:0:
448,192,112065,1,0,0:0:0:0:
64,192,112140,1,0,0:0:0:0:
192,192,112140,1,0,0:0:0:0:
320,192,112290,1,0,0:0:0:0:
448,192,112440,1,0,0:0:0:0:
192,192,112440,1,0,0:0:0:0:
64,192,112440,1,0,0:0:0:0:
320,192,112590,1,0,0:0:0:0:
64,192,112740,1,0,0:0:0:0:
192,192,112890,1,0,0:0:0:0:
320,192,112890,1,0,0:0:0:0:
448,192,112890,1,0,0:0:0:0:
64,192,113040,1,0,0:0:0:0:
192,192,113190,1,0,0:0:0:0:
448,192,113190,1,0,0:0:0:0:
64,192,113340,1,0,0:0:0:0:
320,192,113340,1,0,0:0:0:0:
448,192,113340,1,0,0:0:0:0:
192,192,113490,1,0,0:0:0:0:
448,192,113640,1,0,0:0:0:0:
320,192,113640,1,0,0:0:0:0:
64,192,113640,1,0,0:0:0:0:
192,192,113790,1,0,0:0:0:0:
448,192,113940,1,0,0:0:0:0:
64,192,114090,1,0,0:0:0:0:
448,192,114240,1,0,0:0:0:0:
320,192,114315,1,0,0:0:0:0:
192,192,114390,1,0,0:0:0:0:
64,192,114465,1,0,0:0:0:0:
448,192,114540,1,0,0:0:0:0:
320,192,114690,1,0,0:0:0:0:
64,192,114840,1,4,0:2:0:0:
192,192,114840,1,4,0:2:0:0:
320,192,114840,1,0,0:0:0:0:
448,192,114840,1,0,0:0:0:0:
192,192,115140,1,0,0:0:0:0:
448,192,115290,1,0,0:0:0:0:
64,192,115290,1,0,0:0:0:0:
320,192,115440,1,0,0:0:0:0:
192,192,115590,1,0,0:0:0:0:
448,192,115740,1,0,0:0:0:0:
320,192,115740,1,0,0:0:0:0:
64,192,115890,1,0,0:0:0:0:
192,192,116040,1,0,0:0:0:0:
320,192,116190,1,0,0:0:0:0:
64,192,116190,1,0,0:0:0:0:
448,192,116340,1,0,0:0:0:0:
192,192,116490,1,0,0:0:0:0:
448,192,116640,1,0,0:0:0:0:
64,192,116640,1,0,0:0:0:0:
320,192,116790,1,0,0:0:0:0:
192,192,116865,1,0,0:0:0:0:
64,192,116940,1,0,0:0:0:0:
320,192,117090,1,0,0:0:0:0:
448,192,117240,1,0,0:0:0:0:
192,192,117240,1,0,0:0:0:0:
320,192,117390,1,0,0:0:0:0:
64,192,117540,1,0,0:0:0:0:
192,192,117540,1,0,0:0:0:0:
448,192,117690,1,0,0:0:0:0:
320,192,117690,1,0,0:0:0:0:
192,192,117840,1,0,0:0:0:0:
320,192,117990,1,0,0:0:0:0:
448,192,118140,1,0,0:0:0:0:
64,192,118140,1,0,0:0:0:0:
320,192,118290,1,0,0:0:0:0:
192,192,118440,1,0,0:0:0:0:
64,192,118440,1,0,0:0:0:0:
320,192,118590,1,0,0:0:0:0:
448,192,118590,1,0,0:0:0:0:
64,192,118740,1,0,0:0:0:0:
320,192,118890,1,0,0:0:0:0:
192,192,118965,1,0,0:0:0:0:
448,192,119040,1,0,0:0:0:0:
64,192,119040,1,0,0:0:0:0:
192,192,119190,1,0,0:0:0:0:
448,192,119340,1,0,0:0:0:0:
320,192,119340,1,0,0:0:0:0:
192,192,119490,1,0,0:0:0:0:
64,192,119640,1,0,0:0:0:0:
320,192,119640,1,4,0:2:0:0:
448,192,119640,1,0,0:2:0:0:
192,192,119790,1,0,0:0:0:0:
448,192,119940,1,0,0:0:0:0:
320,192,120090,1,0,0:0:0:0:
64,192,120090,1,0,0:0:0:0:
192,192,120240,1,0,0:0:0:0:
448,192,120390,1,0,0:0:0:0:
320,192,120540,1,0,0:0:0:0:
192,192,120540,1,0,0:0:0:0:
64,192,120690,1,0,0:0:0:0:
320,192,120840,1,0,0:0:0:0:
192,192,120990,1,0,0:0:0:0:
448,192,120990,1,0,0:0:0:0:
320,192,121140,1,0,0:0:0:0:
64,192,121290,1,0,0:0:0:0:
448,192,121440,1,0,0:0:0:0:
320,192,121515,1,0,0:0:0:0:
192,192,121590,1,0,0:0:0:0:
64,192,121665,1,0,0:0:0:0:
448,192,121740,1,0,0:0:0:0:
320,192,121740,1,0,0:0:0:0:
64,192,121890,1,0,0:0:0:0:
192,192,121890,1,0,0:0:0:0:
320,192,122040,1,0,0:0:0:0:
448,192,122190,1,0,0:0:0:0:
64,192,122340,1,0,0:0:0:0:
192,192,122490,1,0,0:0:0:0:
320,192,122490,1,0,0:0:0:0:
448,192,122640,1,0,0:0:0:0:
192,192,122790,1,0,0:0:0:0:
64,192,122940,1,0,0:0:0:0:
320,192,122940,1,0,0:0:0:0:
448,192,123090,1,0,0:0:0:0:
64,192,123090,1,0,0:0:0:0:
320,192,123240,1,0,0:0:0:0:
192,192,123240,1,0,0:0:0:0:
448,192,123390,1,0,0:0:0:0:
64,192,123390,1,0,0:0:0:0:
320,192,123540,1,0,0:0:0:0:
192,192,123540,1,0,0:0:0:0:
448,192,123690,1,0,0:0:0:0:
320,192,123690,1,0,0:0:0:0:
448,192,123840,1,0,0:0:0:0:
320,192,123840,1,0,0:0:0:0:
64,192,123840,1,0,0:0:0:0:
192,192,123990,1,0,0:0:0:0:
64,192,123990,1,0,0:0:0:0:
192,192,124140,1,0,0:0:0:0:
320,192,124140,1,0,0:0:0:0:
64,192,124140,1,0,0:0:0:0:
192,192,124290,1,0,0:0:0:0:
320,192,124290,1,0,0:0:0:0:
448,192,124290,1,0,0:0:0:0:
64,192,124440,1,0,0:0:0:0:
64,192,124740,1,0,0:0:0:0:
192,192,125040,1,0,0:0:0:0:
192,192,125340,1,0,0:0:0:0:
320,192,125640,1,0,0:0:0:0:
320,192,125940,1,0,0:0:0:0:
448,192,126240,1,0,0:0:0:0:
448,192,126540,1,0,0:0:0:0:
320,192,126840,1,0,0:0:0:0:
64,192,126840,1,0,0:0:0:0:
64,192,127140,1,0,0:0:0:0:
64,192,127440,1,0,0:0:0:0:
64,192,127740,1,0,0:0:0:0:
320,192,128040,1,0,0:0:0:0:
192,192,128040,1,0,0:0:0:0:
320,192,128340,1,0,0:0:0:0:
320,192,128640,1,0,0:0:0:0:
320,192,128940,1,0,0:0:0:0:
192,192,129240,1,0,0:0:0:0:
448,192,129240,1,0,0:0:0:0:
192,192,129540,1,0,0:0:0:0:
192,192,129840,1,0,0:0:0:0:
192,192,130140,1,0,0:0:0:0:
448,192,130440,1,0,0:0:0:0:
320,192,130440,1,0,0:0:0:0:
448,192,130740,1,0,0:0:0:0:
448,192,131040,1,0,0:0:0:0:
448,192,131340,1,0,0:0:0:0:
64,192,131640,1,0,0:0:0:0:
192,192,131640,1,0,0:0:0:0:
64,192,131940,1,0,0:0:0:0:
64,192,132240,1,0,0:0:0:0:
64,192,132540,1,0,0:0:0:0:
448,192,132840,128,0,133140:0:0:0:0:
320,192,133140,128,0,133440:0:0:0:0:
64,192,133440,128,0,133740:0:0:0:0:
192,192,133740,1,0,0:0:0:0:
320,192,133890,1,0,0:0:0:0:
448,192,134040,1,4,0:2:0:0:
192,192,134040,1,0,0:0:0:0:
64,192,134040,1,4,0:2:0:0:
320,192,134190,1,0,0:0:0:0:
64,192,134340,1,0,0:0:0:0:
192,192,134340,1,0,0:0:0:0:
320,192,134490,1,0,0:0:0:0:
448,192,134490,1,0,0:0:0:0:
192,192,134640,1,0,0:0:0:0:
320,192,134790,1,0,0:0:0:0:
192,192,134940,1,0,0:0:0:0:
448,192,134940,1,0,0:0:0:0:
64,192,135090,1,0,0:0:0:0:
320,192,135240,1,0,0:0:0:0:
448,192,135240,1,0,0:0:0:0:
192,192,135390,1,0,0:0:0:0:
448,192,135390,1,0,0:0:0:0:
64,192,135540,1,0,0:0:0:0:
320,192,135690,1,0,0:0:0:0:
192,192,135840,1,0,0:0:0:0:
64,192,135840,1,0,0:0:0:0:
448,192,135990,1,0,0:0:0:0:
320,192,136065,1,0,0:0:0:0:
64,192,136140,1,0,0:0:0:0:
192,192,136140,1,0,0:0:0:0:
448,192,136290,1,0,0:0:0:0:
64,192,136440,1,0,0:0:0:0:
320,192,136440,1,0,0:0:0:0:
192,192,136590,1,0,0:0:0:0:
448,192,136740,1,0,0:0:0:0:
192,192,136890,1,0,0:0:0:0:
320,192,136890,1,0,0:0:0:0:
64,192,137040,1,0,0:0:0:0:
192,192,137190,1,0,0:0:0:0:
320,192,137340,1,0,0:0:0:0:
448,192,137340,1,0,0:0:0:0:
64,192,137490,1,0,0:0:0:0:
192,192,137640,1,0,0:0:0:0:
448,192,137640,1,0,0:0:0:0:
320,192,137790,1,0,0:0:0:0:
64,192,137790,1,0,0:0:0:0:
448,192,137940,1,0,0:0:0:0:
320,192,137940,1,0,0:0:0:0:
192,192,138090,1,0,0:0:0:0:
64,192,138240,1,0,0:0:0:0:
448,192,138240,1,0,0:0:0:0:
320,192,138315,1,0,0:0:0:0:
192,192,138390,1,0,0:0:0:0:
64,192,138540,1,0,0:0:0:0:
320,192,138540,1,0,0:0:0:0:
448,192,138690,1,0,0:0:0:0:
320,192,138840,1,4,0:2:0:0:
192,192,138840,1,4,0:2:0:0:
64,192,138990,1,0,0:0:0:0:
448,192,139140,1,0,0:0:0:0:
320,192,139140,1,0,0:0:0:0:
192,192,139290,1,0,0:0:0:0:
64,192,139290,1,0,0:0:0:0:
320,192,139440,1,0,0:0:0:0:
192,192,139590,1,0,0:0:0:0:
448,192,139590,1,0,0:0:0:0:
320,192,139740,1,0,0:0:0:0:
64,192,139740,1,0,0:0:0:0:
192,192,139890,1,0,0:0:0:0:
448,192,140040,1,4,0:2:0:0:
320,192,140040,1,4,0:2:0:0:
64,192,140040,1,0,0:0:0:0:
192,192,140190,1,0,0:0:0:0:
448,192,140340,1,0,0:0:0:0:
64,192,140340,1,0,0:0:0:0:
192,192,140490,1,0,0:0:0:0:
64,192,140640,1,0,0:0:0:0:
320,192,140640,1,0,0:0:0:0:
192,192,140790,1,0,0:0:0:0:
320,192,140865,1,0,0:0:0:0:
448,192,140940,1,0,0:0:0:0:
64,192,140940,1,0,0:0:0:0:
192,192,141090,1,0,0:0:0:0:
448,192,141240,1,4,0:2:0:0:
64,192,141240,1,0,0:2:0:0:
64,192,141390,1,0,0:0:0:0:
448,192,141390,1,0,0:0:0:0:
448,192,141540,1,0,0:2:0:0:
64,192,141540,1,0,0:2:0:0:
448,192,141690,1,0,0:0:0:0:
64,192,141690,1,0,0:0:0:0:
448,192,141840,1,4,0:2:0:0:
64,192,141840,1,0,0:2:0:0:
320,192,141840,1,0,0:0:0:0:
448,192,141990,1,0,0:0:0:0:
320,192,141990,1,0,0:0:0:0:
64,192,141990,1,0,0:0:0:0:
448,192,142140,1,0,0:0:0:0:
320,192,142140,1,0,0:0:0:0:
64,192,142140,1,0,0:0:0:0:
448,192,142290,1,0,0:0:0:0:
320,192,142290,1,0,0:0:0:0:
64,192,142290,1,0,0:0:0:0:
64,192,142440,1,0,0:2:0:0:
192,192,142440,1,4,0:1:0:0:
320,192,142440,1,4,0:1:0:0:
448,192,142440,1,4,0:2:0:0:
192,192,143340,128,0,143490:0:0:0:0:
320,192,143490,128,0,143640:0:0:0:0:
64,192,143640,1,4,0:1:0:0:
192,192,143640,1,0,0:0:0:0:
448,192,143640,1,4,0:1:0:0:
320,192,143790,1,0,0:0:0:0:
64,192,143940,1,0,0:0:0:0:
448,192,143940,1,0,0:0:0:0:
192,192,144090,1,0,0:0:0:0:
448,192,144240,1,0,0:0:0:0:
320,192,144240,1,0,0:0:0:0:
64,192,144390,1,0,0:0:0:0:
192,192,144540,1,0,0:0:0:0:
448,192,144540,1,0,0:0:0:0:
320,192,144690,1,0,0:0:0:0:
64,192,144840,1,0,0:0:0:0:
192,192,144840,1,0,0:0:0:0:
448,192,144990,1,0,0:0:0:0:
320,192,145140,1,0,0:0:0:0:
192,192,145140,1,0,0:0:0:0:
64,192,145140,1,4,0:2:0:0:
448,192,145290,1,0,0:0:0:0:
320,192,145440,1,0,0:0:0:0:
192,192,145440,1,0,0:0:0:0:
64,192,145590,1,0,0:0:0:0:
320,192,145740,1,0,0:0:0:0:
192,192,145890,1,0,0:0:0:0:
448,192,146040,1,0,0:0:0:0:
64,192,146040,1,0,0:0:0:0:
320,192,146190,1,0,0:0:0:0:
64,192,146340,1,0,0:0:0:0:
192,192,146340,1,0,0:0:0:0:
448,192,146490,1,0,0:0:0:0:
320,192,146640,1,0,0:0:0:0:
192,192,146640,1,0,0:0:0:0:
64,192,146790,1,0,0:0:0:0:
320,192,146940,1,0,0:0:0:0:
448,192,146940,1,0,0:0:0:0:
64,192,147090,1,0,0:0:0:0:
192,192,147165,1,0,0:0:0:0:
320,192,147240,1,0,0:0:0:0:
448,192,147240,1,0,0:0:0:0:
64,192,147390,1,0,0:0:0:0:
192,192,147540,1,0,0:0:0:0:
448,192,147540,1,4,0:2:0:0:
320,192,147690,1,0,0:0:0:0:
64,192,147840,1,0,0:0:0:0:
448,192,147990,1,0,0:0:0:0:
192,192,148140,1,0,0:0:0:0:
320,192,148140,1,0,0:0:0:0:
64,192,148290,1,0,0:0:0:0:
448,192,148290,1,0,0:0:0:0:
320,192,148440,1,4,0:2:0:0:
448,192,148440,1,0,0:0:0:0:
64,192,148440,1,0,0:0:0:0:
192,192,148590,1,0,0:0:0:0:
320,192,148740,1,0,0:0:0:0:
448,192,148740,1,0,0:0:0:0:
64,192,148890,1,0,0:0:0:0:
192,192,149040,1,0,0:0:0:0:
320,192,149040,1,0,0:0:0:0:
448,192,149190,1,0,0:0:0:0:
64,192,149340,1,0,0:0:0:0:
192,192,149340,1,0,0:0:0:0:
320,192,149490,1,0,0:0:0:0:
192,192,149640,1,0,0:0:0:0:
448,192,149640,1,4,0:2:0:0:
320,192,149790,1,0,0:0:0:0:
64,192,149940,1,0,0:2:0:0:
192,192,149940,1,0,0:0:0:0:
448,192,150090,1,0,0:0:0:0:
320,192,150240,1,0,0:0:0:0:
64,192,150390,1,0,0:0:0:0:
320,192,150540,1,4,0:2:0:0:
448,192,150540,1,0,0:0:0:0:
192,192,150690,1,0,0:0:0:0:
64,192,150840,1,0,0:0:0:0:
320,192,150840,1,4,0:2:0:0:
448,192,150840,1,0,0:2:0:0:
192,192,150990,1,0,0:0:0:0:
64,192,151140,1,0,0:0:0:0:
320,192,151140,1,4,0:2:0:0:
448,192,151140,1,0,0:0:0:0:
192,192,151290,1,0,0:0:0:0:
64,192,151440,1,0,0:0:0:0:
320,192,151440,1,4,0:2:0:0:
448,192,151440,1,0,0:0:0:0:
192,192,151590,1,0,0:0:0:0:
64,192,151740,1,0,0:0:0:0:
320,192,151740,1,4,0:2:0:0:
448,192,151740,1,0,0:0:0:0:
320,192,151890,1,0,0:0:0:0:
64,192,152040,1,0,0:0:0:0:
192,192,152040,1,4,0:2:0:0:
448,192,152040,1,0,0:0:0:0:
320,192,152190,1,0,0:0:0:0:
448,192,152340,1,0,0:0:0:0:
192,192,152340,1,4,0:2:0:0:
64,192,152340,1,0,0:0:0:0:
320,192,152490,1,0,0:0:0:0:
64,192,152640,1,0,0:0:0:0:
192,192,152640,1,4,0:2:0:0:
448,192,152640,1,0,0:0:0:0:
320,192,152790,1,0,0:0:0:0:
448,192,152865,1,0,0:0:0:0:
64,192,152940,1,0,0:0:0:0:
192,192,153015,1,0,0:0:0:0:
320,192,153090,1,0,0:0:0:0:
448,192,153165,1,0,0:0:0:0:
64,192,153240,1,0,0:0:0:0:
192,192,153240,1,0,0:0:0:0:
320,192,153390,1,0,0:0:0:0:
448,192,153540,1,0,0:0:0:0:
64,192,153690,1,0,0:0:0:0:
320,192,153840,1,0,0:0:0:0:
192,192,153840,1,0,0:0:0:0:
448,192,153990,1,0,0:0:0:0:
64,192,154140,1,0,0:0:0:0:
192,192,154140,1,0,0:0:0:0:
320,192,154290,1,0,0:0:0:0:
448,192,154440,1,0,0:0:0:0:
64,192,154440,1,0,0:0:0:0:
192,192,154590,1,0,0:0:0:0:
320,192,154740,1,0,0:0:0:0:
448,192,154740,1,0,0:0:0:0:
64,192,154890,1,0,0:0:0:0:
448,192,155040,1,0,0:0:0:0:
320,192,155115,1,0,0:0:0:0:
192,192,155190,1,0,0:0:0:0:
64,192,155265,1,0,0:0:0:0:
320,192,155340,1,0,0:0:0:0:
448,192,155340,1,0,0:0:0:0:
192,192,155490,1,0,0:0:0:0:
64,192,155640,1,0,0:0:0:0:
320,192,155640,1,0,0:0:0:0:
448,192,155640,1,0,0:0:0:0:
192,192,155790,1,0,0:0:0:0:
320,192,155940,1,0,0:0:0:0:
64,192,155940,1,0,0:0:0:0:
448,192,156090,1,0,0:0:0:0:
192,192,156240,1,0,0:0:0:0:
64,192,156240,1,0,0:0:0:0:
320,192,156390,1,0,0:0:0:0:
448,192,156540,1,0,0:0:0:0:
64,192,156540,1,0,0:0:0:0:
192,192,156690,1,0,0:0:0:0:
448,192,156840,1,0,0:0:0:0:
320,192,156840,128,0,157140:0:0:0:0:
64,192,157140,1,0,0:0:0:0:
192,192,157140,1,0,0:0:0:0:
448,192,157290,1,0,0:0:0:0:
64,192,157440,1,0,0:0:0:0:
192,192,157515,1,0,0:0:0:0:
320,192,157590,1,0,0:0:0:0:
448,192,157665,1,0,0:0:0:0:
64,192,157740,1,0,0:0:0:0:
192,192,157740,1,0,0:0:0:0:
192,192,157890,1,0,0:0:0:0:
320,192,157890,1,0,0:0:0:0:
320,192,158040,1,0,0:0:0:0:
192,192,158040,1,0,0:0:0:0:
448,192,158040,128,0,158340:0:0:0:0:
64,192,158340,1,0,0:0:0:0:
192,192,158340,1,0,0:0:0:0:
320,192,158490,1,0,0:0:0:0:
192,192,158640,1,0,0:0:0:0:
448,192,158640,1,0,0:0:0:0:
64,192,158790,1,0,0:0:0:0:
320,192,158940,1,0,0:0:0:0:
448,192,158940,1,0,0:0:0:0:
192,192,159090,1,0,0:0:0:0:
64,192,159240,1,0,0:0:0:0:
448,192,159240,1,0,0:0:0:0:
320,192,159390,1,0,0:0:0:0:
64,192,159540,1,0,0:0:0:0:
192,192,159540,128,0,159840:0:0:0:0:
448,192,159840,1,0,0:0:0:0:
320,192,159915,1,0,0:0:0:0:
192,192,159990,1,0,0:0:0:0:
64,192,160065,1,0,0:0:0:0:
448,192,160140,1,0,0:0:0:0:
320,192,160140,1,0,0:0:0:0:
64,192,160290,1,0,0:0:0:0:
192,192,160440,1,0,0:0:0:0:
448,192,160440,1,0,0:0:0:0:
320,192,160440,1,0,0:0:0:0:
64,192,160590,1,0,0:0:0:0:
320,192,160740,1,0,0:0:0:0:
448,192,160740,1,0,0:0:0:0:
64,192,160890,1,0,0:0:0:0:
320,192,160890,1,0,0:0:0:0:
64,192,161040,1,0,0:0:0:0:
192,192,161040,1,0,0:0:0:0:
320,192,161190,128,0,161340:0:0:0:0:
448,192,161340,1,0,0:0:0:0:
192,192,161490,1,0,0:0:0:0:
64,192,161640,1,0,0:0:0:0:
448,192,161640,1,0,0:0:0:0:
320,192,161715,1,0,0:0:0:0:
192,192,161790,1,0,0:0:0:0:
64,192,161865,1,0,0:0:0:0:
320,192,161940,1,0,0:0:0:0:
448,192,161940,1,0,0:0:0:0:
448,192,162090,1,0,0:0:0:0:
320,192,162090,1,0,0:0:0:0:
64,192,162240,1,0,0:0:0:0:
192,192,162240,1,0,0:0:0:0:
192,192,162390,1,0,0:0:0:0:
64,192,162390,1,0,0:0:0:0:
64,192,162540,1,0,0:0:0:0:
320,192,162540,1,0,0:0:0:0:
192,192,162690,1,0,0:0:0:0:
64,192,162840,1,0,0:0:0:0:
320,192,162840,1,4,0:2:0:0:
448,192,162840,1,0,0:0:0:0:
192,192,162990,1,0,0:0:0:0:
448,192,163140,1,0,0:0:0:0:
320,192,163140,1,0,0:0:0:0:
64,192,163290,1,0,0:0:0:0:
192,192,163440,1,0,0:0:0:0:
320,192,163440,1,0,0:0:0:0:
448,192,163590,1,0,0:0:0:0:
64,192,163740,1,0,0:0:0:0:
320,192,163740,1,0,0:0:0:0:
192,192,163890,1,0,0:0:0:0:
448,192,164040,1,0,0:0:0:0:
64,192,164040,1,0,0:0:0:0:
320,192,164190,1,0,0:0:0:0:
64,192,164340,1,0,0:0:0:0:
192,192,164340,1,0,0:0:0:0:
448,192,164490,1,0,0:0:0:0:
64,192,164640,1,0,0:0:0:0:
192,192,164715,1,0,0:0:0:0:
320,192,164790,1,0,0:0:0:0:
448,192,164865,1,0,0:0:0:0:
64,192,164940,1,0,0:0:0:0:
192,192,164940,1,0,0:0:0:0:
320,192,165090,1,0,0:0:0:0:
64,192,165240,1,0,0:0:0:0:
192,192,165240,1,0,0:0:0:0:
448,192,165240,1,0,0:0:0:0:
320,192,165390,1,0,0:0:0:0:
64,192,165540,1,0,0:0:0:0:
448,192,165540,1,0,0:0:0:0:
192,192,165690,1,0,0:0:0:0:
448,192,165840,1,0,0:0:0:0:
320,192,165840,1,0,0:0:0:0:
64,192,165990,1,0,0:0:0:0:
192,192,166140,1,0,0:0:0:0:
320,192,166140,1,0,0:0:0:0:
448,192,166290,1,0,0:0:0:0:
64,192,166440,128,0,166740:0:0:0:0:
320,192,166440,1,0,0:0:0:0:
192,192,166740,1,0,0:0:0:0:
448,192,166740,1,0,0:0:0:0:
320,192,166890,1,0,0:0:0:0:
64,192,167040,1,0,0:0:0:0:
192,192,167115,1,0,0:0:0:0:
320,192,167190,1,0,0:0:0:0:
448,192,167265,1,0,0:0:0:0:
64,192,167340,1,0,0:0:0:0:
192,192,167340,1,0,0:0:0:0:
448,192,167490,1,0,0:0:0:0:
320,192,167640,1,0,0:0:0:0:
192,192,167640,1,0,0:0:0:0:
64,192,167640,1,0,0:0:0:0:
448,192,167790,1,0,0:0:0:0:
64,192,167940,1,0,0:0:0:0:
192,192,167940,1,0,0:0:0:0:
320,192,168090,1,0,0:0:0:0:
448,192,168240,1,0,0:0:0:0:
192,192,168240,1,0,0:0:0:0:
64,192,168390,1,0,0:0:0:0:
320,192,168540,1,0,0:0:0:0:
448,192,168540,1,0,0:0:0:0:
64,192,168690,1,0,0:0:0:0:
192,192,168840,1,0,0:0:0:0:
320,192,168840,1,0,0:0:0:0:
448,192,168990,1,0,0:0:0:0:
64,192,169140,1,0,0:0:0:0:
192,192,169140,1,0,0:0:0:0:
320,192,169290,1,0,0:0:0:0:
448,192,169440,1,0,0:0:0:0:
64,192,169440,1,0,0:0:0:0:
320,192,169515,1,0,0:0:0:0:
192,192,169590,1,0,0:0:0:0:
64,192,169665,1,0,0:0:0:0:
448,192,169740,1,0,0:0:0:0:
320,192,169740,1,0,0:0:0:0:
192,192,169890,1,0,0:0:0:0:
448,192,170040,1,0,0:0:0:0:
320,192,170040,1,0,0:0:0:0:
64,192,170040,1,0,0:0:0:0:
192,192,170190,1,0,0:0:0:0:
320,192,170340,1,0,0:0:0:0:
448,192,170340,1,0,0:0:0:0:
192,192,170490,1,0,0:0:0:0:
320,192,170490,1,0,0:0:0:0:
64,192,170640,1,0,0:0:0:0:
448,192,170640,1,0,0:0:0:0:
192,192,170790,1,0,0:0:0:0:
64,192,170940,1,0,0:0:0:0:
320,192,170940,1,0,0:0:0:0:
448,192,171090,1,0,0:0:0:0:
64,192,171240,1,0,0:0:0:0:
192,192,171315,1,0,0:0:0:0:
320,192,171390,1,0,0:0:0:0:
448,192,171465,1,0,0:0:0:0:
64,192,171540,1,0,0:0:0:0:
192,192,171540,1,0,0:0:0:0:
320,192,171690,1,0,0:0:0:0:
448,192,171690,1,0,0:0:0:0:
64,192,171840,1,0,0:0:0:0:
192,192,171840,1,0,0:0:0:0:
64,192,171990,1,0,0:0:0:0:
192,192,171990,1,0,0:0:0:0:
320,192,172140,1,0,0:0:0:0:
448,192,172140,1,0,0:0:0:0:
320,192,172290,1,0,0:0:0:0:
448,192,172290,1,0,0:0:0:0:
64,192,172440,1,4,0:2:0:0:
448,192,172440,1,0,0:0:0:0:
192,192,172440,1,4,0:2:0:0:
320,192,172590,1,0,0:0:0:0:
192,192,172740,1,0,0:0:0:0:
448,192,172890,1,0,0:0:0:0:
64,192,173040,1,0,0:0:0:0:
320,192,173040,1,0,0:0:0:0:
192,192,173340,1,0,0:0:0:0:
448,192,173340,1,0,0:0:0:0:
320,192,173490,1,0,0:0:0:0:
64,192,173790,1,0,0:0:0:0:
192,192,173790,1,0,0:0:0:0:
448,192,173940,1,0,0:0:0:0:
64,192,174240,1,0,0:0:0:0:
192,192,174315,1,0,0:0:0:0:
320,192,174390,1,0,0:0:0:0:
448,192,174465,1,0,0:0:0:0:
64,192,174540,1,0,0:0:0:0:
192,192,174540,1,0,0:0:0:0:
64,192,174690,1,0,0:0:0:0:
192,192,174690,1,0,0:0:0:0:
448,192,174840,1,0,0:0:0:0:
320,192,174840,1,0,0:0:0:0:
64,192,174840,1,0,0:0:0:0:
192,192,174990,1,0,0:0:0:0:
448,192,175140,1,0,0:0:0:0:
64,192,175140,1,0,0:0:0:0:
320,192,175290,1,0,0:0:0:0:
64,192,175440,1,0,0:0:0:0:
192,192,175440,1,0,0:0:0:0:
448,192,175590,1,0,0:0:0:0:
64,192,175740,1,0,0:0:0:0:
192,192,175740,1,0,0:0:0:0:
320,192,175890,1,0,0:0:0:0:
192,192,175890,1,0,0:0:0:0:
64,192,176040,128,0,176340:0:0:0:0:
448,192,176040,128,0,176340:0:0:0:0:
320,192,176340,1,0,0:0:0:0:
192,192,176340,1,0,0:0:0:0:
64,192,176490,1,0,0:0:0:0:
448,192,176640,1,0,0:0:0:0:
320,192,176640,1,0,0:0:0:0:
192,192,176790,1,0,0:0:0:0:
320,192,176940,1,0,0:0:0:0:
64,192,176940,1,0,0:0:0:0:
448,192,177090,1,0,0:0:0:0:
64,192,177240,1,0,0:0:0:0:
192,192,177240,1,0,0:0:0:0:
320,192,177390,1,0,0:0:0:0:
448,192,177540,1,0,0:0:0:0:
64,192,177540,1,0,0:0:0:0:
192,192,177690,1,0,0:0:0:0:
320,192,177840,1,0,0:0:0:0:
448,192,177840,1,0,0:0:0:0:
320,192,178140,1,0,0:0:0:0:
192,192,178140,1,0,0:0:0:0:
448,192,178290,1,0,0:0:0:0:
64,192,178290,1,0,0:0:0:0:
448,192,178590,1,0,0:0:0:0:
192,192,178590,1,0,0:0:0:0:
64,192,178740,1,0,0:0:0:0:
320,192,178740,1,0,0:0:0:0:
448,192,179040,1,0,0:0:0:0:
320,192,179115,1,0,0:0:0:0:
192,192,179190,1,0,0:0:0:0:
64,192,179265,1,0,0:0:0:0:
448,192,179340,1,0,0:0:0:0:
320,192,179340,1,0,0:0:0:0:
320,192,179490,1,0,0:0:0:0:
448,192,179490,1,0,0:0:0:0:
448,192,179640,1,0,0:0:0:0:
320,192,179640,1,0,0:0:0:0:
320,192,179790,1,0,0:0:0:0:
448,192,179790,1,0,0:0:0:0:
192,192,179940,1,0,0:0:0:0:
320,192,179940,1,0,0:0:0:0:
448,192,179940,1,0,0:0:0:0:
448,192,180090,1,0,0:0:0:0:
320,192,180090,1,0,0:0:0:0:
192,192,180090,1,0,0:0:0:0:
192,192,180240,1,0,0:0:0:0:
320,192,180240,1,0,0:0:0:0:
448,192,180240,1,0,0:0:0:0:
192,192,180390,1,0,0:0:0:0:
320,192,180390,1,0,0:0:0:0:
448,192,180390,1,0,0:0:0:0:
320,192,180540,1,0,0:0:0:0:
192,192,180540,1,0,0:0:0:0:
64,192,180540,1,0,0:0:0:0:
64,192,180690,1,0,0:0:0:0:
192,192,180690,1,0,0:0:0:0:
320,192,180690,1,0,0:0:0:0:
448,192,180840,1,4,0:1:0:0:
320,192,180840,1,4,0:2:0:0:
192,192,180840,1,0,0:0:0:0:
64,192,180840,1,0,0:0:0:0:
64,192,182040,1,4,0:1:0:0:
192,192,182040,1,0,0:0:0:0:
448,192,182040,1,4,0:1:0:0:
320,192,182190,1,0,0:0:0:0:
64,192,182340,1,0,0:0:0:0:
192,192,182340,1,0,0:0:0:0:
448,192,182490,1,0,0:0:0:0:
320,192,182640,1,0,0:0:0:0:
192,192,182640,1,0,0:0:0:0:
64,192,182790,1,0,0:0:0:0:
192,192,182940,1,0,0:0:0:0:
320,192,182940,1,0,0:0:0:0:
448,192,182940,1,0,0:0:0:0:
192,192,183090,1,0,0:0:0:0:
64,192,183240,1,0,0:0:0:0:
320,192,183240,1,0,0:0:0:0:
448,192,183240,1,0,0:0:0:0:
192,192,183390,1,0,0:0:0:0:
448,192,183540,1,0,0:0:0:0:
320,192,183540,1,0,0:0:0:0:
64,192,183690,1,0,0:0:0:0:
192,192,183840,1,0,0:0:0:0:
448,192,183840,1,0,0:0:0:0:
320,192,183915,1,0,0:0:0:0:
448,192,183990,1,0,0:0:0:0:
64,192,183990,1,0,0:0:0:0:
320,192,184140,1,0,0:0:0:0:
192,192,184140,1,0,0:0:0:0:
448,192,184290,1,0,0:0:0:0:
192,192,184440,1,4,0:2:0:0:
320,192,184440,1,0,0:0:0:0:
64,192,184590,1,0,0:0:0:0:
320,192,184740,1,0,0:0:0:0:
192,192,184740,1,4,0:2:0:0:
448,192,184890,1,0,0:0:0:0:
320,192,185040,1,0,0:0:0:0:
192,192,185040,1,4,0:2:0:0:
64,192,185190,1,0,0:0:0:0:
192,192,185340,1,4,0:2:0:0:
320,192,185340,1,0,0:0:0:0:
448,192,185490,1,0,0:0:0:0:
64,192,185640,1,0,0:2:0:0:
320,192,185640,1,0,0:0:0:0:
192,192,185640,1,0,0:2:0:0:
448,192,185790,1,0,0:0:0:0:
320,192,185940,1,0,0:0:0:0:
192,192,185940,1,0,0:0:0:0:
64,192,186090,1,0,0:0:0:0:
448,192,186090,1,0,0:0:0:0:
192,192,186240,1,0,0:0:0:0:
64,192,186240,1,0,0:0:0:0:
320,192,186390,1,0,0:0:0:0:
64,192,186540,1,0,0:0:0:0:
448,192,186540,1,0,0:0:0:0:
192,192,186690,1,0,0:0:0:0:
448,192,186840,1,0,0:0:0:0:
320,192,186840,1,4,0:2:0:0:
64,192,186990,1,0,0:0:0:0:
192,192,186990,1,0,0:0:0:0:
192,192,187140,1,0,0:0:0:0:
320,192,187140,1,0,0:0:0:0:
448,192,187290,1,0,0:0:0:0:
64,192,187440,1,0,0:0:0:0:
192,192,187440,1,0,0:0:0:0:
320,192,187590,1,0,0:0:0:0:
192,192,187590,1,0,0:0:0:0:
320,192,187740,1,0,0:0:0:0:
448,192,187740,1,0,0:0:0:0:
64,192,187890,1,0,0:0:0:0:
192,192,188040,1,4,0:2:0:0:
448,192,188040,1,0,0:0:0:0:
320,192,188190,1,0,0:0:0:0:
64,192,188340,1,0,0:0:0:0:
192,192,188340,1,0,0:0:0:0:
448,192,188490,1,0,0:0:0:0:
320,192,188640,1,0,0:0:0:0:
192,192,188640,1,0,0:2:0:0:
64,192,188790,1,0,0:0:0:0:
320,192,188940,1,0,0:2:0:0:
448,192,188940,1,0,0:0:0:0:
192,192,189090,1,0,0:0:0:0:
320,192,189240,1,4,0:2:0:0:
448,192,189240,1,0,0:0:0:0:
64,192,189240,1,0,0:0:0:0:
192,192,189390,1,0,0:0:0:0:
320,192,189540,1,4,0:2:0:0:
448,192,189540,1,0,0:0:0:0:
64,192,189540,1,0,0:0:0:0:
192,192,189690,1,0,0:0:0:0:
320,192,189840,1,4,0:2:0:0:
448,192,189840,1,0,0:0:0:0:
64,192,189840,1,0,0:0:0:0:
192,192,189990,1,0,0:0:0:0:
64,192,190140,1,0,0:0:0:0:
192,192,190140,1,4,0:2:0:0:
448,192,190140,1,0,0:0:0:0:
320,192,190290,1,0,0:0:0:0:
64,192,190440,1,0,0:0:0:0:
192,192,190440,1,4,0:2:0:0:
448,192,190440,1,0,0:0:0:0:
320,192,190590,1,0,0:0:0:0:
448,192,190740,1,0,0:0:0:0:
192,192,190740,1,4,0:2:0:0:
64,192,190740,1,0,0:0:0:0:
320,192,190890,1,0,0:0:0:0:
448,192,191040,1,0,0:0:0:0:
192,192,191040,1,4,0:2:0:0:
64,192,191040,1,0,0:0:0:0:
320,192,191190,1,0,0:0:0:0:
64,192,191340,1,0,0:0:0:0:
192,192,191340,1,4,0:2:0:0:
448,192,191340,1,0,0:0:0:0:
64,192,191490,1,0,0:0:0:0:
192,192,191490,1,0,0:0:0:0:
448,192,191640,1,4,0:2:0:0:
320,192,191640,1,4,0:1:0:0:
192,192,191640,1,0,0:0:0:0:
64,192,191790,1,0,0:0:0:0:
448,192,191940,1,0,0:0:0:0:
320,192,191940,1,0,0:0:0:0:
64,192,192090,1,0,0:0:0:0:
192,192,192240,1,0,0:0:0:0:
320,192,192240,1,0,0:0:0:0:
448,192,192390,1,0,0:0:0:0:
320,192,192540,1,0,0:0:0:0:
64,192,192540,1,0,0:0:0:0:
192,192,192690,1,0,0:0:0:0:
448,192,192840,1,4,0:2:0:0:
320,192,192840,1,0,0:0:0:0:
64,192,192840,1,0,0:0:0:0:
192,192,192990,1,0,0:0:0:0:
320,192,193140,1,0,0:0:0:0:
448,192,193140,1,0,0:0:0:0:
320,192,193290,1,0,0:0:0:0:
192,192,193290,1,0,0:0:0:0:
192,192,193440,1,0,0:0:0:0:
64,192,193440,1,0,0:0:0:0:
448,192,193590,1,0,0:0:0:0:
320,192,193740,1,0,0:0:0:0:
192,192,193740,1,0,0:0:0:0:
64,192,193890,1,0,0:0:0:0:
448,192,193890,1,0,0:0:0:0:
192,192,194040,1,0,0:0:0:0:
320,192,194040,1,4,0:2:0:0:
448,192,194040,1,0,0:0:0:0:
64,192,194190,1,0,0:0:0:0:
448,192,194340,1,0,0:0:0:0:
320,192,194340,1,0,0:0:0:0:
192,192,194490,1,0,0:0:0:0:
320,192,194640,1,0,0:0:0:0:
448,192,194640,1,0,0:0:0:0:
64,192,194790,1,0,0:0:0:0:
320,192,194940,1,0,0:0:0:0:
448,192,194940,1,0,0:0:0:0:
192,192,195090,1,0,0:0:0:0:
64,192,195240,1,0,0:0:0:0:
320,192,195240,1,0,0:0:0:0:
448,192,195240,1,0,0:0:0:0:
192,192,195390,1,0,0:0:0:0:
64,192,195540,1,0,0:0:0:0:
320,192,195540,1,0,0:0:0:0:
448,192,195690,1,0,0:0:0:0:
192,192,195690,1,0,0:0:0:0:
192,192,195840,1,0,0:0:0:0:
64,192,195840,1,0,0:0:0:0:
320,192,195990,1,0,0:0:0:0:
448,192,196140,1,0,0:0:0:0:
64,192,196140,1,0,0:0:0:0:
192,192,196290,1,0,0:0:0:0:
320,192,196290,1,0,0:0:0:0:
448,192,196440,1,0,0:0:0:0:
320,192,196440,1,0,0:0:0:0:
64,192,196440,1,0,0:0:0:0:
192,192,196590,1,0,0:0:0:0:
320,192,196740,1,0,0:0:0:0:
448,192,196740,1,0,0:0:0:0:
64,192,196890,1,0,0:0:0:0:
192,192,197040,1,0,0:0:0:0:
320,192,197040,1,0,0:0:0:0:
448,192,197190,1,0,0:0:0:0:
320,192,197190,1,0,0:0:0:0:
64,192,197340,1,0,0:0:0:0:
192,192,197340,1,0,0:0:0:0:
320,192,197490,1,0,0:0:0:0:
64,192,197640,1,0,0:0:0:0:
448,192,197640,1,0,0:0:0:0:
192,192,197640,1,4,0:2:0:0:
320,192,197790,1,0,0:0:0:0:
64,192,197940,1,0,0:0:0:0:
448,192,197940,1,0,0:0:0:0:
192,192,198090,1,0,0:0:0:0:
320,192,198240,1,0,0:2:0:0:
448,192,198240,1,0,0:0:0:0:
192,192,198390,1,0,0:0:0:0:
448,192,198540,1,0,0:0:0:0:
64,192,198540,1,0,0:0:0:0:
320,192,198690,1,0,0:0:0:0:
192,192,198690,1,0,0:0:0:0:
64,192,198840,1,0,0:0:0:0:
192,192,198840,1,4,0:2:0:0:
448,192,198990,1,0,0:0:0:0:
192,192,199140,1,0,0:0:0:0:
64,192,199140,1,0,0:0:0:0:
320,192,199290,1,0,0:0:0:0:
64,192,199440,1,0,0:0:0:0:
192,192,199440,1,0,0:0:0:0:
448,192,199590,1,0,0:0:0:0:
192,192,199740,1,4,0:2:0:0:
64,192,199740,1,0,0:0:0:0:
320,192,199890,1,0,0:0:0:0:
448,192,200040,1,0,0:0:0:0:
192,192,200040,1,0,0:0:0:0:
64,192,200190,1,0,0:0:0:0:
448,192,200340,1,0,0:0:0:0:
192,192,200340,1,0,0:0:0:0:
320,192,200490,1,0,0:0:0:0:
448,192,200640,1,0,0:0:0:0:
192,192,200640,1,0,0:0:0:0:
64,192,200790,1,0,0:0:0:0:
448,192,200940,1,0,0:0:0:0:
192,192,200940,1,0,0:0:0:0:
320,192,201090,1,0,0:0:0:0:
448,192,201240,1,0,0:0:0:0:
192,192,201240,1,0,0:2:0:0:
64,192,201240,1,0,0:0:0:0:
320,192,201390,1,0,0:0:0:0:
448,192,201540,1,0,0:0:0:0:
192,192,201540,1,0,0:2:0:0:
64,192,201540,1,0,0:0:0:0:
320,192,201690,1,0,0:0:0:0:
448,192,201840,1,0,0:0:0:0:
192,192,201840,1,0,0:0:0:0:
64,192,201840,1,0,0:0:0:0:
320,192,201990,1,0,0:0:0:0:
448,192,202140,1,0,0:0:0:0:
192,192,202140,1,0,0:0:0:0:
64,192,202140,1,0,0:0:0:0:
320,192,202290,1,0,0:0:0:0:
64,192,202440,1,0,0:0:0:0:
192,192,202440,1,0,0:0:0:0:
448,192,202440,1,0,0:0:0:0:
320,192,202440,1,0,0:0:0:0:
192,192,202740,1,0,0:0:0:0:
192,192,203040,1,0,0:0:0:0:
192,192,203340,1,0,0:0:0:0:
320,192,203415,1,0,0:0:0:0:
448,192,203490,128,0,203790:0:0:0:0:
320,192,203790,128,0,203940:0:0:0:0:
64,192,203940,128,0,204090:0:0:0:0:
192,192,204090,128,0,204240:0:0:0:0:
448,192,204240,128,0,204390:0:0:0:0:
320,192,204390,128,0,204540:0:0:0:0:
64,192,204540,1,0,0:0:0:0:
192,192,204690,1,0,0:0:0:0:
448,192,204690,128,4,204990:0:2:0:0:
64,192,204990,128,0,205140:0:0:0:0:
192,192,205140,128,0,205290:0:0:0:0:
320,192,205290,128,0,205440:0:0:0:0:
448,192,205440,128,0,205590:0:0:0:0:
192,192,205590,128,0,205740:0:0:0:0:
320,192,205740,1,0,0:0:0:0:
64,192,205890,128,4,206190:0:2:0:0:
448,192,205890,1,0,0:0:0:0:
320,192,206190,128,0,206340:0:0:0:0:
192,192,206340,128,0,206490:0:0:0:0:
64,192,206490,128,0,206640:0:0:0:0:
448,192,206640,128,0,206790:0:0:0:0:
320,192,206790,128,0,206940:0:0:0:0:
192,192,206940,1,0,0:0:0:0:
448,192,207090,128,0,207240:0:0:0:0:
64,192,207090,1,0,0:0:0:0:
320,192,207240,1,0,0:0:0:0:
192,192,207240,1,4,0:2:0:0:
64,192,207390,1,0,0:0:0:0:
192,192,207540,1,0,0:0:0:0:
320,192,207540,1,4,0:2:0:0:
448,192,207690,1,0,0:0:0:0:
320,192,207840,1,0,0:0:0:0:
192,192,207840,1,4,0:2:0:0:
64,192,207990,1,0,0:0:0:0:
320,192,208140,1,4,0:2:0:0:
192,192,208140,1,0,0:0:0:0:
448,192,208290,1,0,0:0:0:0:
64,192,208290,1,0,0:0:0:0:
320,192,208290,128,4,208590:0:2:0:0:
192,192,208590,128,0,208740:0:0:0:0:
448,192,208740,128,0,208890:0:0:0:0:
320,192,208890,128,0,209040:0:0:0:0:
64,192,209040,128,0,209190:0:0:0:0:
192,192,209190,128,0,209340:0:0:0:0:
448,192,209340,1,0,0:0:0:0:
64,192,209490,128,4,209790:0:2:0:0:
320,192,209490,1,0,0:0:0:0:
448,192,209790,128,0,209940:0:0:0:0:
192,192,209940,128,0,210090:0:0:0:0:
320,192,210090,128,0,210240:0:0:0:0:
64,192,210240,128,0,210390:0:0:0:0:
448,192,210390,128,0,210540:0:0:0:0:
320,192,210540,1,0,0:0:0:0:
192,192,210690,128,4,210990:0:2:0:0:
64,192,210690,1,0,0:0:0:0:
320,192,210990,128,0,211140:0:0:0:0:
448,192,211140,128,0,211290:0:0:0:0:
192,192,211290,128,0,211440:0:0:0:0:
64,192,211440,128,0,211590:0:0:0:0:
448,192,211590,1,0,0:0:0:0:
320,192,211590,1,0,0:0:0:0:
64,192,211740,1,0,0:0:0:0:
192,192,211740,1,0,0:0:0:0:
320,192,211890,1,0,0:0:0:0:
64,192,212040,1,0,0:0:0:0:
192,192,212040,1,4,0:2:0:0:
448,192,212190,1,0,0:0:0:0:
192,192,212340,1,0,0:0:0:0:
64,192,212340,1,4,0:2:0:0:
320,192,212490,1,0,0:0:0:0:
64,192,212640,1,0,0:0:0:0:
192,192,212640,1,4,0:2:0:0:
448,192,212790,1,0,0:0:0:0:
64,192,212940,1,4,0:2:0:0:
192,192,212940,1,0,0:0:0:0:
64,192,213090,1,0,0:0:0:0:
192,192,213090,1,4,0:2:0:0:
448,192,213090,1,0,0:0:0:0:
320,192,213390,1,0,0:0:0:0:
192,192,213540,1,0,0:0:0:0:
448,192,213690,1,0,0:0:0:0:
64,192,213840,1,0,0:0:0:0:
192,192,213990,1,0,0:0:0:0:
320,192,214140,1,0,0:0:0:0:
192,192,214290,1,4,0:2:0:0:
64,192,214290,1,0,0:0:0:0:
448,192,214440,1,0,0:0:0:0:
320,192,214590,1,0,0:0:0:0:
192,192,214740,1,0,0:0:0:0:
64,192,214890,1,0,0:0:0:0:
320,192,215040,1,4,0:2:0:0:
448,192,215040,1,0,0:0:0:0:
448,192,215190,1,0,0:0:0:0:
320,192,215190,1,4,0:2:0:0:
64,192,215190,1,0,0:0:0:0:
192,192,215340,1,0,0:0:0:0:
64,192,215490,1,4,0:2:0:0:
192,192,215490,1,0,0:0:0:0:
320,192,215490,1,0,0:0:0:0:
448,192,215640,1,0,0:0:0:0:
320,192,215790,1,0,0:0:0:0:
64,192,215940,1,0,0:0:0:0:
192,192,216090,1,0,0:0:0:0:
320,192,216240,1,4,0:2:0:0:
448,192,216240,1,0,0:0:0:0:
64,192,216390,1,0,0:0:0:0:
320,192,216540,1,0,0:0:0:0:
192,192,216690,128,4,216990:0:2:0:0:
448,192,216690,128,0,216990:0:0:0:0:
320,192,216990,1,0,0:0:0:0:
64,192,217140,128,4,217440:0:2:0:0:
448,192,217440,128,4,217740:0:2:0:0:
320,192,217740,1,0,0:0:0:0:
64,192,217890,1,0,0:0:0:0:
192,192,217890,1,4,0:2:0:0:
448,192,217890,1,0,0:0:0:0:
320,192,219090,128,0,219390:0:0:0:0:
64,192,219390,1,0,0:0:0:0:
192,192,220290,128,0,220590:0:0:0:0:
64,192,220590,1,0,0:0:0:0:
448,192,221490,128,4,221790:0:2:0:0:
64,192,221490,128,4,221790:0:2:0:0:
320,192,221790,1,4,0:2:0:0:
192,192,221940,1,4,0:2:0:0:
448,192,222090,1,4,0:2:0:0:
64,192,222240,1,4,0:2:0:0:
192,192,222315,1,0,0:0:0:0:
320,192,222390,1,0,0:0:0:0:
448,192,222540,1,0,0:0:0:0:
192,192,222540,1,0,0:0:0:0:
64,192,222690,1,4,0:2:0:0:
192,192,222690,1,0,0:0:0:0:
448,192,222690,1,4,0:2:0:0:
320,192,222840,1,0,0:0:0:0:
64,192,222990,1,0,0:0:0:0:
192,192,223140,1,0,0:0:0:0:
320,192,223290,1,0,0:0:0:0:
448,192,223440,1,0,0:0:0:0:
64,192,223440,1,0,0:0:0:0:
192,192,223590,1,0,0:0:0:0:
448,192,223740,1,0,0:0:0:0:
320,192,223740,1,0,0:0:0:0:
64,192,223890,1,0,0:0:0:0:
192,192,223890,1,0,0:0:0:0:
320,192,223890,1,0,0:0:0:0:
448,192,224040,1,0,0:0:0:0:
320,192,224190,1,0,0:0:0:0:
64,192,224340,1,0,0:0:0:0:
192,192,224415,1,0,0:0:0:0:
320,192,224490,1,0,0:0:0:0:
448,192,224640,1,2,0:0:0:0:
192,192,224640,1,0,0:0:0:0:
64,192,224640,1,2,0:0:0:0:
320,192,224790,1,0,0:0:0:0:
192,192,224940,1,0,0:0:0:0:
64,192,225090,1,0,0:0:0:0:
448,192,225090,1,0,0:0:0:0:
320,192,225240,1,0,0:0:0:0:
192,192,225390,1,0,0:0:0:0:
64,192,225540,1,0,0:0:0:0:
64,192,225690,1,0,0:0:0:0:
192,192,225840,1,0,0:0:0:0:
320,192,225840,1,6,0:1:0:0:
448,192,225840,1,2,0:0:0:0:
192,192,226140,1,0,0:0:0:0:
320,192,226290,1,4,0:2:0:0:
448,192,226290,1,0,0:2:0:0:
64,192,226440,1,0,0:0:0:0:
192,192,226590,1,0,0:0:0:0:
320,192,226590,1,0,0:0:0:0:
448,192,226740,128,4,226890:0:2:0:0:
192,192,226890,1,0,0:0:0:0:
320,192,227040,128,4,227190:0:2:0:0:
64,192,227190,1,0,0:0:0:0:
192,192,227340,1,4,0:2:0:0:
448,192,227340,1,0,0:0:0:0:
320,192,227490,1,4,0:2:0:0:
192,192,227490,1,0,0:0:0:0:
64,192,227640,1,0,0:0:0:0:
448,192,227790,1,0,0:0:0:0:
192,192,227940,1,0,0:0:0:0:
64,192,228090,1,0,0:0:0:0:
320,192,228240,1,2,0:0:0:0:
448,192,228240,1,2,0:0:0:0:
192,192,228390,1,0,0:0:0:0:
64,192,228540,1,0,0:0:0:0:
320,192,228690,128,0,228990:0:0:0:0:
192,192,228690,128,4,228990:0:2:0:0:
448,192,228990,1,0,0:0:0:0:
64,192,229140,1,0,0:0:0:0:
192,192,229140,1,0,0:0:0:0:
320,192,229290,1,0,0:0:0:0:
64,192,229440,128,4,229740:0:2:0:0:
448,192,229440,128,2,229740:0:0:0:0:
320,192,229890,1,0,0:0:0:0:
192,192,229890,1,0,0:0:0:0:
64,192,230040,1,0,0:0:0:0:
320,192,230190,1,0,0:0:0:0:
448,192,230190,1,0,0:0:0:0:
192,192,230340,1,0,0:0:0:0:
448,192,230490,1,0,0:0:0:0:
64,192,230490,1,0,0:0:0:0:
448,192,230640,1,0,0:0:0:0:
320,192,230640,128,2,230940:0:0:0:0:
64,192,230940,1,0,0:0:0:0:
192,192,231090,1,4,0:2:0:0:
448,192,231090,1,4,0:2:0:0:
320,192,231240,1,0,0:0:0:0:
64,192,231390,1,0,0:0:0:0:
192,192,231390,1,4,0:2:0:0:
448,192,231540,1,0,0:0:0:0:
320,192,231540,1,4,0:2:0:0:
192,192,231690,1,0,0:0:0:0:
64,192,231840,1,4,0:2:0:0:
448,192,231840,1,0,0:0:0:0:
320,192,231990,1,0,0:0:0:0:
64,192,232140,1,0,0:0:0:0:
192,192,232140,1,4,0:2:0:0:
64,192,232290,1,0,0:0:0:0:
448,192,232290,1,4,0:2:0:0:
192,192,232290,128,0,232590:0:0:0:0:
320,192,232590,128,0,232890:0:0:0:0:
64,192,232890,1,0,0:0:0:0:
192,192,233040,1,2,0:0:0:0:
448,192,233040,1,2,0:0:0:0:
320,192,233190,1,0,0:0:0:0:
64,192,233190,1,0,0:0:0:0:
192,192,233340,1,0,0:0:0:0:
448,192,233490,1,0,0:0:0:0:
320,192,233490,1,0,0:0:0:0:
64,192,233490,1,0,0:0:0:0:
192,192,233640,1,0,0:0:0:0:
320,192,233790,1,0,0:0:0:0:
64,192,233940,1,0,0:0:0:0:
192,192,233940,1,0,0:0:0:0:
448,192,234090,1,0,0:0:0:0:
320,192,234240,1,0,0:0:0:0:
192,192,234240,1,2,0:0:0:0:
64,192,234240,1,2,0:0:0:0:
448,192,234390,1,0,0:0:0:0:
320,192,234540,1,0,0:0:0:0:
192,192,234540,1,0,0:0:0:0:
64,192,234690,1,0,0:0:0:0:
320,192,234840,1,0,0:0:0:0:
448,192,234840,1,0,0:0:0:0:
192,192,234990,1,0,0:0:0:0:
64,192,235140,1,0,0:0:0:0:
192,192,235290,1,0,0:0:0:0:
64,192,235440,1,0,0:0:0:0:
448,192,235440,1,2,0:0:0:0:
320,192,235440,1,2,0:0:0:0:
192,192,235590,1,0,0:0:0:0:
320,192,235740,1,0,0:0:0:0:
448,192,235740,1,0,0:0:0:0:
320,192,235890,1,0,0:0:0:0:
64,192,235890,1,0,0:0:0:0:
448,192,236040,128,4,236340:0:2:0:0:
320,192,236340,128,4,236640:0:2:0:0:
192,192,236640,128,4,236940:0:2:0:0:
64,192,236940,128,4,237090:0:2:0:0:
448,192,237090,1,0,0:0:0:0:
320,192,237090,1,0,0:0:0:0:
192,192,237240,1,0,0:0:0:0:
64,192,237390,1,0,0:0:0:0:
320,192,237390,1,0,0:0:0:0:
448,192,237540,1,0,0:0:0:0:
64,192,237690,1,0,0:0:0:0:
192,192,237690,1,0,0:0:0:0:
192,192,237840,1,2,0:0:0:0:
448,192,237840,1,2,0:0:0:0:
320,192,237990,1,0,0:0:0:0:
192,192,238140,1,0,0:0:0:0:
64,192,238290,1,0,0:0:0:0:
320,192,238290,1,0,0:0:0:0:
448,192,238290,1,0,0:0:0:0:
192,192,238440,1,0,0:0:0:0:
320,192,238590,1,0,0:0:0:0:
448,192,238590,1,0,0:0:0:0:
192,192,238740,1,0,0:0:0:0:
64,192,238890,1,0,0:0:0:0:
320,192,238890,1,0,0:0:0:0:
448,192,239040,1,2,0:0:0:0:
320,192,239040,1,2,0:0:0:0:
64,192,239190,128,0,239340:0:0:0:0:
320,192,239490,1,0,0:0:0:0:
448,192,239490,1,0,0:0:0:0:
192,192,239640,1,0,0:0:0:0:
64,192,239790,1,0,0:0:0:0:
320,192,239790,1,0,0:0:0:0:
448,192,239940,1,0,0:0:0:0:
192,192,239940,1,0,0:0:0:0:
320,192,240090,1,0,0:0:0:0:
64,192,240090,1,0,0:0:0:0:
64,192,240240,1,0,0:0:0:0:
192,192,240240,1,2,0:0:0:0:
448,192,240240,1,2,0:0:0:0:
320,192,240390,1,0,0:0:0:0:
64,192,240540,1,0,0:0:0:0:
192,192,240540,1,0,0:0:0:0:
448,192,240690,1,4,0:2:0:0:
192,192,240690,1,4,0:2:0:0:
320,192,240690,128,0,240990:0:0:0:0:
192,192,240990,1,2,0:0:0:0:
448,192,241140,1,2,0:0:0:0:
64,192,241140,1,4,0:2:0:0:
320,192,241290,1,0,0:0:0:0:
64,192,241440,1,2,0:0:0:0:
192,192,241440,1,4,0:2:0:0:
448,192,241590,1,0,0:0:0:0:
320,192,241740,1,0,0:0:0:0:
192,192,241740,1,4,0:2:0:0:
64,192,241890,128,4,242190:0:2:0:0:
320,192,241890,128,4,242340:0:2:0:0:
192,192,243090,128,0,243390:0:0:0:0:
448,192,243390,1,0,0:0:0:0:
320,192,243840,1,8,0:0:0:0:
448,192,243840,1,8,0:0:0:0:
320,192,244290,128,0,244590:0:0:0:0:
64,192,244590,1,0,0:0:0:0:
192,192,245490,128,0,245790:0:0:0:0:
448,192,245790,1,0,0:0:0:0:
64,192,245790,1,0,0:0:0:0:
192,192,245940,1,0,0:0:0:0:
448,192,246090,1,0,0:0:0:0:
64,192,246090,1,0,0:0:0:0:
320,192,246240,1,0,0:0:0:0:
192,192,246240,1,0,0:0:0:0:
192,192,246390,1,0,0:0:0:0:
320,192,246540,1,0,0:0:0:0:
448,192,246540,1,0,0:0:0:0:
64,192,246690,1,0,0:0:0:0:
320,192,246690,1,0,0:0:0:0:
448,192,246690,1,0,0:0:0:0:
320,192,247890,128,0,248190:0:0:0:0:
64,192,248190,1,0,0:0:0:0:
192,192,248640,1,8,0:0:0:0:
320,192,248640,1,8,0:0:0:0:
64,192,249090,128,0,249390:0:0:0:0:
448,192,249390,1,0,0:0:0:0:
320,192,250290,128,0,250590:0:0:0:0:
64,192,250590,1,0,0:0:0:0:
192,192,250590,1,0,0:0:0:0:
448,192,250590,1,0,0:0:0:0:
320,192,250740,1,0,0:0:0:0:
64,192,250890,1,0,0:0:0:0:
192,192,250890,1,0,0:0:0:0:
448,192,251040,1,0,0:0:0:0:
320,192,251040,1,0,0:0:0:0:
192,192,251115,1,0,0:0:0:0:
64,192,251190,1,0,0:0:0:0:
192,192,251340,1,0,0:0:0:0:
320,192,251340,1,0,0:0:0:0:
448,192,251490,1,4,0:1:0:0:
320,192,251490,1,0,0:0:0:0:
192,192,251490,1,4,0:1:0:0:
448,192,252690,128,0,252990:0:0:0:0:
192,192,252990,1,0,0:0:0:0:
64,192,253440,1,8,0:0:0:0:
192,192,253440,1,8,0:0:0:0:
192,192,253890,128,0,254190:0:0:0:0:
320,192,254190,1,0,0:0:0:0:
64,192,255090,128,0,255390:0:0:0:0:
320,192,255390,1,0,0:0:0:0:
448,192,255390,1,0,0:0:0:0:
192,192,255540,1,0,0:0:0:0:
64,192,255690,1,0,0:0:0:0:
320,192,255690,1,0,0:0:0:0:
448,192,255840,1,0,0:0:0:0:
192,192,255840,1,0,0:0:0:0:
320,192,255990,1,0,0:0:0:0:
192,192,255990,1,0,0:0:0:0:
64,192,256140,1,0,0:0:0:0:
192,192,256140,1,0,0:0:0:0:
64,192,256290,1,0,0:0:0:0:
192,192,256290,1,4,0:1:0:0:
448,192,256290,1,4,0:1:0:0:
320,192,257490,128,0,257790:0:0:0:0:
192,192,257790,1,0,0:0:0:0:
448,192,258240,1,8,0:0:0:0:
64,192,258240,1,8,0:0:0:0:
64,192,258690,128,0,258990:0:0:0:0:
320,192,258990,1,0,0:0:0:0:
320,192,259890,128,0,260190:0:0:0:0:
64,192,260190,1,0,0:0:0:0:
192,192,260190,1,0,0:0:0:0:
448,192,260340,1,0,0:0:0:0:
320,192,260490,1,0,0:0:0:0:
192,192,260490,1,0,0:0:0:0:
64,192,260640,1,0,0:0:0:0:
192,192,260715,1,0,0:0:0:0:
320,192,260790,1,0,0:0:0:0:
448,192,260790,1,0,0:0:0:0:
64,192,260940,1,0,0:0:0:0:
448,192,261090,1,0,0:0:0:0:
320,192,261090,128,0,261240:0:0:0:0:
64,192,261390,1,0,0:0:0:0:
320,192,261540,1,0,0:0:0:0:
448,192,261690,1,0,0:0:0:0:
64,192,261840,1,0,0:0:0:0:
192,192,261840,1,0,0:0:0:0:
320,192,261990,1,0,0:0:0:0:
192,192,262140,1,0,0:0:0:0:
448,192,262290,1,0,0:0:0:0:
320,192,262290,1,0,0:0:0:0:
64,192,262440,1,0,0:0:0:0:
192,192,262590,1,0,0:0:0:0:
320,192,262740,1,0,0:0:0:0:
448,192,262890,1,0,0:0:0:0:
64,192,262890,1,0,0:0:0:0:
192,192,263040,1,0,0:0:0:0:
320,192,263040,1,0,0:0:0:0:
64,192,263190,1,0,0:0:0:0:
448,192,263340,1,0,0:0:0:0:
192,192,263340,1,0,0:0:0:0:
320,192,263490,1,0,0:0:0:0:
64,192,263640,1,0,0:0:0:0:
192,192,263790,1,0,0:0:0:0:
448,192,263940,1,0,0:0:0:0:
64,192,264090,1,0,0:0:0:0:
192,192,264090,1,0,0:0:0:0:
320,192,264240,1,0,0:0:0:0:
448,192,264240,1,0,0:0:0:0:
192,192,264390,1,0,0:0:0:0:
64,192,264540,1,0,0:0:0:0:
448,192,264540,1,0,0:0:0:0:
320,192,264690,128,0,264990:0:0:0:0:
64,192,264990,1,0,0:0:0:0:
192,192,264990,1,0,0:0:0:0:
448,192,265140,1,0,0:0:0:0:
192,192,265290,1,0,0:0:0:0:
64,192,265290,1,0,0:0:0:0:
448,192,265440,128,0,265740:0:0:0:0:
64,192,265590,1,0,0:0:0:0:
192,192,265665,1,0,0:0:0:0:
320,192,265740,1,0,0:0:0:0:
64,192,265890,1,0,0:0:0:0:
192,192,265890,128,0,266190:0:0:0:0:
448,192,266190,1,0,0:0:0:0:
320,192,266340,1,0,0:0:0:0:
64,192,266490,1,0,0:0:0:0:
448,192,266640,1,0,0:0:0:0:
320,192,266640,1,0,0:0:0:0:
192,192,266790,1,0,0:0:0:0:
64,192,266940,1,0,0:0:0:0:
448,192,266940,1,0,0:0:0:0:
320,192,267090,1,0,0:0:0:0:
192,192,267240,1,0,0:0:0:0:
448,192,267390,1,0,0:0:0:0:
64,192,267540,1,0,0:0:0:0:
320,192,267540,1,0,0:0:0:0:
192,192,267690,1,0,0:0:0:0:
448,192,267840,1,0,0:0:0:0:
320,192,267840,1,0,0:0:0:0:
64,192,267840,1,0,0:0:0:0:
192,192,267990,1,0,0:0:0:0:
64,192,268140,1,0,0:0:0:0:
448,192,268140,1,0,0:0:0:0:
320,192,268290,1,0,0:0:0:0:
192,192,268440,1,0,0:0:0:0:
448,192,268440,1,0,0:0:0:0:
320,192,268590,1,0,0:0:0:0:
64,192,268740,1,0,0:0:0:0:
192,192,268740,1,0,0:0:0:0:
448,192,268890,1,0,0:0:0:0:
320,192,268965,1,0,0:0:0:0:
64,192,269040,1,0,0:0:0:0:
192,192,269040,128,0,269340:0:0:0:0:
320,192,269340,1,0,0:0:0:0:
448,192,269490,1,0,0:0:0:0:
64,192,269490,1,0,0:0:0:0:
192,192,269640,1,0,0:0:0:0:
320,192,269640,1,0,0:0:0:0:
448,192,269790,1,0,0:0:0:0:
192,192,269940,1,0,0:0:0:0:
64,192,270090,1,0,0:0:0:0:
448,192,270090,1,0,0:0:0:0:
192,192,270240,1,0,0:0:0:0:
320,192,270240,1,0,0:0:0:0:
320,192,270390,1,0,0:0:0:0:
448,192,270390,1,0,0:0:0:0:
64,192,270540,1,0,0:0:0:0:
192,192,270540,1,0,0:0:0:0:
64,192,270690,1,0,0:0:0:0:
192,192,270690,1,0,0:0:0:0:
448,192,270690,1,0,0:0:0:0:
320,192,270840,1,0,0:0:0:0:
192,192,270915,1,0,0:0:0:0:
64,192,270990,1,0,0:0:0:0:
448,192,271065,1,0,0:0:0:0:
192,192,271140,1,0,0:0:0:0:
320,192,271140,1,0,0:0:0:0:
64,192,271290,1,0,0:0:0:0:
192,192,271440,1,0,0:0:0:0:
320,192,271440,1,0,0:0:0:0:
448,192,271440,1,0,0:0:0:0:
64,192,271590,1,0,0:0:0:0:
192,192,271740,1,0,0:0:0:0:
320,192,271740,1,0,0:0:0:0:
448,192,271890,1,0,0:0:0:0:
320,192,271890,128,0,272190:0:0:0:0:
64,192,272190,1,0,0:0:0:0:
192,192,272190,128,0,272490:0:0:0:0:
64,192,272640,1,0,0:0:0:0:
448,192,272640,128,0,272940:0:0:0:0:
320,192,272940,1,0,0:0:0:0:
192,192,272940,1,0,0:0:0:0:
64,192,273090,128,0,273390:0:0:0:0:
320,192,273090,1,0,0:0:0:0:
192,192,273390,128,0,273690:0:0:0:0:
320,192,273690,1,0,0:0:0:0:
64,192,273840,1,0,0:0:0:0:
192,192,273840,1,0,0:0:0:0:
448,192,273840,1,0,0:0:0:0:
320,192,273990,1,0,0:0:0:0:
64,192,274140,1,0,0:0:0:0:
192,192,274140,1,0,0:0:0:0:
64,192,274290,1,0,0:0:0:0:
192,192,274290,1,0,0:0:0:0:
448,192,274290,1,0,0:0:0:0:
320,192,274440,1,0,0:0:0:0:
64,192,274590,1,0,0:0:0:0:
192,192,274590,1,0,0:0:0:0:
448,192,274740,1,0,0:0:0:0:
320,192,274890,1,0,0:0:0:0:
192,192,274890,1,0,0:0:0:0:
64,192,275040,1,0,0:0:0:0:
448,192,275040,1,0,0:0:0:0:
320,192,275190,1,0,0:0:0:0:
64,192,275340,1,0,0:0:0:0:
192,192,275340,1,0,0:0:0:0:
448,192,275490,1,0,0:0:0:0:
320,192,275640,1,0,0:0:0:0:
192,192,275640,1,0,0:0:0:0:
64,192,275790,1,0,0:0:0:0:
192,192,275790,1,0,0:0:0:0:
320,192,275940,1,0,0:0:0:0:
448,192,275940,1,0,0:0:0:0:
64,192,276090,1,0,0:0:0:0:
192,192,276090,1,0,0:0:0:0:
320,192,276240,1,0,0:0:0:0:
448,192,276240,1,0,0:0:0:0:
192,192,276390,1,0,0:0:0:0:
64,192,276540,1,0,0:0:0:0:
320,192,276540,1,0,0:0:0:0:
448,192,276690,1,0,0:0:0:0:
64,192,276840,1,0,0:0:0:0:
192,192,276840,1,0,0:0:0:0:
320,192,276990,1,0,0:0:0:0:
448,192,276990,1,0,0:0:0:0:
64,192,277140,1,0,0:0:0:0:
192,192,277140,1,0,0:0:0:0:
320,192,277290,1,0,0:0:0:0:
448,192,277290,1,0,0:0:0:0:
64,192,277440,1,0,0:0:0:0:
320,192,277440,1,0,0:0:0:0:
192,192,277590,1,0,0:0:0:0:
448,192,277590,1,0,0:0:0:0:
320,192,277740,1,0,0:0:0:0:
64,192,277740,1,0,0:0:0:0:
192,192,277890,1,0,0:0:0:0:
448,192,277890,1,0,0:0:0:0:
448,192,278040,1,0,0:0:0:0:
320,192,278040,1,0,0:0:0:0:
64,192,278040,1,0,0:0:0:0:
192,192,278190,1,0,0:0:0:0:
448,192,278340,1,0,0:0:0:0:
320,192,278340,1,0,0:0:0:0:
64,192,278340,1,0,0:0:0:0:
192,192,278490,1,0,0:0:0:0:
448,192,278640,1,0,0:0:0:0:
64,192,278640,1,0,0:0:0:0:
320,192,278640,1,0,0:0:0:0:
192,192,278790,1,0,0:0:0:0:
64,192,278940,1,0,0:0:0:0:
320,192,278940,1,0,0:0:0:0:
448,192,278940,1,0,0:0:0:0:
192,192,279090,1,0,0:0:0:0:
64,192,279240,1,0,0:0:0:0:
448,192,279240,1,0,0:0:0:0:
320,192,279240,1,0,0:0:0:0:
64,192,279390,1,0,0:0:0:0:
448,192,279390,1,0,0:0:0:0:
320,192,279390,1,0,0:0:0:0:
192,192,279540,1,0,0:0:0:0:
64,192,279540,1,0,0:0:0:0:
448,192,279540,1,0,0:0:0:0:
448,192,279690,1,0,0:0:0:0:
64,192,279690,1,0,0:0:0:0:
192,192,279690,1,0,0:0:0:0:
448,192,279840,1,0,0:0:0:0:
320,192,279840,1,0,0:0:0:0:
64,192,279840,1,0,0:0:0:0:
320,192,279990,1,0,0:0:0:0:
448,192,279990,1,0,0:0:0:0:
64,192,279990,1,0,0:0:0:0:
64,192,280140,1,0,0:0:0:0:
192,192,280140,1,0,0:0:0:0:
448,192,280140,1,0,0:0:0:0:
448,192,280290,1,0,0:0:0:0:
192,192,280290,1,0,0:0:0:0:
320,192,280290,1,0,0:0:0:0:
64,192,280290,1,0,0:0:0:0:
64,192,284640,1,0,0:0:0:0:
192,192,284640,1,0,0:0:0:0:
320,192,284790,1,0,0:0:0:0:
448,192,284790,1,0,0:0:0:0:
64,192,284940,1,0,0:0:0:0:
192,192,284940,1,0,0:0:0:0:
192,192,285090,1,0,0:0:0:0:
320,192,285090,1,0,0:0:0:0:
448,192,285090,128,0,287640:0:0:0:0:
64,192,285090,128,0,287640:0:0:0:0:
64,192,287940,1,0,0:0:0:0:
448,192,287940,1,0,0:0:0:0:
448,192,288390,1,0,0:0:0:0:
64,192,288390,1,0,0:0:0:0:
320,192,288540,1,0,0:0:0:0:
192,192,288540,1,0,0:0:0:0:
320,192,288840,1,0,0:0:0:0:
320,192,289140,1,0,0:0:0:0:
320,192,289440,1,0,0:0:0:0:
320,192,289740,1,0,0:0:0:0:
192,192,289890,1,0,0:0:0:0:
320,192,289965,1,0,0:0:0:0:
448,192,290040,1,4,0:1:0:0:
64,192,290040,1,4,0:1:0:0:
192,192,290040,1,4,0:1:0:0:
320,192,290190,1,0,0:0:0:0:
64,192,290340,1,0,0:0:0:0:
192,192,290340,1,0,0:0:0:0:
448,192,290490,1,0,0:0:0:0:
320,192,290640,1,0,0:0:0:0:
192,192,290640,1,0,0:0:0:0:
64,192,290790,1,0,0:0:0:0:
320,192,290940,1,0,0:0:0:0:
448,192,290940,1,0,0:0:0:0:
64,192,291090,1,0,0:0:0:0:
192,192,291240,1,0,0:0:0:0:
320,192,291240,1,4,0:2:0:0:
448,192,291240,1,0,0:0:0:0:
64,192,291390,1,0,0:0:0:0:
320,192,291540,1,0,0:0:0:0:
192,192,291540,1,0,0:0:0:0:
448,192,291690,1,0,0:0:0:0:
64,192,291690,1,0,0:0:0:0:
320,192,291840,1,0,0:0:0:0:
64,192,291840,1,0,0:0:0:0:
192,192,291990,1,0,0:0:0:0:
448,192,292140,1,0,0:0:0:0:
320,192,292140,1,4,0:2:0:0:
64,192,292290,1,0,0:0:0:0:
192,192,292290,1,0,0:0:0:0:
64,192,292440,1,0,0:0:0:0:
448,192,292440,1,0,0:0:0:0:
320,192,292440,1,4,0:2:0:0:
192,192,292590,1,0,0:0:0:0:
320,192,292740,1,4,0:2:0:0:
448,192,292740,1,0,0:0:0:0:
192,192,292890,1,0,0:0:0:0:
64,192,293040,1,4,0:2:0:0:
320,192,293040,1,0,0:0:0:0:
448,192,293190,1,0,0:0:0:0:
320,192,293340,1,0,0:0:0:0:
192,192,293340,1,0,0:0:0:0:
64,192,293490,1,0,0:0:0:0:
192,192,293640,1,0,0:0:0:0:
448,192,293640,1,4,0:2:0:0:
320,192,293640,1,0,0:2:0:0:
64,192,293790,1,0,0:0:0:0:
192,192,293940,1,0,0:0:0:0:
320,192,293940,1,0,0:0:0:0:
64,192,294090,1,0,0:0:0:0:
192,192,294090,1,0,0:0:0:0:
320,192,294240,1,0,0:0:0:0:
448,192,294240,1,0,0:0:0:0:
192,192,294390,1,0,0:0:0:0:
64,192,294540,1,0,0:0:0:0:
320,192,294540,1,0,0:0:0:0:
448,192,294690,1,0,0:0:0:0:
320,192,294840,1,0,0:0:0:0:
192,192,294840,1,0,0:0:0:0:
64,192,294840,1,0,0:0:0:0:
448,192,294990,1,0,0:0:0:0:
64,192,295140,1,0,0:0:0:0:
320,192,295140,1,0,0:0:0:0:
192,192,295290,1,0,0:0:0:0:
64,192,295440,1,0,0:0:0:0:
448,192,295440,1,0,0:0:0:0:
320,192,295590,1,0,0:0:0:0:
192,192,295590,1,0,0:0:0:0:
448,192,295740,1,0,0:0:0:0:
320,192,295740,1,0,0:0:0:0:
64,192,295890,1,0,0:0:0:0:
192,192,296040,1,4,0:2:0:0:
320,192,296040,1,0,0:0:0:0:
448,192,296040,1,0,0:0:0:0:
64,192,296190,1,0,0:0:0:0:
320,192,296340,1,0,0:0:0:0:
448,192,296340,1,0,0:0:0:0:
192,192,296490,1,0,0:0:0:0:
64,192,296640,1,0,0:0:0:0:
320,192,296640,1,0,0:0:0:0:
448,192,296790,1,0,0:0:0:0:
192,192,296940,1,0,0:0:0:0:
64,192,296940,1,0,0:0:0:0:
320,192,297090,1,0,0:0:0:0:
448,192,297240,1,4,0:2:0:0:
64,192,297240,1,0,0:0:0:0:
192,192,297390,1,0,0:0:0:0:
448,192,297540,1,4,0:2:0:0:
64,192,297540,1,0,0:0:0:0:
320,192,297690,1,0,0:0:0:0:
64,192,297840,1,0,0:0:0:0:
448,192,297840,1,4,0:2:0:0:
192,192,297990,1,0,0:0:0:0:
64,192,298140,1,0,0:0:0:0:
448,192,298140,1,4,0:2:0:0:
320,192,298290,1,0,0:0:0:0:
64,192,298440,1,0,0:0:0:0:
192,192,298440,1,4,0:2:0:0:
448,192,298440,1,0,0:0:0:0:
320,192,298590,1,0,0:0:0:0:
448,192,298740,1,0,0:0:0:0:
192,192,298740,1,4,0:2:0:0:
64,192,298740,1,0,0:0:0:0:
320,192,298890,1,0,0:0:0:0:
64,192,299040,1,0,0:0:0:0:
192,192,299040,1,4,0:2:0:0:
448,192,299040,1,0,0:0:0:0:
192,192,299190,1,4,0:2:0:0:
64,192,299190,1,0,0:0:0:0:
64,192,299340,1,0,0:0:0:0:
192,192,299340,1,0,0:0:0:0:
320,192,299340,1,0,0:0:0:0:
448,192,299490,1,4,0:2:0:0:
320,192,299490,1,0,0:0:0:0:
192,192,299490,1,0,0:0:0:0:
64,192,299640,1,0,0:0:0:0:
192,192,299640,1,4,0:2:0:0:
320,192,299790,1,0,0:0:0:0:
448,192,299940,1,0,0:0:0:0:
192,192,299940,1,0,0:0:0:0:
64,192,300090,1,0,0:0:0:0:
192,192,300240,1,0,0:0:0:0:
320,192,300240,1,0,0:0:0:0:
448,192,300390,1,0,0:0:0:0:
320,192,300540,1,0,0:0:0:0:
192,192,300540,1,0,0:0:0:0:
64,192,300690,1,0,0:0:0:0:
192,192,300840,1,0,0:0:0:0:
320,192,300840,1,4,0:2:0:0:
448,192,300840,1,0,0:0:0:0:
64,192,300990,1,0,0:0:0:0:
448,192,301140,1,0,0:0:0:0:
320,192,301140,1,4,0:2:0:0:
192,192,301290,1,0,0:0:0:0:
64,192,301290,1,0,0:0:0:0:
64,192,301440,1,4,0:2:0:0:
320,192,301440,1,0,0:0:0:0:
448,192,301590,1,0,0:0:0:0:
320,192,301740,1,0,0:0:0:0:
64,192,301740,1,4,0:2:0:0:
192,192,301890,1,0,0:0:0:0:
64,192,302040,1,0,0:0:0:0:
320,192,302040,1,4,0:2:0:0:
448,192,302040,1,0,0:0:0:0:
192,192,302190,1,0,0:0:0:0:
320,192,302340,1,0,0:0:0:0:
448,192,302340,1,0,0:0:0:0:
64,192,302490,1,0,0:0:0:0:
320,192,302640,1,0,0:0:0:0:
448,192,302640,1,0,0:0:0:0:
192,192,302790,1,0,0:0:0:0:
448,192,302940,1,0,0:0:0:0:
64,192,302940,1,0,0:0:0:0:
320,192,303090,1,0,0:0:0:0:
64,192,303240,1,4,0:2:0:0:
192,192,303240,1,0,0:0:0:0:
448,192,303240,1,0,0:0:0:0:
320,192,303390,1,0,0:0:0:0:
192,192,303540,1,0,0:0:0:0:
448,192,303540,1,0,0:0:0:0:
64,192,303690,1,0,0:0:0:0:
448,192,303690,1,0,0:0:0:0:
320,192,303840,1,0,0:0:0:0:
64,192,303990,1,0,0:0:0:0:
192,192,303990,1,0,0:0:0:0:
448,192,304140,1,0,0:0:0:0:
320,192,304140,1,0,0:0:0:0:
192,192,304290,1,0,0:0:0:0:
64,192,304440,1,4,0:2:0:0:
320,192,304440,1,0,0:0:0:0:
448,192,304440,1,0,0:0:0:0:
192,192,304590,1,0,0:0:0:0:
64,192,304740,1,0,0:0:0:0:
320,192,304740,1,0,0:0:0:0:
448,192,304890,1,0,0:0:0:0:
320,192,305040,1,0,0:0:0:0:
192,192,305040,1,0,0:0:0:0:
64,192,305190,1,0,0:0:0:0:
192,192,305190,1,0,0:0:0:0:
320,192,305340,1,0,0:0:0:0:
448,192,305340,1,0,0:0:0:0:
192,192,305490,1,0,0:0:0:0:
64,192,305640,1,4,0:2:0:0:
320,192,305640,1,0,0:0:0:0:
448,192,305640,1,0,0:0:0:0:
192,192,305790,1,0,0:0:0:0:
320,192,305940,1,0,0:0:0:0:
448,192,305940,1,0,0:0:0:0:
64,192,305940,1,4,0:2:0:0:
192,192,306090,1,0,0:0:0:0:
64,192,306240,1,4,0:2:0:0:
320,192,306240,1,0,0:0:0:0:
448,192,306240,1,0,0:0:0:0:
192,192,306390,1,0,0:0:0:0:
320,192,306540,1,4,0:2:0:0:
448,192,306540,1,0,0:0:0:0:
64,192,306690,1,4,0:2:0:0:
192,192,306690,1,0,0:0:0:0:
320,192,306840,1,4,0:2:0:0:
192,192,306840,1,0,0:0:0:0:
448,192,306990,1,0,0:0:0:0:
192,192,307140,1,4,0:2:0:0:
320,192,307140,1,0,0:0:0:0:
64,192,307290,1,0,0:0:0:0:
192,192,307440,1,0,0:0:0:0:
320,192,307440,1,4,0:2:0:0:
448,192,307590,1,0,0:0:0:0:
320,192,307740,1,4,0:2:0:0:
192,192,307740,1,0,0:0:0:0:
64,192,307890,1,0,0:0:0:0:
192,192,308040,1,0,0:0:0:0:
320,192,308040,1,4,0:2:0:0:
448,192,308040,1,0,0:0:0:0:
64,192,308190,1,0,0:0:0:0:
192,192,308340,1,0,0:0:0:0:
320,192,308340,1,4,0:2:0:0:
448,192,308340,1,0,0:0:0:0:
64,192,308490,1,0,0:0:0:0:
192,192,308640,1,0,0:0:0:0:
320,192,308640,1,4,0:2:0:0:
448,192,308640,1,0,0:0:0:0:
64,192,308790,1,0,0:0:0:0:
192,192,308940,1,0,0:0:0:0:
320,192,308940,1,4,0:2:0:0:
448,192,308940,1,0,0:0:0:0:
64,192,309090,1,0,0:0:0:0:
64,192,309240,1,0,0:0:0:0:
192,192,309240,1,4,0:2:0:0:
448,192,309240,1,0,0:0:0:0:
320,192,309390,1,0,0:0:0:0:
64,192,309540,1,0,0:0:0:0:
192,192,309540,1,4,0:2:0:0:
448,192,309540,1,0,0:0:0:0:
320,192,309690,1,0,0:0:0:0:
64,192,309840,1,0,0:0:0:0:
192,192,309840,1,4,0:2:0:0:
448,192,309840,1,0,0:0:0:0:
320,192,309990,1,0,0:0:0:0:
448,192,310140,1,0,0:0:0:0:
64,192,310140,1,0,0:0:0:0:
192,192,310140,1,4,0:2:0:0:
64,192,310290,1,0,0:0:0:0:
192,192,310290,1,4,0:2:0:0:
448,192,310290,1,0,0:0:0:0:
448,192,310440,1,0,0:0:0:0:
320,192,310440,1,4,0:1:0:0:
192,192,310440,1,4,0:1:0:0:
64,192,310440,1,0,0:0:0:0:
192,192,310740,1,0,0:0:0:0:
192,192,311040,1,0,0:0:0:0:
192,192,311340,1,0,0:0:0:0:
320,192,311490,128,4,311790:0:2:0:0:
64,192,311490,128,4,311790:0:2:0:0:
192,192,311790,1,0,0:0:0:0:
448,192,311940,1,0,0:0:0:0:
64,192,311940,1,0,0:0:0:0:
320,192,312090,1,0,0:0:0:0:
64,192,312240,1,0,0:0:0:0:
192,192,312390,1,0,0:0:0:0:
448,192,312540,1,0,0:0:0:0:
64,192,312540,1,0,0:0:0:0:
64,192,312690,128,4,312990:0:2:0:0:
448,192,312690,128,4,312990:0:2:0:0:
192,192,312990,1,0,0:0:0:0:
320,192,313140,1,0,0:0:0:0:
64,192,313140,1,0,0:0:0:0:
448,192,313290,1,0,0:0:0:0:
192,192,313440,1,0,0:0:0:0:
64,192,313440,1,0,0:0:0:0:
320,192,313590,1,0,0:0:0:0:
448,192,313740,1,0,0:0:0:0:
192,192,313740,1,0,0:0:0:0:
192,192,313890,128,4,314190:0:2:0:0:
448,192,313890,128,4,314190:0:2:0:0:
64,192,314190,1,0,0:0:0:0:
320,192,314340,1,0,0:0:0:0:
448,192,314340,1,0,0:0:0:0:
192,192,314490,1,0,0:0:0:0:
64,192,314640,1,0,0:0:0:0:
448,192,314790,1,0,0:0:0:0:
320,192,314940,1,0,0:0:0:0:
192,192,314940,1,0,0:0:0:0:
320,192,315090,128,0,315390:0:2:0:0:
192,192,315090,128,0,315390:0:2:0:0:
64,192,315240,128,4,315540:0:2:0:0:
448,192,315240,128,4,315540:0:2:0:0:
320,192,315540,128,4,315840:0:2:0:0:
192,192,315840,128,4,316140:0:2:0:0:
448,192,316140,128,4,316290:0:2:0:0:
64,192,316290,128,4,316590:0:2:0:0:
320,192,316590,1,0,0:0:0:0:
192,192,316740,1,0,0:0:0:0:
64,192,316740,1,0,0:0:0:0:
448,192,316890,1,0,0:0:0:0:
320,192,317040,1,0,0:0:0:0:
192,192,317040,1,0,0:0:0:0:
64,192,317190,1,0,0:0:0:0:
448,192,317340,1,0,0:0:0:0:
320,192,317340,1,0,0:0:0:0:
320,192,317490,128,4,317790:0:2:0:0:
448,192,317490,128,4,317790:0:2:0:0:
64,192,317790,1,0,0:0:0:0:
192,192,317940,1,0,0:0:0:0:
320,192,317940,1,0,0:0:0:0:
448,192,318090,1,0,0:0:0:0:
320,192,318240,1,0,0:0:0:0:
64,192,318240,1,0,0:0:0:0:
192,192,318390,1,0,0:0:0:0:
64,192,318540,1,0,0:0:0:0:
448,192,318540,1,0,0:0:0:0:
448,192,318690,128,4,318990:0:2:0:0:
64,192,318690,128,4,318990:0:2:0:0:
320,192,318990,1,0,0:0:0:0:
64,192,319140,1,0,0:0:0:0:
192,192,319140,1,0,0:0:0:0:
448,192,319290,1,0,0:0:0:0:
64,192,319440,1,0,0:0:0:0:
320,192,319440,1,0,0:0:0:0:
448,192,319590,1,0,0:0:0:0:
64,192,319740,1,0,0:0:0:0:
192,192,319740,1,0,0:0:0:0:
64,192,319890,128,0,320190:0:0:0:0:
192,192,319890,128,0,320190:0:0:0:0:
320,192,320040,128,4,320340:0:2:0:0:
448,192,320040,128,4,320340:0:2:0:0:
192,192,320340,128,4,320640:0:2:0:0:
448,192,320640,128,4,320940:0:2:0:0:
64,192,320640,128,4,320940:0:2:0:0:
320,192,320940,128,4,321090:0:2:0:0:
192,192,321090,128,4,321390:0:2:0:0:
320,192,321390,1,0,0:0:0:0:
448,192,321390,1,0,0:0:0:0:
64,192,321540,1,0,0:0:0:0:
320,192,321540,1,0,0:0:0:0:
192,192,321690,1,0,0:0:0:0:
448,192,321840,1,0,0:0:0:0:
320,192,321990,1,0,0:0:0:0:
64,192,322140,1,0,0:0:0:0:
192,192,322290,1,0,0:0:0:0:
448,192,322290,1,0,0:0:0:0:
320,192,322440,1,0,0:0:0:0:
64,192,322590,1,0,0:0:0:0:
192,192,322740,1,0,0:0:0:0:
320,192,322740,1,0,0:0:0:0:
448,192,322890,1,0,0:0:0:0:
192,192,323040,1,0,0:0:0:0:
64,192,323190,1,0,0:0:0:0:
320,192,323190,1,0,0:0:0:0:
448,192,323340,1,0,0:0:0:0:
320,192,323490,1,0,0:0:0:0:
192,192,323490,1,0,0:0:0:0:
64,192,323640,1,0,0:0:0:0:
448,192,323790,1,0,0:0:0:0:
192,192,323940,1,0,0:0:0:0:
64,192,323940,1,0,0:0:0:0:
320,192,324090,1,0,0:0:0:0:
448,192,324240,1,0,0:0:0:0:
64,192,324240,1,0,0:0:0:0:
192,192,324390,1,0,0:0:0:0:
320,192,324540,1,0,0:0:0:0:
64,192,324690,128,4,325140:0:2:0:0:
192,192,324690,128,0,325140:0:0:0:0:
448,192,324990,1,4,0:2:0:0:
320,192,325140,128,4,325440:0:2:0:0:
448,192,325440,128,0,325740:0:0:0:0:
64,192,325440,128,4,325740:0:2:0:0:
192,192,325740,128,4,326040:0:2:0:0:
320,192,326040,128,4,326190:0:2:0:0:
64,192,326340,1,0,0:0:0:0:
192,192,326415,1,0,0:0:0:0:
448,192,326490,128,0,326640:0:0:0:0:
320,192,326790,1,0,0:0:0:0:
192,192,326865,1,0,0:0:0:0:
64,192,326940,128,0,327090:0:0:0:0:
320,192,327240,1,0,0:0:0:0:
192,192,327315,1,0,0:0:0:0:
320,192,327390,128,0,327540:0:0:0:0:
448,192,327690,1,0,0:0:0:0:
192,192,327765,1,0,0:0:0:0:
64,192,327840,128,0,327990:0:0:0:0:
320,192,328140,1,0,0:0:0:0:
448,192,328215,1,0,0:0:0:0:
192,192,328290,128,0,328440:0:0:0:0:
448,192,328590,1,0,0:0:0:0:
320,192,328665,1,0,0:0:0:0:
192,192,328740,128,0,328890:0:0:0:0:
64,192,329040,1,0,0:0:0:0:
192,192,329115,1,0,0:0:0:0:
320,192,329190,128,0,329340:0:0:0:0:
192,192,329490,1,0,0:0:0:0:
320,192,329565,1,0,0:0:0:0:
64,192,329640,1,0,0:0:0:0:
448,192,329640,1,0,0:0:0:0:
320,192,329790,1,0,0:0:0:0:
192,192,329790,1,0,0:0:0:0:
64,192,329940,1,0,0:0:0:0:
192,192,329940,1,0,0:0:0:0:
320,192,330090,1,0,0:0:0:0:
448,192,330090,1,0,0:0:0:0:
64,192,330240,1,0,0:0:0:0:
192,192,330240,1,0,0:0:0:0:
64,192,330390,1,0,0:0:0:0:
192,192,330390,1,0,0:0:0:0:
320,192,330540,1,0,0:0:0:0:
448,192,330540,1,0,0:0:0:0:
320,192,330690,1,0,0:0:0:0:
448,192,330690,1,0,0:0:0:0:
64,192,330840,1,0,0:0:0:0:
192,192,330915,1,0,0:0:0:0:
320,192,330990,128,0,331140:0:0:0:0:
448,192,331290,1,0,0:0:0:0:
320,192,331365,1,0,0:0:0:0:
192,192,331440,128,0,331590:0:0:0:0:
320,192,331740,1,0,0:0:0:0:
192,192,331815,1,0,0:0:0:0:
64,192,331890,128,0,332040:0:0:0:0:
192,192,332190,1,0,0:0:0:0:
320,192,332265,1,0,0:0:0:0:
448,192,332340,128,0,332490:0:0:0:0:
192,192,332640,1,0,0:0:0:0:
320,192,332715,1,0,0:0:0:0:
448,192,332790,128,0,332940:0:0:0:0:
320,192,333090,1,0,0:0:0:0:
192,192,333165,1,0,0:0:0:0:
320,192,333240,128,0,333390:0:0:0:0:
448,192,333390,1,0,0:0:0:0:
64,192,333540,1,0,0:0:0:0:
320,192,333540,1,0,0:0:0:0:
448,192,333690,1,0,0:0:0:0:
192,192,333690,1,0,0:0:0:0:
64,192,333840,1,0,0:0:0:0:
320,192,333840,1,0,0:0:0:0:
448,192,333990,1,0,0:0:0:0:
320,192,333990,1,0,0:0:0:0:
64,192,334140,1,0,0:0:0:0:
192,192,334140,1,0,0:0:0:0:
320,192,334290,1,0,0:0:0:0:
448,192,334290,1,0,0:0:0:0:
320,192,334440,1,0,0:0:0:0:
192,192,334440,1,0,0:0:0:0:
64,192,334440,1,0,0:0:0:0:
448,192,334590,1,0,0:0:0:0:
64,192,334740,1,0,0:0:0:0:
320,192,334890,1,0,0:0:0:0:
64,192,335040,1,0,0:0:0:0:
448,192,335040,1,0,0:0:0:0:
192,192,335190,1,0,0:0:0:0:
448,192,335340,1,0,0:0:0:0:
64,192,335340,1,0,0:0:0:0:
320,192,335490,1,0,0:0:0:0:
64,192,335640,1,4,0:1:0:0:
192,192,335640,1,4,0:2:0:0:
448,192,335640,1,0,0:0:0:0:
320,192,335790,1,0,0:0:0:0:
64,192,335940,1,0,0:0:0:0:
192,192,335940,1,0,0:0:0:0:
192,192,336090,1,0,0:0:0:0:
320,192,336090,1,0,0:0:0:0:
448,192,336240,1,0,0:0:0:0:
64,192,336390,1,0,0:0:0:0:
320,192,336390,1,0,0:0:0:0:
192,192,336540,1,0,0:0:0:0:
448,192,336540,1,0,0:0:0:0:
320,192,336690,1,0,0:0:0:0:
192,192,336840,1,0,0:0:0:0:
64,192,336990,1,0,0:0:0:0:
448,192,336990,1,0,0:0:0:0:
448,192,337140,1,0,0:0:0:0:
320,192,337140,1,0,0:0:0:0:
192,192,337290,1,0,0:0:0:0:
64,192,337440,1,0,0:0:0:0:
320,192,337440,1,0,0:0:0:0:
320,192,337590,1,0,0:0:0:0:
192,192,337590,1,0,0:0:0:0:
448,192,337740,1,0,0:0:0:0:
64,192,337890,1,0,0:0:0:0:
192,192,337890,1,0,0:0:0:0:
320,192,338040,1,0,0:0:0:0:
448,192,338040,1,0,0:0:0:0:
192,192,338190,1,0,0:0:0:0:
64,192,338340,1,0,0:0:0:0:
448,192,338340,1,0,0:0:0:0:
320,192,338490,1,0,0:0:0:0:
192,192,338490,1,0,0:0:0:0:
64,192,338640,1,0,0:0:0:0:
448,192,338790,1,0,0:0:0:0:
320,192,338790,1,0,0:0:0:0:
64,192,338940,1,0,0:0:0:0:
192,192,338940,1,0,0:0:0:0:
448,192,339090,1,0,0:0:0:0:
320,192,339165,1,0,0:0:0:0:
64,192,339240,1,0,0:0:0:0:
192,192,339240,1,0,0:0:0:0:
320,192,339390,1,0,0:0:0:0:
448,192,339390,1,0,0:0:0:0:
64,192,339540,1,0,0:0:0:0:
192,192,339540,1,0,0:0:0:0:
320,192,339690,1,0,0:0:0:0:
448,192,339690,1,0,0:0:0:0:
64,192,339840,1,0,0:0:0:0:
320,192,339840,1,0,0:0:0:0:
448,192,339990,1,0,0:0:0:0:
192,192,339990,1,0,0:0:0:0:
64,192,340140,1,0,0:0:0:0:
320,192,340140,1,0,0:0:0:0:
448,192,340290,1,0,0:0:0:0:
192,192,340290,1,0,0:0:0:0:
64,192,340440,128,0,340590:0:0:0:0:
320,192,340590,128,0,340740:0:0:0:0:
192,192,340740,128,0,340890:0:0:0:0:
64,192,340740,1,0,0:0:0:0:
448,192,340890,128,0,341040:0:0:0:0:
320,192,341040,1,0,0:0:0:0:
64,192,341040,128,0,341190:0:0:0:0:
320,192,341190,128,0,341340:0:0:0:0:
448,192,341340,1,0,0:0:0:0:
192,192,341340,128,0,341490:0:0:0:0:
448,192,341490,128,0,341640:0:0:0:0:
320,192,341640,1,0,0:0:0:0:
64,192,341640,128,0,341790:0:0:0:0:
192,192,341790,128,0,341940:0:0:0:0:
448,192,341940,128,0,342090:0:0:0:0:
320,192,342090,128,0,342240:0:0:0:0:
64,192,342240,1,0,0:0:0:0:
192,192,342240,128,0,342390:0:0:0:0:
64,192,342390,128,0,342540:0:0:0:0:
448,192,342540,1,0,0:0:0:0:
320,192,342615,1,0,0:0:0:0:
192,192,342690,1,0,0:0:0:0:
64,192,342765,1,0,0:0:0:0:
448,192,342840,1,0,0:0:0:0:
320,192,342915,1,0,0:0:0:0:
192,192,342990,1,0,0:0:0:0:
64,192,343065,1,0,0:0:0:0:
448,192,343140,1,0,0:0:0:0:
320,192,343140,1,0,0:0:0:0:
64,192,343290,1,0,0:0:0:0:
192,192,343290,1,0,0:0:0:0:
320,192,343440,1,0,0:0:0:0:
448,192,343590,1,0,0:0:0:0:
64,192,343590,1,0,0:0:0:0:
320,192,343740,1,0,0:0:0:0:
192,192,343740,1,0,0:0:0:0:
64,192,343890,1,0,0:0:0:0:
192,192,343890,1,0,0:0:0:0:
448,192,344040,1,0,0:0:0:0:
320,192,344040,1,0,0:0:0:0:
320,192,344190,1,0,0:0:0:0:
448,192,344190,1,0,0:0:0:0:
192,192,344340,1,0,0:0:0:0:
64,192,344340,1,0,0:0:0:0:
64,192,344490,1,0,0:0:0:0:
192,192,344490,1,0,0:0:0:0:
320,192,344640,1,0,0:0:0:0:
192,192,344640,1,0,0:0:0:0:
192,192,344790,1,0,0:0:0:0:
320,192,344790,1,0,0:0:0:0:
448,192,344940,1,0,0:0:0:0:
64,192,344940,1,0,0:0:0:0:
64,192,345090,1,0,0:0:0:0:
448,192,345090,1,0,0:0:0:0:
320,192,345240,1,0,0:0:0:0:
192,192,345314,1,0,0:0:0:0:
320,192,345389,1,0,0:0:0:0:
448,192,345538,1,0,0:0:0:0:
64,192,345538,1,0,0:0:0:0:
192,192,345613,1,0,0:0:0:0:
320,192,345687,1,0,0:0:0:0:
448,192,345762,1,0,0:0:0:0:
64,192,345837,1,0,0:0:0:0:
192,192,345911,1,0,0:0:0:0:
320,192,345986,1,0,0:0:0:0:
448,192,346060,1,0,0:0:0:0:
64,192,346135,1,0,0:0:0:0:
192,192,346210,1,0,0:0:0:0:
320,192,346284,1,0,0:0:0:0:
448,192,346359,1,0,0:0:0:0:
64,192,346434,1,0,0:0:0:0:
192,192,346507,1,0,0:0:0:0:
320,192,346580,1,0,0:0:0:0:
448,192,346653,1,0,0:0:0:0:
64,192,346726,1,0,0:0:0:0:
192,192,346726,1,0,0:0:0:0:
192,192,346873,1,0,0:0:0:0:
320,192,346873,1,0,0:0:0:0:
448,192,347019,1,0,0:0:0:0:
320,192,347092,1,0,0:0:0:0:
192,192,347165,1,0,0:0:0:0:
64,192,347238,1,0,0:0:0:0:
448,192,347312,1,0,0:0:0:0:
320,192,347385,1,0,0:0:0:0:
192,192,347458,1,0,0:0:0:0:
64,192,347531,1,0,0:0:0:0:
448,192,347604,1,0,0:0:0:0:
320,192,347677,1,0,0:0:0:0:
192,192,347751,1,0,0:0:0:0:
64,192,347824,1,0,0:0:0:0:
448,192,347897,1,0,0:0:0:0:
320,192,347970,1,0,0:0:0:0:
192,192,348043,1,0,0:0:0:0:
64,192,348116,1,0,0:0:0:0:
448,192,348190,1,0,0:0:0:0:
320,192,348263,1,0,0:0:0:0:
192,192,348336,1,0,0:0:0:0:
64,192,348409,1,0,0:0:0:0:
448,192,348482,1,0,0:0:0:0:
64,192,348629,1,0,0:0:0:0:
320,192,348629,1,0,0:0:0:0:
192,192,348775,1,0,0:0:0:0:
448,192,348775,1,0,0:0:0:0:
320,192,348928,1,0,0:0:0:0:
64,192,349082,1,0,0:0:0:0:
192,192,349082,1,0,0:0:0:0:
448,192,349236,1,0,0:0:0:0:
64,192,349390,1,0,0:0:0:0:
192,192,349390,1,0,0:0:0:0:
320,192,349390,1,0,0:0:0:0:
448,192,349544,1,0,0:0:0:0:
64,192,349698,1,0,0:0:0:0:
320,192,349698,1,0,0:0:0:0:
192,192,349775,1,0,0:0:0:0:
320,192,349851,1,0,0:0:0:0:
448,192,349928,1,0,0:0:0:0:
64,192,350005,1,0,0:0:0:0:
192,192,350080,1,0,0:0:0:0:
320,192,350155,1,0,0:0:0:0:
448,192,350155,1,0,0:0:0:0:
192,192,350455,1,0,0:0:0:0:
320,192,350530,1,0,0:0:0:0:
448,192,350605,1,0,0:0:0:0:
64,192,350605,1,0,0:0:0:0:
448,192,350905,1,0,0:0:0:0:
320,192,350980,1,0,0:0:0:0:
64,192,351055,1,0,0:0:0:0:
192,192,351055,1,0,0:0:0:0:
192,192,351355,1,0,0:0:0:0:
320,192,351430,1,0,0:0:0:0:
448,192,351505,1,0,0:0:0:0:
192,192,351505,1,0,0:0:0:0:
320,192,351805,1,0,0:0:0:0:
192,192,351880,1,0,0:0:0:0:
64,192,351955,1,0,0:0:0:0:
320,192,351955,1,0,0:0:0:0:
448,192,352255,1,0,0:0:0:0:
320,192,352338,1,0,0:0:0:0:
192,192,352421,1,0,0:0:0:0:
64,192,352421,1,0,0:0:0:0:
320,192,352733,1,0,0:0:0:0:
192,192,352808,1,0,0:0:0:0:
64,192,352883,1,0,0:0:0:0:
448,192,352958,1,0,0:0:0:0:
320,192,353033,1,0,0:0:0:0:
192,192,353108,1,0,0:0:0:0:
448,192,353174,128,0,353474:0:0:0:0:
64,192,353174,128,0,353474:0:0:0:0:
