osu file format v14

[General]
AudioFilename: Linkin Park - Guilty All The Same (ft. Rakim).mp3
AudioLeadIn: 0
PreviewTime: 141990
Countdown: 0
SampleSet: Normal
StackLeniency: 0.7
Mode: 0
LetterboxInBreaks: 0
WidescreenStoryboard: 0

[Editor]
DistanceSpacing: 1
BeatDivisor: 4
GridSize: 8
TimelineZoom: 1.5

[Metadata]
Title:Guilty All The Same (feat. Rakim)
TitleUnicode:Guilty All The Same (feat. Rakim)
Artist:Linkin Park
ArtistUnicode:Linkin Park
Creator:384059043
Version:EASY
Source:
Tags:marathon lp The Hunting Party nu metal alternative rap Crystal [_Crystal]
BeatmapID:901672
BeatmapSetID:342472

[Difficulty]
HPDrainRate:2
CircleSize:3
OverallDifficulty:3
ApproachRate:3.7
SliderMultiplier:0.8
SliderTickRate:1

[Events]
//Background and Video events
0,0,"bg.jpg",0,0
//Break Periods
2,19040,22285
2,57440,63085
2,124640,132685
2,143940,151885
2,218340,220135
2,280790,283285
//Storyboard Layer 0 (Background)
//Storyboard Layer 1 (Fail)
//Storyboard Layer 2 (Pass)
//Storyboard Layer 3 (Foreground)
//Storyboard Sound Samples

[TimingPoints]
90,300,4,2,0,60,1,0
1290,-100,4,2,0,40,0,0
9240,-100,4,1,0,40,0,0
9690,-100,4,1,0,55,0,0
10140,-100,4,1,0,60,0,0
15990,-100,4,2,0,30,0,0
16140,-100,4,1,0,60,0,0
16440,-100,4,2,0,30,0,0
16590,-100,4,1,0,60,0,0
17565,-100,4,2,0,30,0,0
17940,-100,4,1,0,60,0,0
18840,300,4,1,0,60,1,0
23640,-100,4,3,0,60,0,0
38040,-100,4,2,0,60,0,0
38190,-100,4,3,0,60,0,0
39840,-100,4,3,0,60,0,0
41640,-100,4,2,0,60,0,0
41790,-100,4,3,0,60,0,0
42090,-100,4,1,0,80,0,0
42840,-100,4,2,0,70,0,0
42990,-100,4,3,0,70,0,0
46440,-100,4,2,0,70,0,0
46740,-100,4,1,0,70,0,0
47040,-100,4,2,0,70,0,0
47340,-100,4,1,0,70,0,0
47640,-100,4,2,0,75,0,0
47940,-100,4,1,0,75,0,0
48540,-100,4,2,0,75,0,0
48840,-100,4,1,0,75,0,0
49440,-100,4,2,0,75,0,0
49740,-100,4,1,0,75,0,0
50340,-100,4,2,0,75,0,0
50640,-100,4,1,0,75,0,0
51240,-100,4,2,0,75,0,0
51540,-100,4,1,0,75,0,0
51840,-100,4,2,0,75,0,0
52440,-100,4,2,0,80,0,0
52740,-100,4,1,0,80,0,0
53340,-100,4,2,0,80,0,0
53640,-100,4,1,0,80,0,0
54240,-100,4,2,0,80,0,0
54540,-100,4,1,0,80,0,0
55140,-100,4,2,0,80,0,0
55440,-100,4,1,0,80,0,0
56040,-100,4,2,0,80,0,0
56190,-100,4,1,0,80,0,0
57240,-100,4,2,0,60,0,0
68040,-100,4,1,0,60,0,0
68190,-100,4,2,0,60,0,0
68490,-100,4,1,0,60,0,0
68640,-100,4,2,0,60,0,0
68940,-100,4,1,0,60,0,0
69540,-100,4,2,0,60,0,0
69840,-100,4,1,0,60,0,0
69990,-100,4,2,0,60,0,0
70290,-100,4,1,0,60,0,0
71640,-100,4,2,0,60,0,0
71940,-100,4,1,0,60,0,0
72090,-100,4,2,0,60,0,0
72390,-100,4,1,0,60,0,0
72540,-100,4,2,0,60,0,0
72840,-100,4,1,0,60,0,0
74190,-100,4,2,0,60,0,0
76440,-100,4,2,0,80,0,0
76740,-100,4,1,0,80,0,0
76890,-100,4,2,0,80,0,0
77340,-100,4,1,0,80,0,0
77490,-100,4,2,0,80,0,0
77940,-100,4,1,0,80,0,0
78090,-100,4,2,0,80,0,0
78540,-100,4,1,0,80,0,0
78690,-100,4,2,0,80,0,0
79140,-100,4,1,0,80,0,0
79290,-100,4,2,0,80,0,0
79740,-100,4,1,0,80,0,0
79890,-100,4,2,0,80,0,0
80340,-100,4,1,0,80,0,0
80490,-100,4,2,0,80,0,0
80940,-100,4,1,0,80,0,0
81090,-100,4,2,0,80,0,0
81540,-100,4,1,0,80,0,0
81690,-100,4,2,0,80,0,0
82140,-100,4,1,0,80,0,0
82290,-100,4,2,0,80,0,0
82740,-100,4,1,0,80,0,0
82890,-100,4,2,0,80,0,0
83340,-100,4,1,0,80,0,0
83640,-100,4,2,0,80,0,0
86340,-100,4,1,0,80,0,0
86490,-100,4,2,0,80,0,0
86940,-100,4,1,0,80,0,0
87090,-100,4,2,0,80,0,0
87540,-100,4,1,0,80,0,0
87690,-100,4,2,0,80,0,0
88140,-100,4,1,0,80,0,0
88290,-100,4,2,0,80,0,0
88740,-100,4,1,0,80,0,0
88890,-100,4,2,0,80,0,0
89340,-100,4,1,0,80,0,0
89490,-100,4,2,0,80,0,0
89940,-100,4,1,0,80,0,0
90090,-100,4,2,0,80,0,0
91140,-100,4,1,0,80,0,0
91290,-100,4,2,0,80,0,0
91740,-100,4,1,0,80,0,0
91890,-100,4,2,0,80,0,0
92340,-100,4,1,0,80,0,0
92490,-100,4,2,0,80,0,0
92940,-100,4,1,0,80,0,0
93090,-100,4,2,0,80,0,0
95340,-100,4,1,0,80,0,0
95640,-100,4,2,0,60,0,0
95940,-100,4,3,0,60,0,0
99840,-100,4,1,0,60,0,0
100440,-100,4,3,0,60,0,0
105240,-100,4,2,0,60,0,0
105390,-100,4,3,0,60,0,0
109440,-100,4,1,0,60,0,0
110040,-100,4,3,0,60,0,0
119340,-100,4,1,0,60,0,0
119640,-100,4,2,0,60,0,0
124440,-100,4,3,0,20,0,0
134040,-100,4,2,0,60,0,0
140190,-100,4,1,0,60,0,0
143340,-100,4,2,0,60,0,0
143640,-100,4,2,0,80,0,0
153240,-100,4,2,0,60,0,0
161940,-100,4,1,0,60,0,0
162090,-100,4,2,0,60,0,0
162240,-100,4,1,0,60,0,0
162765,-100,4,2,0,60,0,0
171840,-100,4,1,0,60,0,0
179640,-100,4,1,0,80,0,0
182040,-100,4,2,0,80,0,1
183840,-100,4,1,0,80,0,1
184440,-100,4,2,0,80,0,1
188640,-100,4,1,0,80,0,1
189240,-100,4,2,0,80,0,1
193440,-100,4,1,0,80,0,1
194040,-100,4,2,0,80,0,1
198240,-100,4,1,0,80,0,1
198840,-100,4,2,0,80,0,1
202440,-100,4,2,0,80,0,0
203490,-100,4,2,0,80,0,1
213390,-100,4,2,0,80,0,0
213840,-100,4,1,0,80,0,0
213990,-100,4,2,0,80,0,0
215040,-100,4,1,0,80,0,0
215640,-100,4,2,0,80,0,0
216240,-100,4,1,0,80,0,0
216690,-100,4,2,0,80,0,0
217440,-100,4,1,0,80,0,0
217890,-100,4,2,0,80,0,1
218340,-100,4,2,0,80,0,0
221490,-100,4,2,0,60,0,0
222240,-100,4,1,0,60,0,0
222690,-100,4,2,0,60,0,0
223440,-100,4,1,0,60,0,0
223590,-100,4,2,0,60,0,0
224640,-100,4,1,0,60,0,0
224790,-100,4,2,0,60,0,0
225840,-100,4,1,0,60,0,0
225990,-100,4,2,0,60,0,0
227040,-100,4,1,0,60,0,0
227490,-100,4,2,0,60,0,0
228240,-100,4,1,0,60,0,0
228390,-100,4,2,0,60,0,0
229440,-100,4,1,0,60,0,0
229590,-100,4,2,0,60,0,0
230640,-100,4,1,0,60,0,0
230790,-100,4,2,0,60,0,0
231840,-100,4,1,0,60,0,0
232290,-100,4,2,0,60,0,0
233040,-100,4,1,0,60,0,0
233190,-100,4,2,0,60,0,0
234240,-100,4,1,0,60,0,0
234390,-100,4,2,0,60,0,0
235440,-100,4,1,0,60,0,0
235590,-100,4,2,0,60,0,0
236640,-100,4,1,0,60,0,0
237090,-100,4,2,0,60,0,0
237840,-100,4,1,0,60,0,0
237990,-100,4,2,0,60,0,0
239040,-100,4,1,0,60,0,0
239190,-100,4,2,0,60,0,0
240240,-100,4,1,0,60,0,0
240390,-100,4,2,0,60,0,0
241440,-100,4,1,0,60,0,0
241890,-100,4,2,0,60,0,0
246240,-100,4,1,0,60,0,0
246690,-100,4,2,0,60,0,0
251040,-100,4,1,0,60,0,0
251490,-100,4,2,0,60,0,0
255840,-100,4,1,0,60,0,0
256290,-100,4,2,0,60,0,0
260640,-100,4,1,0,60,0,0
261090,-100,4,2,0,60,0,0
261840,-100,4,1,0,60,0,0
261990,-100,4,2,0,60,0,0
263040,-100,4,1,0,60,0,0
263190,-100,4,2,0,60,0,0
264240,-100,4,1,0,60,0,0
264390,-100,4,2,0,60,0,0
265440,-100,4,1,0,60,0,0
265890,-100,4,2,0,60,0,0
266640,-100,4,1,0,60,0,0
266790,-100,4,2,0,60,0,0
267840,-100,4,1,0,60,0,0
267990,-100,4,2,0,60,0,0
269040,-100,4,1,0,60,0,0
269190,-100,4,2,0,60,0,0
270240,-100,4,1,0,60,0,0
274140,-100,4,2,0,60,0,0
274290,-100,4,1,0,60,0,0
280290,-100,4,2,0,40,0,0
284640,-100,4,1,0,60,0,0
290040,-100,4,2,0,80,0,1
291840,-100,4,1,0,80,0,1
292440,-100,4,2,0,80,0,1
296640,-100,4,1,0,80,0,1
297240,-100,4,2,0,80,0,1
301440,-100,4,1,0,80,0,1
302040,-100,4,2,0,80,0,1
306240,-100,4,1,0,80,0,1
306840,-100,4,2,0,80,0,1
310440,-100,4,2,0,80,0,0
311490,-100,4,2,0,80,0,1
321390,-100,4,2,0,80,0,0
321540,-100,4,2,0,80,0,0
322290,-100,4,3,0,80,0,0
322440,-100,4,2,0,80,0,0
323490,-100,4,3,0,80,0,0
323640,-100,4,2,0,80,0,0
326040,-100,4,2,0,80,0,1
326490,-100,4,1,0,80,0,1
327015,-100,4,2,0,80,0,1
327390,-100,4,1,0,80,0,1
327915,-100,4,2,0,80,0,1
328290,-100,4,1,0,80,0,1
328815,-100,4,2,0,80,0,1
329190,-100,4,1,0,80,0,1
329715,-100,4,2,0,80,0,1
330240,-100,4,1,0,80,0,1
330915,-100,4,2,0,80,0,1
331290,-100,4,1,0,80,0,1
331815,-100,4,2,0,80,0,1
332190,-100,4,1,0,80,0,1
332715,-100,4,2,0,80,0,1
333090,-100,4,1,0,80,0,1
334440,-100,4,2,0,80,0,0
335640,-100,4,2,0,80,0,1
340740,-100,4,1,0,80,0,1
340890,-100,4,2,0,80,0,1
341340,-100,4,1,0,80,0,1
341490,-100,4,2,0,80,0,1
341940,-100,4,1,0,80,0,1
342090,-100,4,2,0,80,0,1
342540,-100,4,1,0,80,0,1
342690,-100,4,2,0,80,0,1
343140,-100,4,1,0,80,0,1
343215,-100,4,2,0,80,0,1
343740,-100,4,1,0,80,0,1
343815,-100,4,2,0,80,0,1
344040,-100,4,1,0,80,0,1
345240,298.507462686567,4,1,0,80,1,1
345314,-100,4,2,0,80,0,1
345538,-100,4,1,0,80,0,1
345613,-100,4,2,0,80,0,1
345837,-100,4,1,0,80,0,1
345911,-100,4,2,0,80,0,1
346135,-100,4,1,0,80,0,1
346434,292.682926829268,4,1,0,80,1,1
346507,-100,4,2,0,80,0,1
346726,-100,4,1,0,80,0,1
346799,-100,4,2,0,80,0,1
347019,-100,4,1,0,80,0,1
347092,-100,4,2,0,80,0,1
347312,-100,4,1,0,80,0,1
347677,-100,4,2,0,80,0,1
347897,-100,4,1,0,80,0,1
347970,-100,4,2,0,80,0,1
348190,-100,4,1,0,80,0,1
348775,307.692307692308,4,1,0,80,1,1
348851,-100,4,2,0,80,0,1
349082,-100,4,1,0,80,0,1
349467,-100,4,2,0,80,0,1
349698,-100,4,1,0,80,0,1
350005,300,4,1,0,80,1,1
352255,333.333333333333,4,1,0,80,1,1
352716,300,4,1,0,80,1,1
353166,-100,4,1,0,80,0,0

[Colours]
Combo1 : 207,187,118
Combo2 : 170,105,74
Combo3 : 120,89,54

[HitObjects]
88,88,1290,6,0,P|120:72|200:88,1,120,4|4,0:0|0:0,0:0:0:0:
256,192,2190,1,4,0:0:0:0:
312,296,2640,2,0,P|368:315|424:296,1,120,4|4,0:0|0:0,0:0:0:0:
480,192,3540,6,0,L|480:72,2,120,4|4|4,0:0|0:0|0:0,0:0:0:0:
368,224,4890,2,0,P|352:192|352:144,1,80,4|4,0:0|0:0,0:0:0:0:
296,88,5490,2,0,L|216:88,1,80,4|4,0:0|0:0,0:0:0:0:
144,128,6090,6,0,B|80:128|80:128|56:128|40:120|32:104,2,120,4|4|4,0:0|0:0|0:0,0:0:0:0:
256,192,7440,1,4,0:0:0:0:
368,128,7890,2,0,B|432:128|432:128|456:128|472:120|480:104,1,120,4|4,0:0|0:0,0:0:0:0:
368,48,8790,2,0,B|304:48|304:48|280:48|264:56|256:72,1,120
200,176,9690,6,0,P|238:193|312:176,1,120,0|0,0:0|0:0,0:0:0:0:
448,328,10890,5,4,0:0:0:0:
336,280,11340,1,0,0:0:0:0:
256,192,11790,1,0,0:0:0:0:
176,104,12240,1,0,0:0:0:0:
64,56,12690,6,0,L|56:176,1,120,0|0,0:0|0:0,0:0:0:0:
168,224,13590,2,0,L|176:104,1,120,0|0,0:0|0:0,0:0:0:0:
256,16,14490,1,4,0:0:0:0:
336,40,14790,1,4,0:0:0:0:
376,112,15090,1,4,0:0:0:0:
392,192,15390,1,4,0:0:0:0:
408,272,15690,6,0,P|424:328|472:376,2,120,0|0|0,0:0|0:0|0:0,0:0:0:0:
304,216,17040,1,0,0:0:0:0:
256,104,17490,2,0,P|176:88|144:104,1,120,0|0,0:0|0:0,0:0:0:0:
88,208,18390,2,0,P|168:224|200:208,1,120,0|0,0:0|0:0,0:0:0:0:
80,120,23640,6,0,L|200:136,1,120,0|2,0:0|0:0,0:0:0:0:
313,135,24540,2,0,L|431:119,2,120,2|2|2,0:0|0:0|0:0,0:0:0:0:
313,249,25890,6,0,L|431:264,2,120,2|2|2,0:0|0:0|0:0,0:0:0:0:
198,248,27240,2,0,B|80:264|80:264|40:256,1,160,2|2,0:0|0:0,0:0:0:0:
40,96,28440,5,4,0:0:0:0:
152,128,28890,1,2,0:0:0:0:
256,64,29340,1,2,0:0:0:0:
360,128,29790,1,2,0:0:0:0:
472,96,30240,1,2,0:0:0:0:
440,216,30690,6,0,L|464:352,2,120,2|2|2,0:0|0:0|0:0,0:0:0:0:
336,272,32040,2,0,B|256:288|256:256|176:272,1,160,2|0,0:0|0:0,0:0:0:0:
48,360,33240,5,4,0:0:0:0:
8,248,33690,1,2,0:0:0:0:
112,192,34140,1,2,0:0:0:0:
8,136,34590,1,2,0:0:0:0:
48,24,35040,1,2,0:0:0:0:
152,80,35490,6,0,L|272:104,2,120,2|2|2,0:0|0:0|0:0,0:0:0:0:
112,192,36840,2,0,P|224:224|240:272,2,160,2|0|4,0:0|0:0|0:0,0:0:0:0:
136,312,38490,5,2,0:0:0:0:
256,336,38940,1,2,0:0:0:0:
376,312,39390,1,2,0:0:0:0:
456,224,39840,2,0,P|440:152|408:112,1,120,2|2,0:0|0:0,0:0:0:0:
316,44,40740,6,0,L|196:44,1,120,2|2,0:0|0:0,0:0:0:0:
99,116,41640,2,0,P|65:165|72:264,1,160,4|0,0:0|0:0,0:0:0:0:
184,376,42840,6,0,B|176:320|176:320|200:256,1,120,4|2,0:0|0:0,0:0:0:0:
313,260,43740,2,0,B|336:320|336:320|328:376,2,120,2|2|2,0:0|0:0|0:0,0:0:0:0:
256,152,45090,1,2,0:0:0:0:
196,48,45540,6,0,L|316:48,1,120,2|2,0:0|0:0,0:0:0:0:
336,168,46440,2,0,B|256:184|256:152|176:168,2,160,4|4|4,0:0|0:0|0:0,0:0:0:0:
424,88,48090,5,0,0:0:0:0:
448,208,48540,2,0,P|456:256|416:328,1,120,4|0,0:0|0:0,0:0:0:0:
316,268,49440,5,4,0:0:0:0:
196,268,49890,1,0,0:0:0:0:
85,318,50340,2,0,P|57:266|64:208,1,120,4|0,0:0|0:0,0:0:0:0:
112,96,51240,2,0,B|152:56|152:56|256:56,1,160,4|4,0:0|0:0,0:0:0:0:
400,96,52440,6,0,B|432:144|432:144|424:216,1,120,4|0,0:0|0:0,0:0:0:0:
344,296,53340,2,0,B|312:248|312:248|320:176,1,120,4|0,0:0|0:0,0:0:0:0:
193,186,54240,6,0,B|200:248|200:248|168:296,1,120,4|0,0:0|0:0,0:0:0:0:
86,205,55140,2,0,B|80:144|80:144|112:96,1,120,4|0,0:0|0:0,0:0:0:0:
208,24,56040,2,0,B|256:88|256:88|304:24,2,160,4|8|4,0:0|0:3|0:0,0:0:0:0:
256,192,64440,12,4,66840,0:0:0:0:
192,88,68040,6,0,P|152:88|64:120,2,120,0|0|0,0:0|0:0|0:0,0:0:0:0:
256,192,69390,2,0,L|256:312,2,120,0|0|0,0:0|0:0|0:0,0:0:0:0:
320,88,70740,1,0,0:0:0:0:
384,136,71040,2,0,L|464:128,2,80,0|0|4,0:0|0:0|0:0,0:0:0:0:
344,208,71940,6,0,P|336:264|376:328,2,120,0|0|0,0:0|0:0|0:0,0:0:0:0:
456,240,73290,2,0,P|464:184|424:120,1,120,0|0,0:0|0:0,0:0:0:0:
368,80,74040,1,4,1:3:0:0:
144,224,76440,5,4,0:0:0:0:
80,272,76740,2,0,P|136:304|216:256,1,160,0|0,0:0|0:0,0:0:0:0:
256,192,77640,1,0,0:0:0:0:
298,261,77940,2,0,P|361:303|431:271,1,160,4|4,1:2|1:2,0:0:0:0:
368,224,78840,5,4,0:0:0:0:
328,152,79140,2,0,B|360:80|360:80|296:24,1,160,0|0,0:0|0:0,0:0:0:0:
256,96,80040,1,0,0:0:0:0:
213,26,80340,2,0,B|152:80|152:80|184:152,1,160,4|4,1:2|1:2,0:0:0:0:
256,192,81240,5,4,0:0:0:0:
320,240,81540,2,0,P|368:256|464:192,1,160,0|0,0:0|0:0,0:0:0:0:
480,128,82440,1,0,0:0:0:0:
456,48,82740,2,0,L|296:80,1,160,4|4,1:2|1:2,0:0:0:0:
212,79,83640,6,0,L|56:48,2,160,4|4|4,1:2|1:2|1:2,0:0:0:0:
200,160,85140,1,4,1:2:0:0:
280,152,85440,1,4,1:2:0:0:
360,144,85740,1,4,1:2:0:0:
368,224,86040,5,4,0:0:0:0:
432,272,86340,2,0,P|376:304|296:256,1,160,0|0,0:0|0:0,0:0:0:0:
256,192,87240,1,0,0:0:0:0:
214,261,87540,2,0,P|151:303|81:271,1,160,4|4,1:2|1:2,0:0:0:0:
144,224,88440,5,4,0:0:0:0:
184,152,88740,2,0,B|152:80|152:80|216:24,1,160,0|0,0:0|0:0,0:0:0:0:
256,96,89640,1,0,0:0:0:0:
299,26,89940,2,0,B|360:80|360:80|328:152,1,160,4|4,1:2|0:0,0:0:0:0:
256,192,90840,5,4,0:0:0:0:
192,240,91140,2,0,P|144:256|48:192,1,160,0|0,0:0|0:0,0:0:0:0:
32,128,92040,1,0,0:0:0:0:
56,48,92340,2,0,L|216:80,1,160,4|4,1:2|1:2,0:0:0:0:
299,79,93240,6,0,L|456:48,2,160,4|4|4,1:2|1:2|1:2,0:0:0:0:
256,152,94740,2,0,L|256:232,1,80,4|4,1:2|1:2,0:0:0:0:
296,304,95340,1,0,0:0:0:0:
216,304,95640,6,0,P|160:312|96:336,2,120,4|2|2,0:0|0:0|0:0,0:0:0:0:
256,232,96840,2,0,B|236:188|240:156|272:156|276:116|256:80,1,160,0|2,0:0|0:0,0:0:0:0:
192,32,97740,1,8,0:0:0:0:
120,72,98040,6,0,P|64:80|0:40,2,120,2|2|2,0:0|0:0|0:0,0:0:0:0:
192,32,99240,2,0,P|264:72|320:32,1,160,2|0,0:0|0:0,0:0:0:0:
392,72,100140,1,0,0:0:0:0:
472,56,100440,6,0,B|496:104|496:104|488:184,2,120,2|2|2,0:0|0:0|0:0,0:0:0:0:
392,72,101640,2,0,P|320:72|256:16,1,160,0|2,0:0|0:0,0:0:0:0:
176,32,102540,1,8,0:0:0:0:
96,16,102840,6,0,P|48:48|32:112,2,120,2|2|2,0:0|0:0|0:0,0:0:0:0:
120,96,104040,2,0,B|120:200|120:200|152:248,1,160,0|2,0:0|0:0,0:0:0:0:
216,304,104940,1,2,0:0:0:0:
296,304,105240,6,0,P|352:312|416:336,2,120,4|2|2,0:0|0:0|0:0,0:0:0:0:
256,232,106440,2,0,B|276:188|272:156|240:156|236:116|256:80,1,160,0|2,0:0|0:0,0:0:0:0:
320,32,107340,1,8,0:0:0:0:
392,72,107640,6,0,P|448:80|512:40,2,120,2|2|2,0:0|0:0|0:0,0:0:0:0:
320,32,108840,2,0,P|248:72|192:32,1,160,0|0,0:0|0:0,0:0:0:0:
120,72,109740,1,0,0:0:0:0:
40,56,110040,6,0,B|16:104|16:104|24:184,2,120,2|2|2,0:0|0:0|0:0,0:0:0:0:
120,72,111240,2,0,P|192:72|256:16,1,160,0|2,0:0|0:0,0:0:0:0:
336,32,112140,1,2,0:0:0:0:
416,16,112440,6,0,P|464:48|480:112,2,120,2|2|2,0:0|0:0|0:0,0:0:0:0:
392,96,113640,2,0,B|392:200|392:200|360:248,2,160,2|2|4,0:0|0:0|3:1,0:0:0:0:
256,192,114990,12,2,117240,0:0:0:0:
184,191,118440,6,0,P|256:162|328:192,2,160,2|2|4,0:0|0:0|0:0,0:0:0:0:
256,192,119790,12,8,124440,0:0:0:0:
136,123,134040,6,0,L|256:123,1,120,4|2,0:0|0:0,0:0:0:0:
375,122,134940,2,0,L|315:226,1,120,2|2,0:0|0:0,0:0:0:0:
256,330,135840,2,0,L|212:255,1,80,2|2,0:0|0:0,0:0:0:0:
144,224,136440,6,0,P|152:152|176:104,1,120,2|2,0:0|0:0,0:0:0:0:
284,79,137340,2,0,P|342:121|372:166,1,120,2|2,0:0|0:0,0:0:0:0:
339,272,138240,2,0,P|300:295|260:302,1,80,2|2,0:0|0:0,0:0:0:0:
192,272,138840,6,0,P|128:264|80:288,2,120,4|2|2,0:0|0:0|0:0,0:0:0:0:
256,224,140040,2,0,L|256:144,1,80,0|0,0:0|0:0,0:0:0:0:
216,72,140640,2,0,P|256:64|296:72,1,80,2|2,1:2|1:2,0:0:0:0:
360,120,141240,6,0,P|400:152|400:16,1,320,0|8,0:0|0:0,0:0:0:0:
256,192,143340,2,0,L|256:272,1,80,0|4,0:0|0:0,0:0:0:0:
328,328,153240,6,0,P|368:336|416:320,2,80,4|2|0,0:0|0:0|0:0,0:0:0:0:
280,264,154140,2,0,L|280:216,1,40,2|0,0:0|0:0,0:0:0:0:
232,160,154590,2,0,L|232:120,1,40,0|2,0:0|0:0,0:0:0:0:
184,56,155040,2,0,P|144:48|96:64,1,80,0|2,0:0|0:0,0:0:0:0:
80,136,155640,6,0,L|0:152,2,80,0|2|0,0:0|0:0|0:0,0:0:0:0:
144,184,156540,2,0,L|152:232,1,40,2|0,0:0|0:0,0:0:0:0:
216,272,156990,2,0,L|224:320,1,40,0|2,0:0|0:0,0:0:0:0:
304,296,157440,2,0,P|360:280|400:280,1,80,2|2,0:0|0:0,0:0:0:0:
456,312,158040,6,0,L|472:232,1,80,0|2,0:0|0:0,0:0:0:0:
472,152,158640,1,0,0:0:0:0:
432,80,158940,2,0,L|384:72,1,40,2|0,0:0|0:0,0:0:0:0:
320,112,159390,2,0,L|272:104,1,40,0|2,0:0|0:0,0:0:0:0:
232,40,159840,2,0,P|184:32|136:40,1,80,0|2,0:0|0:0,0:0:0:0:
96,96,160440,6,0,B|72:144|112:176|88:216,2,120,0|0|2,0:0|0:0|0:0,0:0:0:0:
168,128,161640,2,0,P|176:216|144:288,1,160,0|0,0:0|0:0,0:0:0:0:
96,344,162540,1,0,0:0:0:0:
176,360,162840,6,0,L|256:344,1,80,4|2,0:0|0:0,0:0:0:0:
336,360,163440,1,0,0:0:0:0:
408,320,163740,2,0,L|416:272,1,40,2|0,0:0|0:0,0:0:0:0:
376,208,164190,2,0,L|368:160,1,40,0|2,0:0|0:0,0:0:0:0:
424,104,164640,2,0,L|440:8,2,80,0|2|0,0:0|0:0|0:0,0:0:0:0:
344,88,165540,5,2,0:0:0:0:
280,40,165840,1,0,0:0:0:0:
200,56,166140,2,0,L|160:48,1,40,2|0,0:0|0:0,0:0:0:0:
96,96,166590,2,0,L|56:104,1,40,0|2,0:0|0:0,0:0:0:0:
0,160,167040,2,0,L|0:256,1,80,2|2,0:0|0:0,0:0:0:0:
56,304,167640,6,0,P|103:254|212:355,1,240,2|2,0:0|0:0,0:0:0:0:
296,338,168840,2,0,P|360:250|456:304,1,240,0|2,0:0|0:0,0:0:0:0:
378,329,170040,6,0,B|368:264|400:224|456:232|480:168|456:104,1,240,0|2,0:0|0:0,0:0:0:0:
408,56,171240,1,0,0:0:0:0:
328,32,171540,1,2,0:0:0:0:
256,72,171840,1,0,0:0:0:0:
184,32,172140,1,0,0:0:0:0:
104,56,172440,6,0,L|96:136,1,80,4|0,0:0|0:0,0:0:0:0:
152,192,173040,1,0,0:0:0:0:
184,264,173340,2,0,L|180:304,1,40,0|0,0:0|0:0,0:0:0:0:
237,362,173790,2,0,L|285:362,1,40,0|0,0:0|0:0,0:0:0:0:
331,303,174240,2,0,P|360:272|472:288,1,160,0|0,0:0|0:0,0:0:0:0:
408,344,175140,5,0,0:0:0:0:
331,303,175440,2,0,P|304:272|304:224,1,80,0|0,0:0|0:0,0:0:0:0:
312,200,175890,2,0,P|328:144|296:80,1,120,0|0,0:0|0:0,0:0:0:0:
256,24,176640,2,0,L|176:24,1,80,0|0,0:0|0:0,0:0:0:0:
112,72,177240,6,0,B|64:72|64:72|40:72|32:64,2,80,4|0|0,0:0|0:0|0:0,0:0:0:0:
184,104,178140,2,0,L|192:144,1,40,0|0,0:0|0:0,0:0:0:0:
256,192,178590,2,0,L|264:232,1,40,0|0,0:0|0:0,0:0:0:0:
320,288,179040,2,0,P|352:280|400:280,1,80,0|0,0:0|0:0,0:0:0:0:
472,312,179640,6,0,P|480:248|296:112,1,320,0|8,0:0|0:0,0:0:0:0:
256,320,182040,6,0,P|224:336|176:336,1,80,4|2,0:0|0:0,0:0:0:0:
120,280,182640,2,0,P|88:264|40:264,1,80,0|2,0:0|0:0,0:0:0:0:
0,192,183240,1,0,0:0:0:0:
80,168,183540,1,2,0:0:0:0:
120,96,183840,2,0,L|208:104,1,80,0|0,0:0|0:0,0:0:0:0:
256,160,184440,6,0,L|344:152,1,80,4|4,1:2|1:2,0:0:0:0:
408,192,185040,2,0,L|496:184,2,80,4|4|4,1:2|1:2|1:2,0:0:0:0:
336,232,185940,1,4,1:2:0:0:
256,248,186240,2,0,P|192:240|112:192,1,160,4|4,1:2|0:0,0:0:0:0:
72,120,187140,5,2,0:0:0:0:
152,120,187440,2,0,P|200:112|240:96,1,80,0|2,0:0|0:0,0:0:0:0:
256,24,188040,2,0,P|304:32|344:48,1,80,0|4,0:0|0:0,0:0:0:0:
400,96,188640,1,0,0:0:0:0:
440,168,188940,1,0,0:0:0:0:
416,248,189240,6,0,L|336:256,1,80,4|4,1:2|1:2,0:0:0:0:
256,240,189840,2,0,L|176:248,1,80,4|4,1:2|1:2,0:0:0:0:
136,320,190440,2,0,P|96:264|136:176,2,160,4|4|4,1:2|1:2|0:0,0:0:0:0:
216,320,191940,5,2,0:0:0:0:
296,320,192240,1,0,0:0:0:0:
376,320,192540,1,2,0:0:0:0:
448,280,192840,2,0,P|464:232|456:192,1,80,0|2,0:0|0:0,0:0:0:0:
411,140,193440,2,0,P|409:100|424:64,1,80,0|0,0:0|0:0,0:0:0:0:
488,16,194040,6,0,P|416:40|336:24,1,160,4|4,1:2|1:2,0:0:0:0:
256,48,194940,1,0,1:2:0:0:
176,23,195240,2,0,P|99:40|24:16,2,160,4|4|4,1:2|1:2|0:0,0:0:0:0:
256,48,196740,5,2,0:0:0:0:
312,112,197040,2,0,P|312:152|296:192,1,80,0|2,0:0|0:0,0:0:0:0:
214,195,197640,2,0,P|199:232|200:272,1,80,0|4,0:0|0:0,0:0:0:0:
256,336,198240,2,0,L|336:344,1,80,0|0,0:0|0:0,0:0:0:0:
400,296,198840,6,0,P|464:272|384:176,1,240,4|0,1:2|1:2,0:0:0:0:
312,144,200040,2,0,P|232:64|200:144,1,240,4|0,1:2|1:2,0:0:0:0:
124,174,201240,6,0,P|35:226|112:296,1,240,4|0,1:2|1:2,0:0:0:0:
176,240,202440,2,0,L|336:240,1,160,0|0,0:0|0:0,0:0:0:0:
401,296,203340,2,0,L|449:296,1,40,0|4,0:0|0:0,0:0:0:0:
504,192,203940,5,2,0:0:0:0:
472,120,204240,1,0,0:0:0:0:
392,120,204540,2,0,L|352:120,1,40,2|4,0:0|0:0,0:0:0:0:
296,16,205140,5,2,0:0:0:0:
216,16,205440,1,0,0:0:0:0:
256,88,205740,2,0,L|256:128,1,40,2|4,0:0|0:0,0:0:0:0:
152,192,206340,5,2,0:0:0:0:
80,152,206640,1,0,0:0:0:0:
80,232,206940,2,0,L|80:280,1,40,2|4,0:0|0:0,0:0:0:0:
176,344,207540,6,0,P|232:328|256:328,1,80,4|4,0:0|0:0,0:0:0:0:
336,344,208140,2,0,L|376:344,1,40,0|4,0:0|0:0,0:0:0:0:
472,272,208740,5,2,0:0:0:0:
496,192,209040,1,0,0:0:0:0:
472,112,209340,2,0,L|472:72,1,40,2|4,0:0|0:0,0:0:0:0:
360,112,209940,5,2,0:0:0:0:
384,192,210240,1,0,0:0:0:0:
360,272,210540,2,0,L|360:312,1,40,2|4,0:0|0:0,0:0:0:0:
248,272,211140,5,2,0:0:0:0:
272,192,211440,1,0,0:0:0:0:
248,112,211740,1,2,0:0:0:0:
176,72,212040,6,0,P|145:67|88:72,1,80,4|4,0:0|0:0,0:0:0:0:
120,152,212640,2,0,P|89:158|40:176,1,80,4|0,0:0|0:0,0:0:0:0:
40,216,213090,6,0,P|48:280|176:304,1,200,4|0,0:0|0:0,0:0:0:0:
120,240,214140,2,0,L|168:216,1,40,0|2,0:0|0:0,0:0:0:0:
236,232,214590,2,0,L|276:232,1,40,0|0,0:0|0:0,0:0:0:0:
356,222,215040,2,0,L|392:240,1,40,0|0,0:0|0:0,0:0:0:0:
347,312,215490,6,0,P|441:305|472:216,1,200
424,152,216540,2,0,L|432:112,1,40,0|4,0:0|0:0,0:0:0:0:
384,48,216990,2,0,L|392:8,1,40,0|4,0:0|0:0,0:0:0:0:
312,8,217440,2,0,P|232:24|200:8,1,120,0|4,0:0|0:0,0:0:0:0:
216,120,221490,6,0,P|256:48|296:120,1,200,4|0,0:0|0:0,0:0:0:0:
256,192,222540,2,0,L|256:232,1,40,0|4,0:0|0:0,0:0:0:0:
112,376,223440,6,0,P|88:328|88:256,1,120,8|2,0:0|0:0,0:0:0:0:
200,96,224640,2,0,P|232:80|312:96,1,120,8|2,0:0|0:0,0:0:0:0:
425,262,225840,6,0,P|425:322|400:376,2,120,8|4|4,0:0|0:0|0:0,0:0:0:0:
384,192,227040,1,8,0:0:0:0:
425,121,227340,2,0,L|416:72,1,40,0|4,0:0|0:0,0:0:0:0:
360,24,227790,6,0,P|312:16|256:56,2,120,0|8|2,0:0|0:0|0:0,0:0:0:0:
464,192,229440,2,0,P|444:247|391:272,1,120,8|2,0:0|0:0,0:0:0:0:
256,120,230640,6,0,P|208:112|128:136,2,120,8|4|4,0:0|0:0|0:0,0:0:0:0:
328,160,231840,1,8,0:0:0:0:
368,232,232140,2,0,L|368:280,1,40,0|4,0:0|0:0,0:0:0:0:
352,352,232590,1,0,0:0:0:0:
232,320,233040,6,0,P|192:296|176:216,1,120,8|2,0:0|0:0,0:0:0:0:
200,32,234240,2,0,B|256:53|256:53|312:32,1,120,8|0,0:0|0:0,0:0:0:0:
339,228,235440,6,0,P|327:285|280:320,2,120,8|4|4,0:0|0:0|0:0,0:0:0:0:
256,240,236640,1,8,0:0:0:0:
256,160,236940,2,0,L|256:120,1,40,0|4,0:0|0:0,0:0:0:0:
256,40,237390,1,0,0:0:0:0:
144,80,237840,6,0,P|96:88|40:144,1,120,8|2,0:0|0:0,0:0:0:0:
144,304,239040,2,0,P|96:296|40:240,1,120,8|2,0:0|0:0,0:0:0:0:
256,192,240240,6,0,L|392:192,2,120,8|4|4,0:0|0:0|0:0,0:0:0:0:
192,248,241440,2,0,P|176:216|192:136,1,120,8|0,0:0|0:0,0:0:0:0:
504,192,243090,6,0,B|454:201|414:201|404:142|364:142|314:152,1,200,0|4,0:0|0:0,0:0:0:0:
256,256,244290,2,0,L|256:336,1,80,0|0,0:0|0:0,0:0:0:0:
40,248,245490,6,0,B|19:192|19:192|40:136,1,120,4|4,0:0|0:0,0:0:0:0:
120,136,246240,2,0,B|141:192|141:192|120:248,1,120,0|0,0:0|0:0,0:0:0:0:
256,360,247890,6,0,P|368:328|440:360,1,200,0|4,0:0|0:0,0:0:0:0:
512,264,249090,2,0,L|512:176,1,80,0|0,0:0|0:0,0:0:0:0:
336,24,250290,6,0,B|344:64|344:64|296:128,1,120,4|4,0:0|0:0,0:0:0:0:
216,128,251040,2,0,B|168:64|168:64|176:24,1,120,0|0,0:0|0:0,0:0:0:0:
8,192,252690,6,0,B|57:182|97:182|107:241|147:241|197:231,1,200,0|4,0:0|0:0,0:0:0:0:
256,128,253890,2,0,L|256:48,1,80,0|0,0:0|0:0,0:0:0:0:
472,136,255090,6,0,B|493:192|493:192|472:248,1,120,4|4,0:0|0:0,0:0:0:0:
392,248,255840,2,0,B|371:192|371:192|392:136,1,120,0|0,0:0|0:0,0:0:0:0:
256,24,257490,6,0,P|144:56|72:24,1,200,0|4,0:0|0:0,0:0:0:0:
0,120,258690,2,0,L|0:208,1,80,0|0,0:0|0:0,0:0:0:0:
176,360,259890,6,0,B|168:320|168:320|216:256,1,120,4|4,0:0|0:0,0:0:0:0:
296,256,260640,2,0,B|344:320|344:320|336:360,1,120,0|4,0:0|0:0,0:0:0:0:
256,176,261840,6,0,B|240:112|272:128|256:56,1,120,8|2,0:0|0:0,0:0:0:0:
104,184,263040,2,0,P|104:224|160:288,1,120,8|0,0:0|0:0,0:0:0:0:
360,284,264240,6,0,P|401:242|408:184,2,120,8|4|4,0:0|0:0|0:0,0:0:0:0:
328,208,265440,2,0,P|334:149|375:107,1,120,8|2,0:0|0:0,0:0:0:0:
456,112,266190,1,0,0:0:0:0:
376,24,266640,6,0,L|256:24,1,120,8|2,0:0|0:0,0:0:0:0:
144,192,267840,2,0,L|24:192,1,120,8|2,0:0|0:0,0:0:0:0:
196,292,269040,6,0,L|316:292,2,120,8|4|4,0:0|0:0|0:0,0:0:0:0:
196,372,270240,2,0,L|316:372,1,120,8|4,0:0|0:0,0:0:0:0:
388,332,270990,1,0,0:0:0:0:
360,208,271440,6,0,P|357:172|304:111,2,120,8|4|0,0:0|0:0|0:0,0:0:0:0:
311,291,272640,2,0,P|279:307|199:291,1,120,8|4,0:0|0:0,0:0:0:0:
151,208,273390,6,0,P|153:172|207:111,1,120,0|8,0:0|0:0,0:0:0:0:
256,40,274140,2,0,L|256:0,1,40,2|4,0:0|0:0,0:0:0:0:
376,16,274740,2,0,L|376:96,1,80,0|8,0:0|0:0,0:0:0:0:
256,192,275640,6,0,L|256:280,2,80,4|0|12,0:0|0:0|0:0,0:0:0:0:
136,96,276840,2,0,L|136:16,2,80,4|4|12,0:0|0:0|0:0,0:0:0:0:
171,252,278040,6,0,P|246:292|358:209,1,240,4|0,0:0|0:0,0:0:0:0:
340,131,279240,2,0,P|233:93|153:174,1,240,4|0,0:0|0:0,0:0:0:0:
152,216,280290,2,0,L|152:296,1,80,2|0,0:0|0:0,0:0:0:0:
200,191,284640,6,0,P|255:172|311:191,1,120,0|0,0:0|0:0,0:0:0:0:
256,192,285240,12,0,287940,0:0:0:0:
256,64,290040,6,0,P|288:48|336:48,1,80,4|2,0:0|0:0,0:0:0:0:
392,104,290640,2,0,P|424:120|472:120,1,80,0|2,0:0|0:0,0:0:0:0:
512,192,291240,1,0,0:0:0:0:
432,216,291540,1,4,0:0:0:0:
392,288,291840,2,0,L|304:280,1,80,0|0,0:0|0:0,0:0:0:0:
256,224,292440,6,0,L|168:232,1,80,4|4,1:2|1:2,0:0:0:0:
104,192,293040,2,0,L|16:200,2,80,4|4|4,1:2|1:2|1:2,0:0:0:0:
176,152,293940,1,4,1:2:0:0:
256,136,294240,2,0,P|320:144|400:192,1,160,4|4,1:2|0:0,0:0:0:0:
440,264,295140,5,2,0:0:0:0:
360,264,295440,2,0,P|312:272|272:288,1,80,0|2,0:0|0:0,0:0:0:0:
256,360,296040,2,0,P|208:352|168:336,1,80,0|4,0:0|0:0,0:0:0:0:
112,288,296640,1,0,0:0:0:0:
72,216,296940,1,0,0:0:0:0:
96,136,297240,6,0,L|176:128,1,80,4|4,1:2|1:2,0:0:0:0:
256,144,297840,2,0,L|336:136,1,80,4|4,1:2|1:2,0:0:0:0:
376,64,298440,2,0,P|416:120|376:208,2,160,4|4|4,1:2|1:2|0:0,0:0:0:0:
296,64,299940,5,2,0:0:0:0:
216,64,300240,1,0,0:0:0:0:
136,64,300540,1,2,0:0:0:0:
64,104,300840,2,0,P|48:152|56:192,1,80,0|4,0:0|0:0,0:0:0:0:
101,244,301440,2,0,P|103:284|88:320,1,80,0|0,0:0|0:0,0:0:0:0:
24,368,302040,6,0,P|96:344|176:360,1,160,4|4,1:2|1:2,0:0:0:0:
256,336,302940,1,4,1:2:0:0:
336,361,303240,2,0,P|413:344|488:368,2,160,4|4|4,1:2|1:2|0:0,0:0:0:0:
256,336,304740,5,2,0:0:0:0:
200,272,305040,2,0,P|200:232|216:192,1,80,0|2,0:0|0:0,0:0:0:0:
298,189,305640,2,0,P|313:152|312:112,1,80,0|4,0:0|0:0,0:0:0:0:
256,48,306240,2,0,L|176:40,1,80,0|0,0:0|0:0,0:0:0:0:
112,88,306840,6,0,P|48:112|128:208,1,240,4|4,1:2|1:2,0:0:0:0:
200,240,308040,2,0,P|280:320|312:240,1,240,4|4,1:2|1:2,0:0:0:0:
388,210,309240,6,0,P|477:158|400:88,1,240,4|4,1:2|1:2,0:0:0:0:
336,144,310440,2,0,L|176:144,1,160,0|0,0:0|0:0,0:0:0:0:
111,88,311340,2,0,L|63:88,1,40,0|4,0:0|0:0,0:0:0:0:
8,192,311940,5,2,0:0:0:0:
40,264,312240,1,0,0:0:0:0:
120,264,312540,2,0,L|160:264,1,40,2|4,0:0|0:0,0:0:0:0:
216,368,313140,5,2,0:0:0:0:
296,368,313440,1,0,0:0:0:0:
256,296,313740,2,0,L|256:256,1,40,2|4,0:0|0:0,0:0:0:0:
360,192,314340,5,2,0:0:0:0:
432,232,314640,1,0,0:0:0:0:
432,152,314940,2,0,L|432:104,1,40,2|4,0:0|0:0,0:0:0:0:
336,40,315540,6,0,P|280:56|256:56,1,80,4|4,0:0|0:0,0:0:0:0:
176,40,316140,2,0,L|136:40,1,40,0|4,0:0|0:0,0:0:0:0:
40,112,316740,5,2,0:0:0:0:
16,192,317040,1,0,0:0:0:0:
40,272,317340,2,0,L|40:312,1,40,2|4,0:0|0:0,0:0:0:0:
152,272,317940,5,2,0:0:0:0:
128,192,318240,1,0,0:0:0:0:
152,112,318540,2,0,L|152:72,1,40,2|4,0:0|0:0,0:0:0:0:
264,112,319140,5,2,0:0:0:0:
240,192,319440,1,0,0:0:0:0:
264,272,319740,1,2,0:0:0:0:
336,312,320040,6,0,P|367:317|424:312,1,80,4|4,0:0|0:0,0:0:0:0:
392,232,320640,2,0,P|423:226|472:208,1,80,4|0,0:0|0:0,0:0:0:0:
472,168,321090,6,0,P|464:104|336:80,1,200,4|0,0:0|0:0,0:0:0:0:
392,144,322140,2,0,L|344:168,1,40,0|4,0:0|0:0,0:0:0:0:
276,152,322590,2,0,L|236:152,1,40,0|0,0:0|0:0,0:0:0:0:
156,162,323040,2,0,L|120:144,1,40,0|0,0:0|0:0,0:0:0:0:
165,72,323490,6,0,P|71:79|40:168,1,200,4|0,0:0|0:0,0:0:0:0:
88,232,324540,2,0,L|80:272,1,40,0|4,0:0|0:0,0:0:0:0:
128,336,324990,2,0,L|120:376,1,40,0|4,0:0|0:0,0:0:0:0:
200,376,325440,1,4,0:0:0:0:
256,316,325740,1,0,0:0:0:0:
312,376,326040,6,0,P|352:336|416:304,1,120,4|0,0:0|0:0,0:0:0:0:
448,195,326940,2,0,P|422:145|411:74,1,120,0|0,0:0|0:0,0:0:0:0:
318,10,327840,6,0,P|262:19|192:7,1,120,0|0,0:0|0:0,0:0:0:0:
102,76,328740,2,0,P|93:131|60:195,1,120,0|0,0:0|0:0,0:0:0:0:
98,302,329640,6,0,B|136:312|168:336|200:376|200:376|240:368,1,160,0|0,0:0|0:0,0:0:0:0:
384,328,330840,6,0,B|416:272|416:272|384:216,1,120,0|0,0:0|0:0,0:0:0:0:
424,112,331740,2,0,B|381:64|381:64|318:77,1,120,0|0,0:0|0:0,0:0:0:0:
232,6,332640,2,0,B|173:33|173:33|166:97,1,120,0|0,0:0|0:0,0:0:0:0:
72,157,333540,2,0,B|79:221|79:221|138:247,2,120,0|0|0,0:0|0:0|0:0,0:0:0:0:
360,296,335640,6,0,L|480:312,1,120,4|4,0:0|0:0,0:0:0:0:
472,192,336540,2,0,L|352:176,1,120,4|4,0:0|0:0,0:0:0:0:
312,64,337440,6,0,B|256:86|256:86|200:64,1,120,4|4,0:0|0:0,0:0:0:0:
158,176,338340,2,0,L|40:192,1,120,4|4,0:0|0:0,0:0:0:0:
33,311,339240,6,0,L|116:301,1,80,4|4,0:0|0:0,0:0:0:0:
184,344,339840,2,0,L|266:333,1,80,4|4,0:0|0:0,0:0:0:0:
320,272,340440,6,0,P|360:280|360:144,1,240,4|4,0:0|1:2,0:0:0:0:
280,160,341640,2,0,P|248:160|200:144,1,80,0|0,0:0|0:0,0:0:0:0:
168,72,342240,6,0,L|72:56,1,80,4|0,0:0|0:0,0:0:0:0:
32,120,342840,1,0,0:0:0:0:
72,192,343140,1,4,1:2:0:0:
32,264,343440,5,0,0:0:0:0:
89,325,343740,2,0,L|168:312,1,80,4|0,1:2|0:0,0:0:0:0:
240,352,344340,2,0,L|320:368,2,80,0|4|4,0:0|1:2|1:2,0:0:0:0:
256,272,345240,6,0,P|304:272|328:112,1,240,4|4,1:2|1:2,0:0:0:0:
256,112,346434,2,0,P|208:112|184:272,1,240,4|4,1:2|1:2,0:0:0:0:
256,272,347604,6,0,L|336:288,2,80,4|4|4,1:2|1:2|1:2,0:0:0:0:
175,291,348482,1,4,1:2:0:0:
96,272,348775,2,0,P|88:232|96:192,1,80,4|4,1:2|1:2,0:0:0:0:
144,128,349390,2,0,P|151:88|143:49,1,80,4|4,1:2|1:2,0:0:0:0:
64,24,350005,5,4,1:2:0:0:
0,128,350455,1,0,0:0:0:0:
0,256,350905,1,0,0:0:0:0:
64,360,351355,1,0,0:0:0:0:
168,296,351805,6,0,P|192:232|192:168,1,120,4|4,1:2|1:2,0:0:0:0:
318,180,352716,2,0,P|321:240|344:296,1,120,4|0,1:2|0:0,0:0:0:0:
