osu file format v14

[General]
AudioFilename: Linkin Park - Guilty All The Same (ft. Rakim).mp3
AudioLeadIn: 0
PreviewTime: 141990
Countdown: 0
SampleSet: Normal
StackLeniency: 0.7
Mode: 0
LetterboxInBreaks: 0
WidescreenStoryboard: 0

[Editor]
DistanceSpacing: 1.4
BeatDivisor: 4
GridSize: 8
TimelineZoom: 1.5

[Metadata]
Title:Guilty All The Same (feat. Rakim)
TitleUnicode:Guilty All The Same (feat. Rakim)
Artist:Linkin Park
ArtistUnicode:Linkin Park
Creator:384059043
Version:ADVANCED
Source:
Tags:marathon lp The Hunting Party nu metal alternative rap Crystal [_Crystal]
BeatmapID:999182
BeatmapSetID:342472

[Difficulty]
HPDrainRate:4
CircleSize:4
OverallDifficulty:5.8
ApproachRate:7.3
SliderMultiplier:1.08
SliderTickRate:1

[Events]
//Background and Video events
0,0,"bg.jpg",0,0
//Break Periods
2,19039,22636
2,57440,63586
2,143940,149986
2,218340,220636
2,280790,283786
//Storyboard Layer 0 (Background)
//Storyboard Layer 1 (Fail)
//Storyboard Layer 2 (Pass)
//Storyboard Layer 3 (Foreground)
//Storyboard Sound Samples

[TimingPoints]
90,300,4,2,0,60,1,0
1290,-100,4,2,0,40,0,0
9240,-100,4,1,0,40,0,0
9540,-100,4,1,0,45,0,0
9690,-100,4,1,0,55,0,0
10140,-100,4,1,0,60,0,0
10215,-100,4,2,0,20,0,0
10890,-100,4,1,0,60,0,0
15990,-100,4,2,0,30,0,0
16140,-100,4,1,0,60,0,0
16440,-100,4,2,0,30,0,0
16590,-100,4,1,0,60,0,0
16890,-100,4,2,0,30,0,0
17040,-100,4,1,0,60,0,0
17340,-100,4,2,0,30,0,0
17490,-100,4,1,0,60,0,0
17565,-100,4,2,0,30,0,0
17790,-100,4,2,0,30,0,0
17940,-100,4,1,0,60,0,0
18015,-100,4,2,0,30,0,0
18240,-100,4,2,0,30,0,0
18390,-100,4,1,0,60,0,0
18840,300,4,1,0,60,1,0
23490,-100,4,1,0,30,0,0
23640,-100,4,3,0,60,0,0
38040,-100,4,2,0,60,0,0
38190,-100,4,3,0,60,0,0
39690,-100,4,1,0,60,0,0
39840,-100,4,3,0,60,0,0
41640,-100,4,2,0,60,0,0
41790,-100,4,3,0,60,0,0
42090,-100,4,1,0,80,0,0
42840,-100,4,2,0,70,0,0
42990,-100,4,3,0,70,0,0
46440,-100,4,2,0,70,0,0
46740,-100,4,1,0,70,0,0
47040,-100,4,2,0,70,0,0
47340,-100,4,1,0,70,0,0
47640,-100,4,2,0,75,0,0
47940,-100,4,1,0,75,0,0
48540,-100,4,2,0,75,0,0
48840,-100,4,1,0,75,0,0
49440,-83.3333333333333,4,2,0,75,0,0
49740,-100,4,1,0,75,0,0
50340,-100,4,2,0,75,0,0
50640,-100,4,1,0,75,0,0
51240,-100,4,2,0,75,0,0
51540,-100,4,1,0,75,0,0
51840,-100,4,2,0,75,0,0
52140,-100,4,1,0,75,0,0
52440,-100,4,2,0,80,0,0
52740,-100,4,1,0,80,0,0
53340,-100,4,2,0,80,0,0
53640,-100,4,1,0,80,0,0
54240,-100,4,2,0,80,0,0
54540,-100,4,1,0,80,0,0
55140,-100,4,2,0,80,0,0
55440,-100,4,1,0,80,0,0
56040,-100,4,2,0,80,0,0
56190,-100,4,1,0,80,0,0
56940,-100,4,1,0,60,0,0
57240,-100,4,2,0,60,0,0
64440,-100,4,2,0,60,0,0
66240,-100,4,1,0,70,0,0
66840,-100,4,2,0,60,0,0
67590,-100,4,1,0,60,0,0
67740,-100,4,2,0,60,0,0
68040,-100,4,1,0,60,0,0
68190,-100,4,2,0,60,0,0
68490,-100,4,1,0,60,0,0
68640,-100,4,2,0,60,0,0
68940,-100,4,1,0,60,0,0
69090,-100,4,2,0,60,0,0
69390,-100,4,1,0,60,0,0
69540,-100,4,2,0,60,0,0
69840,-100,4,1,0,60,0,0
69990,-100,4,2,0,60,0,0
70290,-100,4,1,0,60,0,0
70440,-100,4,2,0,60,0,0
70740,-100,4,1,0,60,0,0
71640,-100,4,2,0,60,0,0
71940,-100,4,1,0,60,0,0
72090,-100,4,2,0,60,0,0
72390,-100,4,1,0,60,0,0
72540,-100,4,2,0,60,0,0
72840,-100,4,1,0,60,0,0
72990,-100,4,2,0,60,0,0
73290,-100,4,1,0,60,0,0
74190,-100,4,2,0,60,0,0
76440,-100,4,2,0,80,0,0
76740,-100,4,1,0,80,0,0
76890,-100,4,2,0,80,0,0
77340,-100,4,1,0,80,0,0
77490,-100,4,2,0,80,0,0
77940,-100,4,1,0,80,0,0
78090,-100,4,2,0,80,0,0
78540,-100,4,1,0,80,0,0
78690,-100,4,2,0,80,0,0
79140,-100,4,1,0,80,0,0
79290,-100,4,2,0,80,0,0
79740,-100,4,1,0,80,0,0
79890,-100,4,2,0,80,0,0
80340,-100,4,1,0,80,0,0
80490,-100,4,2,0,80,0,0
80940,-100,4,1,0,80,0,0
81090,-100,4,2,0,80,0,0
81540,-100,4,1,0,80,0,0
81690,-100,4,2,0,80,0,0
82140,-100,4,1,0,80,0,0
82290,-100,4,2,0,80,0,0
82740,-100,4,1,0,80,0,0
82890,-100,4,2,0,80,0,0
83340,-100,4,1,0,80,0,0
83490,-100,4,2,0,80,0,0
83640,-100,4,2,0,80,0,0
86340,-100,4,1,0,80,0,0
86490,-100,4,2,0,80,0,0
86940,-100,4,1,0,80,0,0
87090,-100,4,2,0,80,0,0
87540,-100,4,1,0,80,0,0
87690,-100,4,2,0,80,0,0
88140,-100,4,1,0,80,0,0
88290,-100,4,2,0,80,0,0
88740,-100,4,1,0,80,0,0
88890,-100,4,2,0,80,0,0
89340,-100,4,1,0,80,0,0
89490,-100,4,2,0,80,0,0
89940,-100,4,1,0,80,0,0
90090,-100,4,2,0,80,0,0
90615,-100,4,1,0,80,0,0
90840,-100,4,2,0,80,0,0
91140,-100,4,1,0,80,0,0
91290,-100,4,2,0,80,0,0
91740,-100,4,1,0,80,0,0
91890,-100,4,2,0,80,0,0
92340,-100,4,1,0,80,0,0
92490,-100,4,2,0,80,0,0
92940,-100,4,1,0,80,0,0
93090,-100,4,2,0,80,0,0
95340,-100,4,1,0,80,0,0
95640,-100,4,2,0,60,0,0
95940,-100,4,3,0,60,0,0
99840,-100,4,1,0,60,0,0
100440,-100,4,3,0,60,0,0
105240,-100,4,2,0,60,0,0
105390,-100,4,3,0,60,0,0
109440,-100,4,1,0,60,0,0
110040,-100,4,3,0,60,0,0
119340,-100,4,1,0,60,0,0
119640,-100,4,2,0,60,0,0
119790,-100,4,3,0,60,0,0
120090,-100,4,1,0,60,0,0
120240,-100,4,3,0,60,0,0
120540,-100,4,1,0,60,0,0
120690,-100,4,3,0,60,0,0
120990,-100,4,1,0,60,0,0
121140,-100,4,3,0,60,0,0
121440,-100,4,1,0,60,0,0
124440,-100,4,3,0,20,0,0
126840,-100,4,3,0,30,0,0
129240,-100,4,3,0,40,0,0
131640,-100,4,3,0,50,0,0
132840,-100,4,3,0,60,0,0
134040,-100,4,2,0,60,0,0
140190,-100,4,1,0,60,0,0
143340,-100,4,2,0,60,0,0
143640,-100,4,2,0,80,0,0
153240,-100,4,2,0,60,0,0
161940,-100,4,1,0,60,0,0
162090,-100,4,2,0,60,0,0
162240,-100,4,1,0,60,0,0
162315,-100,4,2,0,60,0,0
162390,-100,4,1,0,60,0,0
162465,-100,4,2,0,60,0,0
162540,-100,4,1,0,60,0,0
162615,-100,4,2,0,60,0,0
162690,-100,4,1,0,60,0,0
162765,-100,4,2,0,60,0,0
171840,-100,4,1,0,60,0,0
179640,-100,4,1,0,80,0,0
182040,-100,4,2,0,80,0,1
183840,-100,4,1,0,80,0,1
184440,-100,4,2,0,80,0,1
188640,-100,4,1,0,80,0,1
189240,-100,4,2,0,80,0,1
193440,-100,4,1,0,80,0,1
194040,-100,4,2,0,80,0,1
198240,-100,4,1,0,80,0,1
198840,-100,4,2,0,80,0,1
202440,-100,4,2,0,80,0,0
203490,-100,4,2,0,80,0,1
203940,-100,4,2,0,80,0,1
204690,-100,4,2,0,80,0,1
205140,-100,4,2,0,80,0,1
205890,-100,4,2,0,80,0,1
206340,-100,4,2,0,80,0,1
213390,-100,4,2,0,80,0,0
213840,-100,4,1,0,80,0,0
213990,-100,4,2,0,80,0,0
215040,-100,4,1,0,80,0,0
215640,-100,4,2,0,80,0,0
216240,-100,4,1,0,80,0,0
216690,-100,4,2,0,80,0,0
217440,-100,4,1,0,80,0,0
217890,-100,4,2,0,80,0,1
218340,-100,4,2,0,80,0,0
221490,-100,4,2,0,60,0,0
222240,-100,4,1,0,60,0,0
222690,-100,4,2,0,60,0,0
223440,-100,4,1,0,60,0,0
223590,-100,4,2,0,60,0,0
224640,-100,4,1,0,60,0,0
224790,-100,4,2,0,60,0,0
225840,-100,4,1,0,60,0,0
225990,-100,4,2,0,60,0,0
227040,-100,4,1,0,60,0,0
227490,-100,4,2,0,60,0,0
228240,-100,4,1,0,60,0,0
228390,-100,4,2,0,60,0,0
229440,-100,4,1,0,60,0,0
229590,-100,4,2,0,60,0,0
230640,-100,4,1,0,60,0,0
230790,-100,4,2,0,60,0,0
231840,-100,4,1,0,60,0,0
232290,-100,4,2,0,60,0,0
233040,-100,4,1,0,60,0,0
233190,-100,4,2,0,60,0,0
234240,-100,4,1,0,60,0,0
234390,-100,4,2,0,60,0,0
235440,-100,4,1,0,60,0,0
235590,-100,4,2,0,60,0,0
236640,-100,4,1,0,60,0,0
237090,-100,4,2,0,60,0,0
237840,-100,4,1,0,60,0,0
237990,-100,4,2,0,60,0,0
239040,-100,4,1,0,60,0,0
239190,-100,4,2,0,60,0,0
240240,-100,4,1,0,60,0,0
240390,-100,4,2,0,60,0,0
241440,-100,4,1,0,60,0,0
241890,-100,4,2,0,60,0,0
243090,-125,4,2,0,60,0,0
245490,-125,4,2,0,60,0,0
246240,-125,4,1,0,60,0,0
246690,-125,4,2,0,60,0,0
247890,-125,4,2,0,60,0,0
250290,-125,4,2,0,60,0,0
251040,-125,4,1,0,60,0,0
251490,-125,4,2,0,60,0,0
252690,-125,4,2,0,60,0,0
255090,-125,4,2,0,60,0,0
255840,-125,4,1,0,60,0,0
256290,-125,4,2,0,60,0,0
257490,-125,4,2,0,60,0,0
259890,-125,4,2,0,60,0,0
260640,-125,4,1,0,60,0,0
261090,-100,4,2,0,60,0,0
261840,-100,4,1,0,60,0,0
261990,-100,4,2,0,60,0,0
263040,-100,4,1,0,60,0,0
263190,-100,4,2,0,60,0,0
264240,-100,4,1,0,60,0,0
264390,-100,4,2,0,60,0,0
265440,-100,4,1,0,60,0,0
265890,-100,4,2,0,60,0,0
266640,-100,4,1,0,60,0,0
266790,-100,4,2,0,60,0,0
267840,-100,4,1,0,60,0,0
267990,-100,4,2,0,60,0,0
269040,-100,4,1,0,60,0,0
269190,-100,4,2,0,60,0,0
270240,-100,4,1,0,60,0,0
274140,-100,4,2,0,60,0,0
274290,-100,4,1,0,60,0,0
280290,-100,4,2,0,40,0,0
284640,-100,4,1,0,60,0,0
288840,-100,4,2,0,60,0,0
290040,-100,4,2,0,80,0,1
291840,-100,4,1,0,80,0,1
292440,-100,4,2,0,80,0,1
296640,-100,4,1,0,80,0,1
297240,-100,4,2,0,80,0,1
301440,-100,4,1,0,80,0,1
302040,-100,4,2,0,80,0,1
306240,-100,4,1,0,80,0,1
306840,-100,4,2,0,80,0,1
310440,-100,4,2,0,80,0,0
311490,-100,4,2,0,80,0,1
321090,-100,4,2,0,80,0,1
321390,-100,4,2,0,80,0,0
321540,-100,4,2,0,80,0,0
322290,-100,4,3,0,80,0,0
322440,-100,4,2,0,80,0,0
323490,-100,4,3,0,80,0,0
323640,-100,4,2,0,80,0,0
326040,-100,4,2,0,80,0,1
326490,-100,4,1,0,80,0,1
326565,-100,4,2,0,80,0,1
326940,-100,4,1,0,80,0,1
327015,-100,4,2,0,80,0,1
327390,-100,4,1,0,80,0,1
327465,-100,4,2,0,80,0,1
327840,-100,4,1,0,80,0,1
327915,-100,4,2,0,80,0,1
328290,-100,4,1,0,80,0,1
328365,-100,4,2,0,80,0,1
328740,-100,4,1,0,80,0,1
328815,-100,4,2,0,80,0,1
329190,-100,4,1,0,80,0,1
329265,-100,4,2,0,80,0,1
329640,-100,4,1,0,80,0,1
329715,-100,4,2,0,80,0,1
329790,-100,4,1,0,80,0,1
329865,-100,4,2,0,80,0,1
330240,-100,4,1,0,80,0,1
330315,-100,4,2,0,80,0,1
330540,-100,4,1,0,80,0,1
330615,-100,4,2,0,80,0,1
330690,-100,4,1,0,80,0,1
330765,-100,4,2,0,80,0,1
330840,-100,4,1,0,80,0,1
330915,-100,4,2,0,80,0,1
331290,-100,4,1,0,80,0,1
331365,-100,4,2,0,80,0,1
331740,-100,4,1,0,80,0,1
331815,-100,4,2,0,80,0,1
332190,-100,4,1,0,80,0,1
332265,-100,4,2,0,80,0,1
332640,-100,4,1,0,80,0,1
332715,-100,4,2,0,80,0,1
333090,-100,4,1,0,80,0,1
333165,-100,4,2,0,80,0,1
333240,-100,4,1,0,80,0,1
334440,-100,4,2,0,80,0,0
335640,-100,4,2,0,80,0,1
340740,-100,4,1,0,80,0,1
340890,-100,4,2,0,80,0,1
341340,-100,4,1,0,80,0,1
341490,-100,4,2,0,80,0,1
341940,-100,4,1,0,80,0,1
342090,-100,4,2,0,80,0,1
342540,-100,4,1,0,80,0,1
342690,-100,4,2,0,80,0,1
343140,-100,4,1,0,80,0,1
343215,-100,4,2,0,80,0,1
343740,-100,4,1,0,80,0,1
343815,-100,4,2,0,80,0,1
344040,-100,4,1,0,80,0,1
344190,-100,4,2,0,80,0,1
344340,-100,4,1,0,80,0,1
344490,-100,4,2,0,80,0,1
344640,-100,4,1,0,80,0,1
344715,-100,4,2,0,80,0,1
344940,-100,4,1,0,80,0,1
345015,-100,4,2,0,80,0,1
345240,298.507462686567,4,1,0,80,1,1
345314,-100,4,2,0,80,0,1
345538,-100,4,1,0,80,0,1
345613,-100,4,2,0,80,0,1
345837,-100,4,1,0,80,0,1
345911,-100,4,2,0,80,0,1
346135,-100,4,1,0,80,0,1
346210,-100,4,2,0,80,0,1
346434,292.682926829268,4,1,0,80,1,1
346507,-100,4,2,0,80,0,1
346726,-100,4,1,0,80,0,1
346799,-100,4,2,0,80,0,1
347019,-100,4,1,0,80,0,1
347092,-100,4,2,0,80,0,1
347312,-100,4,1,0,80,0,1
347385,-100,4,2,0,80,0,1
347604,-100,4,1,0,80,0,1
347677,-100,4,2,0,80,0,1
347897,-100,4,1,0,80,0,1
347970,-100,4,2,0,80,0,1
348190,-100,4,1,0,80,0,1
348263,-100,4,2,0,80,0,1
348482,-100,4,1,0,80,0,1
348555,-100,4,2,0,80,0,1
348775,307.692307692308,4,1,0,80,1,1
348851,-100,4,2,0,80,0,1
349082,-100,4,1,0,80,0,1
349159,-100,4,2,0,80,0,1
349390,-100,4,1,0,80,0,1
349467,-100,4,2,0,80,0,1
349698,-100,4,1,0,80,0,1
349775,-100,4,2,0,80,0,1
350005,300,4,1,0,80,1,1
352255,333.333333333333,4,1,0,80,1,1
352716,300,4,1,0,80,1,1
353166,-100,4,1,0,80,0,0

[Colours]
Combo1 : 207,187,118
Combo2 : 170,105,74
Combo3 : 120,89,54

[HitObjects]
88,8,1290,6,0,P|128:8|176:56,1,108,4|0,0:0|0:0,0:0:0:0:
104,80,1740,2,0,P|64:80|16:128,1,108,4|0,0:0|0:0,0:0:0:0:
88,152,2190,2,0,P|128:152|176:200,1,108,4|0,0:0|0:0,0:0:0:0:
104,224,2640,2,0,P|64:224|16:272,1,108,4|0,0:0|0:0,0:0:0:0:
88,296,3090,6,0,B|128:320|128:320|248:304,1,162,4|4,0:0|0:0,0:0:0:0:
424,88,3990,2,0,B|384:64|384:64|264:80,1,162,4|4,0:0|0:0,0:0:0:0:
72,192,4890,6,0,L|136:168,1,54,4|0,0:0|0:0,0:0:0:0:
168,232,5190,2,0,L|232:208,1,54,4|0,0:0|0:0,0:0:0:0:
293,170,5490,2,0,L|344:152,1,54,4|0,0:0|0:0,0:0:0:0:
389,210,5790,2,0,L|440:192,1,54,4|0,0:0|0:0,0:0:0:0:
448,272,6090,6,0,P|368:264|328:288,1,108,4|0,0:0|0:0,0:0:0:0:
308,344,6540,2,0,P|256:332|204:344,1,108,4|0,0:0|0:0,0:0:0:0:
166,274,6990,2,0,P|115:259|64:272,1,108,4|0,0:0|0:0,0:0:0:0:
8,328,7440,2,0,B|40:296|40:296|32:176,1,162,4|4,0:0|0:0,0:0:0:0:
200,24,8340,6,0,B|168:56|168:56|176:176,1,162,4|0,0:0|0:0,0:0:0:0:
312,360,9240,2,0,B|344:328|344:328|336:208,1,162,0|0,0:0|0:0,0:0:0:0:
392,264,9840,2,0,L|448:272,1,54,0|0,0:0|0:0,0:0:0:0:
479,204,10140,2,0,B|472:88|472:88|504:56,1,162,0|0,0:0|0:0,0:0:0:0:
368,120,10890,6,0,P|320:136|264:120,1,108,4|0,0:0|0:0,0:0:0:0:
232,56,11340,1,0,0:0:0:0:
232,56,11490,2,0,L|120:64,1,108,0|0,0:0|0:0,0:0:0:0:
200,192,12090,1,0,0:0:0:0:
200,192,12240,1,0,0:0:0:0:
124,320,12540,5,0,0:0:0:0:
124,320,12690,2,0,L|232:328,1,108,0|0,0:0|0:0,0:0:0:0:
266,262,13140,2,0,P|317:247|368:264,1,108,0|0,0:0|0:0,0:0:0:0:
424,312,13590,2,0,L|416:192,1,108,0|0,0:0|0:0,0:0:0:0:
440,128,14040,2,0,B|424:96|424:96|432:8,1,108,0|0,0:0|0:0,0:0:0:0:
344,64,14490,5,4,0:0:0:0:
128,104,14790,1,4,0:0:0:0:
168,320,15090,1,4,0:0:0:0:
384,280,15390,1,4,0:0:0:0:
256,192,15690,5,0,0:0:0:0:
128,104,15990,2,0,L|136:48,1,54,0|0,0:0|0:0,0:0:0:0:
344,64,16440,2,0,L|400:72,1,54,0|0,0:0|0:0,0:0:0:0:
384,280,16890,2,0,L|376:336,1,54,0|0,0:0|0:0,0:0:0:0:
128,104,17340,6,0,L|136:48,1,54,0|0,0:0|0:0,0:0:0:0:
384,280,17790,2,0,L|376:336,1,54
208,136,18240,1,0,0:0:0:0:
208,136,18390,2,0,B|200:184|256:192|312:200|304:248,1,162,0|0,0:0|0:0,0:0:0:0:
160,64,23490,5,0,0:0:0:0:
160,64,23640,2,0,P|128:104|72:112,1,108,0|0,0:0|0:0,0:0:0:0:
88,40,24090,2,0,B|112:88|112:88|96:200,1,162,2|2,0:0|0:0,0:0:0:0:
184,320,24840,2,0,L|192:256,1,54,0|2,0:0|0:0,0:0:0:0:
328,320,25290,2,0,L|320:256,1,54,0|2,0:0|0:0,0:0:0:0:
352,64,25740,5,0,0:0:0:0:
352,64,25890,2,0,P|384:104|440:112,1,108,2|0,0:0|0:0,0:0:0:0:
424,40,26340,2,0,B|400:88|400:88|416:200,1,162,2|2,0:0|0:0,0:0:0:0:
256,192,27090,5,0,0:0:0:0:
256,192,27240,1,2,0:0:0:0:
256,80,27540,1,0,0:0:0:0:
368,192,27840,1,2,0:0:0:0:
256,304,28140,1,0,0:0:0:0:
144,192,28440,1,4,0:0:0:0:
40,80,28740,5,0,0:0:0:0:
40,80,28890,2,0,P|88:80|128:120,1,108,2|0,0:0|0:0,0:0:0:0:
192,80,29340,2,0,P|144:80|104:40,1,108,2|0,0:0|0:0,0:0:0:0:
176,8,29790,1,2,0:0:0:0:
296,192,30090,1,0,0:0:0:0:
216,192,30240,5,2,0:0:0:0:
472,80,30540,1,0,0:0:0:0:
472,80,30690,2,0,P|424:80|384:120,1,108,2|0,0:0|0:0,0:0:0:0:
320,80,31140,2,0,P|368:80|408:40,1,108,2|0,0:0|0:0,0:0:0:0:
336,8,31590,1,2,0:0:0:0:
208,88,31890,5,0,0:0:0:0:
208,88,32040,2,0,L|192:210,1,108,2|0,0:0|0:0,0:0:0:0:
370,202,32640,2,0,L|272:128,1,108,0|0,0:0|0:0,0:0:0:0:
189,285,33240,6,0,L|303:237,1,108,4|0,0:0|0:0,0:0:0:0:
370,202,33690,2,0,L|272:128,1,108,2|0,0:0|0:0,0:0:0:0:
208,88,34140,2,0,L|192:210,1,108,2|0,0:0|0:0,0:0:0:0:
189,285,34590,1,2,0:0:0:0:
370,202,34890,5,0,0:0:0:0:
370,202,35040,1,2,0:0:0:0:
208,88,35340,1,0,0:0:0:0:
208,88,35490,1,2,0:0:0:0:
189,285,35790,5,0,0:0:0:0:
136,224,35940,2,0,B|160:200|200:200|224:212|224:212|240:236,1,108,2|0,0:0|0:0,0:0:0:0:
280,160,36390,2,0,B|288:172|288:172|312:184|352:184|376:160,1,108,2|0,0:0|0:0,0:0:0:0:
323,99,36840,5,2,0:0:0:0:
323,99,37140,1,0,0:0:0:0:
256,296,37440,1,0,0:0:0:0:
256,296,37740,1,0,0:0:0:0:
416,216,38040,6,0,L|480:200,2,54,4|0|0,0:0|0:0|0:0,0:0:0:0:
368,280,38490,2,0,L|432:296,2,54,2|0|0,0:0|0:0|0:0,0:0:0:0:
312,336,38940,2,0,L|200:336,1,108,2|2,0:0|0:0,0:0:0:0:
144,280,39390,2,0,L|80:296,1,54,2|0,0:0|0:0,0:0:0:0:
96,216,39690,6,0,L|32:200,1,54,0|2,0:0|0:0,0:0:0:0:
104,64,40140,1,0,0:0:0:0:
128,136,40290,2,0,P|160:120|176:48,1,108,2|0,0:0|0:0,0:0:0:0:
205,126,40740,6,0,P|257:138|309:125,1,108,2|0,0:0|0:0,0:0:0:0:
333,54,41190,2,0,P|340:106|384:136,1,108,2|0,0:0|0:0,0:0:0:0:
408,64,41640,5,4,0:0:0:0:
256,40,41940,2,0,L|256:96,1,54,0|0,0:0|0:0,0:0:0:0:
256,168,42240,2,0,L|256:224,1,54,0|0,0:0|0:0,0:0:0:0:
256,296,42540,2,0,L|256:352,1,54,0|0,0:0|0:0,0:0:0:0:
184,328,42840,6,0,P|144:312|72:320,1,108,4|0,0:0|0:0,0:0:0:0:
80,316,43290,2,0,P|113:289|142:223,1,108,2|0,0:0|0:0,0:0:0:0:
142,232,43740,2,0,P|148:274|191:332,1,108,2|0,0:0|0:0,0:0:0:0:
256,296,44190,1,2,0:0:0:0:
256,296,44490,5,0,0:0:0:0:
327,327,44641,2,0,P|359:284|370:232,1,108,2|0,0:0|0:0,0:0:0:0:
370,231,45090,2,0,P|391:281|432:316,1,108,2|0,0:0|0:0,0:0:0:0:
431,316,45540,2,0,P|378:310|328:328,1,108,2|0,0:0|0:0,0:0:0:0:
256,350,45990,2,0,L|256:296,1,54,2|0,0:0|0:0,0:0:0:0:
256,222,46290,1,0,0:0:0:0:
256,222,46440,6,0,L|256:168,1,54,4|0,0:0|0:0,0:0:0:0:
256,94,46740,2,0,L|256:40,1,54,0|0,0:0|0:0,0:0:0:0:
184,64,47040,1,4,0:0:0:0:
328,64,47340,1,0,0:0:0:0:
192,144,47640,6,0,P|136:152|80:200,1,108,4|0,0:0|0:0,0:0:0:0:
72,256,48090,2,0,L|72:320,2,54,0|0|0,0:0|0:0|0:0,0:0:0:0:
95,181,48540,6,0,P|151:189|207:237,1,108,4|0,0:0|0:0,0:0:0:0:
192,296,48990,2,0,L|192:360,2,54,0|0|0,0:0|0:0|0:0,0:0:0:0:
192,217,49440,6,0,P|280:208|319:218,1,129.599996044922,4|0,0:0|0:0,0:0:0:0:
320,296,49890,2,0,L|320:360,2,54,0|0|0,0:0|0:0|0:0,0:0:0:0:
319,217,50340,6,0,P|363:187|417:181,1,108,4|0,0:0|0:0,0:0:0:0:
440,256,50790,2,0,L|440:320,2,54,0|0|0,0:0|0:0|0:0,0:0:0:0:
417,180,51240,6,0,P|373:150|320:144,1,108,4|0,0:0|0:0,0:0:0:0:
192,239,51840,2,0,P|138:233|94:203,1,108,4|0,0:0|0:0,0:0:0:0:
56,56,52440,5,4,0:0:0:0:
192,120,52740,2,0,L|256:104,1,54,0|0,0:0|0:0,0:0:0:0:
312,144,53040,2,0,L|376:128,1,54,0|0,0:0|0:0,0:0:0:0:
432,168,53340,1,4,0:0:0:0:
320,264,53640,6,0,L|256:280,1,54,0|0,0:0|0:0,0:0:0:0:
200,240,53940,2,0,L|136:256,1,54,0|0,0:0|0:0,0:0:0:0:
80,216,54240,1,4,0:0:0:0:
244,106,54540,6,0,L|192:120,1,54,0|0,0:0|0:0,0:0:0:0:
312,144,54840,2,0,L|376:128,1,54,0|0,0:0|0:0,0:0:0:0:
432,168,55140,1,4,0:0:0:0:
267,277,55440,6,0,L|320:264,1,54,0|0,0:0|0:0,0:0:0:0:
200,240,55740,2,0,L|136:256,1,54,0|0,0:0|0:0,0:0:0:0:
80,216,56040,5,4,0:0:0:0:
178,32,56340,1,0,0:0:0:0:
384,69,56640,1,0,0:0:0:0:
412,276,56940,1,0,0:0:0:0:
224,366,57240,1,4,0:0:0:0:
256,192,64440,12,0,66240,0:0:0:0:
320,88,66840,6,0,P|392:80|384:192,1,216,4|0,0:0|0:0,0:0:0:0:
312,168,67590,2,0,L|200:168,1,108,0|0,0:0|0:0,0:0:0:0:
136,128,68040,6,0,P|104:152|24:136,1,108,0|0,0:0|0:0,0:0:0:0:
80,80,68490,2,0,L|88:192,1,108,0|0,0:0|0:0,0:0:0:0:
160,216,68940,2,0,L|152:328,1,108,0|0,0:0|0:0,0:0:0:0:
104,264,69390,6,0,L|216:256,1,108
300,256,69840,2,0,L|408:264,1,108,0|0,0:0|0:0,0:0:0:0:
359,323,70290,2,0,L|352:216,1,108,0|0,0:0|0:0,0:0:0:0:
424,187,70740,2,0,L|432:80,1,108,0|0,0:0|0:0,0:0:0:0:
368,32,71190,5,0,0:0:0:0:
328,96,71340,1,0,0:0:0:0:
256,120,71490,1,0,0:0:0:0:
184,96,71640,6,0,P|160:88|136:64,1,54,4|0,0:0|0:0,0:0:0:0:
72,48,71940,2,0,P|40:96|48:144,1,108,0|0,0:0|0:0,0:0:0:0:
47,143,72390,2,0,P|68:191|48:239,1,108,0|0,0:0|0:0,0:0:0:0:
47,240,72840,2,0,P|41:293|72:336,1,108,0|0,0:0|0:0,0:0:0:0:
144,352,73290,5,0,0:0:0:0:
216,336,73440,1,0,0:0:0:0:
256,272,73590,1,0,0:0:0:0:
296,336,73740,5,0,0:0:0:0:
368,352,73890,1,0,0:0:0:0:
440,335,74040,2,0,P|470:293|464:240,1,108,0|0,0:0|0:0,0:0:0:0:
256,80,76140,6,0,L|256:136,1,54,0|0,0:0|0:0,0:0:0:0:
304,192,76440,5,4,0:0:0:0:
304,192,76740,2,0,B|344:208|376:208|392:176|424:176|464:192,1,162,0|0,0:0|0:0,0:0:0:0:
424,256,77340,1,0,0:0:0:0:
304,352,77640,5,0,0:0:0:0:
208,192,77940,2,0,B|168:176|136:176|120:208|88:208|48:192,1,162,4|0,1:2|0:0,0:0:0:0:
88,128,78540,1,4,1:2:0:0:
168,264,78840,5,4,0:0:0:0:
168,264,79140,2,0,P|208:272|288:192,1,162,0|0,0:0|0:0,0:0:0:0:
256,128,79740,2,0,L|200:120,1,54,0|0,0:0|0:0,0:0:0:0:
144,72,80040,6,0,P|112:56|32:72,2,108,0|4|0,0:0|1:2|0:0,0:0:0:0:
256,128,80940,2,0,L|312:120,1,54,4|0,1:2|0:0,0:0:0:0:
368,72,81240,5,4,0:0:0:0:
344,264,81540,2,0,P|304:272|224:192,1,162,0|0,0:0|0:0,0:0:0:0:
256,128,82140,2,0,L|312:120,1,54,0|0,0:0|0:0,0:0:0:0:
368,72,82440,6,0,P|400:56|480:72,2,108,0|4|0,0:0|1:2|0:0,0:0:0:0:
256,128,83340,2,0,L|200:120,2,54,4|0|4,1:2|0:0|1:2,0:0:0:0:
392,192,83940,5,4,1:2:0:0:
256,256,84240,1,4,1:2:0:0:
120,192,84540,1,4,1:2:0:0:
176,48,84840,5,4,1:2:0:0:
328,48,85140,1,4,1:2:0:0:
392,192,85440,1,4,1:2:0:0:
328,232,85590,1,0,0:0:0:0:
256,256,85740,1,4,1:2:0:0:
184,232,85890,1,0,0:0:0:0:
120,192,86040,5,4,0:0:0:0:
120,192,86340,2,0,P|64:224|64:320,1,162,0|0,0:0|0:0,0:0:0:0:
120,360,86940,2,0,L|176:352,1,54,0|0,0:0|0:0,0:0:0:0:
256,336,87240,5,0,0:0:0:0:
392,192,87540,2,0,P|448:224|448:320,1,162,4|0,1:2|0:0,0:0:0:0:
392,360,88140,2,0,L|336:352,1,54,4|0,1:2|0:0,0:0:0:0:
256,336,88440,6,0,L|256:224,2,108,4|0|0,0:0|0:0|0:0,0:0:0:0:
173,199,89340,2,0,L|117:191,2,54,0|0|0,0:0|0:0|0:0,0:0:0:0:
339,199,89940,2,0,L|395:191,2,54,4|0|0,1:2|0:0|0:0,0:0:0:0:
256,72,90540,6,0,L|256:8,2,54,4|0|4,0:0|0:0|0:0,0:0:0:0:
256,72,91140,2,0,P|208:104|88:96,1,162,0|0,0:0|0:0,0:0:0:0:
32,80,91740,2,0,L|24:152,1,54,0|0,0:0|0:0,0:0:0:0:
80,192,92040,5,0,0:0:0:0:
80,192,92340,2,0,P|152:200|240:184,1,162,4|0,1:2|0:0,0:0:0:0:
304,136,92940,1,4,1:2:0:0:
392,16,93240,6,0,B|440:40|440:40|448:96,1,108,4|4,1:2|1:2,0:0:0:0:
447,290,93840,2,0,B|440:344|440:344|392:368,1,108,4|4,1:2|1:2,0:0:0:0:
328,320,94290,1,0,0:0:0:0:
256,344,94440,6,0,L|136:328,1,108,4|4,1:2|1:2,0:0:0:0:
216,192,95040,2,0,L|96:176,1,108,4|0,1:2|0:0,0:0:0:0:
32,192,95490,1,0,0:0:0:0:
108,206,95640,6,0,B|216:192|216:192|272:200,2,162,4|2|2,0:0|0:0|0:0,0:0:0:0:
176,344,96840,1,0,0:0:0:0:
176,344,96990,2,0,B|256:328|256:328|336:344,1,162,2|2,0:0|0:0,0:0:0:0:
424,216,97740,1,8,0:0:0:0:
488,168,97890,1,8,0:0:0:0:
404,206,98040,6,0,B|296:192|296:192|240:200,2,162,2|2|2,0:0|0:0|0:0,0:0:0:0:
328,72,99240,1,2,0:0:0:0:
328,72,99390,2,0,P|256:40|184:72,1,162,2|0,0:0|0:0,0:0:0:0:
216,144,99990,1,0,0:0:0:0:
296,144,100140,1,0,0:0:0:0:
256,216,100290,1,0,0:0:0:0:
216,288,100440,6,0,B|104:304|104:304|48:288,2,162,2|2|2,0:0|0:0|0:0,0:0:0:0:
296,144,101640,1,0,0:0:0:0:
296,144,101790,6,0,B|408:128|408:128|464:144,1,162,2|2,0:0|0:0,0:0:0:0:
454,141,102540,2,0,L|456:80,1,54,8|8,0:0|0:0,0:0:0:0:
392,48,102840,6,0,L|224:72,2,162,2|2|2,0:0|0:0|0:0,0:0:0:0:
352,192,104040,1,0,0:0:0:0:
352,264,104190,2,0,P|296:240|296:144,1,162,2|2,0:0|0:0,0:0:0:0:
256,216,104790,2,0,P|208:216|184:208,1,54,0|2,0:0|0:0,0:0:0:0:
152,152,105090,1,2,0:0:0:0:
152,152,105240,6,0,P|96:152|24:72,2,162,4|2|2,0:0|0:0|0:0,0:0:0:0:
296,104,106440,1,0,0:0:0:0:
360,152,106590,2,0,P|416:152|488:72,1,162,2|2,0:0|0:0,0:0:0:0:
464,152,107190,6,0,L|456:216,1,54,0|8,0:0|0:0,0:0:0:0:
384,232,107490,1,8,0:0:0:0:
384,232,107640,2,0,P|336:294|257:304,2,162,2|2|2,0:0|0:0|0:0,0:0:0:0:
256,144,108840,1,0,0:0:0:0:
208,88,108990,2,0,P|232:72|304:88,1,108,2|0,0:0|0:0,0:0:0:0:
336,160,109440,6,0,L|344:224,1,54,0|0,0:0|0:0,0:0:0:0:
400,264,109740,2,0,L|392:328,1,54,0|0,0:0|0:0,0:0:0:0:
328,352,110040,6,0,B|256:312|256:312|184:352,2,162,2|2|2,0:0|0:0|0:0,0:0:0:0:
328,192,111240,1,0,0:0:0:0:
328,192,111390,2,0,B|256:152|256:152|184:192,1,162,2|2,0:0|0:0,0:0:0:0:
120,232,111990,2,0,L|48:224,2,54,0|2|2,0:0|0:0|0:0,0:0:0:0:
192,272,112440,6,0,P|240:240|304:224,1,108,2|0,0:0|0:0,0:0:0:0:
357,207,112890,2,0,P|305:181|259:134,1,108,2|0,0:0|0:0,0:0:0:0:
218,96,113340,2,0,P|222:154|204:217,2,108,2|2|2,0:0|0:0|0:0,0:0:0:0:
152,56,114090,1,0,0:0:0:0:
88,96,114240,2,0,P|32:64|88:16,1,162,2|2,0:0|0:0,0:0:0:0:
152,56,114840,6,0,L|280:48,1,108,4|0,3:1|0:0,0:0:0:0:
312,104,115290,2,0,P|360:128|432:120,1,108,2|0,0:0|0:0,0:0:0:0:
480,88,115740,2,0,P|456:136|464:208,1,108,2|0,0:0|0:0,0:0:0:0:
496,256,116190,2,0,P|448:232|376:240,1,108,2|0,0:0|0:0,0:0:0:0:
328,272,116640,2,0,P|352:224|344:152,2,108,2|2|2,0:0|0:0|0:0,0:0:0:0:
256,136,117540,5,0,0:0:0:0:
256,136,117690,1,2,0:0:0:0:
184,272,117990,1,0,0:0:0:0:
184,272,118140,2,0,P|160:224|168:152,1,108,2|2,0:0|0:0,0:0:0:0:
256,48,118740,5,0,0:0:0:0:
400,192,119040,1,2,0:0:0:0:
256,336,119340,1,0,0:0:0:0:
112,192,119640,5,4,0:0:0:0:
256,48,119940,2,0,L|272:104,1,54,0|0,0:0|0:0,0:0:0:0:
400,192,120390,2,0,L|344:208,1,54,0|0,0:0|0:0,0:0:0:0:
256,336,120840,2,0,L|240:280,1,54,0|0,0:0|0:0,0:0:0:0:
112,192,121290,2,0,L|168:176,1,54,0|0,0:0|0:0,0:0:0:0:
256,48,121740,2,0,L|272:104,1,54,0|0,0:0|0:0,0:0:0:0:
271,100,122040,6,0,L|287:156,1,54,0|0,0:0|0:0,0:0:0:0:
348,207,122340,2,0,L|292:223,1,54,0|0,0:0|0:0,0:0:0:0:
241,284,122640,2,0,L|225:228,1,54,0|0,0:0|0:0,0:0:0:0:
164,177,122940,2,0,L|220:161,1,54,0|0,0:0|0:0,0:0:0:0:
352,120,123240,5,0,0:0:0:0:
328,288,123540,1,0,0:0:0:0:
160,264,123840,1,0,0:0:0:0:
184,96,124140,2,0,L|240:128,1,54,0|0,0:0|0:0,0:0:0:0:
256,192,124440,1,8,0:0:0:0:
256,192,124590,12,8,126840,0:0:0:0:
256,192,126990,12,8,129240,0:0:0:0:
256,192,129390,12,8,131640,0:0:0:0:
256,192,131790,12,0,133440,0:0:0:0:
256,72,134040,6,0,B|366:79|366:79|304:112,1,162,4|2,0:0|0:0,0:0:0:0:
256,312,134940,2,0,B|146:305|146:305|208:272,1,162,2|2,0:0|0:0,0:0:0:0:
288,168,135840,2,0,L|352:176,1,54,2|0,0:0|0:0,0:0:0:0:
224,216,136140,2,0,L|160:208,1,54,2|0,0:0|0:0,0:0:0:0:
120,152,136440,6,0,B|88:144|40:160|40:160|32:208|48:240,2,162,2|2|2,0:0|0:0|0:0,0:0:0:0:
288,168,137640,1,0,0:0:0:0:
224,216,137790,1,2,0:0:0:0:
392,232,138090,1,0,0:0:0:0:
392,232,138240,6,0,B|424:240|472:224|472:224|480:176|464:144,1,162,2|2,0:0|0:0,0:0:0:0:
400,104,138840,6,0,P|320:104|296:88,1,108,4|0,0:0|0:0,0:0:0:0:
242,146,139290,2,0,P|291:167|344:160,1,108,2|0,0:0|0:0,0:0:0:0:
288,216,139740,2,0,P|208:216|184:200,1,108,2|0,0:0|0:0,0:0:0:0:
232,272,140190,2,0,P|152:272|128:256,1,108,2|0,1:2|0:0,0:0:0:0:
176,328,140640,2,0,P|96:328|72:312,1,108,2|2,1:2|1:2,0:0:0:0:
56,240,141090,1,2,1:2:0:0:
64,160,141240,6,0,L|72:104,1,54,0|0,0:0|0:0,0:0:0:0:
144,152,141540,2,0,L|152:96,1,54,0|0,0:0|0:0,0:0:0:0:
224,144,141840,2,0,L|232:88,1,54,0|0,0:0|0:0,0:0:0:0:
304,136,142140,2,0,L|312:80,1,54,0|0,0:0|0:0,0:0:0:0:
384,128,142440,5,8,0:0:0:0:
384,128,143340,2,0,L|392:72,2,54,0|0|4,0:0|0:0|0:0,0:0:0:0:
256,192,150840,12,0,152640,0:0:0:0:
72,88,153240,6,0,B|104:80|104:80|152:88|152:88|184:80,1,108,4|2,0:0|0:0,0:0:0:0:
440,88,153840,2,0,B|408:80|408:80|360:88|360:88|328:80,1,108,0|2,0:0|0:0,0:0:0:0:
256,96,154290,2,0,L|256:208,1,108,0|0,0:0|0:0,0:0:0:0:
208,264,154740,2,0,P|280:248|304:264,2,108,2|0|2,0:0|0:0|0:0,0:0:0:0:
256,320,155490,1,0,0:0:0:0:
328,336,155640,6,0,P|368:304|376:248,1,108,0|2,0:0|0:0,0:0:0:0:
376,133,156240,2,0,P|368:81|328:48,1,108,0|2,0:0|0:0,0:0:0:0:
304,120,156690,2,0,P|232:136|208:120,1,108,0|0,0:0|0:0,0:0:0:0:
183,48,157140,2,0,P|143:81|135:133,2,108,2|2|2,0:0|0:0|0:0,0:0:0:0:
256,64,157890,1,0,0:0:0:0:
328,48,158040,6,0,L|440:56,1,108,0|2,0:0|0:0,0:0:0:0:
376,192,158640,2,0,L|488:200,1,108,0|2,0:0|0:0,0:0:0:0:
424,248,159090,2,0,L|312:256,1,108,0|0,0:0|0:0,0:0:0:0:
376,304,159540,2,0,L|488:312,2,108,2|0|2,0:0|0:0|0:0,0:0:0:0:
304,328,160290,1,0,0:0:0:0:
232,312,160440,6,0,B|192:304|192:304|112:312,1,108,0|2,0:0|0:0,0:0:0:0:
48,296,160890,2,0,P|80:248|144:240,1,108,0|0,0:0|0:0,0:0:0:0:
160,168,161340,2,0,B|120:160|120:160|40:168,2,108,2|0|0,0:0|0:0|0:0,0:0:0:0:
216,104,162090,1,0,0:0:0:0:
256,32,162240,5,0,0:0:0:0:
296,104,162390,1,0,0:0:0:0:
352,168,162540,1,0,0:0:0:0:
424,208,162690,1,0,0:0:0:0:
504,224,162840,6,0,P|448:224|384:240,1,108,4|2,0:0|0:0,0:0:0:0:
312,376,163440,2,0,P|256:384|200:376,1,108,0|2,0:0|0:0,0:0:0:0:
169,311,163890,2,0,P|113:303|57:311,1,108,0|0,0:0|0:0,0:0:0:0:
113,255,164340,2,0,P|121:199|113:143,1,108,2|0,0:0|0:0,0:0:0:0:
114,148,164940,2,0,P|120:104|120:80,1,54,2|0,0:0|0:0,0:0:0:0:
8,160,165240,6,0,P|64:160|128:144,1,108,0|2,0:0|0:0,0:0:0:0:
200,8,165840,2,0,P|256:0|312:8,1,108,0|2,0:0|0:0,0:0:0:0:
343,73,166290,2,0,P|399:81|455:73,1,108,0|0,0:0|0:0,0:0:0:0:
399,129,166740,2,0,P|391:185|399:241,1,108,2|2,0:0|0:0,0:0:0:0:
397,235,167340,2,0,P|392:280|392:304,1,54,2|2,0:0|0:0,0:0:0:0:
504,224,167640,6,0,P|448:224|384:240,1,108,2|2,0:0|0:0,0:0:0:0:
256,248,168240,6,0,P|200:248|136:264,1,108,0|2,0:0|0:0,0:0:0:0:
207,164,168690,2,0,P|235:115|253:52,1,108,0|0,0:0|0:0,0:0:0:0:
304,163,169140,2,0,P|332:212|378:259,2,108,2|0|2,0:0|0:0|0:0,0:0:0:0:
251,66,169890,1,0,0:0:0:0:
136,96,170040,6,0,L|8:88,1,108,0|2,0:0|0:0,0:0:0:0:
28,185,170490,2,0,L|136:192,1,108,0|0,0:0|0:0,0:0:0:0:
136,288,170940,2,0,L|8:280,2,108,2|0|2,0:0|0:0|0:0,0:0:0:0:
208,328,171690,5,0,0:0:0:0:
256,256,171840,2,0,L|256:200,2,54,0|0|0,0:0|0:0|0:0,0:0:0:0:
304,328,172290,1,0,0:0:0:0:
376,288,172440,6,0,L|504:280,2,108,4|0|0,0:0|0:0|0:0,0:0:0:0:
360,136,173340,2,0,L|352:72,1,54,0|0,0:0|0:0,0:0:0:0:
152,136,173790,2,0,L|160:72,1,54,0|0,0:0|0:0,0:0:0:0:
256,192,174240,2,0,L|256:246,2,54,0|0|0,0:0|0:0|0:0,0:0:0:0:
136,288,174840,6,0,L|8:280,2,108,0|0|0,0:0|0:0|0:0,0:0:0:0:
152,136,175740,2,0,L|160:72,1,54,0|0,0:0|0:0,0:0:0:0:
360,136,176190,2,0,L|352:72,1,54,0|0,0:0|0:0,0:0:0:0:
256,192,176640,2,0,L|256:302,1,108,0|0,0:0|0:0,0:0:0:0:
304,112,177240,6,0,P|255:91|207:112,1,108,4|0,0:0|0:0,0:0:0:0:
349,189,177840,2,0,P|343:241|301:273,1,108,0|0,0:0|0:0,0:0:0:0:
210,273,178290,2,0,P|168:241|162:189,1,108,0|0,0:0|0:0,0:0:0:0:
208,112,178740,2,0,P|256:91|304:112,2,108,0|0|0,0:0|0:0|0:0,0:0:0:0:
64,152,179640,6,0,L|72:224,1,54,0|0,0:0|0:0,0:0:0:0:
168,304,179940,2,0,L|176:232,1,54,0|0,0:0|0:0,0:0:0:0:
256,96,180240,6,0,L|264:168,1,54,0|0,0:0|0:0,0:0:0:0:
360,248,180540,2,0,L|368:176,1,54,0|0,0:0|0:0,0:0:0:0:
480,312,180840,5,8,0:0:0:0:
480,312,182040,6,0,P|424:296|368:304,1,108,4|2,0:0|0:0,0:0:0:0:
328,360,182490,1,0,0:0:0:0:
432,264,182640,2,0,P|440:224|440:200,1,54,0|0,0:0|0:0,0:0:0:0:
400,72,182940,2,0,P|392:112|392:136,1,54,2|0,0:0|0:0,0:0:0:0:
456,24,183240,6,0,L|336:16,1,108,0|2,0:0|0:0,0:0:0:0:
256,64,183690,1,0,0:0:0:0:
163,16,183840,2,0,L|56:24,1,108,0|0,0:0|0:0,0:0:0:0:
8,112,184290,1,0,0:0:0:0:
88,176,184440,6,0,P|104:224|104:248,1,54,4|0,1:2|0:0,0:0:0:0:
192,152,184740,2,0,P|190:202|182:225,1,54,4|0,1:2|0:0,0:0:0:0:
297,165,185040,2,0,P|278:212|262:230,1,54,4|0,1:2|0:0,0:0:0:0:
391,213,185340,2,0,P|357:250|336:262,1,54,4|0,1:2|0:0,0:0:0:0:
256,304,185640,6,0,L|144:312,2,108,4|4|4,1:2|1:2|1:2,0:0:0:0:
400,352,186540,2,0,L|408:296,1,54,4|0,1:2|0:0,0:0:0:0:
464,240,186840,6,0,L|448:120,1,108,4|2,0:0|0:0,0:0:0:0:
440,56,187290,1,0,0:0:0:0:
408,192,187440,2,0,L|352:200,1,54,0|0,0:0|0:0,0:0:0:0:
296,144,187740,1,2,0:0:0:0:
216,144,187890,1,0,0:0:0:0:
157,199,188040,6,0,L|104:192,1,54,0|0,0:0|0:0,0:0:0:0:
80,120,188340,2,0,L|26:112,1,54,4|0,0:0|0:0,0:0:0:0:
157,199,188640,2,0,L|149:252,1,54,0|0,0:0|0:0,0:0:0:0:
77,276,188940,2,0,L|69:329,1,54,0|0,0:0|0:0,0:0:0:0:
144,336,189240,6,0,L|256:320,1,108,4|4,1:2|1:2,0:0:0:0:
400,304,189840,2,0,L|384:192,1,108,4|4,1:2|1:2,0:0:0:0:
368,48,190440,2,0,L|256:64,1,108,4|4,1:2|1:2,0:0:0:0:
112,80,191040,2,0,L|128:192,1,108,4|4,1:2|1:2,0:0:0:0:
136,260,191490,1,0,0:0:0:0:
144,336,191640,6,0,P|192:320|256:328,1,108,4|2,0:0|0:0,0:0:0:0:
312,368,192090,1,0,0:0:0:0:
208,280,192240,2,0,L|216:216,1,54,0|0,0:0|0:0,0:0:0:0:
297,157,192540,2,0,L|304:104,1,54,2|0,0:0|0:0,0:0:0:0:
368,48,192840,6,0,P|320:64|256:56,1,108,0|2,0:0|0:0,0:0:0:0:
200,16,193290,1,0,0:0:0:0:
304,104,193440,2,0,L|296:168,1,54,0|0,0:0|0:0,0:0:0:0:
214,226,193740,2,0,L|208:280,1,54,0|0,0:0|0:0,0:0:0:0:
256,352,194040,6,0,P|304:352|360:376,2,108,4|4|4,1:2|1:2|1:2,0:0:0:0:
104,368,194940,1,4,1:2:0:0:
8,256,195240,2,0,L|24:144,1,108,4|4,1:2|1:2,0:0:0:0:
168,192,195840,2,0,L|184:80,1,108,4|4,1:2|1:2,0:0:0:0:
256,120,196290,1,0,0:0:0:0:
328,85,196440,6,0,L|344:192,1,108,4|2,0:0|0:0,0:0:0:0:
424,224,196890,1,0,0:0:0:0:
504,256,197040,2,0,L|488:144,1,108,0|2,0:0|0:0,0:0:0:0:
308,40,197640,6,0,P|284:32|204:40,1,108,0|4,0:0|0:0,0:0:0:0:
88,192,198240,2,0,P|112:200|192:192,1,108,0|0,0:0|0:0,0:0:0:0:
256,120,198690,1,0,0:0:0:0:
319,191,198840,6,0,P|371:203|424:192,2,108,4|4|4,1:2|1:2|1:2,0:0:0:0:
144,96,199740,1,4,1:2:0:0:
184,240,200040,2,0,L|168:360,2,108,4|4|4,1:2|1:2|1:2,0:0:0:0:
368,96,200940,1,4,1:2:0:0:
328,240,201240,6,0,L|344:360,2,108,4|4|4,1:2|1:2|1:2,0:0:0:0:
256,104,202140,1,4,1:2:0:0:
256,104,202440,1,0,0:0:0:0:
256,104,203490,6,0,L|136:104,1,108,4|0,0:0|0:0,0:0:0:0:
88,152,203940,2,0,P|83:178|88:208,1,54,2|0,0:0|0:0,0:0:0:0:
143,255,204240,2,0,P|162:305|147:356,1,108,0|2,0:0|0:0,0:0:0:0:
88,312,204690,6,0,L|200:304,1,108,4|0,0:0|0:0,0:0:0:0:
229,232,205140,2,0,L|285:232,1,54,2|0,0:0|0:0,0:0:0:0:
316,304,205440,2,0,L|424:312,1,108,0|2,0:0|0:0,0:0:0:0:
364,356,205890,6,0,P|349:305|368:255,1,108,4|0,0:0|0:0,0:0:0:0:
425,205,206340,2,0,P|429:178|424:152,1,54,2|0,0:0|0:0,0:0:0:0:
364,104,206640,2,0,L|256:104,1,108,0|2,0:0|0:0,0:0:0:0:
202,48,207090,1,0,0:0:0:0:
148,104,207240,6,0,P|120:152|120:208,2,108,4|4|4,0:0|0:0|0:0,0:0:0:0:
364,280,208140,1,0,0:0:0:0:
364,280,208290,6,0,P|392:232|392:176,1,108,4|0,0:0|0:0,0:0:0:0:
352,112,208740,2,0,L|296:104,1,54,2|0,0:0|0:0,0:0:0:0:
213,104,209040,2,0,P|192:56|216:8,1,108,0|2,0:0|0:0,0:0:0:0:
297,8,209490,6,0,P|320:56|299:104,1,108,4|0,0:0|0:0,0:0:0:0:
213,104,209940,2,0,L|159:111,1,54,2|0,0:0|0:0,0:0:0:0:
118,180,210240,2,0,P|120:234|148:280,1,108,0|2,0:0|0:0,0:0:0:0:
104,344,210690,6,0,P|152:328|208:328,1,108,4|0,0:0|0:0,0:0:0:0:
229,248,211140,2,0,L|285:248,1,54,2|0,0:0|0:0,0:0:0:0:
303,328,211440,2,0,P|356:327|408:344,1,108,0|2,0:0|0:0,0:0:0:0:
480,312,211890,1,0,0:0:0:0:
448,240,212040,6,0,L|464:128,2,108,4|4|4,0:0|0:0|0:0,0:0:0:0:
384,88,212940,1,0,0:0:0:0:
384,88,213090,6,0,B|364:148|288:168|208:120|208:120|152:40|256:-56|360:40|304:120|304:120|224:168|148:148|128:88,1,702,4|0,0:0|0:0,0:0:0:0:
128,88,215190,1,0,0:0:0:0:
256,232,215490,1,0,0:0:0:0:
430,352,215790,6,0,L|376:352,1,54,0|0,0:0|0:0,0:0:0:0:
283,314,216090,2,0,L|229:314,1,54,0|0,0:0|0:0,0:0:0:0:
136,352,216390,2,0,L|82:352,1,54,0|0,0:0|0:0,0:0:0:0:
40,288,216690,6,0,L|24:176,1,108,4|0,0:0|0:0,0:0:0:0:
112,192,217140,2,0,L|96:80,1,108,4|0,0:0|0:0,0:0:0:0:
56,272,217740,5,0,0:0:0:0:
96,208,217890,1,4,0:0:0:0:
472,288,221490,6,0,L|488:176,1,108,4|0,0:0|0:0,0:0:0:0:
400,192,221940,2,0,L|416:80,1,108,4|0,0:0|0:0,0:0:0:0:
456,272,222540,5,0,0:0:0:0:
416,208,222690,1,4,0:0:0:0:
256,352,222990,2,0,L|200:352,1,54
136,312,223290,2,0,L|80:312,1,54,0|8,0:0|0:0,0:0:0:0:
0,192,223740,1,0,0:0:0:0:
0,192,223890,6,0,P|40:200|104:160,1,108,2|0,0:0|0:0,0:0:0:0:
152,112,224340,2,0,P|196:83|249:89,1,108,2|8,0:0|0:0,0:0:0:0:
312,136,224790,2,0,L|424:136,2,108,0|2|0,0:0|0:0|0:0,0:0:0:0:
256,192,225540,2,0,L|248:248,1,54,2|0,0:0|0:0,0:0:0:0:
192,296,225840,2,0,P|248:288|296:320,1,108,8|0,0:0|0:0,0:0:0:0:
352,272,226290,6,0,P|398:297|450:289,1,108,4|0,0:0|0:0,0:0:0:0:
512,240,226740,2,0,P|465:214|413:222,1,108,4|8,0:0|0:0,0:0:0:0:
296,120,227340,1,0,0:0:0:0:
216,120,227490,1,4,0:0:0:0:
98,221,227790,6,0,P|46:214|0:240,1,108,0|0,0:0|0:0,0:0:0:0:
60,288,228240,2,0,P|113:297|160:272,1,108,8|0,0:0|0:0,0:0:0:0:
176,200,228690,2,0,L|288:208,1,108,2|0,0:0|0:0,0:0:0:0:
328,272,229140,2,0,L|440:264,1,108,2|8,0:0|0:0,0:0:0:0:
328,112,229890,6,0,L|440:120,2,108,2|0|0,0:0|0:0|0:0,0:0:0:0:
283,176,230640,2,0,L|176:184,1,108,8|0,0:0|0:0,0:0:0:0:
159,111,231090,6,0,P|112:86|60:96,1,108,4|0,0:0|0:0,0:0:0:0:
0,143,231540,2,0,P|45:169|98:163,1,108,4|8,0:0|0:0,0:0:0:0:
216,32,232140,1,0,0:0:0:0:
296,32,232290,1,4,0:0:0:0:
413,162,232590,2,0,P|466:169|512:143,1,108
456,96,233040,6,0,L|344:120,1,108,8|0,0:0|0:0,0:0:0:0:
312,192,233490,2,0,P|312:240|344:288,1,108,2|0,0:0|0:0,0:0:0:0:
424,320,233940,2,0,L|488:304,1,54,2|2,0:0|0:0,0:0:0:0:
352,376,234240,2,0,L|288:360,1,54,8|2,0:0|0:0,0:0:0:0:
256,296,234540,1,0,0:0:0:0:
88,320,234840,6,0,L|24:304,1,54,2|0,0:0|0:0,0:0:0:0:
160,376,235140,2,0,L|224:360,1,54,2|0,0:0|0:0,0:0:0:0:
256,296,235440,1,8,0:0:0:0:
296,112,235740,1,0,0:0:0:0:
216,112,235890,6,0,P|192:120|112:88,1,108,4|0,0:0|0:0,0:0:0:0:
176,40,236340,2,0,P|152:48|72:16,2,108,4|8|0,0:0|0:0|0:0,0:0:0:0:
256,40,237090,2,0,P|280:32|360:64,1,108,4|0,0:0|0:0,0:0:0:0:
256,264,237840,5,8,0:0:0:0:
157,57,238290,2,0,P|203:32|256:40,1,108,2|0,0:0|0:0,0:0:0:0:
320,80,238740,2,0,L|432:72,1,108,2|8,0:0|0:0,0:0:0:0:
480,128,239190,6,0,B|472:160|472:160|488:192|488:192|480:232,2,108,0|2|0,0:0|0:0|0:0,0:0:0:0:
408,200,239940,2,0,L|392:272,1,54,2|0,0:0|0:0,0:0:0:0:
448,312,240240,2,0,P|400:304|336:312,1,108,8|0,0:0|0:0,0:0:0:0:
304,240,240690,6,0,B|256:264|256:264|208:240,1,108,4|0,0:0|0:0,0:0:0:0:
170,310,241140,2,0,P|117:303|64:312,2,108,4|8|0,0:0|0:0|0:0,0:0:0:0:
208,240,241890,6,0,B|256:264|256:264|304:240,1,108
152,48,243090,6,0,B|160:48|160:48|184:56|184:56|208:48|208:48|232:56|232:56|256:48|256:48|280:56|280:56|304:48|304:48|328:56|328:56|352:48|352:48|360:48,1,216,0|4,0:0|0:0,0:0:0:0:
296,232,244290,2,0,B|256:248|256:248|216:232,1,86.4,0|0,0:0|0:0,0:0:0:0:
160,48,245490,6,0,B|152:72|152:72|216:72,1,86.4,4|0,0:0|0:0,0:0:0:0:
298,72,245940,2,0,B|360:72|360:72|352:48,2,86.4,4|0|0,0:0|0:0|0:0,0:0:0:0:
256,8,246690,1,0,0:0:0:0:
152,336,247890,6,0,B|160:336|160:336|184:328|184:328|208:336|208:336|232:328|232:328|256:336|256:336|280:328|280:328|304:336|304:336|328:328|328:328|352:336|352:336|360:336,1,216,0|4,0:0|0:0,0:0:0:0:
296,152,249090,2,0,B|256:136|256:136|216:152,1,86.4,0|0,0:0|0:0,0:0:0:0:
160,336,250290,6,0,B|152:312|152:312|216:312,1,86.4,4|0,0:0|0:0,0:0:0:0:
298,312,250740,2,0,B|360:312|360:312|352:336,2,86.4,4|0|0,0:0|0:0|0:0,0:0:0:0:
256,376,251490,1,0,0:0:0:0:
176,192,252690,6,0,B|216:192|256:168|256:168|256:216|256:216|296:192|336:192,1,216,0|4,0:0|0:0,0:0:0:0:
512,192,253890,2,0,L|512:104,1,86.4,0|0,0:0|0:0,0:0:0:0:
216,192,255090,6,0,L|216:104,1,86.4,4|0,0:0|0:0,0:0:0:0:
296,105,255540,2,0,L|296:191,2,86.4,4|0|0,0:0|0:0|0:0,0:0:0:0:
256,32,256290,1,0,0:0:0:0:
336,192,257490,6,0,B|296:192|256:216|256:216|256:168|256:168|216:192|176:192,1,216,0|4,0:0|0:0,0:0:0:0:
0,192,258690,2,0,L|0:280,1,86.4,0|0,0:0|0:0,0:0:0:0:
296,192,259890,6,0,L|296:280,1,86.4,4|0,0:0|0:0,0:0:0:0:
216,279,260340,2,0,L|216:192,2,86.4,4|0|0,0:0|0:0|0:0,0:0:0:0:
256,352,261090,1,4,0:0:0:0:
256,80,261840,6,0,L|256:24,1,54,8|0,0:0|0:0,0:0:0:0:
408,56,262290,2,0,B|408:88|408:88|432:128|432:128|432:160,2,108,2|0|0,0:0|0:0|0:0,0:0:0:0:
336,80,263040,1,8,0:0:0:0:
256,80,263190,6,0,L|256:24,1,54
104,56,263640,2,0,L|104:112,1,54,0|0,0:0|0:0,0:0:0:0:
256,134,264090,2,0,L|256:78,1,54,0|8,0:0|0:0,0:0:0:0:
296,304,264540,1,2,0:0:0:0:
216,304,264690,6,0,P|208:280|216:200,1,108,4|0,0:0|0:0,0:0:0:0:
295,199,265140,2,0,P|307:251|296:304,1,108,4|8,0:0|0:0,0:0:0:0:
256,134,265740,2,0,L|256:78,1,54,0|2,0:0|0:0,0:0:0:0:
112,8,266190,2,0,P|136:24|224:8,1,108,0|0,0:0|0:0,0:0:0:0:
300,17,266640,5,8,0:0:0:0:
300,17,266790,2,0,P|351:30|400:7,2,108,0|2|0,0:0|0:0|0:0,0:0:0:0:
160,152,267690,2,0,L|104:160,2,54,2|8|0,0:0|0:0|0:0,0:0:0:0:
352,152,268290,6,0,B|376:168|376:168|384:208|352:240,1,108,2|0,0:0|0:0,0:0:0:0:
296,296,268740,1,2,0:0:0:0:
216,296,268890,1,2,0:0:0:0:
160,240,269040,2,0,B|128:208|136:168|136:168|160:152,1,108,8|0,0:0|0:0,0:0:0:0:
208,88,269490,6,0,B|256:64|256:64|304:88,1,108,4|0,0:0|0:0,0:0:0:0:
368,40,269940,2,0,B|416:64|416:64|464:40,2,108,4|8|0,0:0|0:0|0:0,0:0:0:0:
304,88,270690,6,0,B|256:64|256:64|208:88,1,108,4|0,0:0|0:0,0:0:0:0:
207,88,271440,1,8,0:0:0:0:
360,240,271890,6,0,B|384:192|384:192|360:144,1,108,4|0,0:0|0:0,0:0:0:0:
360,143,272640,1,8,0:0:0:0:
208,296,273090,6,0,B|256:320|256:320|304:296,1,108,4|0,0:0|0:0,0:0:0:0:
305,296,273840,1,8,0:0:0:0:
208,88,274140,5,2,0:0:0:0:
152,144,274290,2,0,B|128:192|128:192|152:240,1,108,4|0,0:0|0:0,0:0:0:0:
208,296,274740,1,0,0:0:0:0:
304,88,275040,1,8,0:0:0:0:
305,296,275340,2,0,L|360:304,1,54,0|0,0:0|0:0,0:0:0:0:
400,240,275640,6,0,P|416:216|400:144,1,108,4|0,0:0|0:0,0:0:0:0:
358,80,276090,2,0,L|305:88,1,54,0|12,0:0|0:0,0:0:0:0:
207,296,276540,2,0,L|152:304,1,54,0|0,0:0|0:0,0:0:0:0:
112,240,276840,6,0,P|96:216|112:144,1,108,4|4,0:0|0:0,0:0:0:0:
153,80,277290,2,0,L|207:88,1,54,0|12,0:0|0:0,0:0:0:0:
305,296,277740,2,0,L|360:304,1,54,0|0,0:0|0:0,0:0:0:0:
408,248,278040,6,0,L|416:193,1,54,4|0,0:0|0:0,0:0:0:0:
368,136,278340,2,0,L|376:81,1,54,4|0,0:0|0:0,0:0:0:0:
304,56,278640,2,0,P|232:40|208:56,1,108,12|0,0:0|0:0,0:0:0:0:
136,72,279090,1,0,0:0:0:0:
104,136,279240,6,0,L|96:191,1,54,4|0,0:0|0:0,0:0:0:0:
144,248,279540,2,0,L|136:303,1,54,4|0,0:0|0:0,0:0:0:0:
208,328,279840,2,0,P|280:344|304:328,1,108,12|0,0:0|0:0,0:0:0:0:
376,312,280290,2,0,L|488:320,1,108
176,168,284640,6,0,L|240:160,1,54,0|0,0:0|0:0,0:0:0:0:
282,222,284940,2,0,L|336:216,1,54,0|0,0:0|0:0,0:0:0:0:
256,192,285240,12,0,287940,0:0:0:0:
32,72,290040,6,0,P|88:88|144:80,1,108,4|2,0:0|0:0,0:0:0:0:
184,24,290490,1,0,0:0:0:0:
80,120,290640,2,0,P|72:160|72:184,1,54,0|0,0:0|0:0,0:0:0:0:
112,312,290940,2,0,P|120:272|120:248,1,54,2|0,0:0|0:0,0:0:0:0:
56,360,291240,6,0,L|176:368,1,108,0|4,0:0|0:0,0:0:0:0:
256,320,291690,1,0,0:0:0:0:
349,368,291840,2,0,L|456:360,1,108,0|0,0:0|0:0,0:0:0:0:
504,272,292290,1,0,0:0:0:0:
424,208,292440,6,0,P|408:160|408:136,1,54,4|0,1:2|0:0,0:0:0:0:
320,232,292740,2,0,P|322:182|330:159,1,54,4|0,1:2|0:0,0:0:0:0:
215,219,293040,2,0,P|234:172|250:154,1,54,4|0,1:2|0:0,0:0:0:0:
121,171,293340,2,0,P|155:134|176:122,1,54,4|0,1:2|0:0,0:0:0:0:
256,80,293640,6,0,L|368:72,2,108,4|4|4,1:2|1:2|1:2,0:0:0:0:
112,32,294540,2,0,L|104:88,1,54,4|0,1:2|0:0,0:0:0:0:
48,144,294840,6,0,L|64:264,1,108,4|2,0:0|0:0,0:0:0:0:
72,328,295290,1,0,0:0:0:0:
104,192,295440,2,0,L|160:184,1,54,0|0,0:0|0:0,0:0:0:0:
216,240,295740,1,2,0:0:0:0:
296,240,295890,1,0,0:0:0:0:
355,185,296040,6,0,L|408:192,1,54,0|0,0:0|0:0,0:0:0:0:
432,264,296340,2,0,L|486:272,1,54,4|0,0:0|0:0,0:0:0:0:
355,185,296640,2,0,L|363:132,1,54,0|0,0:0|0:0,0:0:0:0:
435,108,296940,2,0,L|443:55,1,54,0|0,0:0|0:0,0:0:0:0:
368,48,297240,6,0,L|256:64,1,108,4|4,1:2|1:2,0:0:0:0:
112,80,297840,2,0,L|128:192,1,108,4|4,1:2|1:2,0:0:0:0:
144,336,298440,2,0,L|256:320,1,108,4|4,1:2|1:2,0:0:0:0:
400,304,299040,2,0,L|384:192,1,108,4|4,1:2|1:2,0:0:0:0:
376,124,299490,1,0,0:0:0:0:
368,48,299640,6,0,P|320:64|256:56,1,108,4|2,0:0|0:0,0:0:0:0:
200,16,300090,1,0,0:0:0:0:
304,104,300240,2,0,L|296:168,1,54,0|0,0:0|0:0,0:0:0:0:
215,227,300540,2,0,L|208:280,1,54,2|0,0:0|0:0,0:0:0:0:
144,336,300840,6,0,P|192:320|256:328,1,108,0|4,0:0|0:0,0:0:0:0:
312,368,301290,1,0,0:0:0:0:
208,280,301440,2,0,L|216:216,1,54,0|0,0:0|0:0,0:0:0:0:
298,158,301740,2,0,L|304:104,1,54,0|0,0:0|0:0,0:0:0:0:
256,32,302040,6,0,P|208:32|152:8,2,108,4|4|4,1:2|1:2|1:2,0:0:0:0:
408,16,302940,1,4,1:2:0:0:
504,128,303240,2,0,L|488:240,1,108,4|4,1:2|1:2,0:0:0:0:
344,192,303840,2,0,L|328:304,1,108,4|4,1:2|1:2,0:0:0:0:
256,264,304290,1,0,0:0:0:0:
184,299,304440,6,0,L|168:192,1,108,4|2,0:0|0:0,0:0:0:0:
88,160,304890,1,0,0:0:0:0:
8,128,305040,2,0,L|24:240,1,108,0|2,0:0|0:0,0:0:0:0:
204,344,305640,6,0,P|228:352|308:344,1,108,0|4,0:0|0:0,0:0:0:0:
424,192,306240,2,0,P|400:184|320:192,1,108,0|0,0:0|0:0,0:0:0:0:
256,264,306690,1,0,0:0:0:0:
193,193,306840,6,0,P|141:181|88:192,2,108,4|4|4,1:2|1:2|1:2,0:0:0:0:
368,288,307740,1,4,1:2:0:0:
328,144,308040,2,0,L|344:24,2,108,4|4|4,1:2|1:2|1:2,0:0:0:0:
144,288,308940,1,4,1:2:0:0:
184,144,309240,6,0,L|168:24,2,108,4|4|4,1:2|1:2|1:2,0:0:0:0:
256,280,310140,1,4,1:2:0:0:
256,280,310440,1,0,0:0:0:0:
256,280,311490,6,0,L|376:280,1,108,4|0,0:0|0:0,0:0:0:0:
424,232,311940,2,0,P|429:206|424:176,1,54,2|0,0:0|0:0,0:0:0:0:
369,129,312240,2,0,P|350:79|365:28,1,108,0|2,0:0|0:0,0:0:0:0:
424,72,312690,6,0,L|312:80,1,108,4|0,0:0|0:0,0:0:0:0:
283,152,313140,2,0,L|227:152,1,54,2|0,0:0|0:0,0:0:0:0:
196,80,313440,2,0,L|88:72,1,108,0|2,0:0|0:0,0:0:0:0:
148,28,313890,6,0,P|163:79|144:129,1,108,4|0,0:0|0:0,0:0:0:0:
87,179,314340,2,0,P|83:206|88:232,1,54,2|0,0:0|0:0,0:0:0:0:
148,280,314640,2,0,L|256:280,1,108,0|2,0:0|0:0,0:0:0:0:
310,336,315090,1,0,0:0:0:0:
364,280,315240,6,0,P|392:232|392:176,2,108,4|4|4,0:0|0:0|0:0,0:0:0:0:
148,104,316140,1,0,0:0:0:0:
148,104,316290,6,0,P|120:152|120:208,1,108,4|0,0:0|0:0,0:0:0:0:
160,272,316740,2,0,L|216:280,1,54,2|0,0:0|0:0,0:0:0:0:
299,280,317040,2,0,P|320:328|296:376,1,108,0|2,0:0|0:0,0:0:0:0:
215,376,317490,6,0,P|192:328|213:280,1,108,4|0,0:0|0:0,0:0:0:0:
299,280,317940,2,0,L|353:273,1,54,2|0,0:0|0:0,0:0:0:0:
394,204,318240,2,0,P|392:150|364:104,1,108,0|2,0:0|0:0,0:0:0:0:
408,40,318690,6,0,P|360:56|304:56,1,108,4|0,0:0|0:0,0:0:0:0:
283,136,319140,2,0,L|227:136,1,54,2|0,0:0|0:0,0:0:0:0:
209,56,319440,2,0,P|156:57|104:40,1,108,0|2,0:0|0:0,0:0:0:0:
32,72,319890,1,0,0:0:0:0:
64,144,320040,6,0,L|48:256,2,108,4|4|4,0:0|0:0|0:0,0:0:0:0:
128,296,320940,1,0,0:0:0:0:
128,296,321090,6,0,B|148:236|224:216|304:264|304:264|360:344|256:440|152:344|208:264|208:264|288:216|364:236|384:296,1,702,4|0,0:0|0:0,0:0:0:0:
384,296,323190,1,0,0:0:0:0:
256,152,323490,1,4,0:0:0:0:
82,32,323790,6,0,L|136:32,1,54,0|0,0:0|0:0,0:0:0:0:
229,70,324090,2,0,L|283:70,1,54,0|0,0:0|0:0,0:0:0:0:
376,32,324390,2,0,L|430:32,1,54,0|0,0:0|0:0,0:0:0:0:
472,96,324690,6,0,L|488:208,1,108,4|0,0:0|0:0,0:0:0:0:
400,192,325140,2,0,L|416:304,1,108,4|4,0:0|0:0,0:0:0:0:
456,112,325740,5,0,0:0:0:0:
416,176,325890,1,0,0:0:0:0:
344,192,326040,1,4,0:0:0:0:
256,72,326340,6,0,L|200:72,1,54,0|0,0:0|0:0,0:0:0:0:
56,112,326790,2,0,L|110:112,1,54,0|0,0:0|0:0,0:0:0:0:
256,152,327240,2,0,L|202:152,1,54,0|0,0:0|0:0,0:0:0:0:
56,192,327690,2,0,L|110:192,1,54,0|0,0:0|0:0,0:0:0:0:
256,232,328140,2,0,L|202:232,1,54,0|0,0:0|0:0,0:0:0:0:
56,272,328590,2,0,L|110:272,1,54,0|0,0:0|0:0,0:0:0:0:
256,312,329040,2,0,L|200:312,1,54,0|0,0:0|0:0,0:0:0:0:
344,360,329490,5,0,0:0:0:0:
344,360,329640,2,0,P|416:376|440:360,2,108,0|0|0,0:0|0:0|0:0,0:0:0:0:
256,232,330540,1,0,0:0:0:0:
120,272,330840,1,0,0:0:0:0:
256,312,331140,6,0,L|312:312,1,54,0|0,0:0|0:0,0:0:0:0:
456,272,331590,2,0,L|402:272,1,54,0|0,0:0|0:0,0:0:0:0:
256,232,332040,2,0,L|310:232,1,54,0|0,0:0|0:0,0:0:0:0:
456,192,332490,2,0,L|402:192,1,54,0|0,0:0|0:0,0:0:0:0:
256,152,332940,2,0,L|310:152,1,54,0|0,0:0|0:0,0:0:0:0:
456,112,333390,2,0,L|402:112,1,54,0|0,0:0|0:0,0:0:0:0:
256,72,333840,2,0,L|312:72,1,54,0|0,0:0|0:0,0:0:0:0:
456,32,334290,2,0,L|402:32,1,54,0|0,0:0|0:0,0:0:0:0:
120,192,335640,6,0,B|128:152|128:152|136:144|136:144|128:88,1,108,4|0,0:0|0:0,0:0:0:0:
88,24,336090,2,0,B|112:40|112:40|128:32|128:32|144:40|144:40|192:40,1,108,4|0,0:0|0:0,0:0:0:0:
208,112,336540,2,0,B|240:112|240:112|256:97|256:97|272:112|272:112|304:112,1,108,4|0,0:0|0:0,0:0:0:0:
324,40,336990,2,0,B|368:40|368:40|384:32|384:32|400:40|400:40|424:24,1,108,4|0,0:0|0:0,0:0:0:0:
384,88,337440,6,0,B|376:144|376:144|384:152|384:152|392:192,1,108,4|0,0:0|0:0,0:0:0:0:
432,256,337890,2,0,B|412:288|412:288|380:296|380:296|360:328,1,108,4|0,0:0|0:0,0:0:0:0:
304,272,338340,2,0,B|272:272|272:272|256:287|256:287|240:272|240:272|208:272,1,108,4|0,0:0|0:0,0:0:0:0:
152,328,338790,2,0,B|132:296|132:296|100:288|100:288|80:256,1,108,4|0,0:0|0:0,0:0:0:0:
40,192,339240,6,0,L|56:128,1,54,4|0,0:0|0:0,0:0:0:0:
132,160,339540,2,0,L|136:94,1,54,4|0,0:0|0:0,0:0:0:0:
217,112,339840,2,0,L|210:46,1,54,4|0,0:0|0:0,0:0:0:0:
300,58,340140,2,0,L|295:112,1,54,4|0,0:0|0:0,0:0:0:0:
376,106,340440,6,0,L|380:160,1,54,4|0,0:0|0:0,0:0:0:0:
458,139,340740,2,0,L|472:192,1,54,0|0,0:0|0:0,0:0:0:0:
416,248,341040,2,0,L|360:240,1,54,0|0,0:0|0:0,0:0:0:0:
312,296,341340,2,0,L|256:304,1,54,4|0,1:2|0:0,0:0:0:0:
208,248,341640,2,0,L|152:240,1,54,0|0,0:0|0:0,0:0:0:0:
104,296,341940,2,0,L|48:304,1,54,0|0,0:0|0:0,0:0:0:0:
0,248,342240,5,4,0:0:0:0:
56,192,342390,1,0,0:0:0:0:
0,136,342540,1,0,0:0:0:0:
80,112,342690,6,0,B|152:56|248:64|264:160|360:168|432:112,1,378,0|4,0:0|1:2,0:0:0:0:
448,264,344040,2,0,L|440:328,1,54,0|0,0:0|0:0,0:0:0:0:
368,240,344340,2,0,L|360:176,1,54,0|0,0:0|0:0,0:0:0:0:
304,296,344640,2,0,B|256:320|256:320|208:296,1,108,4|4,1:2|1:2,0:0:0:0:
64,120,345240,6,0,L|72:56,1,54,4|0,1:2|0:0,0:0:0:0:
144,144,345538,2,0,L|152:208,1,54,4|0,1:2|0:0,0:0:0:0:
208,88,345837,2,0,B|256:64|256:64|304:88,1,108,4|4,1:2|1:2,0:0:0:0:
368,144,346284,2,0,L|360:208,1,54,0|4,0:0|1:2,0:0:0:0:
448,120,346580,6,0,L|440:56,2,54,0|4|0,0:0|1:2|0:0,0:0:0:0:
480,192,347019,1,4,1:2:0:0:
448,264,347165,1,0,0:0:0:0:
448,264,347312,2,0,L|440:328,1,54,4|0,1:2|0:0,0:0:0:0:
368,344,347604,6,0,L|336:352,2,27,4|0|0,1:2|0:0|0:0,0:0:0:0:
312,280,347897,2,0,L|280:288,2,27,4|0|0,1:2|0:0|0:0,0:0:0:0:
256,216,348190,2,0,L|184:232,1,54,4|0,1:2|0:0,0:0:0:0:
200,152,348482,2,0,L|128:168,1,54,4|0,1:2|0:0,0:0:0:0:
88,120,348775,6,0,P|72:96|88:24,2,108,4|4|4,1:2|1:2|1:2,0:0:0:0:
256,88,349698,1,4,1:2:0:0:
424,120,350005,6,0,L|324:249,1,162,4|0,1:2|0:0,0:0:0:0:
109,82,350905,2,0,L|272:104,1,162,0|0,0:0|0:0,0:0:0:0:
234,373,351805,2,0,L|171:222,1,162,4|4,1:2|1:2,0:0:0:0:
289,178,352716,6,0,B|252:227|252:227|228:170|228:170|281:177,1,162,4|0,1:2|0:0,0:0:0:0:
