osu file format v14

[General]
AudioFilename: audio.mp3
AudioLeadIn: 0
PreviewTime: 46330
Countdown: 0
SampleSet: None
StackLeniency: 0.3
Mode: 0
LetterboxInBreaks: 0
WidescreenStoryboard: 1

[Editor]
DistanceSpacing: 0.8
BeatDivisor: 4
GridSize: 8
TimelineZoom: 1

[Metadata]
Title:Given Up
TitleUnicode:Given Up
Artist:Linkin Park
ArtistUnicode:Linkin Park
Creator:ronaldonater
Version:osu!droid friendly ver.
Source:
Tags:minutes to midnight metal punk rock alternative
BeatmapID:1913351
BeatmapSetID:916161

[Difficulty]
HPDrainRate:6
CircleSize:3.8
OverallDifficulty:9
ApproachRate:9.6
SliderMultiplier:1.9
SliderTickRate:2

[Events]
//Background and Video events
0,0,"edgey.jpg",0,0
//Break Periods
2,115363,118838
//Storyboard Layer 0 (Background)
//Storyboard Layer 1 (Fail)
//Storyboard Layer 2 (Pass)
//Storyboard Layer 3 (Foreground)
//Storyboard Sound Samples

[TimingPoints]
10,299.887542171686,4,2,1,20,1,0
10,-200,4,2,1,20,0,0
14104,-100,4,1,1,45,0,0
14179,-100,4,1,1,5,0,0
14404,-86.9565217391304,4,1,1,60,0,1
14479,-86.9565217391304,4,1,1,60,0,0
14618,-86.9565217391304,4,1,1,5,0,0
14693,299.887542171686,4,1,1,60,1,0
14693,-86.9565217391304,4,1,1,60,0,0
15592,299.887542171686,4,1,1,60,1,0
15592,-86.9565217391304,4,1,1,60,0,0
23089,-76.9230769230769,4,1,1,60,0,0
23389,-86.9565217391304,4,1,1,60,0,0
23688,-100,4,1,1,60,0,0
23988,-117.647058823529,4,1,1,60,0,0
32685,-83.3333333333333,4,1,1,60,0,0
32985,-117.647058823529,4,1,1,60,0,0
33285,-142.857142857143,4,1,1,60,0,0
33585,-117.647058823529,4,1,1,60,0,0
43181,-100,4,1,1,60,0,0
47979,-66.6666666666667,4,1,1,70,0,1
57276,-50,4,1,1,70,0,1
57501,-50,4,1,1,5,0,0
57576,-66.6666666666667,4,1,1,70,0,1
68672,-58.8235294117647,4,1,1,70,0,1
68971,-66.6666666666667,4,1,1,70,0,1
69271,-76.9230769230769,4,1,1,70,0,1
69571,-117.647058823529,4,1,1,60,0,0
78268,-83.3333333333333,4,1,1,60,0,0
78568,-117.647058823529,4,1,1,60,0,0
78868,-142.857142857143,4,1,1,60,0,0
79168,-117.647058823529,4,1,1,60,0,0
88764,-100,4,1,1,60,0,0
93562,-66.6666666666667,4,1,1,70,0,1
102859,-50,4,1,1,70,0,1
103084,-50,4,1,1,5,0,0
103159,-66.6666666666667,4,1,1,70,0,1
114255,-58.8235294117647,4,1,1,70,0,1
114554,-66.6666666666667,4,1,1,70,0,1
114854,-76.9230769230769,4,1,1,70,0,1
115163,299.887542171686,4,2,1,20,1,0
119347,299.887542171686,4,1,1,70,1,0
119347,-133.333333333333,4,2,1,60,0,0
119421,-133.333333333333,4,2,1,5,0,0
119946,599.775084343371,4,1,1,70,1,1
119946,-133.333333333333,4,1,1,70,0,1
120020,-133.333333333333,4,1,1,70,0,0
124144,-50,4,1,1,70,0,0
124594,-50,4,1,1,5,0,0
124744,-133.333333333333,4,1,1,70,0,0
129542,-133.333333333333,4,1,1,70,0,1
129617,-133.333333333333,4,1,1,70,0,0
133740,-50,4,1,1,70,0,0
134190,-50,4,1,1,5,0,0
134340,-133.333333333333,4,1,1,70,0,0
143937,-100,4,1,1,70,0,0
144536,-80,4,1,1,70,0,0
145136,-66.6666666666667,4,1,1,70,0,0
145736,-57.1428571428571,4,1,1,80,0,0
146336,-200,4,1,1,90,0,1
155932,299.887542171686,4,1,1,70,1,1
155932,-80,4,1,1,70,0,1

[Colours]
Combo1 : 106,106,106
Combo2 : 197,197,197

[HitObjects]
97,158,10,5,8,0:0:0:0:
106,156,309,1,8,0:0:0:0:
114,154,609,1,8,0:0:0:0:
123,151,909,1,8,0:0:0:0:
284,241,1209,5,10,0:0:0:0:
275,239,1508,1,8,0:0:0:0:
267,237,1808,1,8,0:0:0:0:
258,234,2108,1,8,0:0:0:0:
380,102,2409,5,8,0:0:0:0:
382,111,2708,1,8,0:0:0:0:
384,119,3008,1,8,0:0:0:0:
386,128,3308,1,8,0:0:0:0:
210,243,3608,5,10,0:0:0:0:
212,234,3908,1,8,0:0:0:0:
214,226,4208,1,8,0:0:0:0:
216,217,4507,1,8,0:0:0:0:
387,149,4808,6,0,L|493:144,1,95,10|8,0:0|0:0,0:0:0:0:
323,70,5258,2,0,P|291:102|281:159,1,95
320,251,5707,1,8,0:0:0:0:
318,268,6007,5,8,0:0:0:0:
204,228,6157,1,0,0:0:0:0:
292,154,6307,1,8,0:0:0:0:
308,148,6607,5,8,0:0:0:0:
207,121,6757,1,0,0:0:0:0:
111,150,6907,2,0,L|51:154,1,47.5,10|0,0:0|0:0,0:0:0:0:
327,142,7207,6,0,L|430:148,1,95,10|8,0:0|0:0,0:0:0:0:
286,229,7657,2,0,P|253:204|232:139,1,95
294,54,8106,1,8,0:0:0:0:
298,37,8406,5,8,0:0:0:0:
325,160,8556,1,0,0:0:0:0:
205,122,8706,1,8,0:0:0:0:
189,127,9006,5,8,0:0:0:0:
234,247,9156,1,0,0:0:0:0:
339,173,9306,2,0,L|396:170,1,47.5,10|0,0:0|0:0,0:0:0:0:
170,132,9606,6,0,L|70:127,1,95,10|8,0:0|0:0,0:0:0:0:
261,86,10056,2,0,P|274:125|256:191,1,95
288,282,10506,1,8,0:0:0:0:
292,304,10805,5,8,0:0:0:0:
140,234,10955,1,0,0:0:0:0:
355,188,11105,1,8,0:0:0:0:
296,322,11405,5,8,0:0:0:0:
128,250,11555,1,0,0:0:0:0:
371,198,11705,2,0,L|428:195,1,47.5,10|0,0:0|0:0,0:0:0:0:
230,173,12005,6,0,B|188:154|188:154|159:96,1,95,10|8,0:0|0:0,0:0:0:0:
358,138,12455,1,0,0:0:0:0:
369,151,12755,5,0,0:0:0:0:
356,346,12905,1,8,0:0:0:0:
383,163,13205,5,8,0:0:0:0:
209,249,13354,1,0,0:0:0:0:
439,328,13504,2,0,L|493:332,1,47.5,10|0,0:0|0:0,0:0:0:0:
397,177,13804,5,8,0:0:0:0:
187,262,13954,1,0,0:0:0:0:
460,341,14104,6,0,P|498:315|442:316,1,142.5,8|0,0:0|0:0,0:0:0:0:
504,201,14404,6,0,P|424:205|359:262,1,163.875003125668,4|0,0:0|0:0,0:0:0:0:
315,281,14693,2,0,L|195:275,1,109.250002083778,8|0,0:0|0:0,0:0:0:0:
80,228,14992,1,0,0:0:0:0:
268,161,15142,1,0,0:0:0:0:
268,161,15217,1,0,0:0:0:0:
268,161,15292,2,0,B|332:151|332:151|387:167,1,109.250002083778,8|0,0:0|0:0,0:0:0:0:
222,345,15592,5,0,0:0:0:0:
187,103,15741,1,0,0:0:0:0:
278,301,15891,2,0,P|279:347|256:315,1,109.250002083778,8|0,0:0|0:0,0:0:0:0:
93,266,16191,5,0,0:0:0:0:
378,209,16341,1,0,0:0:0:0:
131,172,16491,2,0,B|63:174|63:174|19:189,1,109.250002083778,10|0,0:0|0:0,0:0:0:0:
234,115,16791,6,0,B|266:204|206:263|206:263|221:293|217:328,1,218.500004167557,2|8,0:0|0:0,0:0:0:0:
366,245,17241,1,0,0:0:0:0:
152,182,17391,1,0,0:0:0:0:
401,135,17541,1,0,0:0:0:0:
401,135,17616,1,0,0:0:0:0:
401,135,17691,2,0,L|513:132,1,109.250002083778,8|0,0:0|0:0,0:0:0:0:
307,347,17991,5,0,0:0:0:0:
170,196,18141,1,0,0:0:0:0:
396,151,18290,2,0,L|508:148,1,109.250002083778,8|0,0:0|0:0,0:0:0:0:
322,367,18590,5,0,0:0:0:0:
188,210,18740,1,0,0:0:0:0:
393,174,18890,2,0,B|453:169|453:169|509:178,1,109.250002083778,10|0,0:0|0:0,0:0:0:0:
279,302,19190,6,0,B|265:232|265:232|270:188|270:188|230:153|227:88,1,218.500004167557,6|8,0:0|0:0,0:0:0:0:
92,213,19640,2,0,P|76:277|81:328,1,109.250002083778
205,185,19940,1,0,0:0:0:0:
205,185,20015,1,0,0:0:0:0:
205,185,20090,2,0,P|207:130|192:78,1,109.250002083778,8|0,0:0|0:0,0:0:0:0:
76,198,20390,5,0,0:0:0:0:
311,147,20540,1,0,0:0:0:0:
58,180,20690,2,0,L|42:64,1,109.250002083778,8|0,0:0|0:0,0:0:0:0:
278,273,20989,5,0,0:0:0:0:
43,222,21139,1,0,0:0:0:0:
296,255,21289,2,0,L|312:139,1,109.250002083778,10|0,0:0|0:0,0:0:0:0:
121,277,21589,6,0,B|75:310|75:310|12:313,1,109.250002083778,2|0,0:0|0:0,0:0:0:0:
167,189,21889,1,8,0:0:0:0:
230,342,22039,1,0,0:0:0:0:
51,193,22189,1,0,0:0:0:0:
316,247,22339,1,0,0:0:0:0:
316,247,22414,1,0,0:0:0:0:
316,247,22489,2,0,B|362:280|362:280|425:283,1,109.250002083778,8|0,0:0|0:0,0:0:0:0:
295,88,22789,5,0,0:0:0:0:
295,88,22939,1,0,0:0:0:0:
135,121,23089,2,0,L|-3:126,1,123.499994346619,10|0,0:0|0:0,0:0:0:0:
217,88,23389,5,0,0:0:0:0:
217,88,23539,1,0,0:0:0:0:
377,121,23688,2,0,L|515:126,1,95,10|0,0:0|0:0,0:0:0:0:
331,302,23988,5,4,0:0:0:0:
324,328,24288,2,0,B|263:334|263:334|217:329,1,80.750001540184,8|0,0:0|0:0,0:0:0:0:
133,307,24588,2,0,B|113:304|113:304|52:310,1,80.750001540184
191,192,24888,1,8,0:0:0:0:
218,200,25188,5,0,0:0:0:0:
394,197,25338,1,0,0:0:0:0:
197,219,25488,2,0,L|92:215,1,80.750001540184,8|0,0:0|0:0,0:0:0:0:
325,91,25788,5,0,0:0:0:0:
294,333,25938,1,0,0:0:0:0:
180,236,26088,1,8,0:0:0:0:
153,234,26387,5,0,0:0:0:0:
292,152,26687,2,0,L|395:147,1,80.750001540184,8|0,0:0|0:0,0:0:0:0:
125,231,26987,2,0,L|22:226,1,80.750001540184
173,83,27287,1,8,0:0:0:0:
200,88,27587,5,0,0:0:0:0:
223,323,27737,1,0,0:0:0:0:
328,212,27887,2,0,P|373:192|415:192,1,80.750001540184,8|0,0:0|0:0,0:0:0:0:
186,179,28187,2,0,P|147:166|112:130,1,80.750001540184
283,65,28487,1,8,0:0:0:0:
175,195,28787,6,0,B|42:201|42:201|66:186,1,161.500003080368,4|8,0:0|0:0,0:0:0:0:
276,128,29236,2,0,B|300:211|300:211|267:289,1,161.500003080368
176,77,29686,1,8,0:0:0:0:
184,50,29986,5,0,0:0:0:0:
392,109,30136,1,0,0:0:0:0:
160,215,30286,2,0,B|117:241|117:307|117:307|101:268|62:261,1,161.500003080368,8|0,0:0|0:0,0:0:0:0:
42,155,30736,1,0,0:0:0:0:
283,106,30886,1,8,0:0:0:0:
309,115,31186,5,0,0:0:0:0:
111,202,31486,1,8,0:0:0:0:
331,125,31635,2,0,L|496:118,1,161.500003080368
236,197,32085,2,0,P|216:147|233:71,1,121.125002310276,8|0,0:0|0:0,0:0:0:0:
258,50,32385,5,0,0:0:0:0:
392,228,32535,1,0,0:0:0:0:
181,260,32685,2,0,B|101:270|101:270|57:246,1,113.999996520996,8|0,0:0|0:0,0:0:0:0:
24,188,32910,1,0,0:0:0:0:
24,188,32985,5,0,0:0:0:0:
227,107,33135,1,0,0:0:0:0:
12,206,33285,2,0,B|-3:244|-3:244|5:318,1,99.7499969558717,8|0,0:0|0:0,0:0:0:0:
80,363,33585,6,0,B|136:371|136:371|163:365|163:365|200:383|260:370,1,161.500003080368,4|8,0:0|0:0,0:0:0:0:
356,318,34035,1,0,0:0:0:0:
308,188,34185,1,0,0:0:0:0:
191,279,34334,1,0,0:0:0:0:
477,231,34484,1,8,0:0:0:0:
485,205,34784,5,0,0:0:0:0:
303,164,34934,1,0,0:0:0:0:
170,297,35084,2,0,P|116:312|36:240,1,161.500003080368,8|0,0:0|0:0,0:0:0:0:
159,141,35534,1,0,0:0:0:0:
308,188,35684,2,0,L|403:190,1,80.750001540184,8|0,0:0|0:0,0:0:0:0:
153,314,35984,5,0,0:0:0:0:
134,334,36284,2,0,L|48:340,1,80.750001540184,8|0,0:0|0:0,0:0:0:0:
270,277,36584,2,0,L|356:283,1,80.750001540184
135,195,36884,2,0,P|111:156|107:104,1,80.750001540184,8|0,0:0|0:0,0:0:0:0:
285,286,37183,5,0,0:0:0:0:
116,354,37333,1,0,0:0:0:0:
304,298,37483,2,0,L|395:293,1,80.750001540184,8|0,0:0|0:0,0:0:0:0:
126,266,37783,2,0,P|79:275|46:299,1,80.750001540184
235,162,38083,1,8,0:0:0:0:
252,141,38383,6,0,B|376:135|376:135|426:163,1,161.500003080368,4|8,0:0|0:0,0:0:0:0:
190,233,38833,2,0,P|152:186|153:82,1,161.500003080368
304,247,39283,1,8,0:0:0:0:
315,273,39583,5,0,0:0:0:0:
111,320,39732,1,0,0:0:0:0:
325,298,39882,2,0,L|424:304,1,80.750001540184,8|0,0:0|0:0,0:0:0:0:
100,345,40182,2,0,L|1:351,1,80.750001540184
201,204,40482,1,8,0:0:0:0:
209,178,40782,5,0,0:0:0:0:
384,284,41082,1,8,0:0:0:0:
286,328,41232,2,0,L|116:336,1,161.500003080368
388,192,41682,2,0,P|443:214|481:281,1,121.125002310276,8|0,0:0|0:0,0:0:0:0:
487,307,41982,5,0,0:0:0:0:
318,289,42132,1,0,0:0:0:0:
149,268,42281,1,8,0:0:0:0:
133,290,42581,6,0,L|52:294,1,80.750001540184
238,199,42881,2,0,L|318:203,1,80.750001540184,8|0,0:0|0:0,0:0:0:0:
113,74,43181,5,14,0:3:0:0:
146,276,43331,1,0,0:0:0:0:
43,130,43481,1,8,0:0:0:0:
224,215,43631,1,0,0:0:0:0:
44,295,43781,5,10,0:3:0:0:
113,74,43931,1,0,0:0:0:0:
185,357,44081,1,8,0:0:0:0:
110,49,44231,1,0,0:0:0:0:
33,318,44381,5,10,0:3:0:0:
298,242,44531,1,0,0:0:0:0:
7,182,44681,1,8,0:0:0:0:
207,264,44831,1,0,0:0:0:0:
106,25,44980,5,10,0:3:0:0:
45,303,45130,1,0,0:0:0:0:
317,222,45280,2,0,B|399:211|399:211|475:220,1,142.5,10|0,0:0|0:0,0:0:0:0:
402,303,45580,5,6,0:3:0:0:
402,303,47679,5,8,0:0:0:0:
425,296,47979,6,0,B|430:214|430:214|392:140,1,142.500005435944,6|0,0:0|0:0,0:0:0:0:
242,108,48279,1,8,0:0:0:0:
400,37,48429,1,0,0:0:0:0:
400,37,48504,1,0,0:0:0:0:
400,37,48579,2,0,B|450:21|501:31|501:31|476:36|456:54,1,142.500005435944
228,123,48879,2,0,L|75:120,1,142.500005435944,8|0,0:0|0:0,0:0:0:0:
365,375,49179,5,0,0:0:0:0:
211,138,49329,1,0,0:0:0:0:
406,180,49479,1,8,0:0:0:0:
170,334,49629,1,0,0:0:0:0:
170,334,49704,1,0,0:0:0:0:
170,334,49779,5,0,0:0:0:0:
211,138,49929,1,0,0:0:0:0:
406,180,50079,1,8,0:0:0:0:
365,375,50229,1,0,0:0:0:0:
142,225,50378,6,0,B|84:198|84:198|-6:203,1,142.500005435944
297,181,50678,1,8,0:0:0:0:
217,352,50828,1,0,0:0:0:0:
195,155,50978,2,0,L|184:56,1,71.2500027179719
312,199,51128,2,0,L|304:269,1,71.2500027179719
196,339,51278,2,0,B|95:329|95:329|49:298,1,142.500005435944,8|0,0:0|0:0,0:0:0:0:
386,131,51578,6,0,P|412:197|388:269,1,142.500005435944,2|0,0:0|0:0,0:0:0:0:
179,175,51878,1,8,0:0:0:0:
314,54,52028,1,0,0:0:0:0:
314,54,52103,1,0,0:0:0:0:
314,54,52178,2,0,B|388:40|388:40|472:62,1,142.500005435944
384,288,52478,1,8,0:0:0:0:
377,313,52778,6,0,B|304:330|304:330|267:300|252:338|200:306|200:306|151:333|97:326,1,285.000010871888,4|8,0:0|0:0,0:0:0:0:
245,143,53227,1,0,0:0:0:0:
245,143,53302,1,0,0:0:0:0:
245,143,53377,2,0,B|332:127|332:127|403:132,1,142.500005435944
214,245,53677,2,0,P|152:201|129:128,1,142.500005435944,8|0,0:0|0:0,0:0:0:0:
184,353,53977,6,0,B|84:358|84:358|17:341,1,142.500005435944
155,205,54277,1,8,0:0:0:0:
338,325,54427,1,0,0:0:0:0:
338,325,54502,1,0,0:0:0:0:
338,325,54577,2,0,L|486:330,1,142.500005435944
166,227,54877,2,0,L|18:232,1,142.500005435944,8|0,0:0|0:0,0:0:0:0:
262,369,55177,5,0,0:0:0:0:
432,150,55327,1,0,0:0:0:0:
166,227,55477,1,8,0:0:0:0:
426,321,55626,1,0,0:0:0:0:
271,92,55776,5,0,0:0:0:0:
166,227,55926,1,0,0:0:0:0:
262,369,56076,1,8,0:0:0:0:
426,321,56226,1,0,0:0:0:0:
432,150,56376,6,0,B|437:84|437:84|415:3,1,142.500005435944,2|0,0:0|0:0,0:0:0:0:
337,211,56676,2,0,P|392:257|477:261,1,142.500005435944,8|0,0:0|0:0,0:0:0:0:
330,100,56976,2,0,B|247:94|247:94|175:105,1,142.500005435944
89,292,57276,6,0,P|114:331|89:282,1,285,8|0,0:0|0:0,0:0:0:0:
200,256,57576,6,0,B|302:251|302:251|342:265|342:265|412:235|484:252,1,285.000010871888,4|8,0:0|0:0,0:0:0:0:
512,125,58026,1,0,0:0:0:0:
512,125,58101,1,0,0:0:0:0:
512,125,58176,2,0,B|501:57|501:57|446:-11,1,142.500005435944
293,58,58475,2,0,B|246:115|246:115|235:183,1,142.500005435944,8|0,0:0|0:0,0:0:0:0:
429,328,58775,5,0,0:0:0:0:
275,72,58925,1,0,0:0:0:0:
224,277,59075,1,8,0:0:0:0:
479,123,59225,1,0,0:0:0:0:
479,123,59300,1,0,0:0:0:0:
479,123,59375,5,0,0:0:0:0:
316,344,59525,1,0,0:0:0:0:
388,55,59675,1,8,0:0:0:0:
429,328,59825,1,0,0:0:0:0:
207,164,59975,6,0,B|100:158|100:158|49:134,1,142.500005435944
259,89,60275,1,8,0:0:0:0:
347,247,60425,1,0,0:0:0:0:
347,247,60500,1,0,0:0:0:0:
347,247,60575,2,0,L|356:333,1,71.2500027179719
231,173,60725,2,0,L|238:102,1,71.2500027179719
467,196,60875,2,0,B|476:289|476:289|460:337,1,142.500005435944,8|0,0:0|0:0,0:0:0:0:
252,183,61174,5,0,0:0:0:0:
472,125,61324,1,0,0:0:0:0:
230,198,61474,2,0,L|83:204,1,142.500005435944,8|0,0:0|0:0,0:0:0:0:
37,174,61699,1,0,0:0:0:0:
37,174,61774,2,0,B|20:97|20:97|50:37,1,142.500005435944
304,12,62074,1,8,0:0:0:0:
324,28,62374,6,0,B|351:80|351:80|338:99|336:120|336:120|318:134|311:160|311:160|310:191|341:229|341:229|328:258|331:292,1,285.000010871888,4|8,0:0|0:0,0:0:0:0:
131,168,62824,1,0,0:0:0:0:
341,44,62974,2,0,L|496:39,1,142.500005435944
142,189,63274,2,0,L|-13:184,1,142.500005435944,8|0,0:0|0:0,0:0:0:0:
444,234,63574,5,0,0:0:0:0:
257,40,63723,1,0,0:0:0:0:
244,340,63873,1,8,0:0:0:0:
336,148,64023,1,0,0:0:0:0:
336,148,64098,1,0,0:0:0:0:
336,148,64173,5,0,0:0:0:0:
76,113,64323,1,0,0:0:0:0:
261,322,64473,1,8,0:0:0:0:
1,287,64623,1,0,0:0:0:0:
336,148,64773,6,0,P|422:151|323:198,1,285.000010871888,0|8,0:0|0:0,0:0:0:0:
282,62,65223,1,0,0:0:0:0:
282,62,65298,1,0,0:0:0:0:
282,62,65373,2,0,P|355:29|436:40,1,142.500005435944
478,304,65673,2,0,P|405:337|324:326,1,142.500005435944,8|0,0:0|0:0,0:0:0:0:
64,268,65973,5,0,0:0:0:0:
293,76,66123,1,0,0:0:0:0:
38,121,66272,1,8,0:0:0:0:
319,223,66422,1,0,0:0:0:0:
153,25,66572,5,0,0:0:0:0:
205,320,66722,1,0,0:0:0:0:
293,76,66872,1,8,0:0:0:0:
64,268,67022,1,0,0:0:0:0:
64,268,67097,1,0,0:0:0:0:
64,268,67172,6,0,B|41:186|41:186|55:98,1,142.500005435944,4|0,0:0|0:0,0:0:0:0:
335,209,67472,2,0,B|344:265|344:265|321:347,1,142.500005435944,8|0,0:0|0:0,0:0:0:0:
64,107,67772,5,0,0:0:0:0:
349,79,67922,1,0,0:0:0:0:
465,346,68072,5,8,0:0:0:0:
180,318,68222,1,0,0:0:0:0:
349,79,68372,5,0,0:0:0:0:
349,79,68522,1,0,0:0:0:0:
205,135,68672,2,0,B|95:144|95:144|37:132,1,161.500003080368,8|0,0:0|0:0,0:0:0:0:
261,36,68971,5,0,0:0:0:0:
261,36,69121,1,0,0:0:0:0:
176,122,69271,2,0,B|78:129|78:129|38:115,1,123.499994346619,8|0,0:0|0:0,0:0:0:0:
181,302,69571,5,4,0:0:0:0:
188,328,69871,2,0,B|249:334|249:334|295:329,1,80.750001540184,8|0,0:0|0:0,0:0:0:0:
379,307,70171,2,0,B|399:304|399:304|460:310,1,80.750001540184
321,192,70471,1,8,0:0:0:0:
294,200,70771,5,0,0:0:0:0:
118,197,70921,1,0,0:0:0:0:
315,219,71071,2,0,L|420:215,1,80.750001540184,8|0,0:0|0:0,0:0:0:0:
187,91,71371,5,0,0:0:0:0:
218,333,71521,1,0,0:0:0:0:
332,236,71671,1,8,0:0:0:0:
359,234,71970,5,0,0:0:0:0:
220,152,72270,2,0,L|117:147,1,80.750001540184,8|0,0:0|0:0,0:0:0:0:
387,231,72570,2,0,L|490:226,1,80.750001540184
339,83,72870,1,8,0:0:0:0:
312,88,73170,5,0,0:0:0:0:
289,323,73320,1,0,0:0:0:0:
184,212,73470,2,0,P|139:192|97:192,1,80.750001540184,8|0,0:0|0:0,0:0:0:0:
326,179,73770,2,0,P|365:166|400:130,1,80.750001540184
229,65,74070,1,8,0:0:0:0:
337,195,74370,6,0,B|470:201|470:201|446:186,1,161.500003080368,4|8,0:0|0:0,0:0:0:0:
236,128,74819,2,0,B|212:211|212:211|245:289,1,161.500003080368
336,77,75269,1,8,0:0:0:0:
328,50,75569,5,0,0:0:0:0:
120,109,75719,1,0,0:0:0:0:
352,215,75869,2,0,L|447:218,1,80.750001540184,8|0,0:0|0:0,0:0:0:0:
241,288,76169,2,0,L|146:291,1,80.750001540184
229,106,76469,1,8,0:0:0:0:
253,92,76769,5,0,0:0:0:0:
432,217,77069,1,8,0:0:0:0:
275,79,77218,2,0,L|110:72,1,161.500003080368
265,193,77668,2,0,P|285:143|268:67,1,121.125002310276,8|0,0:0|0:0,0:0:0:0:
255,51,77968,5,0,0:0:0:0:
120,228,78118,1,0,0:0:0:0:
331,260,78268,2,0,B|411:270|411:270|455:246,1,113.999996520996,8|0,0:0|0:0,0:0:0:0:
488,188,78493,1,0,0:0:0:0:
488,188,78568,5,0,0:0:0:0:
285,107,78718,1,0,0:0:0:0:
500,206,78868,2,0,B|515:244|515:244|507:318,1,99.7499969558717,8|0,0:0|0:0,0:0:0:0:
432,363,79168,6,0,B|376:371|376:371|349:365|349:365|312:383|252:370,1,161.500003080368,4|8,0:0|0:0,0:0:0:0:
156,318,79618,1,0,0:0:0:0:
204,188,79768,1,0,0:0:0:0:
321,279,79917,1,0,0:0:0:0:
35,231,80067,1,8,0:0:0:0:
27,205,80367,5,0,0:0:0:0:
209,164,80517,1,0,0:0:0:0:
342,297,80667,2,0,P|396:312|476:240,1,161.500003080368,8|0,0:0|0:0,0:0:0:0:
353,141,81117,1,0,0:0:0:0:
204,188,81267,2,0,L|109:190,1,80.750001540184,8|0,0:0|0:0,0:0:0:0:
359,314,81567,5,0,0:0:0:0:
378,334,81867,2,0,L|464:340,1,80.750001540184,8|0,0:0|0:0,0:0:0:0:
242,277,82167,2,0,L|156:283,1,80.750001540184
377,195,82467,2,0,P|401:156|405:104,1,80.750001540184,8|0,0:0|0:0,0:0:0:0:
227,286,82766,5,0,0:0:0:0:
396,354,82916,1,0,0:0:0:0:
208,298,83066,2,0,L|117:293,1,80.750001540184,8|0,0:0|0:0,0:0:0:0:
386,266,83366,2,0,P|433:275|466:299,1,80.750001540184
277,162,83666,1,8,0:0:0:0:
260,141,83966,6,0,B|136:135|136:135|86:163,1,161.500003080368,4|8,0:0|0:0,0:0:0:0:
322,233,84416,2,0,P|360:186|359:82,1,161.500003080368
208,247,84866,1,8,0:0:0:0:
197,273,85166,5,0,0:0:0:0:
401,320,85315,1,0,0:0:0:0:
187,298,85465,2,0,L|88:304,1,80.750001540184,8|0,0:0|0:0,0:0:0:0:
412,345,85765,2,0,L|511:351,1,80.750001540184
311,204,86065,1,8,0:0:0:0:
303,178,86365,5,0,0:0:0:0:
128,284,86665,1,8,0:0:0:0:
226,328,86815,2,0,L|396:336,1,161.500003080368
124,192,87265,2,0,P|69:214|31:281,1,121.125002310276,8|0,0:0|0:0,0:0:0:0:
25,307,87565,5,0,0:0:0:0:
194,289,87715,1,0,0:0:0:0:
363,268,87864,1,8,0:0:0:0:
379,290,88164,6,0,L|460:294,1,80.750001540184
274,199,88464,2,0,L|194:203,1,80.750001540184,8|0,0:0|0:0,0:0:0:0:
45,264,88764,5,14,0:3:0:0:
85,52,88914,1,0,0:0:0:0:
126,342,89064,1,8,0:0:0:0:
49,151,89214,1,0,0:0:0:0:
296,250,89364,5,10,0:3:0:0:
126,342,89514,1,0,0:0:0:0:
175,89,89664,1,8,0:0:0:0:
200,257,89814,1,0,0:0:0:0:
24,153,89964,5,10,0:3:0:0:
297,107,90114,1,0,0:0:0:0:
19,180,90263,1,8,0:0:0:0:
308,131,90413,1,0,0:0:0:0:
110,315,90563,5,10,0:3:0:0:
140,42,90713,1,0,0:0:0:0:
376,182,90863,2,0,P|439:197|509:157,1,142.5,10|0,0:0|0:0,0:0:0:0:
430,106,91163,5,2,0:3:0:0:
429,106,92962,5,8,0:0:0:0:
215,61,93112,1,2,0:3:0:0:
170,275,93262,1,8,0:0:0:0:
383,320,93412,1,2,0:3:0:0:
179,150,93562,6,0,B|110:109|110:109|39:99,1,142.500005435944,4|0,0:0|0:0,0:0:0:0:
228,48,93862,1,8,0:0:0:0:
283,213,94012,1,0,0:0:0:0:
283,213,94087,1,0,0:0:0:0:
283,213,94162,2,0,L|291:359,1,142.500005435944
48,100,94462,2,0,L|40:242,1,142.500005435944,8|0,0:0|0:0,0:0:0:0:
147,375,94762,5,0,0:0:0:0:
301,138,94912,1,0,0:0:0:0:
106,180,95062,1,8,0:0:0:0:
342,334,95212,1,0,0:0:0:0:
342,334,95287,1,0,0:0:0:0:
342,334,95362,5,0,0:0:0:0:
301,138,95512,1,0,0:0:0:0:
106,180,95662,1,8,0:0:0:0:
147,375,95812,1,0,0:0:0:0:
370,225,95961,6,0,B|428:198|428:198|518:203,1,142.500005435944
215,181,96261,1,8,0:0:0:0:
295,352,96411,1,0,0:0:0:0:
317,155,96561,2,0,L|328:56,1,71.2500027179719
200,199,96711,2,0,L|208:269,1,71.2500027179719
316,339,96861,2,0,B|417:329|417:329|463:298,1,142.500005435944,8|0,0:0|0:0,0:0:0:0:
126,131,97161,6,0,P|100:197|124:269,1,142.500005435944,2|0,0:0|0:0,0:0:0:0:
333,175,97461,1,8,0:0:0:0:
198,54,97611,1,0,0:0:0:0:
198,54,97686,1,0,0:0:0:0:
198,54,97761,2,0,B|124:40|124:40|40:62,1,142.500005435944
128,288,98061,1,8,0:0:0:0:
135,313,98361,6,0,B|208:330|208:330|245:300|260:338|312:306|312:306|361:333|415:326,1,285.000010871888,4|8,0:0|0:0,0:0:0:0:
267,143,98810,1,0,0:0:0:0:
267,143,98885,1,0,0:0:0:0:
267,143,98960,2,0,B|180:127|180:127|109:132,1,142.500005435944
298,245,99260,2,0,P|360:201|383:128,1,142.500005435944,8|0,0:0|0:0,0:0:0:0:
328,353,99560,6,0,B|428:358|428:358|495:341,1,142.500005435944
357,205,99860,1,8,0:0:0:0:
174,325,100010,1,0,0:0:0:0:
174,325,100085,1,0,0:0:0:0:
174,325,100160,2,0,L|26:330,1,142.500005435944
346,227,100460,2,0,L|494:232,1,142.500005435944,8|0,0:0|0:0,0:0:0:0:
250,369,100760,5,0,0:0:0:0:
80,150,100910,1,0,0:0:0:0:
346,227,101060,1,8,0:0:0:0:
86,321,101209,1,0,0:0:0:0:
241,92,101359,5,0,0:0:0:0:
346,227,101509,1,0,0:0:0:0:
250,369,101659,1,8,0:0:0:0:
86,321,101809,1,0,0:0:0:0:
80,150,101959,6,0,B|75:84|75:84|97:3,1,142.500005435944,2|0,0:0|0:0,0:0:0:0:
175,211,102259,2,0,P|120:257|35:261,1,142.500005435944,8|0,0:0|0:0,0:0:0:0:
182,100,102559,2,0,B|265:94|265:94|337:105,1,142.500005435944
423,292,102859,6,0,P|398:331|423:282,1,285,8|0,0:0|0:0,0:0:0:0:
312,256,103159,6,0,B|210:251|210:251|170:265|170:265|100:235|28:252,1,285.000010871888,4|8,0:0|0:0,0:0:0:0:
0,125,103609,1,0,0:0:0:0:
0,125,103684,1,0,0:0:0:0:
0,125,103759,2,0,B|11:57|11:57|66:-11,1,142.500005435944
219,58,104058,2,0,B|266:115|266:115|277:183,1,142.500005435944,8|0,0:0|0:0,0:0:0:0:
83,328,104358,5,0,0:0:0:0:
237,72,104508,1,0,0:0:0:0:
288,277,104658,1,8,0:0:0:0:
33,123,104808,1,0,0:0:0:0:
33,123,104883,1,0,0:0:0:0:
33,123,104958,5,0,0:0:0:0:
196,344,105108,1,0,0:0:0:0:
124,55,105258,1,8,0:0:0:0:
83,328,105408,1,0,0:0:0:0:
305,164,105558,6,0,B|412:158|412:158|463:134,1,142.500005435944
253,89,105858,1,8,0:0:0:0:
165,247,106008,1,0,0:0:0:0:
165,247,106083,1,0,0:0:0:0:
165,247,106158,2,0,L|156:333,1,71.2500027179719
281,173,106308,2,0,L|274:102,1,71.2500027179719
45,196,106458,2,0,B|36:289|36:289|52:337,1,142.500005435944,8|0,0:0|0:0,0:0:0:0:
260,183,106757,5,0,0:0:0:0:
40,125,106907,1,0,0:0:0:0:
282,198,107057,2,0,L|429:204,1,142.500005435944,8|0,0:0|0:0,0:0:0:0:
475,174,107282,1,0,0:0:0:0:
475,174,107357,2,0,B|492:97|492:97|462:37,1,142.500005435944
208,12,107657,1,8,0:0:0:0:
188,28,107957,6,0,B|161:80|161:80|174:99|176:120|176:120|194:134|201:160|201:160|202:191|171:229|171:229|184:258|181:292,1,285.000010871888,4|8,0:0|0:0,0:0:0:0:
381,168,108407,1,0,0:0:0:0:
171,44,108557,2,0,L|16:39,1,142.500005435944
370,189,108857,2,0,L|525:184,1,142.500005435944,8|0,0:0|0:0,0:0:0:0:
68,234,109157,5,0,0:0:0:0:
255,40,109306,1,0,0:0:0:0:
268,340,109456,1,8,0:0:0:0:
176,148,109606,1,0,0:0:0:0:
176,148,109681,1,0,0:0:0:0:
176,148,109756,5,0,0:0:0:0:
436,113,109906,1,0,0:0:0:0:
251,322,110056,1,8,0:0:0:0:
511,287,110206,1,0,0:0:0:0:
176,148,110356,6,0,P|90:151|189:198,1,285.000010871888,0|8,0:0|0:0,0:0:0:0:
230,62,110806,1,0,0:0:0:0:
230,62,110881,1,0,0:0:0:0:
230,62,110956,2,0,P|157:29|76:40,1,142.500005435944
34,304,111256,2,0,P|107:337|188:326,1,142.500005435944,8|0,0:0|0:0,0:0:0:0:
448,268,111556,5,0,0:0:0:0:
219,76,111706,1,0,0:0:0:0:
474,121,111855,1,8,0:0:0:0:
193,223,112005,1,0,0:0:0:0:
359,25,112155,5,0,0:0:0:0:
307,320,112305,1,0,0:0:0:0:
219,76,112455,1,8,0:0:0:0:
448,268,112605,1,0,0:0:0:0:
448,268,112680,1,0,0:0:0:0:
448,268,112755,6,0,B|471:186|471:186|457:98,1,142.500005435944,4|0,0:0|0:0,0:0:0:0:
177,209,113055,2,0,B|168:265|168:265|191:347,1,142.500005435944,8|0,0:0|0:0,0:0:0:0:
448,107,113355,5,0,0:0:0:0:
163,79,113505,1,0,0:0:0:0:
47,346,113655,5,8,0:0:0:0:
332,318,113805,1,0,0:0:0:0:
163,79,113955,5,0,0:0:0:0:
163,79,114105,1,0,0:0:0:0:
307,135,114255,2,0,B|417:144|417:144|475:132,1,161.500003080368,8|0,0:0|0:0,0:0:0:0:
251,36,114554,5,0,0:0:0:0:
251,36,114704,1,0,0:0:0:0:
336,122,114854,2,0,B|434:129|434:129|474:115,1,123.499994346619,8|0,0:0|0:0,0:0:0:0:
124,184,115163,5,10,0:0:0:0:
124,184,119347,6,2,B|178:194|222:157|222:157|305:183|361:116,1,249.375009512902,2|0,0:0|0:0,0:0:0:0:
431,163,119946,6,0,L|436:241,1,71.2500027179719,4|0,0:0|0:0,0:0:0:0:
285,156,120545,2,0,L|289:84,1,71.2500027179719,0|0,0:0|0:0,0:0:0:0:
118,159,121145,5,8,0:0:0:0:
167,368,121445,1,0,0:0:0:0:
327,111,121745,1,0,0:0:0:0:
375,319,122045,1,0,0:0:0:0:
125,179,122345,6,0,P|83:169|32:173,1,71.2500027179719,0|0,0:0|0:0,0:0:0:0:
262,253,122944,2,0,P|304:263|355:259,1,71.2500027179719,0|0,0:0|0:0,0:0:0:0:
193,313,123394,1,0,0:0:0:0:
200,89,123544,6,0,L|202:3,1,71.2500027179719,8|0,0:0|0:0,0:0:0:0:
438,142,124144,6,2,P|453:182|432:137,1,285,10|0,0:0|0:0,0:0:0:0:
406,316,124744,6,0,P|368:314|327:293,1,71.2500027179719,4|0,0:0|0:0,0:0:0:0:
401,46,125343,2,0,P|436:47|469:60,1,71.2500027179719,0|0,0:0|0:0,0:0:0:0:
180,214,125943,5,8,0:0:0:0:
482,246,126243,1,0,0:0:0:0:
222,330,126543,1,0,0:0:0:0:
442,127,126843,1,0,0:0:0:0:
161,227,127143,6,0,L|75:234,1,71.2500027179719,0|0,0:0|0:0,0:0:0:0:
342,316,127743,2,0,L|428:323,1,71.2500027179719,0|0,0:0|0:0,0:0:0:0:
491,263,128192,5,0,0:0:0:0:
448,33,128342,1,10,0:0:0:0:
448,33,128642,5,8,0:0:0:0:
240,58,128792,1,8,0:0:0:0:
344,207,128942,5,8,0:0:0:0:
136,182,129092,1,8,0:0:0:0:
262,364,129242,5,8,0:0:0:0:
8,244,129392,1,8,0:0:0:0:
344,207,129542,6,0,L|434:204,1,71.2500027179719,4|0,0:0|0:0,0:0:0:0:
122,167,130142,2,0,L|32:164,2,71.2500027179719,0|0|8,0:0|0:0|0:0,0:0:0:0:
272,134,131041,1,0,0:0:0:0:
193,256,131341,2,0,P|151:277|120:278,1,71.2500027179719,0|0,0:0|0:0,0:0:0:0:
274,48,131941,6,0,P|320:62|347:86,1,71.2500027179719,0|0,0:0|0:0,0:0:0:0:
117,298,132541,2,0,P|109:249|121:206,1,71.2500027179719,0|0,0:0|0:0,0:0:0:0:
159,140,132991,1,0,0:0:0:0:
399,183,133141,6,0,L|494:184,1,71.2500027179719,8|0,0:0|0:0,0:0:0:0:
235,260,133740,6,2,B|167:234|161:139|161:139|124:134|124:134|124:98|124:98|93:91|75:59,1,285,10|0,0:0|0:0,0:0:0:0:
209,28,134340,6,0,L|299:26,1,71.2500027179719,4|0,0:0|0:0,0:0:0:0:
428,63,134940,1,0,0:0:0:0:
431,78,135240,1,0,0:0:0:0:
269,225,135540,5,8,0:0:0:0:
498,145,135840,1,0,0:0:0:0:
173,99,136139,2,0,L|87:98,1,71.2500027179719,0|0,0:0|0:0,0:0:0:0:
345,162,136739,6,0,L|431:161,1,71.2500027179719,0|0,0:0|0:0,0:0:0:0:
152,110,137339,2,0,P|108:133|84:163,1,71.2500027179719,0|0,0:0|0:0,0:0:0:0:
60,251,137789,1,0,0:0:0:0:
359,325,137939,6,0,L|456:326,1,71.2500027179719,8|0,0:0|0:0,0:0:0:0:
121,268,138539,2,0,L|24:269,1,71.2500027179719,8|0,0:0|0:0,0:0:0:0:
352,178,139138,6,0,P|385:144|379:43,1,142.500005435944,4|0,0:0|0:0,0:0:0:0:
220,158,140038,1,0,0:0:0:0:
409,250,140338,6,0,L|486:255,1,71.2500027179719,8|0,0:0|0:0,0:0:0:0:
240,320,140938,2,0,L|163:325,1,71.2500027179719,0|0,0:0|0:0,0:0:0:0:
33,226,141537,5,0,0:0:0:0:
79,38,141837,1,0,0:0:0:0:
92,320,142137,5,0,0:0:0:0:
46,132,142437,1,0,0:0:0:0:
133,171,142587,1,0,0:0:0:0:
299,109,142737,6,0,L|391:105,1,71.2500027179719,8|0,0:0|0:0,0:0:0:0:
121,188,143337,2,0,L|29:184,1,71.2500027179719,8|0,0:0|0:0,0:0:0:0:
351,267,143937,6,0,P|394:307|414:364,1,95,0|0,0:0|0:0,0:0:0:0:
214,292,144536,6,0,P|220:226|270:160,1,118.75
356,118,144986,1,0,0:0:0:0:
146,39,145136,6,0,L|-12:36,1,142.500005435944,8|0,0:0|0:0,0:0:0:0:
346,141,145736,6,0,L|522:138,1,166.250001585484,10|0,0:0|0:0,0:0:0:0:
155,241,146336,1,0,0:0:0:0:
