osu file format v14

[General]
AudioFilename: audio.mp3
AudioLeadIn: 0
PreviewTime: 46330
Countdown: 0
SampleSet: None
StackLeniency: 0.2
Mode: 1
LetterboxInBreaks: 0
WidescreenStoryboard: 1

[Editor]
DistanceSpacing: 0.2
BeatDivisor: 4
GridSize: 8
TimelineZoom: 1.6

[Metadata]
Title:Given Up
TitleUnicode:Given Up
Artist:Linkin Park
ArtistUnicode:Linkin Park
Creator:ronaldonater
Version:Oni
Source:
Tags:minutes to midnight metal punk rock alternative
BeatmapID:1913350
BeatmapSetID:916161

[Difficulty]
HPDrainRate:5
CircleSize:2
OverallDifficulty:5
ApproachRate:9.6
SliderMultiplier:1.2
SliderTickRate:1

[Events]
//Background and Video events
0,0,"edgey.jpg",0,0
//Break Periods
//Storyboard Layer 0 (Background)
//Storyboard Layer 1 (Fail)
//Storyboard Layer 2 (Pass)
//Storyboard Layer 3 (Foreground)
//Storyboard Sound Samples

[TimingPoints]
4,299.865060722675,4,1,0,30,1,0
14097,-100,4,1,0,60,0,0
47982,-100,4,1,0,60,0,1
69572,-100,4,1,0,60,0,0
93561,-100,4,1,0,60,0,1
115152,-100,4,1,0,40,0,0
119350,-100,4,1,0,50,0,0
119950,-125,4,1,0,60,0,0
143939,-142.857142857143,4,1,0,60,0,0
145138,-166.666666666667,4,1,0,60,0,0
146338,-200,4,1,0,60,0,1
154734,-166.666666666667,4,1,0,60,0,1
155034,-142.857142857143,4,1,0,60,0,1
155334,-125,4,1,0,60,0,1
155633,-111.111111111111,4,1,0,60,0,1
155933,-100,4,1,0,60,0,0
165529,-100,4,1,0,60,0,1
187119,-100,4,1,0,60,0,0

[Colours]
Combo1 : 106,106,106
Combo2 : 197,197,197

[HitObjects]
203,181,4,5,8,0:0:0:0:
203,181,303,1,8,0:0:0:0:
203,181,603,1,8,0:0:0:0:
203,181,903,1,8,0:0:0:0:
203,181,1203,1,8,0:0:0:0:
203,181,1503,1,8,0:0:0:0:
203,181,1803,1,8,0:0:0:0:
203,181,2103,1,8,0:0:0:0:
203,181,2402,1,8,0:0:0:0:
203,181,2702,1,8,0:0:0:0:
203,181,3002,1,8,0:0:0:0:
203,181,3302,1,8,0:0:0:0:
203,181,3602,1,8,0:0:0:0:
203,181,3902,1,8,0:0:0:0:
203,181,4202,1,8,0:0:0:0:
203,181,4501,1,8,0:0:0:0:
203,181,4801,1,8,0:0:0:0:
203,181,5101,1,8,0:0:0:0:
358,125,5251,1,0,0:0:0:0:
203,181,5401,1,8,0:0:0:0:
358,125,5551,1,0,0:0:0:0:
203,181,5701,1,8,0:0:0:0:
203,181,6001,1,8,0:0:0:0:
358,125,6151,1,0,0:0:0:0:
203,181,6301,1,8,0:0:0:0:
203,181,6601,1,8,0:0:0:0:
358,125,6750,1,0,0:0:0:0:
203,181,6900,1,8,0:0:0:0:
203,181,7200,1,8,0:0:0:0:
203,181,7500,1,8,0:0:0:0:
358,125,7650,1,0,0:0:0:0:
203,181,7800,1,8,0:0:0:0:
358,125,7950,1,0,0:0:0:0:
203,181,8100,1,8,0:0:0:0:
203,181,8400,1,8,0:0:0:0:
358,125,8550,1,0,0:0:0:0:
203,181,8700,1,8,0:0:0:0:
203,181,8999,1,8,0:0:0:0:
358,125,9149,1,0,0:0:0:0:
203,181,9299,1,8,0:0:0:0:
203,181,9599,1,8,0:0:0:0:
203,181,9899,1,8,0:0:0:0:
358,125,10049,1,0,0:0:0:0:
203,181,10199,1,8,0:0:0:0:
358,125,10349,1,0,0:0:0:0:
203,181,10499,1,8,0:0:0:0:
203,181,10799,1,8,0:0:0:0:
358,125,10949,1,0,0:0:0:0:
203,181,11099,1,8,0:0:0:0:
203,181,11398,1,8,0:0:0:0:
358,125,11548,1,0,0:0:0:0:
203,181,11698,1,8,0:0:0:0:
203,181,11998,1,8,0:0:0:0:
203,181,12298,1,8,0:0:0:0:
358,125,12448,1,0,0:0:0:0:
203,181,12598,1,8,0:0:0:0:
358,125,12748,1,0,0:0:0:0:
203,181,12898,1,8,0:0:0:0:
203,181,13198,1,8,0:0:0:0:
358,125,13347,1,0,0:0:0:0:
203,181,13497,1,8,0:0:0:0:
203,181,13797,1,8,0:0:0:0:
358,125,13947,1,0,0:0:0:0:
203,181,14097,1,12,0:0:0:0:
389,267,14397,1,4,0:0:0:0:
118,245,14697,1,8,0:0:0:0:
118,245,14847,1,0,0:0:0:0:
118,245,14997,1,0,0:0:0:0:
206,143,15147,1,0,0:0:0:0:
206,143,15222,1,0,0:0:0:0:
206,143,15297,1,8,0:0:0:0:
270,331,15447,1,0,0:0:0:0:
118,245,15596,1,8,0:0:0:0:
118,245,15746,1,8,0:0:0:0:
118,245,15896,1,8,0:0:0:0:
288,160,16046,1,0,0:0:0:0:
84,93,16196,1,8,0:0:0:0:
84,93,16346,1,0,0:0:0:0:
84,93,16421,1,0,0:0:0:0:
84,93,16496,1,8,0:0:0:0:
84,93,16796,1,8,0:0:0:0:
311,312,17096,1,8,0:0:0:0:
354,170,17246,1,0,0:0:0:0:
354,170,17396,1,0,0:0:0:0:
354,170,17546,1,0,0:0:0:0:
354,170,17621,1,0,0:0:0:0:
354,170,17696,1,8,0:0:0:0:
97,232,17845,1,0,0:0:0:0:
97,232,17995,1,0,0:0:0:0:
97,232,18145,1,8,0:0:0:0:
97,232,18295,1,8,0:0:0:0:
212,45,18445,1,0,0:0:0:0:
274,330,18595,1,0,0:0:0:0:
63,119,18745,1,0,0:0:0:0:
97,232,18820,1,0,0:0:0:0:
354,170,18895,1,8,0:0:0:0:
97,232,19195,1,4,0:0:0:0:
258,56,19495,1,8,0:0:0:0:
258,56,19645,1,0,0:0:0:0:
242,227,19795,1,0,0:0:0:0:
155,119,19945,1,0,0:0:0:0:
155,119,20019,1,0,0:0:0:0:
155,119,20094,1,8,0:0:0:0:
326,138,20244,1,0,0:0:0:0:
326,138,20394,1,8,0:0:0:0:
326,138,20544,1,0,0:0:0:0:
326,138,20694,1,8,0:0:0:0:
123,249,20844,1,0,0:0:0:0:
123,249,20994,1,0,0:0:0:0:
123,249,21144,1,0,0:0:0:0:
123,249,21219,1,0,0:0:0:0:
123,249,21294,1,8,0:0:0:0:
123,249,21594,1,8,0:0:0:0:
220,66,21894,1,8,0:0:0:0:
220,66,22044,1,0,0:0:0:0:
220,66,22194,1,0,0:0:0:0:
220,66,22343,1,8,0:0:0:0:
220,66,22418,1,8,0:0:0:0:
220,66,22493,1,8,0:0:0:0:
296,267,22643,1,0,0:0:0:0:
119,144,22793,1,8,0:0:0:0:
119,144,22943,1,0,0:0:0:0:
413,186,23093,1,8,0:0:0:0:
119,144,23243,1,8,0:0:0:0:
119,144,23318,1,8,0:0:0:0:
119,144,23393,1,0,0:0:0:0:
119,144,23543,1,0,0:0:0:0:
413,186,23693,1,8,0:0:0:0:
108,280,23843,1,0,0:0:0:0:
108,280,23918,1,0,0:0:0:0:
108,280,23993,1,8,0:0:0:0:
229,64,24293,1,8,0:0:0:0:
229,64,24443,1,0,0:0:0:0:
229,64,24592,1,0,0:0:0:0:
229,64,24742,1,0,0:0:0:0:
229,64,24892,1,8,0:0:0:0:
279,283,25192,1,0,0:0:0:0:
279,283,25342,1,0,0:0:0:0:
279,283,25492,1,8,0:0:0:0:
77,170,25792,1,8,0:0:0:0:
77,170,25942,1,0,0:0:0:0:
77,170,26092,1,8,0:0:0:0:
77,170,26392,1,0,0:0:0:0:
77,170,26691,1,8,0:0:0:0:
77,170,26841,1,0,0:0:0:0:
77,170,26991,1,0,0:0:0:0:
77,170,27141,1,0,0:0:0:0:
77,170,27291,1,8,0:0:0:0:
77,170,27591,1,8,0:0:0:0:
77,170,27741,1,0,0:0:0:0:
77,170,27891,1,8,0:0:0:0:
77,170,28041,1,0,0:0:0:0:
77,170,28191,1,0,0:0:0:0:
77,170,28341,1,0,0:0:0:0:
77,170,28491,1,8,0:0:0:0:
279,67,28791,1,12,0:0:0:0:
77,170,29090,1,8,0:0:0:0:
77,170,29240,1,0,0:0:0:0:
77,170,29540,1,0,0:0:0:0:
77,170,29690,1,8,0:0:0:0:
77,170,29990,1,0,0:0:0:0:
77,170,30140,1,0,0:0:0:0:
77,170,30290,1,8,0:0:0:0:
77,170,30440,1,8,0:0:0:0:
77,170,30590,1,0,0:0:0:0:
77,170,30740,1,0,0:0:0:0:
77,170,30890,1,8,0:0:0:0:
77,170,31189,1,0,0:0:0:0:
77,170,31489,1,8,0:0:0:0:
77,170,31639,1,0,0:0:0:0:
77,170,31939,1,0,0:0:0:0:
77,170,32089,1,8,0:0:0:0:
77,170,32314,1,0,0:0:0:0:
77,170,32389,1,0,0:0:0:0:
82,170,32539,1,0,0:0:0:0:
165,113,32689,1,8,0:0:0:0:
27,69,32839,1,0,0:0:0:0:
27,69,32914,1,0,0:0:0:0:
27,69,32989,1,0,0:0:0:0:
27,69,33139,1,0,0:0:0:0:
27,69,33289,1,8,0:0:0:0:
91,209,33588,1,4,0:0:0:0:
299,78,33888,1,8,0:0:0:0:
299,78,34038,1,0,0:0:0:0:
299,78,34188,1,0,0:0:0:0:
299,78,34338,1,0,0:0:0:0:
299,78,34488,1,8,0:0:0:0:
293,74,34788,1,0,0:0:0:0:
293,74,34938,1,0,0:0:0:0:
293,74,35088,1,8,0:0:0:0:
291,72,35238,1,8,0:0:0:0:
299,78,35388,1,0,0:0:0:0:
293,74,35538,1,0,0:0:0:0:
293,74,35687,1,8,0:0:0:0:
182,245,35987,1,0,0:0:0:0:
182,245,36287,1,8,0:0:0:0:
182,245,36437,1,0,0:0:0:0:
182,245,36587,1,8,0:0:0:0:
182,245,36737,1,0,0:0:0:0:
182,245,36887,1,8,0:0:0:0:
94,137,37187,1,0,0:0:0:0:
94,137,37337,1,0,0:0:0:0:
94,137,37487,1,8,0:0:0:0:
94,137,37637,1,0,0:0:0:0:
94,137,37786,1,8,0:0:0:0:
94,137,37936,1,8,0:0:0:0:
94,137,38086,1,8,0:0:0:0:
293,190,38386,1,12,0:0:0:0:
51,276,38686,1,8,0:0:0:0:
51,276,38836,1,0,0:0:0:0:
51,276,39136,1,0,0:0:0:0:
51,276,39286,1,8,0:0:0:0:
51,276,39586,1,0,0:0:0:0:
51,276,39736,1,0,0:0:0:0:
51,276,39886,1,8,0:0:0:0:
54,268,40035,1,0,0:0:0:0:
54,268,40185,1,8,0:0:0:0:
54,268,40335,1,0,0:0:0:0:
54,268,40485,1,8,0:0:0:0:
188,199,40785,1,0,0:0:0:0:
188,199,41085,1,8,0:0:0:0:
188,199,41235,1,0,0:0:0:0:
188,199,41535,1,0,0:0:0:0:
188,199,41685,1,8,0:0:0:0:
48,60,41910,1,0,0:0:0:0:
48,60,41985,1,0,0:0:0:0:
48,60,42135,1,0,0:0:0:0:
48,60,42284,1,8,0:0:0:0:
48,60,42434,1,8,0:0:0:0:
48,60,42584,1,0,0:0:0:0:
48,60,42734,1,0,0:0:0:0:
48,60,42884,1,8,0:0:0:0:
211,206,43184,1,4,0:0:0:0:
211,206,43484,1,8,0:0:0:0:
211,206,43634,1,0,0:0:0:0:
211,206,43784,1,0,0:0:0:0:
211,206,43934,1,0,0:0:0:0:
211,206,44084,1,8,0:0:0:0:
291,68,44384,1,8,0:0:0:0:
291,68,44533,1,0,0:0:0:0:
291,68,44683,1,8,0:0:0:0:
291,68,44983,1,8,0:0:0:0:
291,68,45133,1,0,0:0:0:0:
291,68,45208,1,0,0:0:0:0:
291,68,45283,1,8,0:0:0:0:
87,146,45433,1,0,0:0:0:0:
87,146,45508,1,0,0:0:0:0:
87,146,45583,1,0,0:0:0:0:
155,120,46483,1,0,0:0:0:0:
155,120,46782,1,8,0:0:0:0:
155,120,47382,1,8,0:0:0:0:
37,304,47682,1,12,0:0:0:0:
264,216,47982,1,4,0:0:0:0:
264,216,48282,1,8,0:0:0:0:
264,216,48432,1,8,0:0:0:0:
264,216,48582,1,0,0:0:0:0:
264,216,48732,1,0,0:0:0:0:
264,216,48882,1,8,0:0:0:0:
264,216,49031,1,0,0:0:0:0:
264,216,49106,1,0,0:0:0:0:
264,216,49181,1,8,0:0:0:0:
264,216,49331,1,0,0:0:0:0:
264,216,49481,1,8,0:0:0:0:
264,216,49631,1,0,0:0:0:0:
264,216,49781,1,0,0:0:0:0:
264,216,49931,1,0,0:0:0:0:
264,216,50081,1,8,0:0:0:0:
156,136,50381,1,0,0:0:0:0:
156,136,50681,1,8,0:0:0:0:
156,136,50831,1,0,0:0:0:0:
156,136,50981,1,0,0:0:0:0:
156,136,51130,1,0,0:0:0:0:
156,136,51280,1,8,0:0:0:0:
156,136,51430,1,0,0:0:0:0:
156,136,51505,1,0,0:0:0:0:
156,136,51580,1,8,0:0:0:0:
156,136,51730,1,0,0:0:0:0:
156,136,51880,1,8,0:0:0:0:
156,136,52030,1,0,0:0:0:0:
189,254,52180,1,8,0:0:0:0:
189,254,52255,1,8,0:0:0:0:
189,254,52330,1,0,0:0:0:0:
189,254,52405,1,0,0:0:0:0:
189,254,52480,1,8,0:0:0:0:
45,101,52780,1,4,0:0:0:0:
293,153,53080,1,8,0:0:0:0:
293,153,53230,1,8,0:0:0:0:
293,153,53379,1,0,0:0:0:0:
293,153,53529,1,0,0:0:0:0:
293,153,53679,1,8,0:0:0:0:
293,153,53829,1,0,0:0:0:0:
293,153,53904,1,0,0:0:0:0:
293,153,53979,1,0,0:0:0:0:
293,153,54129,1,0,0:0:0:0:
293,153,54279,1,8,0:0:0:0:
293,153,54429,1,8,0:0:0:0:
293,153,54579,1,0,0:0:0:0:
293,153,54729,1,8,0:0:0:0:
293,153,54879,1,8,0:0:0:0:
293,153,55029,1,0,0:0:0:0:
117,77,55179,1,8,0:0:0:0:
117,77,55329,1,0,0:0:0:0:
117,77,55479,1,8,0:0:0:0:
117,77,55628,1,0,0:0:0:0:
117,77,55778,1,0,0:0:0:0:
117,77,55928,1,8,0:0:0:0:
117,77,56078,1,8,0:0:0:0:
117,77,56228,1,0,0:0:0:0:
186,171,56378,1,0,0:0:0:0:
186,171,56528,1,0,0:0:0:0:
186,171,56678,1,8,0:0:0:0:
186,171,56828,1,0,0:0:0:0:
186,171,56978,1,0,0:0:0:0:
186,171,57053,1,0,0:0:0:0:
186,171,57128,1,0,0:0:0:0:
186,171,57203,1,0,0:0:0:0:
186,171,57278,1,8,0:0:0:0:
56,88,57578,1,4,0:0:0:0:
65,91,57877,1,8,0:0:0:0:
60,100,58027,1,8,0:0:0:0:
60,100,58177,1,0,0:0:0:0:
60,100,58327,1,0,0:0:0:0:
60,100,58477,1,8,0:0:0:0:
60,100,58627,1,8,0:0:0:0:
63,103,58702,1,8,0:0:0:0:
60,100,58777,1,0,0:0:0:0:
60,100,58927,1,0,0:0:0:0:
60,100,59077,1,8,0:0:0:0:
60,100,59227,1,0,0:0:0:0:
60,100,59377,1,0,0:0:0:0:
60,100,59527,1,0,0:0:0:0:
63,103,59677,1,8,0:0:0:0:
220,178,59977,1,0,0:0:0:0:
220,178,60126,1,0,0:0:0:0:
220,178,60276,1,8,0:0:0:0:
220,178,60426,1,8,0:0:0:0:
220,178,60576,1,8,0:0:0:0:
220,178,60726,1,0,0:0:0:0:
220,178,60876,1,8,0:0:0:0:
220,178,61026,1,0,0:0:0:0:
220,178,61101,1,0,0:0:0:0:
220,178,61176,1,8,0:0:0:0:
220,178,61326,1,0,0:0:0:0:
220,178,61476,1,8,0:0:0:0:
220,178,61626,1,0,0:0:0:0:
220,178,61776,1,8,0:0:0:0:
220,178,61926,1,8,0:0:0:0:
220,178,62076,1,8,0:0:0:0:
64,81,62375,1,4,0:0:0:0:
220,220,62675,1,8,0:0:0:0:
220,220,62825,1,0,0:0:0:0:
220,220,62975,1,0,0:0:0:0:
220,220,63125,1,0,0:0:0:0:
220,220,63275,1,8,0:0:0:0:
220,220,63425,1,0,0:0:0:0:
212,210,63500,1,0,0:0:0:0:
220,220,63575,1,8,0:0:0:0:
204,201,63725,1,0,0:0:0:0:
204,201,63875,1,8,0:0:0:0:
190,183,64025,1,8,0:0:0:0:
190,183,64175,1,0,0:0:0:0:
190,183,64325,1,8,0:0:0:0:
190,183,64474,1,8,0:0:0:0:
190,183,64624,1,0,0:0:0:0:
190,183,64774,1,0,0:0:0:0:
190,183,64924,1,0,0:0:0:0:
190,183,65074,1,8,0:0:0:0:
190,183,65224,1,0,0:0:0:0:
190,183,65299,1,0,0:0:0:0:
190,183,65374,1,0,0:0:0:0:
190,183,65524,1,0,0:0:0:0:
199,188,65674,1,8,0:0:0:0:
199,188,65824,1,0,0:0:0:0:
206,193,65974,1,0,0:0:0:0:
206,193,66124,1,0,0:0:0:0:
206,193,66274,1,8,0:0:0:0:
206,193,66424,1,0,0:0:0:0:
206,193,66574,1,8,0:0:0:0:
202,192,66649,1,8,0:0:0:0:
206,193,66723,1,0,0:0:0:0:
202,192,66798,1,0,0:0:0:0:
206,193,66873,1,8,0:0:0:0:
95,96,67173,1,4,0:0:0:0:
315,152,67473,1,8,0:0:0:0:
315,152,67623,1,8,0:0:0:0:
315,152,67773,1,0,0:0:0:0:
315,152,67923,1,8,0:0:0:0:
315,152,68073,1,8,0:0:0:0:
315,152,68223,1,0,0:0:0:0:
315,152,68373,1,0,0:0:0:0:
315,152,68523,1,0,0:0:0:0:
315,152,68673,1,8,0:0:0:0:
315,152,68823,1,0,0:0:0:0:
306,157,68897,1,0,0:0:0:0:
306,157,68972,1,0,0:0:0:0:
306,157,69122,1,0,0:0:0:0:
315,152,69272,1,8,0:0:0:0:
93,75,69572,1,12,0:0:0:0:
229,64,69872,1,8,0:0:0:0:
229,64,70022,1,0,0:0:0:0:
229,64,70171,1,0,0:0:0:0:
229,64,70321,1,0,0:0:0:0:
229,64,70471,1,8,0:0:0:0:
279,283,70771,1,8,0:0:0:0:
279,283,70921,1,0,0:0:0:0:
279,283,71071,1,8,0:0:0:0:
77,170,71371,1,0,0:0:0:0:
77,170,71521,1,0,0:0:0:0:
77,170,71671,1,8,0:0:0:0:
77,170,71971,1,0,0:0:0:0:
77,170,72270,1,8,0:0:0:0:
77,170,72420,1,0,0:0:0:0:
77,170,72570,1,0,0:0:0:0:
77,170,72720,1,8,0:0:0:0:
77,170,72870,1,8,0:0:0:0:
77,170,73170,1,8,0:0:0:0:
77,170,73320,1,0,0:0:0:0:
77,170,73470,1,8,0:0:0:0:
77,170,73620,1,0,0:0:0:0:
77,170,73770,1,0,0:0:0:0:
77,170,73920,1,0,0:0:0:0:
77,170,74070,1,8,0:0:0:0:
279,67,74370,1,12,0:0:0:0:
77,170,74669,1,8,0:0:0:0:
77,170,74819,1,0,0:0:0:0:
77,170,75119,1,0,0:0:0:0:
77,170,75269,1,8,0:0:0:0:
77,170,75569,1,0,0:0:0:0:
77,170,75719,1,0,0:0:0:0:
77,170,75869,1,8,0:0:0:0:
77,170,76019,1,0,0:0:0:0:
77,170,76169,1,8,0:0:0:0:
77,170,76319,1,0,0:0:0:0:
77,170,76469,1,8,0:0:0:0:
77,170,76768,1,0,0:0:0:0:
77,170,77068,1,8,0:0:0:0:
77,170,77218,1,0,0:0:0:0:
77,170,77518,1,0,0:0:0:0:
77,170,77668,1,8,0:0:0:0:
77,170,77893,1,0,0:0:0:0:
77,170,77968,1,0,0:0:0:0:
82,170,78118,1,0,0:0:0:0:
165,113,78268,1,8,0:0:0:0:
27,69,78418,1,0,0:0:0:0:
27,69,78493,1,0,0:0:0:0:
27,69,78568,1,0,0:0:0:0:
27,69,78718,1,0,0:0:0:0:
27,69,78868,1,8,0:0:0:0:
91,209,79167,1,4,0:0:0:0:
299,78,79467,1,8,0:0:0:0:
299,78,79617,1,8,0:0:0:0:
299,78,79767,1,0,0:0:0:0:
299,78,79918,1,0,0:0:0:0:
299,78,80067,1,8,0:0:0:0:
293,74,80367,1,0,0:0:0:0:
293,74,80517,1,0,0:0:0:0:
293,74,80667,1,8,0:0:0:0:
291,72,80817,1,0,0:0:0:0:
299,78,80967,1,8,0:0:0:0:
293,74,81117,1,0,0:0:0:0:
293,74,81266,1,8,0:0:0:0:
182,245,81566,1,0,0:0:0:0:
182,245,81866,1,8,0:0:0:0:
182,245,82016,1,0,0:0:0:0:
182,245,82166,1,0,0:0:0:0:
182,245,82316,1,8,0:0:0:0:
182,245,82466,1,8,0:0:0:0:
94,137,82766,1,0,0:0:0:0:
94,137,82916,1,0,0:0:0:0:
94,137,83066,1,8,0:0:0:0:
94,137,83216,1,0,0:0:0:0:
94,137,83365,1,8,0:0:0:0:
94,137,83515,1,0,0:0:0:0:
94,137,83665,1,8,0:0:0:0:
293,190,83965,1,12,0:0:0:0:
51,276,84265,1,8,0:0:0:0:
51,276,84415,1,0,0:0:0:0:
51,276,84715,1,0,0:0:0:0:
51,276,84865,1,8,0:0:0:0:
51,276,85165,1,0,0:0:0:0:
51,276,85315,1,0,0:0:0:0:
51,276,85465,1,8,0:0:0:0:
54,268,85614,1,8,0:0:0:0:
54,268,85764,1,0,0:0:0:0:
54,268,85914,1,0,0:0:0:0:
54,268,86064,1,8,0:0:0:0:
188,199,86364,1,0,0:0:0:0:
188,199,86664,1,8,0:0:0:0:
188,199,86814,1,0,0:0:0:0:
188,199,87114,1,0,0:0:0:0:
188,199,87264,1,8,0:0:0:0:
48,60,87489,1,0,0:0:0:0:
48,60,87564,1,0,0:0:0:0:
48,60,87714,1,0,0:0:0:0:
48,60,87863,1,8,0:0:0:0:
48,60,88013,1,0,0:0:0:0:
48,60,88163,1,8,0:0:0:0:
48,60,88313,1,0,0:0:0:0:
48,60,88463,1,8,0:0:0:0:
211,206,88763,1,4,0:0:0:0:
211,206,89063,1,8,0:0:0:0:
211,206,89213,1,0,0:0:0:0:
211,206,89363,1,0,0:0:0:0:
211,206,89513,1,0,0:0:0:0:
211,206,89663,1,8,0:0:0:0:
291,68,89963,1,8,0:0:0:0:
291,68,90112,1,0,0:0:0:0:
291,68,90262,1,8,0:0:0:0:
291,68,90562,1,8,0:0:0:0:
291,68,90712,1,0,0:0:0:0:
291,68,90787,1,0,0:0:0:0:
291,68,90862,1,8,0:0:0:0:
87,146,91012,1,0,0:0:0:0:
87,146,91087,1,0,0:0:0:0:
87,146,91162,1,0,0:0:0:0:
126,119,92062,1,0,0:0:0:0:
126,119,92362,1,8,0:0:0:0:
126,119,92962,1,12,0:0:0:0:
76,250,93112,1,8,0:0:0:0:
76,250,93262,1,12,0:0:0:0:
76,250,93411,1,8,0:0:0:0:
264,216,93561,1,4,0:0:0:0:
264,216,93861,1,8,0:0:0:0:
264,216,94011,1,8,0:0:0:0:
264,216,94161,1,0,0:0:0:0:
264,216,94311,1,0,0:0:0:0:
264,216,94461,1,8,0:0:0:0:
264,216,94610,1,0,0:0:0:0:
264,216,94685,1,0,0:0:0:0:
264,216,94760,1,8,0:0:0:0:
264,216,94910,1,0,0:0:0:0:
264,216,95060,1,8,0:0:0:0:
264,216,95210,1,0,0:0:0:0:
264,216,95360,1,0,0:0:0:0:
264,216,95510,1,0,0:0:0:0:
264,216,95660,1,8,0:0:0:0:
156,136,95960,1,0,0:0:0:0:
156,136,96260,1,8,0:0:0:0:
156,136,96410,1,0,0:0:0:0:
156,136,96560,1,0,0:0:0:0:
156,136,96709,1,0,0:0:0:0:
156,136,96859,1,8,0:0:0:0:
156,136,97009,1,0,0:0:0:0:
156,136,97084,1,0,0:0:0:0:
156,136,97159,1,8,0:0:0:0:
156,136,97309,1,0,0:0:0:0:
156,136,97459,1,8,0:0:0:0:
156,136,97609,1,0,0:0:0:0:
189,254,97759,1,8,0:0:0:0:
189,254,97834,1,8,0:0:0:0:
189,254,97909,1,0,0:0:0:0:
189,254,97984,1,0,0:0:0:0:
189,254,98059,1,8,0:0:0:0:
45,101,98359,1,4,0:0:0:0:
293,153,98659,1,8,0:0:0:0:
293,153,98809,1,8,0:0:0:0:
293,153,98958,1,0,0:0:0:0:
293,153,99108,1,0,0:0:0:0:
293,153,99258,1,8,0:0:0:0:
293,153,99408,1,0,0:0:0:0:
293,153,99483,1,0,0:0:0:0:
293,153,99558,1,0,0:0:0:0:
293,153,99708,1,0,0:0:0:0:
293,153,99858,1,8,0:0:0:0:
293,153,100008,1,8,0:0:0:0:
293,153,100158,1,0,0:0:0:0:
293,153,100308,1,8,0:0:0:0:
293,153,100458,1,8,0:0:0:0:
293,153,100608,1,0,0:0:0:0:
117,77,100758,1,8,0:0:0:0:
117,77,100908,1,0,0:0:0:0:
117,77,101058,1,8,0:0:0:0:
117,77,101207,1,0,0:0:0:0:
117,77,101357,1,0,0:0:0:0:
117,77,101507,1,8,0:0:0:0:
117,77,101657,1,8,0:0:0:0:
117,77,101807,1,0,0:0:0:0:
186,171,101957,1,0,0:0:0:0:
186,171,102107,1,0,0:0:0:0:
186,171,102257,1,8,0:0:0:0:
186,171,102407,1,0,0:0:0:0:
186,171,102557,1,0,0:0:0:0:
186,171,102632,1,0,0:0:0:0:
186,171,102707,1,0,0:0:0:0:
186,171,102782,1,0,0:0:0:0:
186,171,102857,1,8,0:0:0:0:
56,88,103157,1,4,0:0:0:0:
65,91,103456,1,8,0:0:0:0:
60,100,103606,1,8,0:0:0:0:
60,100,103756,1,0,0:0:0:0:
60,100,103906,1,0,0:0:0:0:
60,100,104056,1,8,0:0:0:0:
60,100,104206,1,8,0:0:0:0:
63,103,104281,1,8,0:0:0:0:
60,100,104356,1,0,0:0:0:0:
60,100,104506,1,0,0:0:0:0:
60,100,104656,1,8,0:0:0:0:
60,100,104806,1,0,0:0:0:0:
60,100,104956,1,0,0:0:0:0:
60,100,105106,1,0,0:0:0:0:
63,103,105256,1,8,0:0:0:0:
220,178,105556,1,0,0:0:0:0:
220,178,105705,1,0,0:0:0:0:
220,178,105855,1,8,0:0:0:0:
220,178,106005,1,8,0:0:0:0:
220,178,106155,1,8,0:0:0:0:
220,178,106305,1,0,0:0:0:0:
220,178,106455,1,8,0:0:0:0:
220,178,106605,1,0,0:0:0:0:
220,178,106680,1,0,0:0:0:0:
220,178,106755,1,8,0:0:0:0:
220,178,106905,1,0,0:0:0:0:
220,178,107055,1,8,0:0:0:0:
220,178,107205,1,0,0:0:0:0:
220,178,107355,1,8,0:0:0:0:
220,178,107505,1,8,0:0:0:0:
220,178,107655,1,8,0:0:0:0:
64,81,107954,1,4,0:0:0:0:
220,220,108254,1,8,0:0:0:0:
220,220,108404,1,0,0:0:0:0:
220,220,108554,1,0,0:0:0:0:
220,220,108704,1,0,0:0:0:0:
220,220,108854,1,8,0:0:0:0:
220,220,109004,1,0,0:0:0:0:
212,210,109079,1,0,0:0:0:0:
220,220,109154,1,8,0:0:0:0:
204,201,109304,1,0,0:0:0:0:
204,201,109454,1,8,0:0:0:0:
190,183,109604,1,8,0:0:0:0:
190,183,109754,1,0,0:0:0:0:
190,183,109904,1,8,0:0:0:0:
190,183,110053,1,8,0:0:0:0:
190,183,110203,1,0,0:0:0:0:
190,183,110353,1,0,0:0:0:0:
190,183,110503,1,0,0:0:0:0:
190,183,110653,1,8,0:0:0:0:
190,183,110803,1,0,0:0:0:0:
190,183,110878,1,0,0:0:0:0:
190,183,110953,1,0,0:0:0:0:
190,183,111103,1,0,0:0:0:0:
199,188,111253,1,8,0:0:0:0:
199,188,111403,1,0,0:0:0:0:
206,193,111553,1,0,0:0:0:0:
206,193,111703,1,0,0:0:0:0:
206,193,111853,1,8,0:0:0:0:
206,193,112003,1,0,0:0:0:0:
206,193,112153,1,8,0:0:0:0:
202,192,112228,1,8,0:0:0:0:
206,193,112302,1,0,0:0:0:0:
202,192,112377,1,0,0:0:0:0:
206,193,112452,1,8,0:0:0:0:
95,96,112752,1,4,0:0:0:0:
315,152,113052,1,8,0:0:0:0:
315,152,113202,1,8,0:0:0:0:
315,152,113352,1,0,0:0:0:0:
315,152,113502,1,8,0:0:0:0:
315,152,113652,1,8,0:0:0:0:
315,152,113802,1,0,0:0:0:0:
315,152,113952,1,0,0:0:0:0:
315,152,114102,1,0,0:0:0:0:
315,152,114252,1,8,0:0:0:0:
315,152,114402,1,0,0:0:0:0:
306,157,114476,1,0,0:0:0:0:
306,157,114551,1,0,0:0:0:0:
306,157,114701,1,0,0:0:0:0:
315,152,114851,1,8,0:0:0:0:
298,171,115002,1,0,0:0:0:0:
298,171,115077,1,0,0:0:0:0:
298,171,115152,1,8,0:0:0:0:
256,192,115302,12,0,119050,0:0:0:0:
280,150,119350,5,8,0:0:0:0:
280,150,119950,1,12,0:0:0:0:
280,150,120249,1,0,0:0:0:0:
280,150,120549,1,0,0:0:0:0:
280,150,120849,1,8,0:0:0:0:
280,150,121149,1,8,0:0:0:0:
280,150,121449,1,0,0:0:0:0:
280,150,121749,1,0,0:0:0:0:
280,150,122049,1,0,0:0:0:0:
280,150,122348,1,0,0:0:0:0:
280,150,122648,1,8,0:0:0:0:
280,150,122948,1,0,0:0:0:0:
280,150,123248,1,8,0:0:0:0:
280,150,123398,1,8,0:0:0:0:
280,150,123548,1,8,0:0:0:0:
280,150,123848,1,0,0:0:0:0:
280,150,124148,1,12,0:0:0:0:
280,150,124448,1,0,0:0:0:0:
280,150,124747,1,4,0:0:0:0:
280,150,125047,1,0,0:0:0:0:
280,150,125347,1,0,0:0:0:0:
280,150,125647,1,8,0:0:0:0:
280,150,125947,1,8,0:0:0:0:
280,150,126247,1,0,0:0:0:0:
280,150,126547,1,0,0:0:0:0:
280,150,126846,1,0,0:0:0:0:
280,150,127146,1,0,0:0:0:0:
280,150,127446,1,8,0:0:0:0:
280,150,127746,1,0,0:0:0:0:
280,150,128046,1,8,0:0:0:0:
280,150,128196,1,8,0:0:0:0:
280,150,128346,1,4,0:0:0:0:
280,150,128646,1,8,0:0:0:0:
280,150,128796,1,8,0:0:0:0:
280,150,128945,1,8,0:0:0:0:
280,150,129095,1,8,0:0:0:0:
280,150,129245,1,8,0:0:0:0:
280,150,129395,1,8,0:0:0:0:
280,150,129545,1,4,0:0:0:0:
280,150,129845,1,0,0:0:0:0:
280,150,130145,1,8,0:0:0:0:
280,150,130445,1,8,0:0:0:0:
280,150,130745,1,8,0:0:0:0:
280,150,131045,1,0,0:0:0:0:
280,150,131344,1,8,0:0:0:0:
280,150,131644,1,0,0:0:0:0:
280,150,131944,1,8,0:0:0:0:
280,150,132244,1,0,0:0:0:0:
280,150,132544,1,8,0:0:0:0:
280,150,132844,1,0,0:0:0:0:
289,145,132994,1,0,0:0:0:0:
280,150,133144,1,8,0:0:0:0:
280,150,133443,1,0,0:0:0:0:
280,150,133743,1,12,0:0:0:0:
275,158,134043,1,0,0:0:0:0:
275,158,134343,1,4,0:0:0:0:
270,172,134643,1,0,0:0:0:0:
270,172,134943,1,8,0:0:0:0:
270,172,135243,1,8,0:0:0:0:
270,172,135543,1,8,0:0:0:0:
270,172,135842,1,8,0:0:0:0:
270,172,136142,1,8,0:0:0:0:
270,172,136442,1,0,0:0:0:0:
270,172,136742,1,8,0:0:0:0:
270,172,137042,1,0,0:0:0:0:
270,172,137342,1,8,0:0:0:0:
270,172,137642,1,0,0:0:0:0:
270,172,137791,1,0,0:0:0:0:
270,172,137941,1,8,0:0:0:0:
268,184,138241,1,0,0:0:0:0:
268,184,138541,1,8,0:0:0:0:
268,184,138841,1,0,0:0:0:0:
243,180,139141,1,12,0:0:0:0:
268,184,139441,1,0,0:0:0:0:
268,184,139741,1,0,0:0:0:0:
264,188,140040,1,8,0:0:0:0:
268,184,140340,1,8,0:0:0:0:
268,184,140640,1,0,0:0:0:0:
264,188,140940,1,8,0:0:0:0:
268,184,141240,1,0,0:0:0:0:
268,184,141540,1,0,0:0:0:0:
264,188,141840,1,0,0:0:0:0:
268,184,142140,1,8,0:0:0:0:
268,184,142439,1,0,0:0:0:0:
268,184,142589,1,0,0:0:0:0:
264,188,142739,1,8,0:0:0:0:
262,188,143039,1,8,0:0:0:0:
262,188,143339,1,8,0:0:0:0:
262,188,143639,1,0,0:0:0:0:
270,191,143939,1,0,0:0:0:0:
270,191,144239,1,8,0:0:0:0:
270,191,144538,1,0,0:0:0:0:
270,191,144838,1,0,0:0:0:0:
270,191,144988,1,0,0:0:0:0:
270,191,145138,1,8,0:0:0:0:
276,191,145438,1,0,0:0:0:0:
276,191,145738,1,12,0:0:0:0:
276,191,146038,1,0,0:0:0:0:
441,226,146338,2,4,B|269:294|477:118|477:118|57:210|57:210|567:366|567:366|10:28,1,1860
254,118,155933,1,12,0:0:0:0:
254,118,156233,1,8,0:0:0:0:
254,118,156383,1,0,0:0:0:0:
254,118,156533,1,0,0:0:0:0:
254,118,156683,1,0,0:0:0:0:
254,118,156758,1,0,0:0:0:0:
254,118,156833,1,8,0:0:0:0:
269,135,156983,1,0,0:0:0:0:
269,135,157133,1,0,0:0:0:0:
269,135,157283,1,0,0:0:0:0:
269,135,157433,1,8,0:0:0:0:
272,148,157583,1,0,0:0:0:0:
272,148,157733,1,0,0:0:0:0:
272,148,157882,1,8,0:0:0:0:
272,148,158032,1,8,0:0:0:0:
272,148,158332,1,12,0:0:0:0:
220,181,158632,1,8,0:0:0:0:
220,181,158782,1,8,0:0:0:0:
220,181,158932,1,0,0:0:0:0:
220,181,159082,1,0,0:0:0:0:
220,181,159157,1,0,0:0:0:0:
220,181,159232,1,8,0:0:0:0:
230,183,159382,1,0,0:0:0:0:
230,183,159532,1,8,0:0:0:0:
230,183,159682,1,0,0:0:0:0:
230,183,159832,1,8,0:0:0:0:
230,183,159982,1,0,0:0:0:0:
230,183,160131,1,8,0:0:0:0:
230,183,160206,1,8,0:0:0:0:
230,183,160281,1,0,0:0:0:0:
230,183,160356,1,0,0:0:0:0:
230,183,160431,1,8,0:0:0:0:
239,184,160731,1,12,0:0:0:0:
239,184,161031,1,8,0:0:0:0:
239,184,161181,1,0,0:0:0:0:
239,184,161331,1,0,0:0:0:0:
239,184,161481,1,8,0:0:0:0:
239,184,161556,1,8,0:0:0:0:
239,184,161631,1,8,0:0:0:0:
249,170,161781,1,0,0:0:0:0:
249,170,161931,1,8,0:0:0:0:
249,170,162081,1,8,0:0:0:0:
249,170,162230,1,8,0:0:0:0:
249,170,162380,1,0,0:0:0:0:
249,170,162530,1,0,0:0:0:0:
249,170,162680,1,8,0:0:0:0:
249,170,162830,1,8,0:0:0:0:
246,182,163130,1,4,0:0:0:0:
103,118,163430,1,8,0:0:0:0:
103,118,163580,1,0,0:0:0:0:
96,114,163880,1,0,0:0:0:0:
201,174,164030,1,8,0:0:0:0:
201,174,164180,1,0,0:0:0:0:
201,174,164330,1,0,0:0:0:0:
201,161,164479,1,8,0:0:0:0:
201,161,164629,1,8,0:0:0:0:
116,213,164929,1,12,0:0:0:0:
116,213,165079,1,8,0:0:0:0:
116,213,165229,1,12,0:0:0:0:
116,213,165379,1,8,0:0:0:0:
264,216,165529,1,4,0:0:0:0:
264,216,165829,1,8,0:0:0:0:
264,216,165979,1,8,0:0:0:0:
264,216,166129,1,0,0:0:0:0:
264,216,166279,1,0,0:0:0:0:
264,216,166429,1,8,0:0:0:0:
264,216,166578,1,0,0:0:0:0:
264,216,166653,1,0,0:0:0:0:
264,216,166728,1,8,0:0:0:0:
264,216,166878,1,0,0:0:0:0:
264,216,167028,1,8,0:0:0:0:
264,216,167178,1,0,0:0:0:0:
264,216,167328,1,0,0:0:0:0:
264,216,167478,1,0,0:0:0:0:
264,216,167628,1,8,0:0:0:0:
156,136,167928,1,0,0:0:0:0:
156,136,168228,1,8,0:0:0:0:
156,136,168378,1,0,0:0:0:0:
156,136,168528,1,0,0:0:0:0:
156,136,168677,1,0,0:0:0:0:
156,136,168827,1,8,0:0:0:0:
156,136,168977,1,0,0:0:0:0:
156,136,169052,1,0,0:0:0:0:
156,136,169127,1,8,0:0:0:0:
156,136,169277,1,0,0:0:0:0:
156,136,169427,1,8,0:0:0:0:
156,136,169577,1,0,0:0:0:0:
189,254,169727,1,8,0:0:0:0:
189,254,169802,1,8,0:0:0:0:
189,254,169877,1,0,0:0:0:0:
189,254,169952,1,0,0:0:0:0:
189,254,170027,1,8,0:0:0:0:
45,101,170327,1,4,0:0:0:0:
293,153,170627,1,8,0:0:0:0:
293,153,170777,1,8,0:0:0:0:
293,153,170926,1,0,0:0:0:0:
293,153,171076,1,0,0:0:0:0:
293,153,171226,1,8,0:0:0:0:
293,153,171376,1,0,0:0:0:0:
293,153,171451,1,0,0:0:0:0:
293,153,171526,1,0,0:0:0:0:
293,153,171676,1,0,0:0:0:0:
293,153,171826,1,8,0:0:0:0:
293,153,171976,1,8,0:0:0:0:
293,153,172126,1,0,0:0:0:0:
293,153,172276,1,8,0:0:0:0:
293,153,172426,1,8,0:0:0:0:
293,153,172576,1,0,0:0:0:0:
117,77,172726,1,8,0:0:0:0:
117,77,172876,1,0,0:0:0:0:
117,77,173026,1,8,0:0:0:0:
117,77,173175,1,0,0:0:0:0:
117,77,173325,1,0,0:0:0:0:
117,77,173475,1,8,0:0:0:0:
117,77,173625,1,8,0:0:0:0:
117,77,173775,1,0,0:0:0:0:
186,171,173925,1,0,0:0:0:0:
186,171,174075,1,0,0:0:0:0:
186,171,174225,1,8,0:0:0:0:
186,171,174375,1,0,0:0:0:0:
186,171,174525,1,0,0:0:0:0:
186,171,174600,1,0,0:0:0:0:
186,171,174675,1,0,0:0:0:0:
186,171,174750,1,0,0:0:0:0:
186,171,174825,1,8,0:0:0:0:
56,88,175125,1,4,0:0:0:0:
65,91,175424,1,8,0:0:0:0:
60,100,175574,1,8,0:0:0:0:
60,100,175724,1,0,0:0:0:0:
60,100,175874,1,0,0:0:0:0:
60,100,176024,1,8,0:0:0:0:
60,100,176174,1,8,0:0:0:0:
63,103,176249,1,8,0:0:0:0:
60,100,176324,1,0,0:0:0:0:
60,100,176474,1,0,0:0:0:0:
60,100,176624,1,8,0:0:0:0:
60,100,176774,1,0,0:0:0:0:
60,100,176924,1,0,0:0:0:0:
60,100,177074,1,0,0:0:0:0:
63,103,177224,1,8,0:0:0:0:
220,178,177524,1,0,0:0:0:0:
220,178,177673,1,0,0:0:0:0:
220,178,177823,1,8,0:0:0:0:
220,178,177973,1,8,0:0:0:0:
220,178,178123,1,8,0:0:0:0:
220,178,178273,1,0,0:0:0:0:
220,178,178423,1,8,0:0:0:0:
220,178,178573,1,0,0:0:0:0:
220,178,178648,1,0,0:0:0:0:
220,178,178723,1,8,0:0:0:0:
220,178,178873,1,0,0:0:0:0:
220,178,179023,1,8,0:0:0:0:
220,178,179173,1,0,0:0:0:0:
220,178,179323,1,8,0:0:0:0:
220,178,179473,1,8,0:0:0:0:
220,178,179623,1,8,0:0:0:0:
64,81,179922,1,4,0:0:0:0:
220,220,180222,1,8,0:0:0:0:
220,220,180372,1,0,0:0:0:0:
220,220,180522,1,0,0:0:0:0:
220,220,180672,1,0,0:0:0:0:
220,220,180822,1,8,0:0:0:0:
220,220,180972,1,0,0:0:0:0:
212,210,181047,1,0,0:0:0:0:
220,220,181122,1,8,0:0:0:0:
204,201,181272,1,0,0:0:0:0:
204,201,181422,1,8,0:0:0:0:
190,183,181572,1,8,0:0:0:0:
190,183,181722,1,0,0:0:0:0:
190,183,181872,1,8,0:0:0:0:
190,183,182021,1,8,0:0:0:0:
190,183,182171,1,0,0:0:0:0:
190,183,182321,1,0,0:0:0:0:
190,183,182471,1,0,0:0:0:0:
190,183,182621,1,8,0:0:0:0:
190,183,182771,1,0,0:0:0:0:
190,183,182846,1,0,0:0:0:0:
190,183,182921,1,0,0:0:0:0:
190,183,183071,1,0,0:0:0:0:
199,188,183221,1,8,0:0:0:0:
199,188,183371,1,0,0:0:0:0:
206,193,183521,1,0,0:0:0:0:
206,193,183671,1,0,0:0:0:0:
206,193,183821,1,8,0:0:0:0:
206,193,183971,1,0,0:0:0:0:
206,193,184121,1,8,0:0:0:0:
202,192,184196,1,8,0:0:0:0:
206,193,184270,1,0,0:0:0:0:
202,192,184345,1,0,0:0:0:0:
206,193,184420,1,8,0:0:0:0:
95,96,184720,1,0,0:0:0:0:
315,152,185020,1,8,0:0:0:0:
315,152,185170,1,8,0:0:0:0:
315,152,185320,1,0,0:0:0:0:
315,152,185470,1,8,0:0:0:0:
315,152,185620,1,8,0:0:0:0:
315,152,185770,1,0,0:0:0:0:
315,152,185920,1,0,0:0:0:0:
315,152,186070,1,0,0:0:0:0:
315,152,186220,1,8,0:0:0:0:
315,152,186370,1,0,0:0:0:0:
306,157,186444,1,0,0:0:0:0:
306,157,186519,1,0,0:0:0:0:
306,157,186669,1,0,0:0:0:0:
315,152,186819,1,8,0:0:0:0:
298,171,186970,1,0,0:0:0:0:
298,171,187120,1,8,0:0:0:0:
