osu file format v14

[General]
AudioFilename: audio.mp3
AudioLeadIn: 0
PreviewTime: 44748
Countdown: 1
SampleSet: Normal
StackLeniency: 0.3
Mode: 0
LetterboxInBreaks: 0
WidescreenStoryboard: 1

[Editor]
Bookmarks: 18200,35945,44818,62563,84744,102489,120234,137979,155724
DistanceSpacing: 1.3
BeatDivisor: 8
GridSize: 32
TimelineZoom: 1.6

[Metadata]
Title:Forgotten
TitleUnicode:Forgotten
Artist:Linkin Park
ArtistUnicode:Linkin Park
Creator:pw384
Version:Hyper
Source:
Tags:Hybrid Theory English Rap Rock Nu Metal Alternative 384059043 Hectic h4d0uk3n1
BeatmapID:2167266
BeatmapSetID:1011380

[Difficulty]
HPDrainRate:5
CircleSize:4
OverallDifficulty:7.5
ApproachRate:8.3
SliderMultiplier:2.4
SliderTickRate:1

[Events]
//Background and Video events
0,0,"bg.jpg",0,0
//Break Periods
2,62762,64077
2,120433,123966
2,186977,189400
//Storyboard Layer 0 (Background)
//Storyboard Layer 1 (Fail)
//Storyboard Layer 2 (Pass)
//Storyboard Layer 3 (Foreground)
//Storyboard Layer 4 (Overlay)
//Storyboard Sound Samples

[TimingPoints]
456,554.52865064695,4,1,1,80,1,0
456,-83.3333333333333,4,1,1,80,0,0
18200,-125,4,3,0,50,0,0
34559,-100,4,3,0,50,0,0
34836,-83.3333333333333,4,1,1,70,0,0
35945,-83.3333333333333,4,1,1,80,0,0
44818,-125,4,1,1,80,0,1
45372,-125,4,1,1,80,0,0
49809,-100,4,1,1,80,0,0
53690,-125,4,1,1,80,0,0
58126,-166.666666666667,4,1,1,80,0,0
64781,-250,4,2,0,20,0,0
65058,-250,4,2,0,25,0,0
65335,-250,4,2,0,30,0,0
65613,-250,4,2,0,35,0,0
65890,-250,4,2,0,40,0,0
66167,-250,4,2,0,45,0,0
66444,-125,4,3,0,50,0,0
66999,-125,4,3,0,50,0,0
83635,-100,4,1,1,70,0,0
84189,-83.3333333333333,4,1,1,80,0,0
102489,-125,4,1,1,80,0,1
103043,-125,4,1,1,80,0,0
107480,-100,4,1,1,80,0,0
111361,-125,4,1,1,80,0,0
115797,-166.666666666667,4,1,1,80,0,0
124670,-166.666666666667,4,3,0,50,0,0
129106,-166.666666666667,4,1,1,60,0,0
130215,-83.3333333333333,4,1,1,75,0,0
131047,-83.3333333333333,4,1,0,85,0,1
131602,-83.3333333333333,4,1,1,85,0,1
133542,-125,4,1,1,75,0,0
134790,-83.3333333333333,4,1,1,80,0,0
135483,-83.3333333333333,4,1,0,85,0,1
136038,-83.3333333333333,4,1,1,85,0,1
137701,-83.3333333333333,4,1,1,80,0,0
137979,-83.3333333333333,4,1,1,85,0,1
155169,-83.3333333333333,4,1,1,85,0,0
155724,-125,4,1,1,85,0,1
156278,-125,4,1,1,85,0,0
160714,-100,4,1,1,85,0,0
164596,-125,4,1,1,85,0,0
172359,-100,4,1,1,85,0,0
173468,-100,4,1,1,85,0,1
186777,-250,4,2,1,30,0,0

[Colours]
Combo1 : 192,192,192
Combo2 : 170,105,74
Combo3 : 120,89,54
Combo4 : 207,187,118
Combo5 : 255,0,0

[HitObjects]
137,174,178,5,0,0:0:0:0:
137,174,317,1,0,0:0:0:0:
137,174,456,6,0,B|178:153|178:153|291:165,1,143.999995605469,4|2,0:2|0:2,0:0:0:0:
350,204,871,1,0,0:0:0:0:
432,179,1010,2,0,B|445:146|445:146|438:102,1,71.9999978027344,8|0,0:0|0:0,0:0:0:0:
275,163,1287,2,0,B|262:196|262:196|269:240,1,71.9999978027344,2|0,0:2|0:0,0:0:0:0:
422,322,1565,5,0,0:0:0:0:
422,322,1703,2,0,L|432:177,1,143.999995605469,2|0,0:2|0:0,0:0:0:0:
359,60,2119,2,0,L|349:205,1,143.999995605469,10|2,0:2|0:2,0:0:0:0:
254,322,2535,1,2,0:2:0:0:
254,322,2674,38,0,B|209:305|209:305|107:315,1,143.999995605469,4|2,0:2|0:2,0:0:0:0:
43,365,3090,1,0,0:0:0:0:
36,279,3228,2,0,B|81:296|81:296|183:286,1,143.999995605469,8|2,0:0|0:2,0:0:0:0:
254,322,4060,5,0,0:0:0:0:
254,322,4337,1,4,0:2:0:0:
458,271,4614,5,2,0:2:0:0:
458,271,4753,1,2,0:2:0:0:
458,271,4892,38,0,B|413:254|413:254|311:264,1,143.999995605469,4|2,0:2|0:2,0:0:0:0:
254,322,5308,1,0,0:0:0:0:
177,287,5446,2,0,B|160:242|160:242|170:140,1,143.999995605469,10|2,0:2|0:2,0:0:0:0:
14,67,6001,6,0,L|25:177,2,107.999996704102,2|2|2,3:0|3:0|3:0,2:2:0:0:
91,28,6555,2,0,B|144:33|144:33|167:29|167:29|326:44,1,215.999993408203,8|2,0:0|0:2,0:0:0:0:
365,105,7110,6,0,L|438:100,1,71.9999978027344,4|2,0:2|0:2,0:0:0:0:
506,151,7387,2,0,B|512:188|512:188|502:226,1,71.9999978027344,0|2,0:0|0:2,0:0:0:0:
427,263,7664,2,0,B|435:369|435:369|454:331,1,143.999995605469,12|2,0:2|0:2,0:0:0:0:
427,263,8496,38,0,B|435:369|435:369|454:331,1,143.999995605469,0|4,0:0|2:0,0:0:0:0:
329,62,9051,2,0,L|324:133,1,71.9999978027344,0|0,0:0|0:0,0:0:0:0:
238,149,9328,6,0,B|205:214|205:214|211:285,1,143.999995605469,4|2,0:2|0:2,0:0:0:0:
274,343,9744,1,0,0:0:0:0:
211,285,9882,2,0,B|177:275|177:275|132:279,1,71.9999978027344,8|0,0:0|0:0,0:0:0:0:
62,238,10160,2,0,B|52:272|52:272|55:308,1,71.9999978027344,2|0,0:2|0:0,0:0:0:0:
122,363,10437,5,0,0:0:0:0:
274,343,10576,2,0,L|433:346,1,143.999995605469,2|0,0:2|0:0,0:0:0:0:
512,268,10992,2,0,L|353:265,1,143.999995605469,10|2,0:2|0:2,0:0:0:0:
293,222,11407,1,2,0:2:0:0:
140,278,11546,38,0,B|124:246|124:246|136:138,1,143.999995605469,4|2,0:2|0:2,0:0:0:0:
211,42,11962,1,0,0:0:0:0:
211,42,12101,2,0,B|226:73|226:73|214:181,1,143.999995605469,8|2,0:0|0:2,0:0:0:0:
135,138,12932,5,0,0:0:0:0:
135,138,13210,1,4,0:2:0:0:
305,106,13487,5,2,0:2:0:0:
305,106,13626,1,2,0:2:0:0:
305,106,13764,38,0,L|449:113,1,143.999995605469,4|2,0:2|0:2,0:0:0:0:
512,191,14180,1,0,0:0:0:0:
512,191,14319,2,0,L|368:184,1,143.999995605469,10|2,0:2|0:2,0:0:0:0:
202,232,14873,6,0,L|310:237,2,107.999996704102,2|2|2,3:0|3:0|3:0,2:2:0:0:
102,296,15428,2,0,B|156:299|156:299|177:310|177:310|316:317,1,215.999993408203,8|2,0:0|0:2,0:0:0:0:
388,271,15982,6,0,B|396:238|396:238|386:198,1,71.9999978027344,4|2,0:2|0:2,0:0:0:0:
312,155,16260,2,0,B|302:118|302:118|310:85,1,71.9999978027344,2|2,0:2|0:2,0:0:0:0:
375,27,16537,2,0,B|482:34|482:34|448:50,1,143.999995605469,4|2,0:2|0:2,0:0:0:0:
238,128,17091,38,0,B|131:121|131:121|165:105,1,143.999995605469,4|2,0:1|0:2,0:0:0:0:
310,85,17507,1,0,0:0:0:0:
392,112,17646,5,8,0:0:0:0:
392,112,17785,1,8,0:0:0:0:
476,97,17923,2,0,L|468:173,1,71.9999978027344,4|4,3:0|3:0,0:0:0:0:
413,219,18200,6,0,L|423:317,1,96,4|0,0:1|0:0,0:0:0:0:
220,248,18755,2,0,P|174:255|107:251,1,96,2|0,1:2|0:0,0:0:0:0:
59,223,19171,2,0,P|42:258|39:329,2,96,2|2|2,0:2|0:2|1:2,0:0:0:0:
118,182,19864,1,2,0:2:0:0:
213,20,20141,2,0,L|220:71,1,48,0|0,0:0|2:0,0:0:0:0:
223,71,20419,38,0,P|266:83|329:87,1,96,2|0,0:2|0:0,0:0:0:0:
383,61,20834,1,0,0:0:0:0:
383,61,20973,2,0,P|394:89|395:169,1,96,2|2,1:2|0:2,0:0:0:0:
343,201,21389,1,0,0:0:0:0:
343,201,21528,6,0,L|341:309,1,96,2|0,0:2|0:0,0:0:0:0:
391,348,21943,2,0,L|283:350,1,96,2|0,1:2|0:0,0:0:0:0:
230,317,22359,1,2,0:2:0:0:
3,298,22637,6,0,P|53:295|103:316,2,96,0|0|2,0:0|0:0|1:2,0:0:0:0:
164,280,23468,1,2,0:2:0:0:
164,280,23884,2,0,P|170:256|173:229,1,48,0|2,0:0|0:2,0:0:0:0:
151,163,24162,1,2,1:2:0:0:
151,163,24300,2,0,L|154:64,1,96,2|0,0:2|0:0,0:0:0:0:
225,22,24716,38,0,L|222:121,1,96,2|0,0:2|0:0,0:0:0:0:
269,172,25132,2,0,P|299:180|324:179,1,48,2|2,0:2|0:2,0:0:0:0:
379,145,25409,2,0,P|413:140|475:159,1,96,2|2,1:2|0:2,0:0:0:0:
508,219,25825,1,0,0:0:0:0:
512,223,25964,2,0,L|509:322,1,96,2|2,0:2|0:2,0:0:0:0:
271,291,26518,5,0,1:0:0:0:
271,291,26657,1,0,1:0:0:0:
189,277,26796,1,2,0:2:0:0:
189,277,26934,1,2,0:2:0:0:
112,306,27073,5,4,0:0:0:0:
370,220,27350,1,4,0:0:0:0:
49,168,27627,2,0,L|105:162,1,48,2|2,1:2|0:2,0:0:0:0:
264,86,27905,2,0,L|208:80,1,48,0|2,0:0|0:2,0:0:0:0:
96,162,28182,38,0,L|208:150,1,96,0|0,0:0|0:0,0:0:0:0:
264,86,28598,2,0,L|406:101,1,144,2|0,1:2|0:0,0:0:0:0:
407,101,29430,1,0,0:0:0:0:
483,190,29568,6,0,P|422:187|376:187,1,96,0|2,0:0|1:2,0:0:0:0:
216,275,30123,1,0,0:0:0:0:
216,275,30261,2,0,P|155:278|109:278,2,96,2|2|0,0:2|0:2|0:0,0:0:0:0:
298,325,30955,2,0,P|341:324|441:337,1,144,2|2,1:2|0:2,0:0:0:0:
445,341,31509,6,0,L|454:245,1,96
379,51,32064,1,2,1:2:0:0:
379,51,32202,2,0,P|363:93|368:159,1,96,2|0,0:2|0:0,0:0:0:0:
367,147,32618,2,0,L|268:142,1,96,0|0,0:0|1:0,0:0:0:0:
174,160,33034,1,2,0:2:0:0:
174,160,33173,1,2,0:2:0:0:
174,160,33450,2,0,L|115:164,1,48,0|0,0:0|0:0,0:0:0:0:
42,211,33727,38,0,P|31:169|45:112,2,96,0|0|2,0:0|0:0|1:2,0:0:0:0:
125,258,34420,1,2,0:2:0:0:
125,258,34559,2,0,P|128:291|129:332,1,60,0|2,0:0|0:2,0:0:0:0:
227,368,34836,6,0,P|229:296|236:224,1,143.999995605469,0|0,0:0|0:0,0:0:0:0:
273,146,35252,1,0,0:0:0:0:
384,38,35391,6,0,L|461:46,1,71.9999978027344,8|8,0:0|0:0,0:0:0:0:
344,153,35668,2,0,L|273:146,1,71.9999978027344,0|0,0:0|0:0,0:0:0:0:
146,50,35945,38,0,L|289:64,1,143.999995605469,4|2,0:2|0:2,0:0:0:0:
427,126,36361,1,0,0:0:0:0:
427,126,36500,2,0,B|441:161|441:161|435:199,1,71.9999978027344,8|0,0:0|0:0,0:0:0:0:
360,319,36777,2,0,B|355:286|355:286|369:251,1,71.9999978027344,2|0,0:2|0:0,0:0:0:0:
436,195,37054,5,0,0:0:0:0:
450,280,37193,2,0,L|294:268,1,143.999995605469,2|0,0:2|0:0,0:0:0:0:
238,322,37609,2,0,L|82:310,1,143.999995605469,10|2,0:2|0:2,0:0:0:0:
26,364,38025,1,2,0:2:0:0:
55,230,38163,6,0,B|74:198|74:198|66:88,1,143.999995605469,4|2,0:2|0:2,0:0:0:0:
129,32,38579,1,0,0:0:0:0:
129,32,38718,2,0,B|110:64|110:64|118:174,1,143.999995605469,8|2,0:0|0:2,0:0:0:0:
193,212,39134,1,0,0:0:0:0:
348,109,39273,38,0,L|352:37,1,71.9999978027344,0|0,0:0|0:0,0:0:0:0:
258,80,39550,2,0,L|262:151,1,71.9999978027344,0|0,0:0|0:0,0:0:0:0:
440,91,39827,2,0,L|476:87,2,35.9999989013672,4|0|0,0:2|0:0|0:0,0:0:0:0:
262,151,40104,2,0,L|266:222,1,71.9999978027344,2|2,0:2|0:2,0:0:0:0:
266,339,40382,6,0,B|331:365|331:365|402:345,1,143.999995605469,4|2,0:2|0:2,0:0:0:0:
403,229,40797,1,0,0:0:0:0:
403,229,40936,2,0,B|338:203|338:203|267:223,1,143.999995605469,10|2,0:2|0:2,0:0:0:0:
23,348,41491,6,0,L|146:342,2,107.999996704102,2|2|2,3:0|3:0|3:0,2:2:0:0:
52,258,42045,2,0,B|71:200|71:200|130:342,1,215.999993408203,8|2,0:0|0:2,0:0:0:0:
208,304,42600,38,0,L|281:307,1,71.9999978027344,4|2,0:2|0:2,0:0:0:0:
403,242,42877,2,0,L|329:238,1,71.9999978027344,2|2,0:2|0:2,0:0:0:0:
216,312,43154,2,0,L|363:319,1,143.999995605469,4|2,0:2|0:2,0:0:0:0:
447,99,43709,5,4,0:1:0:0:
372,55,43847,2,0,L|376:13,2,35.9999989013672,0|0|2,0:0|0:0|0:2,0:0:0:0:
289,82,44125,1,0,0:0:0:0:
214,38,44263,6,0,L|139:42,1,71.9999978027344,12|8,0:0|0:0,0:0:0:0:
76,99,44541,1,4,3:0:0:0:
76,99,44679,1,4,3:0:0:0:
76,99,44818,1,4,0:2:0:0:
76,99,45372,38,0,P|65:136|63:196,1,96,8|2,0:0|0:2,0:0:0:0:
228,263,45927,2,0,P|239:226|241:166,1,96,0|2,0:0|0:2,0:0:0:0:
215,98,46343,1,8,1:0:0:0:
215,98,46481,1,0,1:0:0:0:
137,310,46759,6,0,P|204:299|291:331,1,144,4|0,0:0|0:0,0:0:0:0:
346,289,47313,2,0,P|378:315|399:375,1,96,4|10,0:3|0:2,0:0:0:0:
470,336,47729,1,4,0:3:0:0:
470,336,48145,6,0,L|478:193,1,144,0|10,0:0|0:2,0:0:0:0:
422,138,48699,2,0,P|417:98|440:30,2,96,4|4|4,1:3|1:3|1:2,1:1:0:0:
422,138,49809,38,0,P|348:115|218:210,1,240,8|0,0:0|0:0,0:0:0:0:
22,87,50640,2,0,P|57:90|96:122,1,60,10|0,0:2|0:0,0:0:0:0:
136,154,50918,1,0,0:0:0:0:
340,312,51195,6,0,P|254:233|139:250,1,240,4|4,0:2|0:3,0:0:0:0:
374,198,52027,1,10,0:2:0:0:
374,198,52165,2,0,B|496:205,1,120,4|0,0:3|0:0,0:0:0:0:
499,126,52581,6,0,B|377:119,1,120,4|0,0:0|0:0,0:0:0:0:
314,75,52997,2,0,P|276:72|238:84,1,60,10|0,0:2|0:0,0:0:0:0:
181,49,53274,2,0,P|146:65|119:94,1,60,4|4,0:3|0:3,0:0:0:0:
52,92,53552,2,0,P|30:123|21:162,1,60,4|4,0:3|0:2,0:0:0:0:
128,341,53968,38,0,P|149:299|150:238,1,96,2|8,0:2|0:0,0:0:0:0:
23,143,54522,1,2,0:2:0:0:
152,250,54799,2,0,L|256:248,1,96,0|2,0:0|0:2,0:0:0:0:
322,268,55215,1,8,1:0:0:0:
322,268,55354,1,0,0:0:0:0:
484,168,55631,6,0,P|502:244|489:311,1,144,4|0,0:0|0:0,0:0:0:0:
424,348,56186,2,0,L|320:346,1,96,0|10,0:0|0:2,0:0:0:0:
254,369,56602,1,0,0:0:0:0:
254,369,57017,6,0,L|98:366,1,144,4|10,0:3|0:2,0:0:0:0:
46,321,57572,2,0,P|38:271|48:227,1,96,4|4,0:3|0:3,0:0:0:0:
194,76,58126,37,4,0:2:0:0:
210,183,58404,1,2,0:2:0:0:
317,167,58681,1,8,0:0:0:0:
301,60,58958,1,2,0:2:0:0:
146,218,59236,2,0,P|184:219|261:251,1,107.999996704102,4|10,0:0|0:2,0:0:0:0:
257,254,60067,1,4,0:2:0:0:
391,306,60345,6,0,L|466:304,1,71.9999978027344,4|4,0:3|0:3,0:0:0:0:
391,306,60899,1,10,0:2:0:0:
263,262,61176,2,0,P|162:271|88:359,1,215.999993408203,0|8,0:0|0:0,0:0:0:0:
84,346,62147,2,0,P|121:344|189:374,1,107.999996704102,4|0,0:3|0:0,0:0:0:0:
376,155,64781,38,0,L|378:124,11,24,0|0|0|0|0|0|0|0|0|0|0|0,0:0|0:0|0:0|0:0|0:0|0:0|0:0|0:0|0:0|0:0|0:0|0:0,0:0:0:0:
380,58,66444,6,0,L|381:106,1,48,0|0,0:0|0:0,0:0:0:0:
371,178,66722,2,0,L|372:226,1,48,0|0,0:0|0:0,0:0:0:0:
394,294,66999,1,4,0:2:0:0:
394,294,67553,6,0,P|337:304|289:315,1,96,2|0,1:2|0:0,0:0:0:0:
245,359,67969,1,0,0:0:0:0:
245,359,68108,2,0,P|198:348|150:340,1,96,2|0,0:2|0:0,0:0:0:0:
80,357,68524,2,0,P|129:337|137:243,1,144,2|0,1:2|2:0,0:0:0:0:
143,254,69494,5,0,0:0:0:0:
100,102,69772,2,0,P|92:143|90:202,1,96,2|0,1:2|0:0,0:0:0:0:
139,250,70187,1,0,2:0:0:0:
143,254,70326,38,0,L|291:252,1,144,0|2,0:0|0:2,0:0:0:0:
353,221,70881,2,0,P|361:261|362:321,1,96,2|0,1:2|0:0,0:0:0:0:
477,229,71435,6,0,P|477:181|486:133,1,96,4|0,0:2|0:0,0:0:0:0:
415,116,71851,2,0,L|414:61,1,48,2|2,0:2|1:2,0:0:0:0:
278,18,72267,1,2,0:2:0:0:
115,49,72544,6,0,L|226:44,1,96,2|0,0:2|0:0,0:0:0:0:
278,18,72960,2,0,P|287:59|285:160,1,144,2|0,1:2|0:0,0:0:0:0:
199,290,73653,38,0,P|217:254|257:337,1,192,4|0,0:0|0:0,0:0:0:0:
114,307,74485,1,2,0:2:0:0:
13,204,74762,2,0,L|112:211,2,96,2|2|2,0:2|1:2|1:2,0:0:0:0:
190,25,75871,6,0,P|200:67|197:130,1,96,2|0,0:2|0:0,0:0:0:0:
13,204,76426,2,0,P|3:162|6:99,1,96,2|0,1:2|0:0,0:0:0:0:
190,127,76980,2,0,L|297:123,1,96,2|0,0:2|0:0,0:0:0:0:
342,167,77396,2,0,P|394:155|473:193,1,144,2|2,1:2|0:2,0:0:0:0:
472,192,78367,5,0,0:0:0:0:
416,45,78644,2,0,P|413:79|413:143,1,96,2|0,1:2|0:0,0:0:0:0:
472,192,79060,1,0,0:0:0:0:
472,192,79199,2,0,P|475:226|475:290,1,96,0|0,0:0|0:0,0:0:0:0:
414,326,79614,2,0,L|411:381,1,48,2|2,0:2|1:2,0:0:0:0:
289,207,80030,2,0,L|292:262,1,48,0|0,0:0|0:0,0:0:0:0:
256,318,80308,38,0,P|193:312|109:311,1,144,0|2,0:0|0:2,0:0:0:0:
48,343,80862,2,0,P|40:305|46:245,1,96,2|0,1:2|0:0,0:0:0:0:
89,191,81278,1,0,0:0:0:0:
89,191,81417,2,0,L|85:91,1,96,0|2,0:0|1:2,0:0:0:0:
124,34,81833,2,0,L|122:81,1,48,0|2,1:0|1:2,0:0:0:0:
269,71,82248,2,0,L|267:118,1,48,2|0,0:2|0:0,0:0:0:0:
221,175,82526,6,0,P|226:219|225:270,1,96,0|0,0:0|0:0,0:0:0:0:
437,354,83080,2,0,P|435:306|440:258,1,96,2|0,1:2|0:0,0:0:0:0:
498,214,83496,1,2,0:2:0:0:
498,214,83635,6,0,L|378:225,1,120,0|0,0:0|0:0,0:0:0:0:
75,124,84189,1,8,0:0:0:0:
75,124,84328,1,8,0:0:0:0:
166,146,84467,1,0,0:0:0:0:
166,146,84605,1,0,0:0:0:0:
250,106,84744,38,0,B|266:141|266:141|257:255,1,143.999995605469,4|2,0:2|0:2,0:0:0:0:
189,310,85160,1,0,0:0:0:0:
107,264,85298,2,0,B|94:298|94:298|96:344,1,71.9999978027344,8|0,0:0|0:0,0:0:0:0:
177,379,85576,2,0,B|190:345|190:345|188:309,1,71.9999978027344,2|0,0:2|0:0,0:0:0:0:
166,146,85853,5,0,0:0:0:0:
219,223,85992,2,0,L|377:217,1,143.999995605469,2|0,0:2|0:0,0:0:0:0:
411,137,86407,2,0,L|253:143,1,143.999995605469,10|2,0:2|0:2,0:0:0:0:
166,146,86823,1,2,0:2:0:0:
46,269,86962,6,0,B|24:238|24:238|33:128,1,143.999995605469,4|2,0:2|0:2,0:0:0:0:
120,75,87378,1,0,0:0:0:0:
120,75,87516,2,0,B|142:106|142:106|133:216,1,143.999995605469,8|2,0:0|0:2,0:0:0:0:
51,356,87932,1,0,0:0:0:0:
140,283,88071,38,0,L|133:212,1,71.9999978027344,0|0,0:0|0:0,0:0:0:0:
246,339,88348,2,0,L|253:268,1,71.9999978027344,0|0,0:0|0:0,0:0:0:0:
350,160,88626,1,4,0:2:0:0:
350,160,88903,2,0,L|357:231,1,71.9999978027344,2|2,0:2|0:2,0:0:0:0:
474,348,89180,6,0,B|414:314|414:314|340:324,1,143.999995605469,4|2,0:2|0:2,0:0:0:0:
212,277,89596,1,0,0:0:0:0:
212,277,89735,2,0,B|152:311|152:311|78:301,1,143.999995605469,10|2,0:2|0:2,0:0:0:0:
140,67,90289,6,0,L|133:174,2,107.999996704102,2|2|2,3:0|3:0|3:0,2:2:0:0:
247,73,90844,2,0,B|240:181|240:181|132:174,1,215.999993408203,8|2,0:0|0:2,0:0:0:0:
48,216,91398,37,4,0:2:0:0:
48,216,91537,1,2,0:2:0:0:
126,266,91675,1,0,0:0:0:0:
126,266,91814,1,2,0:2:0:0:
204,316,91953,2,0,B|270:313|270:313|282:318|282:318|349:315,1,143.999995605469,12|2,0:2|0:2,0:0:0:0:
204,316,92785,6,0,B|270:313|270:313|282:318|282:318|349:315,1,143.999995605469,0|4,0:0|2:0,0:0:0:0:
132,316,93339,2,0,B|165:314|165:314|171:317|171:317|204:315,1,71.9999978027344,0|0,0:0|0:0,0:0:0:0:
409,358,93616,6,0,B|420:327|420:327|411:210,1,143.999995605469,4|2,0:2|0:2,0:0:0:0:
314,73,94032,1,0,0:0:0:0:
314,73,94171,2,0,B|303:104|303:104|306:142,1,71.9999978027344,8|0,0:0|0:0,0:0:0:0:
411,216,94448,2,0,B|422:185|422:185|418:146,1,71.9999978027344,2|0,0:2|0:0,0:0:0:0:
314,73,94725,37,0,0:0:0:0:
225,41,94864,2,0,L|73:49,1,143.999995605469,2|0,0:2|0:0,0:0:0:0:
5,133,95280,2,0,L|157:125,1,143.999995605469,10|2,0:2|0:2,0:0:0:0:
234,163,95696,1,2,0:2:0:0:
234,163,95834,6,0,B|248:196|248:196|235:314,1,143.999995605469,4|2,0:2|0:2,0:0:0:0:
164,343,96250,1,0,0:0:0:0:
164,343,96389,2,0,B|197:329|197:329|315:342,1,143.999995605469,8|2,0:0|0:2,0:0:0:0:
389,300,96805,1,0,0:0:0:0:
505,365,96943,6,0,L|513:293,1,71.9999978027344,0|0,0:0|0:0,0:0:0:0:
381,228,97221,2,0,L|389:300,1,71.9999978027344,0|0,0:0|0:0,0:0:0:0:
488,218,97498,2,0,L|492:182,2,35.9999989013672,4|0|0,0:2|0:0|0:0,0:0:0:0:
373,156,97775,2,0,L|381:228,1,71.9999978027344,2|2,0:2|0:2,0:0:0:0:
254,273,98053,38,0,B|222:289|222:289|114:280,1,143.999995605469,4|2,0:2|0:2,0:0:0:0:
22,193,98468,1,0,0:0:0:0:
22,193,98607,2,0,B|54:177|54:177|162:186,1,143.999995605469,10|2,0:2|0:2,0:0:0:0:
311,146,99162,6,0,B|341:98|341:98|318:48,2,107.999996704102,2|2|2,3:0|3:0|3:0,2:2:0:0:
234,91,99716,2,0,L|459:104,1,215.999993408203,8|2,0:0|0:2,0:0:0:0:
497,198,100271,6,0,L|424:201,1,71.9999978027344,4|2,0:2|0:2,0:0:0:0:
302,136,100548,2,0,L|376:132,1,71.9999978027344,2|2,0:2|0:2,0:0:0:0:
489,206,100825,2,0,L|342:213,1,143.999995605469,4|2,0:2|0:2,0:0:0:0:
32,114,101380,37,4,0:1:0:0:
118,149,101518,2,0,L|114:185,2,35.9999989013672,0|0|2,0:0|0:0|0:2,0:0:0:0:
191,89,101796,1,0,0:0:0:0:
277,124,101934,5,12,0:0:0:0:
277,124,102073,1,8,0:0:0:0:
350,64,102212,1,4,3:0:0:0:
350,64,102350,1,4,3:0:0:0:
436,99,102489,1,4,0:2:0:0:
436,99,103043,6,0,P|447:136|449:196,1,96,8|2,0:0|0:2,0:0:0:0:
284,263,103598,2,0,P|273:226|271:166,1,96,0|2,0:0|0:2,0:0:0:0:
297,98,104014,1,8,1:0:0:0:
297,98,104152,1,0,0:0:0:0:
375,310,104430,38,0,P|308:299|221:331,1,144,4|0,0:0|0:0,0:0:0:0:
166,289,104984,2,0,P|134:315|113:375,1,96,4|10,0:3|0:2,0:0:0:0:
42,336,105400,1,4,0:3:0:0:
42,336,105816,6,0,L|34:193,1,144,0|10,0:0|0:2,0:0:0:0:
90,138,106370,2,0,P|95:98|72:30,2,96,4|4|4,1:3|1:3|1:2,1:1:0:0:
90,138,107480,6,0,P|164:115|294:210,1,240,8|0,0:0|0:0,0:0:0:0:
490,87,108311,2,0,P|455:90|416:122,1,60,10|0,0:2|0:0,0:0:0:0:
376,154,108589,1,0,0:0:0:0:
172,312,108866,38,0,P|258:233|373:250,1,240,4|4,0:2|0:3,0:0:0:0:
138,198,109698,1,10,0:2:0:0:
138,198,109836,2,0,B|16:205,1,120,4|0,0:3|0:0,0:0:0:0:
13,126,110252,6,0,B|135:119,1,120,4|0,0:0|0:0,0:0:0:0:
198,75,110668,1,10,0:2:0:0:
198,75,110807,1,0,0:0:0:0:
424,115,111084,1,4,1:3:0:0:
158,301,111361,1,4,1:2:0:0:
384,341,111639,6,0,P|363:299|362:238,1,96,2|8,0:2|0:0,0:0:0:0:
489,143,112193,1,2,0:2:0:0:
360,250,112470,2,0,L|256:248,1,96,0|2,0:0|0:2,0:0:0:0:
190,268,112886,1,8,1:0:0:0:
190,268,113025,1,0,0:0:0:0:
28,168,113302,38,0,P|10:244|23:311,1,144,4|0,0:0|0:0,0:0:0:0:
88,348,113857,2,0,L|192:346,1,96,0|10,0:0|0:2,0:0:0:0:
258,369,114273,1,0,0:0:0:0:
258,369,114688,6,0,L|414:366,1,144,4|10,0:3|0:2,0:0:0:0:
466,321,115243,2,0,P|474:271|464:227,1,96,4|4,0:3|0:3,0:0:0:0:
318,76,115797,5,4,0:2:0:0:
302,183,116075,1,2,0:2:0:0:
195,167,116352,1,8,0:0:0:0:
211,60,116629,1,2,0:2:0:0:
366,218,116907,2,0,P|328:219|251:251,1,107.999996704102,4|10,0:0|0:2,0:0:0:0:
255,254,117738,1,4,0:2:0:0:
121,306,118016,38,0,L|46:304,1,71.9999978027344,4|4,0:3|0:3,0:0:0:0:
121,306,118570,1,10,0:2:0:0:
249,262,118847,2,0,P|350:271|424:359,1,215.999993408203,0|8,0:0|0:0,0:0:0:0:
428,346,119818,2,0,P|391:344|323:374,1,107.999996704102,4|0,0:3|0:0,0:0:0:0:
125,19,124670,5,4,0:0:0:0:
396,69,125224,1,0,1:0:0:0:
193,183,125779,1,4,0:0:0:0:
313,239,126195,1,0,1:0:0:0:
254,349,126611,1,4,0:0:0:0:
125,19,127165,5,4,0:0:0:0:
396,69,127443,1,4,0:0:0:0:
396,69,127581,1,0,1:0:0:0:
193,183,127858,1,4,0:0:0:0:
193,183,127997,1,0,1:0:0:0:
313,239,128274,1,4,0:0:0:0:
254,349,128552,1,0,1:0:0:0:
193,183,128829,1,0,1:0:0:0:
396,69,129106,37,0,0:0:0:0:
408,51,129245,1,0,0:0:0:0:
396,34,129383,1,0,0:0:0:0:
375,40,129522,1,0,0:0:0:0:
375,62,129661,1,4,0:3:0:0:
193,183,129938,5,0,0:0:0:0:
120,169,130077,1,0,0:0:0:0:
313,239,130354,6,0,L|311:160,1,71.9999978027344,4|4,0:3|0:3,0:0:0:0:
250,278,130631,2,0,P|245:314|254:349,1,71.9999978027344,4|2,0:3|0:2,0:0:0:0:
254,349,131047,38,0,B|199:294|148:270|49:243|17:340|63:381,1,287.999991210938,4|2,0:2|0:2,0:0:0:0:
313,239,131879,1,8,0:0:0:0:
350,161,132017,2,0,P|360:101|334:20,1,143.999995605469,2|0,0:2|0:0,0:0:0:0:
259,63,132433,6,0,L|333:56,1,71.9999978027344,4|0,0:2|2:0,0:0:0:0:
464,93,132711,2,0,L|390:100,1,71.9999978027344,4|0,0:2|2:0,0:0:0:0:
252,135,132988,6,0,L|326:128,1,71.9999978027344,12|0,0:2|2:0,0:0:0:0:
457,165,133266,2,0,L|383:172,1,71.9999978027344,12|0,0:2|2:0,0:0:0:0:
245,207,133542,37,0,0:0:0:0:
249,211,133681,1,0,0:0:0:0:
253,215,133819,1,0,0:0:0:0:
257,219,133958,1,0,0:0:0:0:
261,223,134097,1,4,0:3:0:0:
113,208,134374,5,0,0:0:0:0:
40,201,134513,1,0,0:0:0:0:
224,292,134790,6,0,P|261:300|306:289,1,71.9999978027344,4|4,0:3|0:3,0:0:0:0:
426,341,135067,2,0,L|347:337,1,71.9999978027344,4|2,0:3|0:2,0:0:0:0:
354,337,135483,38,0,B|309:259|302:157|396:137|432:170|432:232,1,287.999991210938,4|2,0:2|0:2,0:0:0:0:
210,356,136315,1,8,0:0:0:0:
148,295,136454,2,0,P|115:279|7:269,1,143.999995605469,2|0,0:2|0:0,0:0:0:0:
20,354,136870,6,0,L|27:277,1,71.9999978027344,2|0,0:2|2:0,0:0:0:0:
141,223,137147,2,0,L|148:295,1,71.9999978027344,2|0,0:2|2:0,0:0:0:0:
37,202,137424,6,0,L|44:125,1,71.9999978027344,8|8,0:0|0:0,0:0:0:0:
158,71,137701,1,4,0:3:0:0:
158,71,137979,38,0,P|197:65|235:70,1,71.9999978027344,4|0,0:2|0:0,0:0:0:0:
296,122,138256,2,0,P|302:161|297:199,1,71.9999978027344,2|0,0:2|0:0,0:0:0:0:
226,241,138533,2,0,P|298:233|371:256,1,143.999995605469,10|2,0:2|0:2,0:0:0:0:
512,167,138949,2,0,L|368:170,1,143.999995605469,4|2,0:2|0:2,0:0:0:0:
226,241,139365,2,0,P|220:280|225:318,1,71.9999978027344,2|2,0:2|0:2,0:0:0:0:
283,374,139642,1,10,0:2:0:0:
1,304,139919,1,4,0:2:0:0:
283,374,140474,6,0,P|237:344|137:345,1,143.999995605469,2|8,0:2|0:0,0:0:0:0:
28,375,140890,2,0,L|37:231,1,143.999995605469,2|0,0:2|0:0,0:0:0:0:
44,144,141306,5,4,0:3:0:0:
150,341,141583,1,4,0:3:0:0:
166,110,141860,2,0,L|161:182,2,71.9999978027344,10|10|4,0:2|0:2|0:3,0:0:0:0:
166,110,142415,38,0,P|205:104|243:109,1,71.9999978027344,4|0,0:2|0:0,0:0:0:0:
304,161,142692,2,0,P|310:200|305:238,1,71.9999978027344,2|0,0:2|0:0,0:0:0:0:
234,280,142969,2,0,P|306:272|379:295,1,143.999995605469,10|2,0:2|0:2,0:0:0:0:
512,195,143385,2,0,P|443:215|372:207,1,143.999995605469,4|2,0:2|0:2,0:0:0:0:
234,280,143801,2,0,P|195:286|157:281,1,71.9999978027344,2|2,0:2|0:2,0:0:0:0:
85,244,144078,1,10,0:2:0:0:
372,207,144356,1,4,0:2:0:0:
85,244,144910,6,0,L|95:94,1,143.999995605469,2|8,0:2|0:0,0:0:0:0:
183,31,145326,2,0,L|173:181,1,143.999995605469,2|0,0:2|0:0,0:0:0:0:
244,299,145742,6,0,P|250:260|245:222,1,71.9999978027344,4|0,0:3|0:0,0:0:0:0:
162,356,146019,1,4,0:3:0:0:
354,71,146297,2,0,L|354:151,2,71.9999978027344,10|10|4,0:2|0:2|0:3,0:0:0:0:
354,71,146851,38,0,P|315:65|277:70,1,71.9999978027344,4|0,0:2|0:0,0:0:0:0:
216,122,147128,2,0,P|210:161|215:199,1,71.9999978027344,2|0,0:2|0:0,0:0:0:0:
286,241,147405,2,0,P|214:233|141:256,1,143.999995605469,10|2,0:2|0:2,0:0:0:0:
0,167,147821,2,0,L|144:170,1,143.999995605469,4|2,0:2|0:2,0:0:0:0:
286,241,148237,2,0,P|292:280|287:318,1,71.9999978027344,2|2,0:2|0:2,0:0:0:0:
229,374,148514,1,10,0:2:0:0:
511,304,148791,1,4,0:2:0:0:
229,374,149346,6,0,P|275:344|375:345,1,143.999995605469,2|8,0:2|0:0,0:0:0:0:
484,375,149762,2,0,L|475:231,1,143.999995605469,2|0,0:2|0:0,0:0:0:0:
468,144,150178,5,4,0:3:0:0:
362,341,150455,1,4,0:3:0:0:
346,110,150732,2,0,L|351:182,2,71.9999978027344,10|10|4,0:2|0:2|0:3,0:0:0:0:
346,110,151287,38,0,P|307:104|269:109,1,71.9999978027344,4|0,0:2|0:0,0:0:0:0:
208,161,151564,2,0,P|202:200|207:238,1,71.9999978027344,2|0,0:2|0:0,0:0:0:0:
278,280,151841,2,0,P|206:272|133:295,1,143.999995605469,10|2,0:2|0:2,0:0:0:0:
0,195,152257,2,0,P|68:215|139:207,1,143.999995605469,4|2,0:2|0:2,0:0:0:0:
278,280,152673,2,0,P|317:286|355:281,1,71.9999978027344,2|2,0:2|0:2,0:0:0:0:
427,244,152950,1,10,0:2:0:0:
140,207,153228,1,4,0:2:0:0:
427,244,153782,6,0,L|417:94,1,143.999995605469,2|8,0:2|0:0,0:0:0:0:
329,31,154198,2,0,L|339:181,1,143.999995605469,2|0,0:2|0:0,0:0:0:0:
268,299,154614,6,0,P|262:260|267:222,1,71.9999978027344,8|8,0:0|0:0,0:0:0:0:
295,107,154892,1,4,0:3:0:0:
56,14,155169,38,0,P|50:53|55:91,1,71.9999978027344,10|10,0:2|0:2,0:0:0:0:
83,206,155446,2,0,L|-6:203,1,71.9999978027344,4|4,0:3|0:3,0:0:0:0:
87,210,155724,5,4,0:2:0:0:
87,210,156278,6,0,P|137:205|186:211,1,96,8|2,0:0|0:2,0:0:0:0:
302,344,156833,2,0,P|252:349|203:343,1,96,0|2,0:0|0:2,0:0:0:0:
142,306,157248,1,8,1:0:0:0:
142,306,157387,1,0,0:0:0:0:
256,97,157664,38,0,L|252:262,1,144,4|0,0:0|0:0,0:0:0:0:
298,303,158219,2,0,P|350:311|390:294,1,96,4|10,0:3|0:2,0:0:0:0:
455,333,158635,2,0,P|413:299|400:211,1,144,4|0,0:3|0:0,0:0:0:0:
399,213,159467,5,10,0:2:0:0:
438,147,159605,2,0,L|445:40,2,96,4|4|4,1:3|1:3|1:2,1:1:0:0:
438,147,160714,6,0,P|385:139|260:168,1,180,8|0,0:0|3:0,0:0:0:0:
208,222,161269,1,0,0:0:0:0:
35,58,161546,2,0,P|74:63|114:79,1,60,10|0,0:2|0:0,0:0:0:0:
157,113,161823,1,0,0:0:0:0:
322,76,162101,38,0,P|295:161|302:250,1,180,4|0,0:2|0:0,0:0:0:0:
360,302,162655,2,0,L|240:295,1,120,4|10,0:3|0:2,0:0:0:0:
178,342,163071,2,0,P|109:298|5:319,1,180,4|4,0:3|0:0,0:0:0:0:
360,302,163903,5,10,0:2:0:0:
360,302,164041,1,0,0:0:0:0:
15,311,164319,1,4,0:3:0:0:
360,302,164596,1,4,1:2:0:0:
15,311,164873,6,0,L|23:212,2,96,2|8|2,0:2|0:0|0:2,0:0:0:0:
184,157,165705,2,0,L|191:253,1,96,0|2,0:0|0:2,0:0:0:0:
197,329,166121,1,8,1:0:0:0:
197,329,166260,1,0,0:0:0:0:
399,305,166537,38,0,P|318:279|246:286,1,144,4|0,0:0|0:0,0:0:0:0:
196,329,167091,2,0,P|149:341|94:338,1,96,0|10,0:0|0:2,0:0:0:0:
35,303,167507,1,0,0:0:0:0:
35,303,167923,6,0,P|22:246|43:164,1,144,4|10,0:3|0:2,0:0:0:0:
103,116,168478,2,0,L|98:19,2,96,4|4|4,0:3|0:3|0:2,0:0:0:0:
303,76,169309,6,0,L|298:171,2,96,2|12|2,0:2|0:2|0:2,0:0:0:0:
375,228,170141,2,0,P|394:298|372:386,1,144,4|10,0:0|0:2,0:0:0:0:
381,367,170973,1,4,0:2:0:0:
195,326,171250,38,0,L|290:322,1,96,4|4,0:1|0:3,0:0:0:0:
470,223,171805,2,0,L|375:227,1,96,10|0,0:2|0:0,0:0:0:0:
195,326,172359,6,0,P|193:351|195:368,2,30,4|0|8,0:0|0:0|0:0,0:0:0:0:
229,255,172637,1,4,0:3:0:0:
229,255,172775,1,4,0:3:0:0:
184,190,172914,2,0,P|148:181|114:181,1,60,8|8,0:0|0:0,0:0:0:0:
7,240,173191,2,0,P|37:238|66:231,1,60,4|4,0:3|0:3,0:0:0:0:
125,180,173468,5,4,0:2:0:0:
125,180,174023,38,0,L|134:47,1,120,12|2,0:2|0:2,0:0:0:0:
358,26,174577,2,0,L|349:159,1,120,8|10,0:0|0:2,0:0:0:0:
311,213,174993,2,0,P|305:246|305:283,1,60,0|4,0:0|0:3,0:0:0:0:
304,272,175409,6,0,B|366:246|429:240|472:294|444:361|384:363,1,240,4|0,0:2|0:0,0:0:0:0:
216,332,176241,2,0,P|178:328|142:325,1,60,8|0,0:0|0:0,0:0:0:0:
80,344,176518,1,2,0:2:0:0:
7,178,176796,2,0,P|65:181|127:164,1,120,0|10,0:0|0:2,0:0:0:0:
176,107,177212,1,0,0:0:0:0:
176,107,177350,2,0,L|303:103,2,120,4|4|4,0:3|0:3|0:2,0:0:0:0:
502,39,178459,5,4,0:2:0:0:
5,11,179014,1,4,0:2:0:0:
5,11,179291,1,0,0:0:0:0:
302,288,179846,38,0,P|294:194|214:262,1,240,4|0,0:2|1:0,0:0:0:0:
212,255,180677,1,10,0:2:0:0:
302,288,180816,2,0,B|358:308|367:275|427:297,1,120
470,354,181232,2,0,P|444:304|498:188,2,180,0|10|0,0:0|0:2|0:0,0:0:0:0:
236,329,182341,5,4,0:2:0:0:
2,299,182618,1,2,0:2:0:0:
158,319,182895,5,8,0:0:0:0:
2,299,183173,1,2,0:2:0:0:
250,202,183450,37,4,0:2:0:0:
484,172,183727,1,2,0:2:0:0:
328,192,184004,1,8,0:0:0:0:
9,79,184282,6,0,L|187:100,1,180,4|0,0:2|0:0,0:0:0:0:
224,169,184836,2,0,P|239:220|233:291,1,120,0|10,0:0|0:2,0:0:0:0:
203,357,185252,1,0,0:0:0:0:
202,357,185668,6,0,P|275:308|359:333,1,180,0|10,0:0|0:2,0:0:0:0:
393,261,186223,2,0,L|512:254,2,120,0|0|0,0:0|0:0|0:0,0:0:0:0:
259,348,190104,22,0,L|256:371,1,24,0|0,0:0|0:0,0:0:0:0:
