osu file format v14

[General]
AudioFilename: audio.mp3
AudioLeadIn: 0
PreviewTime: 44748
Countdown: 1
SampleSet: Normal
StackLeniency: 0.3
Mode: 0
LetterboxInBreaks: 0
WidescreenStoryboard: 1

[Editor]
Bookmarks: 18200,35945,44818,62563,66999,84744,102489,120234,137979,155724
DistanceSpacing: 0.7
BeatDivisor: 4
GridSize: 32
TimelineZoom: 1.6

[Metadata]
Title:Forgotten
TitleUnicode:Forgotten
Artist:Linkin Park
ArtistUnicode:Linkin Park
Creator:pw384
Version:Hectic's Insane
Source:
Tags:Hybrid Theory English Rap Rock Nu Metal Alternative 384059043 Hectic h4d0uk3n1
BeatmapID:2153647
BeatmapSetID:1011380

[Difficulty]
HPDrainRate:5.5
CircleSize:3.5
OverallDifficulty:8
ApproachRate:9.2
SliderMultiplier:3.2
SliderTickRate:1

[Events]
//Background and Video events
0,0,"bg.jpg",0,0
//Break Periods
2,62563,64211
//Storyboard Layer 0 (Background)
//Storyboard Layer 1 (Fail)
//Storyboard Layer 2 (Pass)
//Storyboard Layer 3 (Foreground)
//Storyboard Layer 4 (Overlay)
//Storyboard Sound Samples

[TimingPoints]
456,554.52865064695,4,1,1,80,1,0
456,-83.3333333333333,4,1,1,80,0,1
1565,-83.3333333333333,4,1,1,80,0,0
2674,-83.3333333333333,4,1,1,80,0,1
3783,-83.3333333333333,4,1,1,80,0,0
4060,-250.000000000001,4,1,1,80,0,0
4614,-83.3333333333333,4,1,1,80,0,0
4892,-83.3333333333333,4,1,1,80,0,1
6001,-83.3333333333333,4,1,1,80,0,0
7110,-83.3333333333333,4,1,1,80,0,1
8219,-83.3333333333333,4,1,1,80,0,0
8496,-250.000000000001,4,1,1,80,0,0
9328,-83.3333333333333,4,1,1,80,0,1
10437,-83.3333333333333,4,1,1,80,0,0
11546,-83.3333333333333,4,1,1,80,0,1
12655,-83.3333333333333,4,1,1,80,0,0
12932,-250.000000000001,4,1,1,80,0,0
13764,-83.3333333333335,4,1,1,80,0,1
14873,-83.3333333333335,4,1,1,80,0,0
15982,-83.3333333333335,4,1,1,80,0,1
17091,-83.3333333333335,4,1,1,80,0,0
18200,-125,4,3,0,50,0,0
35391,-125,4,1,1,70,0,0
35945,-83.3333333333333,4,1,1,80,0,1
37054,-83.3333333333333,4,1,1,80,0,0
38163,-83.3333333333333,4,1,1,80,0,1
39273,-83.3333333333333,4,1,1,80,0,0
39550,-250,4,1,1,80,0,0
40104,-83.3333333333333,4,1,1,80,0,0
40382,-83.3333333333333,4,1,1,80,0,1
41491,-83.3333333333333,4,1,1,80,0,0
42600,-83.3333333333333,4,1,1,80,0,1
43709,-83.3333333333333,4,1,1,80,0,0
44818,-83.3333333333333,4,1,1,80,0,1
45372,-83.3333333333333,4,1,1,80,0,0
62563,-125,4,1,1,80,0,0
64781,-125,4,2,0,30,0,0
66514,-125,4,3,0,5,0,0
66583,-125,4,3,0,50,0,0
83635,-125,4,1,1,70,0,0
84744,-83.3333333333333,4,1,1,80,0,1
85853,-83.3333333333333,4,1,1,80,0,0
86962,-83.3333333333333,4,1,1,80,0,1
88071,-83.3333333333333,4,1,1,80,0,0
88348,-250,4,1,1,80,0,0
89180,-83.3333333333333,4,1,1,80,0,1
90289,-83.3333333333333,4,1,1,80,0,0
91398,-83.3333333333333,4,1,1,80,0,1
92507,-83.3333333333333,4,1,1,80,0,0
92785,-250,4,1,1,80,0,0
93616,-83.3333333333333,4,1,1,80,0,1
94725,-83.3333333333333,4,1,1,80,0,0
95834,-83.3333333333333,4,1,1,80,0,1
96943,-83.3333333333333,4,1,1,80,0,0
97221,-250,4,1,1,80,0,0
98053,-83.3333333333333,4,1,1,80,0,1
99162,-83.3333333333333,4,1,1,80,0,0
120234,-83.3333333333333,4,1,1,40,0,0
124670,-125,4,3,0,50,0,0
129106,-125,4,1,1,60,0,0
130354,-125,4,1,1,75,0,0
131047,-83.3333333333333,4,1,0,85,0,1
131602,-83.3333333333333,4,1,1,85,0,1
133542,-125,4,1,1,75,0,0
134790,-125,4,1,1,80,0,0
135483,-83.3333333333333,4,1,0,85,0,1
136038,-83.3333333333333,4,1,1,85,0,1
137909,-83.3333333333333,4,1,1,85,0,0
137979,-83.3333333333333,4,1,1,85,0,1
155654,-83.3333333333333,4,1,1,85,0,0
155724,-83.3333333333333,4,1,1,85,0,1
156278,-83.3333333333333,4,1,1,85,0,0
173468,-62.5,4,1,1,85,0,1
186777,-181.818181818182,4,2,1,50,0,0
189827,-500,4,2,1,40,0,0
189966,-500,4,2,1,5,0,0

[Colours]
Combo1 : 207,187,118
Combo2 : 170,105,74
Combo3 : 120,89,54

[HitObjects]
272,115,178,5,0,0:0:0:0:
272,115,317,1,0,0:0:0:0:
303,16,456,6,0,P|305:132|324:231,1,191.999994140625,4|2,0:2|0:2,0:0:0:0:
317,206,871,1,0,0:0:0:0:
241,368,1010,2,0,P|257:324|252:277,1,95.9999970703126,8|0,0:0|0:0,0:0:0:0:
178,211,1287,6,0,L|186:110,2,95.9999970703126,2|0|0,0:2|2:0|0:0,0:0:0:0:
88,155,1703,2,0,L|296:174,1,191.999994140625,2|0,0:2|0:0,0:0:0:0:
444,95,2119,2,0,L|349:106,1,95.9999970703126,10|0,0:2|0:0,0:0:0:0:
263,74,2396,5,2,0:2:0:0:
263,74,2535,1,2,0:2:0:0:
195,4,2674,6,0,B|219:51|219:51|202:207,1,191.999994140625,4|2,0:2|0:2,0:0:0:0:
203,189,3090,1,0,0:0:0:0:
129,355,3228,2,0,B|120:325|120:325|148:267,1,95.9999970703126,8|0,0:0|0:0,0:0:0:0:
243,282,3505,5,2,0:2:0:0:
243,282,3644,1,0,0:0:0:0:
338,325,3783,5,0,0:0:0:0:
325,231,3921,1,0,0:0:0:0:
408,168,4060,6,0,L|406:210,1,32,0|0,0:0|0:0,0:0:0:0:
366,9,4337,2,0,L|369:68,1,48,4|0,0:2|2:0,0:0:0:0:
371,74,4614,5,2,0:2:0:0:
467,90,4753,1,2,0:2:0:0:
297,142,4892,6,0,P|234:146|133:227,1,191.999994140625,4|2,0:2|0:2,0:0:0:0:
135,222,5308,1,0,0:0:0:0:
26,75,5446,2,0,P|115:83|200:167,1,191.999994140625,10|2,0:2|0:2,0:0:0:0:
170,321,5862,5,0,0:0:0:0:
262,346,6001,2,0,P|296:305|281:244,1,95.9999970703126,2|0,3:0|2:0,2:2:0:0:
279,248,6209,2,0,P|313:217|360:217,1,95.9999970703126,2|0,3:0|2:0,0:0:0:0:
381,231,6417,1,2,3:0:0:0:
283,69,6555,2,0,P|214:135|186:226,1,191.999994140625,8|2,0:0|0:2,0:0:0:0:
344,311,6971,5,2,0:2:0:0:
322,186,7110,1,4,0:2:0:0:
322,186,7248,1,2,0:2:0:0:
389,73,7388,1,0,0:0:0:0:
389,73,7526,1,2,0:2:0:0:
262,3,7664,6,0,P|282:47|294:94,1,95.9999970703126,12|0,0:2|0:0,0:0:0:0:
199,117,7942,2,0,P|189:216|162:313,1,191.999994140625,2|0,0:2|2:0,0:0:0:0:
164,305,8496,6,0,L|167:351,1,32,0|0,0:0|0:0,0:0:0:0:
51,117,8773,2,0,L|40:228,1,112,4|0,2:0|2:0,0:0:0:0:
40,248,9328,6,0,P|78:222|125:228,1,95.9999970703126,4|0,0:2|0:0,0:0:0:0:
103,322,9605,1,2,0:2:0:0:
29,260,9744,1,0,0:0:0:0:
184,99,9882,2,0,P|203:144|212:191,1,95.9999970703126,8|0,0:0|0:0,0:0:0:0:
313,223,10160,5,2,0:2:0:0:
313,223,10298,1,0,0:0:0:0:
344,134,10437,5,0,0:0:0:0:
346,324,10576,2,0,P|355:228|354:132,1,191.999994140625,2|0,0:2|0:0,0:0:0:0:
429,374,10992,2,0,P|447:329|459:283,1,95.9999970703126,10|0,0:2|0:0,0:0:0:0:
254,343,11269,5,2,0:2:0:0:
254,343,11407,1,2,0:2:0:0:
176,285,11546,2,0,L|75:300,1,95.9999970703126,4|0,0:2|0:0,0:0:0:0:
32,383,11823,5,2,0:2:0:0:
32,383,11962,1,0,0:0:0:0:
66,208,12101,2,0,L|160:193,1,95.9999970703126,8|0,0:0|0:0,0:0:0:0:
238,137,12378,5,2,0:2:0:0:
238,137,12516,1,0,0:0:0:0:
409,188,12655,1,0,0:0:0:0:
311,198,12794,1,0,0:0:0:0:
344,79,12932,6,0,L|337:110,1,32,0|0,0:0|0:0,0:0:0:0:
291,309,13210,1,4,0:2:0:0:
291,309,13279,1,0,0:0:0:0:
291,309,13348,1,0,0:0:0:0:
379,265,13487,5,2,0:2:0:0:
414,352,13626,1,2,0:2:0:0:
458,177,13764,6,0,L|285:162,1,143.999995605469,4|0,0:2|2:0,0:0:0:0:
294,162,14041,1,2,0:2:0:0:
286,257,14180,1,0,0:0:0:0:
125,239,14319,2,0,L|137:108,1,95.9999970703126,10|0,0:2|0:0,0:0:0:0:
55,11,14596,2,0,L|40:164,1,143.999995605469,2|0,0:2|2:0,0:0:0:0:
38,173,14873,6,0,B|30:280|30:280|65:318,2,143.999995605469,2|2|2,3:0|3:0|3:0,2:2:0:0:
230,127,15428,1,8,0:0:0:0:
324,135,15567,2,0,L|420:141,1,95.9999970703126,0|2,0:0|0:2,0:0:0:0:
420,141,15844,5,2,0:2:0:0:
312,44,15982,5,4,0:2:0:0:
312,44,16121,1,2,0:2:0:0:
353,230,16260,1,2,0:2:0:0:
353,230,16398,1,2,0:2:0:0:
225,367,16537,2,0,P|184:345|153:300,1,95.9999970703126,4|0,0:2|0:0,0:0:0:0:
0,285,16814,2,0,P|35:253|82:242,1,95.9999970703126,2|0,0:2|0:0,0:0:0:0:
112,54,17091,6,0,P|104:124|152:176,1,143.999995605469,4|0,0:1|2:0,0:0:0:0:
176,182,17369,1,2,0:2:0:0:
264,146,17507,1,0,0:0:0:0:
252,50,17646,1,8,0:0:0:0:
252,50,17715,1,0,0:0:0:0:
252,50,17785,1,8,0:0:0:0:
343,22,17923,5,4,3:0:0:0:
343,22,18062,1,4,3:0:0:0:
404,84,18200,6,0,P|392:127|390:146,1,64,4|0,0:1|0:0,0:0:0:0:
306,149,18478,2,0,P|356:167|390:173,1,64,0|0,0:0|0:0,0:0:0:0:
358,252,18755,2,0,P|380:218|391:191,1,64,2|0,1:2|0:0,0:0:0:0:
465,162,19032,5,0,0:0:0:0:
465,162,19171,2,0,P|474:200|476:227,1,64,2|0,0:2|0:0,0:0:0:0:
446,302,19448,2,0,P|423:334|402:350,1,64,2|0,0:2|0:0,0:0:0:0:
321,363,19725,1,2,1:2:0:0:
321,363,19864,2,0,P|281:359|254:352,1,64,2|0,0:2|0:0,0:0:0:0:
291,275,20141,6,0,P|241:255|182:199,2,128,2|2|2,0:2|0:2|0:2,0:0:0:0:
373,265,20834,1,0,0:0:0:0:
232,214,20973,2,0,P|195:166|169:78,1,128,2|2,1:2|0:2,0:0:0:0:
171,19,21389,1,0,0:0:0:0:
91,43,21528,6,0,L|79:117,1,64,2|0,0:2|0:0,0:0:0:0:
24,168,21805,1,0,0:0:0:0:
24,168,21943,2,0,L|39:234,1,64,2|0,1:2|0:0,0:0:0:0:
18,312,22221,1,0,0:0:0:0:
18,312,22359,2,0,L|54:367,1,64,2|0,0:2|0:0,0:0:0:0:
121,317,22637,6,0,L|269:304,2,128,2|2|2,0:2|0:2|1:2,0:0:0:0:
87,240,23330,1,0,0:0:0:0:
87,227,23884,5,0,0:0:0:0:
169,239,24023,1,2,0:2:0:0:
181,156,24162,1,0,1:0:0:0:
210,315,24300,2,0,P|255:308|331:352,1,128,2|0,0:2|0:0,0:0:0:0:
406,364,24716,6,0,P|364:333|335:243,1,128,2|0,0:2|0:0,0:0:0:0:
353,183,25132,1,2,0:2:0:0:
271,198,25271,1,2,0:2:0:0:
227,127,25409,6,0,P|246:170|249:254,1,128,2|2,1:2|0:2,0:0:0:0:
166,239,25825,1,0,0:0:0:0:
95,283,25964,2,0,P|70:238|66:146,1,128,2|2,0:2|0:2,0:0:0:0:
62,162,26518,6,0,P|47:197|43:238,1,64,0|0,1:0|1:0,0:0:0:0:
63,308,26796,1,2,0:2:0:0:
63,308,26934,1,2,0:2:0:0:
199,341,27073,6,0,L|136:347,1,64,4|0,0:0|0:0,0:0:0:0:
266,291,27350,2,0,L|381:296,1,96,4|0,0:0|2:0,0:0:0:0:
378,295,27627,5,2,1:2:0:0:
443,346,27766,1,2,0:2:0:0:
509,295,27905,2,0,P|485:329|480:355,1,64,0|2,0:0|0:2,0:0:0:0:
366,289,28182,2,0,P|356:247|356:217,1,64,0|0,0:0|0:0,0:0:0:0:
272,221,28459,1,0,0:0:0:0:
272,221,28598,2,0,P|279:175|295:141,1,64,2|0,1:2|0:0,0:0:0:0:
285,158,29014,6,0,P|287:205|234:271,1,128,2|0,0:2|0:0,0:0:0:0:
272,344,29430,1,0,0:0:0:0:
190,339,29568,2,0,L|121:330,1,64,2|0,0:2|0:0,0:0:0:0:
130,158,29846,6,0,L|64:180,1,64,2|0,1:2|0:0,0:0:0:0:
205,238,30123,1,0,0:0:0:0:
205,238,30261,2,0,L|116:250,1,64,2|0,0:2|0:0,0:0:0:0:
139,142,30539,2,0,L|53:178,1,64,2|0,0:2|0:0,0:0:0:0:
239,252,30816,1,0,0:0:0:0:
318,280,30955,6,0,L|151:262,1,160,2|0,1:2|2:0,0:0:0:0:
144,261,31370,1,2,0:2:0:0:
68,369,31509,6,0,P|78:339|76:308,1,64,2|0,0:2|0:0,0:0:0:0:
225,279,31786,2,0,L|302:289,2,64,2|0|0,0:2|0:0|1:0,0:0:0:0:
157,159,32202,2,0,P|110:183|87:207,1,64,2|0,0:2|0:0,0:0:0:0:
169,241,32480,1,0,0:0:0:0:
269,378,32618,6,0,P|267:314|251:253,1,128,2|0,0:2|1:0,0:0:0:0:
250,252,33034,1,0,0:0:0:0:
127,155,33173,2,0,P|195:154|263:170,1,128,2|0,0:2|1:0,0:0:0:0:
253,166,33589,1,0,0:0:0:0:
331,133,33727,6,0,L|325:69,1,64,2|0,0:2|0:0,0:0:0:0:
406,170,34004,2,0,L|415:272,1,96,0|0,0:0|2:2,0:0:0:0:
418,282,34282,5,0,1:2:0:0:
338,306,34420,1,2,0:2:0:0:
437,288,34559,5,0,0:0:0:0:
319,292,34698,1,2,0:2:0:0:
234,238,34836,2,0,P|222:278|223:317,1,64,0|0,0:0|0:0,0:0:0:0:
304,283,35114,5,0,0:0:0:0:
175,180,35252,1,0,0:0:0:0:
60,335,35391,5,8,0:0:0:0:
60,335,35460,1,0,0:0:0:0:
60,335,35529,1,8,0:0:0:0:
142,323,35668,1,0,0:0:0:0:
224,311,35807,1,0,0:0:0:0:
345,365,35945,6,0,P|323:311|322:154,1,191.999994140625,4|2,0:2|0:2,0:0:0:0:
316,178,36361,1,0,0:0:0:0:
168,245,36500,2,0,P|216:245|263:258,1,95.9999970703126,8|0,0:0|0:0,0:0:0:0:
430,377,36777,5,2,0:2:0:0:
430,377,36916,1,0,0:0:0:0:
430,377,37054,1,0,0:0:0:0:
365,294,37193,2,0,P|299:298|175:358,1,191.999994140625,2|0,0:2|0:0,0:0:0:0:
17,264,37609,2,0,P|64:270|108:288,1,95.9999970703126,10|0,0:2|0:0,0:0:0:0:
97,384,37886,5,2,0:2:0:0:
12,251,38025,1,2,0:2:0:0:
218,175,38163,6,0,B|247:226|247:226|193:347,1,191.999994140625,4|2,0:2|0:2,0:0:0:0:
193,347,38579,1,0,0:0:0:0:
139,231,38718,2,0,L|44:245,1,95.9999970703126,8|0,0:0|0:0,0:0:0:0:
247,268,38995,5,2,0:2:0:0:
342,280,39134,1,0,0:0:0:0:
441,297,39273,1,0,0:0:0:0:
441,297,39411,1,0,0:0:0:0:
512,204,39550,6,0,L|480:208,1,32,0|0,0:0|0:0,0:0:0:0:
291,365,39827,1,4,0:2:0:0:
291,365,39896,1,0,0:0:0:0:
291,365,39966,1,0,0:0:0:0:
178,366,40104,6,0,L|171:267,1,95.9999970703126,2|2,0:2|0:2,0:0:0:0:
128,85,40382,6,0,B|112:150|112:150|253:191,1,191.999994140625,4|2,0:2|0:2,0:0:0:0:
232,184,40797,1,0,0:0:0:0:
271,336,40936,2,0,B|269:290|269:290|312:263,1,95.9999970703126,10|0,0:2|0:0,0:0:0:0:
405,212,41213,2,0,B|424:167|424:167|382:64,1,143.999995605469,2|0,0:2|2:0,0:0:0:0:
373,55,41491,6,0,L|227:48,2,143.999995605469,2|2|2,3:0|3:0|3:0,2:2:0:0:
503,216,42045,2,0,L|290:242,1,191.999994140625,8|0,0:0|0:0,0:0:0:0:
257,159,42461,1,2,0:2:0:0:
375,46,42600,5,4,0:2:0:0:
361,141,42738,1,2,0:2:0:0:
335,258,42877,5,2,0:2:0:0:
349,163,43015,1,2,0:2:0:0:
426,276,43154,6,0,L|440:395,1,95.9999970703126,4|0,0:2|0:0,0:0:0:0:
252,152,43431,2,0,L|96:181,1,143.999995605469,2|0,0:2|0:0,0:0:0:0:
84,194,43709,6,0,P|140:208|171:250,1,95.9999970703126,4|0,0:1|0:0,0:0:0:0:
104,345,43986,2,0,P|48:331|17:289,1,95.9999970703126,2|0,0:2|0:0,0:0:0:0:
108,101,44263,5,12,0:0:0:0:
136,192,44402,5,8,0:0:0:0:
15,80,44541,1,4,3:0:0:0:
172,31,44679,1,4,3:0:0:0:
41,176,44818,6,0,P|42:296|197:323,1,287.999991210938,4|0,0:2|0:0,0:0:0:0:
345,201,45372,2,0,P|354:144|372:91,1,95.9999970703126,8|0,0:0|2:0,0:0:0:0:
452,169,45650,2,0,P|454:228|469:280,1,95.9999970703126,2|0,0:2|2:0,0:0:0:0:
344,325,45927,6,0,P|301:292|253:276,1,95.9999970703126,0|0,0:0|2:0,0:0:0:0:
162,313,46204,2,0,P|212:292|249:258,1,95.9999970703126,2|8,0:2|1:0,0:0:0:0:
262,161,46481,2,0,P|255:208|263:255,1,95.9999970703126,0|0,0:0|2:0,0:0:0:0:
363,125,46759,6,0,P|229:119|53:96,1,287.999991210938,4|0,0:0|0:0,0:0:0:0:
216,22,47313,2,0,P|263:24|333:10,1,95.9999970703126,4|0,0:3|0:0,0:0:0:0:
400,52,47590,1,10,0:2:0:0:
357,138,47729,2,0,P|350:197|349:241,2,95.9999970703126,4|0|0,0:3|0:0|0:0,0:0:0:0:
305,21,48145,6,0,P|279:81|239:237,1,191.999994140625
441,168,48561,2,0,P|451:224|475:283,2,95.9999970703126,10|4|0,0:2|1:3|0:0,1:1:0:0:
357,242,48977,2,0,P|356:303|361:370,1,95.9999970703126,4|0,1:3|0:0,0:0:0:0:
254,34,49254,6,0,P|256:113|241:324,1,287.999991210938,4|0,1:2|2:0,0:0:0:0:
144,277,49809,2,0,P|167:210|384:187,1,287.999991210938,8|0,0:0|2:0,0:0:0:0:
311,251,50363,2,0,P|281:290|276:354,1,95.9999970703126,0|0,0:0|0:0,0:0:0:0:
369,335,50640,2,0,P|333:272|338:52,1,287.999991210938,10|0,0:2|2:0,0:0:0:0:
421,108,51195,6,0,P|244:181|212:362,1,383.99998828125,4|4,0:2|0:3,0:0:0:0:
209,354,52027,1,10,0:2:0:0:
250,268,52165,2,0,P|250:199|219:81,1,191.999994140625,4|0,0:3|0:0,0:0:0:0:
139,135,52581,6,0,P|229:145|333:170,1,191.999994140625,4|0,0:0|0:0,0:0:0:0:
375,84,52997,2,0,P|418:116|518:224,1,191.999994140625,10|4,0:2|0:3,0:0:0:0:
489,312,53413,1,4,0:3:0:0:
489,312,53552,1,4,0:3:0:0:
310,374,53690,6,0,P|303:322|282:233,1,143.999995605469,4|0,0:2|2:0,0:0:0:0:
277,216,53968,2,0,L|177:226,1,95.9999970703126,2|0,0:2|2:0,0:0:0:0:
66,32,54245,2,0,L|188:45,1,95.9999970703126,8|0,0:0|2:0,0:0:0:0:
267,189,54522,2,0,L|163:201,1,95.9999970703126,2|0,0:2|2:0,0:0:0:0:
4,300,54799,6,0,P|47:280|95:273,1,95.9999970703126,0|0,0:0|2:0,0:0:0:0:
93,122,55077,2,0,P|140:148|174:193,1,95.9999970703126,2|8,0:2|1:0,0:0:0:0:
322,120,55354,2,0,P|306:175|272:223,1,95.9999970703126,0|0,0:0|2:0,0:0:0:0:
164,4,55631,6,0,P|179:91|164:388,1,383.99998828125,4|0,0:0|0:0,0:0:0:0:
164,384,56463,1,10,0:2:0:0:
84,313,56602,2,0,P|154:352|275:368,1,191.999994140625,0|0,0:0|2:0,0:0:0:0:
276,264,57017,6,0,P|212:243|251:146,1,191.999994140625,4|0,0:3|0:0,0:0:0:0:
169,73,57433,2,0,P|166:142|191:276,1,191.999994140625,10|0,0:2|0:0,0:0:0:0:
103,311,57849,2,0,P|134:351|174:383,1,95.9999970703126,4|0,0:3|0:0,0:0:0:0:
291,155,58126,6,0,P|281:225|280:287,1,95.9999970703126,4|0,0:2|2:0,0:0:0:0:
393,130,58404,2,0,P|298:121|186:82,2,191.999994140625,2|8|2,0:2|0:0|0:2,0:0:0:0:
393,130,59236,2,0,P|361:175|345:222,2,95.9999970703126,4|0|0,0:0|0:0|0:0,0:0:0:0:
449,214,59651,2,0,P|366:161|259:145,1,191.999994140625,10|0,0:2|0:0,0:0:0:0:
115,59,60067,2,0,P|154:86|202:87,1,95.9999970703126,4|0,0:2|0:0,0:0:0:0:
319,40,60345,6,0,L|297:249,2,191.999994140625,4|4|10,0:3|0:3|0:2,0:0:0:0:
327,34,61176,2,0,L|322:139,1,95.9999970703126,0|0,0:0|0:0,0:0:0:0:
414,91,61454,6,0,B|457:74|457:74|503:92,1,95.9999970703126,4|0,0:0|0:0,0:0:0:0:
232,69,61731,2,0,B|183:79|183:79|123:42,1,95.9999970703126,4|0,0:3|0:0,0:0:0:0:
321,146,62008,5,8,0:0:0:0:
321,146,62147,1,4,0:3:0:0:
256,192,64781,12,0,66514,0:0:0:0:
260,153,66583,5,0,0:0:0:0:
260,153,66722,2,0,P|240:203|239:261,1,96,0|0,0:0|2:0,0:0:0:0:
245,267,66999,6,0,P|182:260|108:262,1,128,4|0,0:2|0:0,0:0:0:0:
117,261,67553,2,0,P|139:304|146:330,2,64,2|0|2,1:2|0:0|0:2,0:0:0:0:
42,224,67969,1,0,0:0:0:0:
87,154,68108,6,0,P|91:111|72:19,1,128,2|0,0:2|0:0,0:0:0:0:
219,117,68524,2,0,P|178:70|34:11,1,192,2|0,1:2|2:0,0:0:0:0:
37,101,69078,1,2,0:2:0:0:
37,101,69148,1,0,0:0:0:0:
37,101,69217,6,0,P|34:137|34:174,2,64,0|0|2,0:0|0:0|0:2,0:0:0:0:
119,86,69633,1,0,0:0:0:0:
181,141,69772,2,0,P|178:181|173:211,2,64,2|0|2,1:2|0:0|0:2,0:0:0:0:
221,68,70187,1,0,0:0:0:0:
302,85,70326,2,0,L|351:146,2,64,2|0|0,0:2|0:0|0:0,0:0:0:0:
402,62,70742,2,0,P|386:121|375:191,1,128,2|0,0:2|0:0,0:0:0:0:
375,186,71297,1,2,0:2:0:0:
334,113,71435,6,0,P|345:195|349:254,1,128,4|0,0:2|0:0,0:0:0:0:
282,290,71851,2,0,P|253:279|178:336,1,128,2|0,0:2|0:0,0:0:0:0:
102,359,72267,1,2,0:2:0:0:
102,359,72406,1,0,0:0:0:0:
78,279,72544,2,0,P|71:234|75:164,2,96,2|0|2,0:2|0:0|1:2,0:0:0:0:
99,283,73237,1,2,0:2:0:0:
99,283,73376,2,0,P|118:323|155:371,1,96,0|0,0:0|2:0,0:0:0:0:
162,369,73653,6,0,L|234:360,1,64,4|0,0:0|0:0,0:0:0:0:
370,343,73931,2,0,L|242:341,1,128,4|0,0:0|1:1,0:0:0:0:
242,341,74485,2,0,L|135:351,1,96,2|0,0:2|2:0,0:0:0:0:
126,353,74762,6,0,L|128:288,1,64,2|2,0:2|0:2,0:0:0:0:
58,241,75040,5,2,1:2:0:0:
210,271,75317,1,2,1:2:0:0:
210,271,75733,1,0,0:0:0:0:
283,309,75871,6,0,P|296:341|300:374,1,64,6|2,0:2|0:2,0:0:0:0:
414,326,76149,2,0,P|401:356|383:382,1,64,0|0,0:0|0:0,0:0:0:0:
358,264,76426,2,0,P|349:227|347:185,1,64,2|2,1:2|0:2,0:0:0:0:
430,198,76703,1,0,0:0:0:0:
430,198,76842,1,0,0:0:0:0:
428,115,76980,6,0,P|402:162|385:236,1,128,2|0,0:2|0:0,0:0:0:0:
302,157,77396,2,0,P|299:214|310:307,1,128,2|0,1:2|2:0,0:0:0:0:
208,278,77812,2,0,P|222:307|239:335,1,64,2|0,0:2|0:0,0:0:0:0:
163,371,78090,6,0,P|100:352|14:341,1,128,2|0,0:2|0:0,0:0:0:0:
14,263,78505,1,0,0:0:0:0:
85,220,78644,2,0,P|58:236|34:258,1,64,2|0,1:2|2:0,0:0:0:0:
75,137,78921,1,0,0:0:0:0:
75,137,79060,1,0,0:0:0:0:
10,84,79199,6,0,P|51:107|136:124,1,128,2|0,0:2|0:0,0:0:0:0:
211,109,79614,2,0,P|270:74|320:15,1,128,2|0,0:2|2:0,0:0:0:0:
391,62,80030,1,0,0:0:0:0:
391,62,80169,1,0,0:0:0:0:
431,135,80308,6,0,P|481:146|504:166,2,64,2|0|0,0:2|0:0|0:0,0:0:0:0:
436,218,80724,2,0,P|453:238|483:309,1,96,2|0,0:2|2:0,0:0:0:0:
484,319,81001,1,0,0:0:0:0:
405,345,81139,1,2,0:2:0:0:
329,380,81278,1,0,0:0:0:0:
304,300,81417,6,0,L|300:377,1,64,0|0,0:0|0:0,0:0:0:0:
210,315,81694,2,0,L|218:379,1,64,2|0,1:2|0:0,0:0:0:0:
320,218,81971,2,0,L|314:333,1,96,2|0,1:2|2:0,0:0:0:0:
315,324,82248,5,0,0:0:0:0:
395,346,82387,1,0,0:0:0:0:
448,281,82526,5,2,0:2:0:0:
448,281,82664,1,0,0:0:0:0:
441,197,82803,2,0,L|436:133,1,64,2|0,0:2|0:0,0:0:0:0:
372,244,83080,2,0,L|302:210,1,64,2|0,1:2|0:0,0:0:0:0:
238,180,83358,5,2,0:2:0:0:
182,241,83496,1,2,0:2:0:0:
44,179,83635,6,0,L|52:111,1,64,0|0,0:0|2:0,0:0:0:0:
271,47,83912,2,0,L|281:110,1,64,0|0,0:0|2:0,0:0:0:0:
333,367,84189,5,8,1:0:0:0:
333,367,84259,1,0,1:0:0:0:
333,368,84328,1,8,0:0:0:0:
344,202,84467,5,0,0:0:0:0:
470,224,84605,1,0,0:0:0:0:
448,318,84744,6,0,P|441:215|444:100,1,191.999994140625,4|2,0:2|0:2,0:0:0:0:
442,126,85160,1,0,1:0:0:0:
374,0,85298,2,0,P|363:46|357:94,1,95.9999970703126,8|0,0:0|0:0,0:0:0:0:
357,297,85576,6,0,B|361:353|363:375|363:375|390:391,2,95.9999970703126,2|0|0,0:2|2:0|0:0,0:0:0:0:
316,209,85992,2,0,P|243:237|241:367,1,191.999994140625,2|0,0:2|0:0,0:0:0:0:
353,305,86407,2,0,L|252:296,1,95.9999970703126,10|0,0:2|0:0,0:0:0:0:
83,217,86685,5,2,0:2:0:0:
175,240,86823,1,2,0:2:0:0:
56,124,86962,6,0,L|63:315,1,191.999994140625,4|2,0:2|0:2,0:0:0:0:
63,315,87378,1,0,0:0:0:0:
151,140,87517,2,0,L|162:45,1,95.9999970703126,8|0,0:0|0:0,0:0:0:0:
256,81,87794,5,2,0:2:0:0:
256,81,87932,1,0,0:0:0:0:
175,28,88071,5,0,0:0:0:0:
349,59,88210,1,0,0:0:0:0:
267,168,88348,6,0,B|271:206,1,32,0|0,0:0|0:0,0:0:0:0:
403,361,88626,2,0,B|408:307,1,48,4|0,0:2|2:0,0:0:0:0:
411,291,88903,5,2,0:2:0:0:
505,274,89041,1,2,0:2:0:0:
318,276,89180,6,0,B|283:242|283:242|273:99,1,191.999994140625,4|2,0:2|0:2,0:0:0:0:
273,99,89596,1,0,0:0:0:0:
194,273,89735,2,0,L|185:388,2,95.9999970703126,10|0|2,0:2|0:0|0:2,0:0:0:0:
201,177,90151,5,0,0:0:0:0:
369,191,90289,2,0,L|512:204,2,143.999995605469,2|2|2,3:0|3:0|3:0,2:2:0:0:
270,113,90844,2,0,P|262:56|382:39,1,191.999994140625,8|2,0:0|0:2,0:0:0:0:
367,121,91260,1,2,0:2:0:0:
447,182,91398,5,4,0:2:0:0:
447,182,91537,1,2,0:2:0:0:
276,131,91675,1,0,0:0:0:0:
276,131,91814,1,2,0:2:0:0:
120,227,91953,6,0,P|163:206|211:202,1,95.9999970703126,12|0,0:2|0:0,0:0:0:0:
379,67,92230,2,0,P|372:121|315:257,1,191.999994140625,2|0,0:2|2:0,0:0:0:0:
320,247,92785,6,0,L|365:252,1,32,0|0,0:0|0:0,0:0:0:0:
140,227,93062,2,0,L|25:214,1,112,4|0,2:0|2:0,0:0:0:0:
0,218,93616,6,0,P|51:180|13:70,1,191.999994140625,4|2,0:2|0:2,0:0:0:0:
17,72,94032,1,0,0:0:0:0:
210,21,94171,2,0,P|157:52|147:99,1,95.9999970703126,8|0,0:0|0:0,0:0:0:0:
264,194,94448,5,2,0:2:0:0:
169,175,94587,1,0,0:0:0:0:
334,250,94725,1,0,0:0:0:0:
429,237,94864,2,0,P|339:284|292:374,1,191.999994140625,2|0,0:2|0:0,0:0:0:0:
269,181,95280,2,0,P|259:107|258:55,1,95.9999970703126,10|0,0:2|0:0,0:0:0:0:
337,32,95557,5,2,0:2:0:0:
337,32,95696,1,2,0:2:0:0:
260,194,95834,6,0,P|168:216|78:189,1,191.999994140625,4|2,0:2|0:2,0:0:0:0:
78,189,96250,1,0,0:0:0:0:
344,241,96389,2,0,P|397:247|459:279,1,95.9999970703126,8|0,0:0|0:0,0:0:0:0:
466,171,96666,5,2,0:2:0:0:
485,348,96805,1,0,0:0:0:0:
386,374,96943,1,0,0:0:0:0:
386,374,97082,1,0,0:0:0:0:
259,315,97221,6,0,L|263:283,1,32,0|0,0:0|0:0,0:0:0:0:
300,90,97498,1,4,0:2:0:0:
300,90,97567,1,0,0:0:0:0:
300,90,97637,1,0,0:0:0:0:
310,187,97775,5,2,0:2:0:0:
310,187,97914,1,2,0:2:0:0:
475,238,98053,6,0,P|382:255|332:349,1,191.999994140625,4|2,0:2|0:2,0:0:0:0:
333,333,98468,1,0,0:0:0:0:
253,103,98607,2,0,P|223:151|213:199,1,95.9999970703126,10|0,0:2|0:0,0:0:0:0:
213,188,98884,1,2,0:2:0:0:
33,161,99023,5,0,0:0:0:0:
116,209,99162,2,0,P|139:262|145:331,1,95.9999970703126,2|0,3:0|2:0,2:2:0:0:
148,334,99370,2,0,P|187:297|253:275,1,95.9999970703126,2|0,3:0|2:0,0:0:0:0:
261,275,99577,1,2,3:0:0:0:
394,367,99716,2,0,P|355:300|447:227,1,191.999994140625,8|0,0:0|0:0,0:0:0:0:
509,269,100132,1,2,0:2:0:0:
483,82,100271,5,4,0:2:0:0:
483,82,100409,1,2,0:2:0:0:
291,115,100548,1,2,0:2:0:0:
291,115,100687,1,2,0:2:0:0:
402,24,100825,6,0,P|387:65|381:135,1,95.9999970703126,4|0,0:2|0:0,0:0:0:0:
316,375,101102,2,0,P|309:327|295:282,1,95.9999970703126,2|0,0:2|0:0,0:0:0:0:
401,211,101380,6,0,B|347:202|347:202|315:185|315:185|236:193,1,143.999995605469,4|0,0:1|2:0,0:0:0:0:
229,194,101657,5,2,0:2:0:0:
77,173,101796,1,0,0:0:0:0:
98,21,101934,1,12,0:0:0:0:
98,21,102073,1,8,0:0:0:0:
250,42,102212,1,4,3:0:0:0:
250,42,102350,1,4,3:0:0:0:
402,63,102489,6,0,P|395:190|371:381,1,287.999991210938,4|0,0:2|0:0,0:0:0:0:
298,221,103043,2,0,P|300:174|296:126,1,95.9999970703126,8|0,0:0|2:0,0:0:0:0:
497,181,103321,2,0,P|486:227|480:275,1,95.9999970703126,2|0,0:2|2:0,0:0:0:0:
288,230,103598,6,0,P|237:245|172:277,1,95.9999970703126,0|0,0:0|2:0,0:0:0:0:
160,169,103875,2,0,P|205:155|249:135,1,95.9999970703126,2|8,0:2|1:0,0:0:0:0:
347,316,104152,2,0,P|275:332|194:387,1,143.999995605469,0|0,0:0|2:0,0:0:0:0:
200,379,104430,6,0,P|100:293|63:145,1,287.999991210938,4|0,0:0|0:0,0:0:0:0:
304,58,104984,2,0,P|332:95|336:155,1,95.9999970703126,4|0,0:3|0:0,0:0:0:0:
266,207,105261,1,10,0:2:0:0:
182,159,105400,2,0,P|236:224|272:341,1,191.999994140625,4|0,0:3|0:0,0:0:0:0:
146,289,105816,6,0,P|266:222|418:190,2,287.999991210938,0|10|4,0:0|0:2|1:3,1:1:0:0:
146,289,106925,6,0,P|173:160|68:7,1,287.999991210938,4|0,1:2|2:0,0:0:0:0:
12,111,107480,2,0,P|51:153|288:146,1,287.999991210938,8|0,0:0|2:0,0:0:0:0:
331,233,108034,2,0,P|332:294|350:347,1,95.9999970703126,0|0,0:0|0:0,0:0:0:0:
452,161,108311,2,0,P|364:196|426:369,1,287.999991210938,10|0,0:2|2:0,0:0:0:0:
441,269,108866,6,0,P|226:198|272:63,1,383.99998828125,4|4,0:2|0:3,0:0:0:0:
246,89,109698,1,10,0:2:0:0:
210,0,109836,2,0,P|223:49|111:87,1,191.999994140625,4|0,0:3|0:0,0:0:0:0:
50,161,110252,2,0,P|132:207|260:193,1,191.999994140625,4|0,0:0|0:0,0:0:0:0:
112,300,110668,6,0,P|132:205|168:86,1,191.999994140625,10|0,0:2|0:0,0:0:0:0:
320,219,111084,2,0,P|312:257|295:330,1,95.9999970703126,4|0,1:3|0:0,0:0:0:0:
492,334,111361,6,0,P|448:316|401:298,1,95.9999970703126,4|0,1:2|2:0,0:0:0:0:
218,237,111638,2,0,P|119:209|21:185,2,191.999994140625,2|8|2,0:2|0:0|0:2,0:0:0:0:
218,237,112470,6,0,P|272:221|334:179,1,95.9999970703126,0|0,0:0|2:0,0:0:0:0:
342,102,112748,2,0,P|328:157|334:232,1,95.9999970703126,2|8,0:2|1:0,0:0:0:0:
394,275,113025,2,0,P|360:242|319:217,1,95.9999970703126,0|0,0:0|0:0,0:0:0:0:
488,234,113302,6,0,P|381:141|228:95,1,287.999991210938,4|0,0:0|0:0,0:0:0:0:
281,204,113857,2,0,P|223:217|173:243,1,95.9999970703126,0|0,0:0|0:0,0:0:0:0:
97,181,114134,1,10,0:2:0:0:
121,77,114273,2,0,P|74:152|55:266,1,191.999994140625,0|0,0:0|0:0,0:0:0:0:
213,364,114688,6,0,P|193:283|188:166,1,191.999994140625,4|0,0:3|0:0,0:0:0:0:
334,34,115104,2,0,P|293:121|282:216,1,191.999994140625,10|0,0:2|0:0,0:0:0:0:
414,303,115520,2,0,P|389:263|378:217,1,95.9999970703126,4|0,0:3|0:0,0:0:0:0:
219,57,115797,6,0,P|185:113|161:175,1,95.9999970703126,4|0,0:2|2:0,0:0:0:0:
107,53,116075,2,0,P|193:93|307:178,2,191.999994140625,2|8|2,0:2|0:0|0:2,0:0:0:0:
107,53,116907,6,0,P|57:71|1:103,2,95.9999970703126,4|0|0,0:0|0:0|0:0,0:0:0:0:
228,8,117322,2,0,P|189:94|155:210,1,191.999994140625,10|0,0:2|0:0,0:0:0:0:
242,336,117738,2,0,P|235:288|239:241,1,95.9999970703126,4|0,0:2|0:0,0:0:0:0:
64,184,118016,6,0,P|122:183|196:193,1,95.9999970703126,4|0,0:3|2:0,0:0:0:0:
135,90,118293,2,0,P|236:107|351:161,1,191.999994140625,4|10,0:3|0:2,0:0:0:0:
273,18,118709,1,0,0:0:0:0:
273,18,119125,6,0,P|236:105|202:237,1,191.999994140625,4|0,0:0|0:0,0:0:0:0:
221,380,119541,2,0,P|215:318|226:174,1,191.999994140625,8|0,0:0|0:0,0:0:0:0:
224,189,120234,5,0,0:0:0:0:
90,206,120788,5,2,0:2:0:0:
232,201,121343,5,0,0:0:0:0:
89,221,121759,5,0,0:0:0:0:
77,315,121897,1,2,0:2:0:0:
253,368,122175,5,0,0:0:0:0:
264,361,122729,5,0,0:0:0:0:
277,356,123006,6,0,P|281:298|280:247,1,95.9999970703126,2|0,0:2|0:0,0:0:0:0:
368,218,123284,2,0,P|353:163|334:120,1,95.9999970703126
365,35,123561,1,0,0:0:0:0:
359,23,123977,5,0,0:0:0:0:
263,12,124115,1,2,0:2:0:0:
275,175,124393,1,0,0:0:0:0:
286,183,124670,6,0,L|292:259,1,64,4|0,0:0|0:0,0:0:0:0:
208,258,124947,2,0,L|200:339,1,64,0|0,0:0|0:0,0:0:0:0:
118,321,125224,2,0,B|86:368|86:368|15:375,1,128,0|0,1:0|0:0,0:0:0:0:
0,170,125640,6,0,P|36:221|42:283,1,128,0|0,0:0|0:0,0:0:0:0:
82,138,126056,2,0,P|107:172|119:203,1,64,0|0,0:0|1:0,0:0:0:0:
182,242,126334,2,0,P|160:301|160:328,1,64,0|0,0:0|0:0,0:0:0:0:
245,351,126611,2,0,P|251:291|314:243,1,128,4|0,0:0|0:0,0:0:0:0:
298,247,127165,6,0,P|332:239|355:213,2,64,4|0|4,0:0|0:0|0:0,0:0:0:0:
270,335,127581,2,0,P|345:343|411:378,1,128,0|4,1:0|0:0,0:0:0:0:
470,336,127997,6,0,P|462:281|466:248,1,64,0|0,1:0|0:0,0:0:0:0:
381,251,128274,2,0,P|388:206|399:174,1,64,4|0,0:0|0:0,0:0:0:0:
319,147,128552,2,0,P|347:90|403:20,1,128,0|0,1:0|1:0,0:0:0:0:
385,38,129106,6,0,L|310:45,2,64,0|0|0,0:0|0:0|0:0,0:0:0:0:
468,34,129522,1,0,0:0:0:0:
311,83,129661,2,0,L|178:72,1,128,4|0,0:3|0:0,0:0:0:0:
100,59,130077,1,0,0:0:0:0:
32,227,130354,5,4,0:3:0:0:
125,249,130492,1,4,0:3:0:0:
238,332,130631,5,4,0:3:0:0:
142,344,130770,1,2,0:2:0:0:
142,344,131047,6,0,P|146:186|157:56,1,287.999991210938,4|0,0:2|2:0,0:0:0:0:
55,143,131602,5,2,0:2:0:0:
158,168,131740,1,0,0:0:0:0:
265,196,131879,1,8,0:0:0:0:
430,321,132017,2,0,P|439:229|443:113,1,191.999994140625,2|0,0:2|0:0,0:0:0:0:
442,129,132433,6,0,P|368:113|429:11,2,191.999994140625,4|4|12,0:2|0:2|0:2,0:0:0:0:
486,214,133126,1,0,0:0:0:0:
415,279,133265,2,0,P|362:291|321:336,1,95.9999970703126,12|0,0:2|2:0,0:0:0:0:
246,361,133542,6,0,B|195:353|195:353|179:327,2,64,0|0|0,0:0|0:0|0:0,0:0:0:0:
255,270,133958,1,0,0:0:0:0:
219,175,134097,2,0,B|324:189|324:189|341:230,1,128,4|0,0:3|0:0,0:0:0:0:
207,169,134513,2,0,L|215:90,1,64,0|0,0:0|0:0,0:0:0:0:
397,25,134790,5,4,0:3:0:0:
410,129,134929,1,4,0:3:0:0:
423,233,135067,1,4,0:3:0:0:
436,337,135206,1,2,0:2:0:0:
436,337,135483,6,0,P|470:243|306:203,1,287.999991210938,4|0,0:2|2:0,0:0:0:0:
203,325,136038,5,2,0:2:0:0:
110,300,136176,1,0,0:0:0:0:
135,207,136315,1,8,0:0:0:0:
41,231,136454,6,0,L|281:237,1,191.999994140625,2|0,0:2|0:0,0:0:0:0:
424,242,136870,2,0,L|329:240,2,95.9999970703126,2|0|2,0:2|0:0|0:2,0:0:0:0:
489,313,137285,1,0,0:0:0:0:
458,134,137424,6,0,L|363:143,1,95.9999970703126,8|8,0:0|0:0,0:0:0:0:
266,154,137701,1,4,0:3:0:0:
277,160,137979,5,4,0:2:0:0:
346,225,138117,5,0,0:0:0:0:
366,131,138256,1,2,0:2:0:0:
209,99,138395,1,0,0:0:0:0:
180,7,138533,6,0,L|190:213,1,191.999994140625,10|2,0:2|0:2,0:0:0:0:
197,294,138949,1,4,0:2:0:0:
96,359,139088,6,0,L|105:264,1,95.9999970703126,0|2,0:0|0:2,0:0:0:0:
287,146,139365,2,0,L|278:40,2,95.9999970703126,2|2|10,0:2|0:2|0:2,0:0:0:0:
285,145,139919,6,0,B|200:129|188:212|106:194,1,191.999994140625,4|0,0:2|2:0,0:0:0:0:
123,100,140335,1,0,0:0:0:0:
266,240,140474,6,0,P|272:306|266:354,2,95.9999970703126,2|0|8,0:2|0:0|0:0,0:0:0:0:
113,105,140890,2,0,B|100:55|103:32|103:32|155:5|219:11,1,191.999994140625,2|0,0:2|0:0,0:0:0:0:
210,106,141306,6,0,P|262:122|302:155,1,95.9999970703126,4|0,0:3|0:0,0:0:0:0:
319,239,141583,2,0,P|309:187|320:132,1,95.9999970703126,4|0,0:3|0:0,0:0:0:0:
407,115,141860,5,10,0:2:0:0:
312,134,141999,1,10,0:2:0:0:
231,186,142138,1,4,0:3:0:0:
231,186,142415,5,4,0:2:0:0:
136,172,142553,1,0,0:0:0:0:
229,194,142692,5,2,0:2:0:0:
133,183,142831,1,0,0:0:0:0:
211,289,142969,6,0,B|347:263|347:263|339:201,1,191.999994140625,10|2,0:2|0:2,0:0:0:0:
340,209,143385,1,4,0:2:0:0:
456,309,143524,6,0,L|440:215,1,95.9999970703126,0|2,0:0|0:2,0:0:0:0:
433,50,143801,5,2,0:2:0:0:
292,138,143940,1,2,0:2:0:0:
440,215,144078,1,10,0:2:0:0:
440,215,144356,6,0,P|380:208|289:242,1,143.999995605469,4|0,0:2|2:0,0:0:0:0:
265,224,144633,2,0,P|245:296|246:347,1,95.9999970703126
356,257,144910,5,2,0:2:0:0:
271,211,145049,1,0,0:0:0:0:
240,29,145187,1,8,0:0:0:0:
228,125,145326,2,0,P|227:184|234:332,1,191.999994140625,2|0,0:2|0:0,0:0:0:0:
135,268,145742,6,0,P|131:206|132:135,1,95.9999970703126,4|0,0:3|0:0,0:0:0:0:
332,187,146019,2,0,P|324:248|323:298,1,95.9999970703126,4|0,0:3|0:0,0:0:0:0:
136,282,146297,5,10,0:2:0:0:
325,294,146435,1,10,0:2:0:0:
325,294,146851,6,0,B|372:286|372:286|434:329,2,95.9999970703126,4|0|2,0:2|0:0|0:2,0:0:0:0:
352,384,147267,1,0,0:0:0:0:
389,201,147406,2,0,L|417:59,1,143.999995605469,10|0,0:2|2:0,0:0:0:0:
425,33,147683,1,2,0:2:0:0:
498,123,147821,1,4,0:2:0:0:
301,180,147960,5,0,0:0:0:0:
376,239,148099,5,2,0:2:0:0:
360,104,148237,1,2,0:2:0:0:
225,120,148376,1,2,0:2:0:0:
241,255,148514,1,10,0:2:0:0:
241,255,148792,6,0,L|235:52,1,191.999994140625,4|0,0:2|2:0,0:0:0:0:
235,63,149346,5,2,0:2:0:0:
330,75,149485,1,0,0:0:0:0:
467,129,149624,1,8,0:0:0:0:
442,36,149762,6,0,P|421:138|415:236,1,191.999994140625,2|0,0:2|0:0,0:0:0:0:
362,368,150178,2,0,P|354:321|273:251,1,143.999995605469,4|0,0:3|2:0,0:0:0:0:
263,252,150456,2,0,P|265:165|276:77,1,143.999995605469,4|0,0:3|0:0,0:0:0:0:
274,87,150733,5,10,0:2:0:0:
253,180,150871,1,10,0:2:0:0:
249,276,151010,1,4,0:3:0:0:
249,276,151287,5,4,0:2:0:0:
345,292,151426,1,0,0:0:0:0:
285,370,151565,5,2,0:2:0:0:
353,302,151703,1,0,0:0:0:0:
314,213,151842,2,0,P|309:158|308:42,1,143.999995605469,10|0,0:2|2:0,0:0:0:0:
310,43,152119,1,2,0:2:0:0:
405,177,152258,2,0,P|411:129|445:93,1,95.9999970703126,4|0,0:2|0:0,0:0:0:0:
481,232,152535,5,2,0:2:0:0:
312,223,152674,1,2,0:2:0:0:
182,298,152812,1,2,0:2:0:0:
93,335,152951,1,10,0:2:0:0:
93,335,153228,6,0,P|160:274|125:203,1,143.999995605469,4|0,0:2|2:0,0:0:0:0:
133,205,153505,2,0,L|38:221,1,95.9999970703126,0|0,0:0|0:0,0:0:0:0:
8,39,153783,5,2,0:2:0:0:
52,124,153921,1,0,0:0:0:0:
236,191,154060,1,8,0:0:0:0:
140,199,154199,6,0,L|164:-7,1,191.999994140625,2|0,0:2|0:0,0:0:0:0:
244,198,154614,2,0,L|210:289,1,95.9999970703126,8|8,0:0|0:0,0:0:0:0:
319,383,154892,2,0,B|298:325|298:325|310:293,1,95.9999970703126,4|0,0:3|0:0,0:0:0:0:
401,211,155169,5,10,0:2:0:0:
323,158,155308,1,10,0:2:0:0:
231,177,155446,2,0,P|230:127|247:74,1,95.9999970703126,4|4,0:3|0:3,0:0:0:0:
252,265,155724,6,0,P|223:128|288:3,1,287.999991210938,4|0,0:2|2:0,0:0:0:0:
428,72,156278,2,0,P|383:89|335:96,1,95.9999970703126,8|0,0:0|2:0,0:0:0:0:
154,39,156555,2,0,P|97:36|28:44,1,95.9999970703126,2|0,0:2|2:0,0:0:0:0:
19,127,156833,2,0,P|75:148|82:285,2,191.999994140625,0|10|0,0:0|0:2|0:0,0:0:0:0:
19,127,157664,6,0,P|142:148|118:9,1,287.999991210938,4|0,0:0|0:0,0:0:0:0:
268,92,158219,2,0,P|261:139|241:182,1,95.9999970703126,4|0,0:3|0:0,0:0:0:0:
353,47,158496,1,10,0:2:0:0:
360,142,158635,2,0,P|345:202|316:252,2,95.9999970703126,4|0|0,0:3|0:0|2:0,0:0:0:0:
365,47,159051,2,0,P|368:142|276:317,2,287.999991210938,0|10|4,0:0|0:2|1:3,1:1:0:0:
365,47,160160,6,0,P|286:39|114:167,1,287.999991210938,4|0,1:2|2:0,0:0:0:0:
204,259,160714,2,0,P|208:201|404:190,1,287.999991210938,10|0,0:2|2:0,0:0:0:0:
315,259,161269,2,0,P|295:214|283:168,1,95.9999970703126,0|0,0:0|0:0,0:0:0:0:
358,344,161546,2,0,P|289:218|262:77,1,287.999991210938,10|0,0:2|2:0,0:0:0:0:
459,124,162101,6,0,P|379:160|138:363,1,383.99998828125,4|4,0:2|0:3,0:0:0:0:
151,346,162932,1,10,0:2:0:0:
185,158,163071,2,0,P|155:249|143:344,1,191.999994140625,4|0,0:3|0:0,0:0:0:0:
280,168,163487,2,0,P|264:108|130:84,1,191.999994140625,4|0,0:0|0:0,0:0:0:0:
348,50,163903,2,0,P|371:112|369:261,1,191.999994140625,10|0,0:2|0:0,0:0:0:0:
453,292,164319,2,0,P|473:246|482:198,1,95.9999970703126,4|0,1:3|0:0,0:0:0:0:
271,173,164596,6,0,P|195:187|119:217,1,143.999995605469,4|0,1:2|2:0,0:0:0:0:
108,202,164873,2,0,P|109:153|103:106,1,95.9999970703126,2|0,0:2|2:0,0:0:0:0:
43,31,165151,2,0,P|82:56|127:74,1,95.9999970703126,8|0,0:0|2:0,0:0:0:0:
221,58,165428,2,0,P|179:79|140:108,1,95.9999970703126,2|0,0:2|2:0,0:0:0:0:
330,51,165705,2,0,P|302:120|263:275,2,191.999994140625,0|10|0,0:0|0:2|0:0,0:0:0:0:
329,50,166537,6,0,P|292:66|407:134,1,287.999991210938,4|0,0:0|0:0,0:0:0:0:
459,59,167091,2,0,P|484:100|492:148,1,95.9999970703126,0|0,0:0|0:0,0:0:0:0:
385,122,167369,1,10,0:2:0:0:
360,214,167507,2,0,P|280:224|163:283,1,191.999994140625
179,270,167923,6,0,P|248:237|205:143,1,191.999994140625,4|0,0:3|0:0,0:0:0:0:
249,56,168339,2,0,P|173:43|103:138,1,191.999994140625,10|0,0:2|0:0,0:0:0:0:
8,104,168755,2,0,P|1:151|9:198,1,95.9999970703126,4|0,0:3|0:0,0:0:0:0:
79,361,169032,6,0,P|151:363|222:379,1,143.999995605469,4|0,0:2|2:0,0:0:0:0:
234,384,169309,2,0,P|259:343|277:299,1,95.9999970703126,2|0,0:2|0:0,0:0:0:0:
368,266,169587,2,0,P|357:206|330:143,1,95.9999970703126,12|0,0:2|0:0,0:0:0:0:
413,104,169864,2,0,P|381:58|342:25,1,95.9999970703126,2|0,0:2|0:0,0:0:0:0:
286,102,170141,2,0,P|331:164|314:379,2,287.999991210938,4|10|4,0:0|0:2|0:2,0:0:0:0:
286,102,171250,6,0,P|311:156|318:211,1,95.9999970703126,4|0,0:1|0:0,0:0:0:0:
216,178,171528,2,0,P|289:147|413:125,2,191.999994140625,4|10|0,0:3|0:2|0:0,0:0:0:0:
216,178,172359,5,12,0:0:0:0:
317,201,172498,1,8,0:0:0:0:
317,201,172567,1,8,0:0:0:0:
317,201,172637,1,4,0:3:0:0:
300,290,172775,1,4,0:3:0:0:
209,281,172914,1,8,0:0:0:0:
209,281,172983,1,0,0:0:0:0:
209,281,173053,1,8,0:0:0:0:
216,178,173191,2,0,P|227:115|244:66,1,95.9999970703126,4|4,0:3|0:3,0:0:0:0:
308,297,173468,6,0,P|228:308|47:354,1,256,4|0,0:2|0:0,0:0:0:0:
58,350,174023,2,0,P|113:296|104:211,1,128,12|0,0:2|2:0,0:0:0:0:
253,102,174300,2,0,P|224:37|147:9,1,128,2|0,0:2|2:0,0:0:0:0:
38,115,174577,6,0,P|152:154|263:254,1,256,8|10,0:0|0:2,0:0:0:0:
296,363,174993,1,0,0:0:0:0:
419,329,175132,1,4,0:3:0:0:
419,329,175409,6,0,P|260:311|359:27,1,512,4|0,0:2|0:0,0:0:0:0:
305,34,176241,6,0,P|280:102|280:184,1,128,8|0,0:0|2:0,0:0:0:0:
464,217,176518,2,0,P|409:184|375:130,1,128,2|0,0:2|2:0,0:0:0:0:
185,90,176796,2,0,P|105:100|36:126,1,128,0|0,0:0|0:0,0:0:0:0:
14,206,177073,1,10,0:2:0:0:
66,7,177212,2,0,P|96:99|132:395,1,384,0|4,0:0|0:3,0:0:0:0:
132,382,177905,6,0,P|93:307|223:249,1,256,4|2,0:2|0:2,0:0:0:0:
408,163,178459,2,0,P|430:276|317:296,1,256,4|2,0:2|0:2,0:0:0:0:
315,294,179014,6,0,P|253:286|190:310,1,128,4|0,0:2|0:0,0:0:0:0:
138,221,179291,1,2,0:2:0:0:
214,132,179430,2,0,P|244:256|266:383,1,256,0|0,0:0|2:0,0:0:0:0:
13,153,179846,6,0,P|115:186|481:397,1,512,4|0,0:2|1:0,0:0:0:0:
465,384,180677,1,10,0:2:0:0:
400,303,180816,2,0,P|392:234|424:19,1,256,0|0,0:0|0:0,0:0:0:0:
315,21,181232,2,0,P|294:123|292:292,1,256
199,357,181648,2,0,P|189:235|166:66,1,256,10|0,0:2|0:0,0:0:0:0:
78,141,182064,2,0,P|86:203|89:276,1,128,0|0,0:0|0:0,0:0:0:0:
299,384,182341,6,0,P|351:307|463:324,1,192,4|0,0:2|2:0,0:0:0:0:
468,326,182618,2,0,P|452:250|395:206,1,128,2|0,0:2|2:0,0:0:0:0:
377,117,182895,2,0,P|440:119|496:149,1,128,8|0,0:0|2:0,0:0:0:0:
374,17,183173,2,0,P|301:56|267:119,1,128,2|0,0:2|2:0,0:0:0:0:
178,187,183450,6,0,P|248:184|275:352,1,256,4|2,0:2|0:2,0:0:0:0:
193,362,183866,1,0,0:0:0:0:
92,346,184004,2,0,P|90:268|90:216,1,128,8|0,0:0|0:0,0:0:0:0:
0,275,184282,6,0,P|218:266|513:293,1,512,4|0,0:2|0:0,0:0:0:0:
510,292,185114,1,10,0:2:0:0:
423,385,185252,2,0,P|416:280|432:87,1,256,0|0,0:0|2:0,0:0:0:0:
512,200,185668,2,0,P|400:177|218:162,1,256
337,27,186084,2,0,P|403:31|478:45,1,128,10|0,0:2|0:0,0:0:0:0:
386,128,186361,5,0,0:0:0:0:
375,217,186500,1,0,0:0:0:0:
368,305,186638,1,0,0:0:0:0:
190,352,186777,5,4,1:2:0:0:
181,341,187054,2,0,P|179:297|189:255,2,88.000002685547,0|2|0,3:0|1:2|0:0,0:0:0:0:
267,307,187886,2,0,L|72:289,1,176.000005371094,0|2,0:0|1:2,0:0:0:0:
92,290,188995,2,0,P|48:301|14:337,2,88.000002685547,2|0|2,0:0|3:0|1:2,0:0:0:0:
88,377,189827,6,0,P|59:302|78:83,1,304,0|0,1:0|0:0,0:0:0:0:
