osu file format v14

[General]
AudioFilename: audio.mp3
AudioLeadIn: 0
PreviewTime: -1
Countdown: 1
SampleSet: Normal
StackLeniency: 0.7
Mode: 0
LetterboxInBreaks: 0
WidescreenStoryboard: 1

[Editor]
DistanceSpacing: 1.2
BeatDivisor: 8
GridSize: 4
TimelineZoom: 1

[Metadata]
Title:Crawling
TitleUnicode:Crawling
Artist:Linkin Park
ArtistUnicode:Linkin Park
Creator:mario5195
Version:Insane
Source:
Tags:
BeatmapID:1576184
BeatmapSetID:747790

[Difficulty]
HPDrainRate:7
CircleSize:5
OverallDifficulty:7
ApproachRate:8.9
SliderMultiplier:2
SliderTickRate:2

[Events]
//Background and Video events
//Break Periods
2,45459,54004
//Storyboard Layer 0 (Background)
//Storyboard Layer 1 (Fail)
//Storyboard Layer 2 (Pass)
//Storyboard Layer 3 (Foreground)
//Storyboard Sound Samples

[TimingPoints]
8723,570.884871550904,4,1,0,100,1,0
54821,-100,4,1,0,100,0,0
54964,-50,4,1,0,100,0,0
55250,-100,4,1,0,100,0,0
64098,-50,4,1,0,100,0,0
64384,-100,4,1,0,100,0,0
66953,-100,4,1,0,100,0,0
67238,-100,4,1,0,100,0,0
71805,-50,4,1,0,100,0,0
72091,-100,4,1,0,100,0,0
73803,-50,4,1,0,100,0,0
74089,-100,4,1,0,100,0,0
74660,-50,4,1,0,100,0,0
74802,-100,4,1,0,100,0,0

[HitObjects]
196,112,26991,5,0,0:0:0:0:
196,124,27134,1,0,0:0:0:0:
196,136,27276,1,0,0:0:0:0:
196,148,27419,1,0,0:0:0:0:
196,208,27562,2,0,L|196:264,1,50
196,292,27847,1,0,0:0:0:0:
316,292,28133,5,0,0:0:0:0:
316,280,28275,1,0,0:0:0:0:
316,268,28417,1,0,0:0:0:0:
316,256,28560,1,0,0:0:0:0:
316,196,28703,2,0,L|316:140,1,50
316,112,28988,1,0,0:0:0:0:
68,80,29274,6,0,L|132:80,1,50
432,80,29560,2,0,L|368:80,1,50
256,88,29845,2,0,L|256:156,1,50
256,280,30131,2,0,L|256:212,1,50
140,192,30416,6,0,L|196:192,1,50
372,192,30702,2,0,L|316:192,1,50
256,112,30987,6,0,L|256:164,1,50
256,268,31272,1,0,0:0:0:0:
340,132,31558,5,0,0:0:0:0:
340,140,31701,1,0,0:0:0:0:
340,148,31843,1,0,0:0:0:0:
340,156,31986,1,0,0:0:0:0:
340,164,32129,2,0,L|340:268,1,100
172,264,32699,5,0,0:0:0:0:
172,256,32842,1,0,0:0:0:0:
172,248,32985,1,0,0:0:0:0:
172,240,33128,1,0,0:0:0:0:
172,232,33271,2,0,L|172:128,1,100
120,48,33841,6,0,L|28:92,1,100
392,336,34412,2,0,L|484:292,1,100
256,296,34983,5,0,0:0:0:0:
256,288,35126,1,0,0:0:0:0:
256,280,35269,1,0,0:0:0:0:
256,272,35411,1,0,0:0:0:0:
256,264,35554,1,0,0:0:0:0:
256,256,35697,1,0,0:0:0:0:
256,252,35840,1,0,0:0:0:0:
256,244,35982,1,0,0:0:0:0:
364,120,36125,5,0,0:0:0:0:
352,120,36268,1,0,0:0:0:0:
340,120,36410,1,0,0:0:0:0:
332,120,36553,1,0,0:0:0:0:
256,132,36696,1,0,0:0:0:0:
256,252,36839,1,0,0:0:0:0:
256,192,36981,1,0,0:0:0:0:
148,264,37267,5,0,0:0:0:0:
160,264,37410,1,0,0:0:0:0:
172,264,37552,1,0,0:0:0:0:
180,264,37695,1,0,0:0:0:0:
256,252,37838,1,0,0:0:0:0:
256,132,37980,1,0,0:0:0:0:
256,192,38123,1,0,0:0:0:0:
152,104,38409,6,0,L|220:104,1,50
360,104,38694,2,0,L|288:104,1,50
256,104,38979,2,0,L|256:160,2,50
96,224,39550,2,0,L|144:280,1,50
400,220,39836,2,0,L|356:272,1,50
256,268,40121,2,0,L|256:216,2,50
256,344,40692,6,0,L|256:240,1,100
256,212,41263,2,0,L|256:104,1,100
256,52,41834,5,0,0:0:0:0:
180,112,41977,1,0,0:0:0:0:
332,112,42119,1,0,0:0:0:0:
256,304,42405,1,0,0:0:0:0:
328,260,42547,1,0,0:0:0:0:
184,260,42690,1,0,0:0:0:0:
120,176,42976,5,0,0:0:0:0:
128,164,43118,1,0,0:0:0:0:
136,156,43261,1,0,0:0:0:0:
144,148,43404,1,0,0:0:0:0:
392,176,43546,1,0,0:0:0:0:
384,164,43688,1,0,0:0:0:0:
376,156,43831,1,0,0:0:0:0:
368,148,43974,1,0,0:0:0:0:
256,92,44117,5,0,0:0:0:0:
256,100,44260,1,0,0:0:0:0:
256,108,44403,1,0,0:0:0:0:
256,116,44546,1,0,0:0:0:0:
256,292,44688,1,0,0:0:0:0:
256,284,44831,1,0,0:0:0:0:
256,276,44974,1,0,0:0:0:0:
256,268,45117,1,0,0:0:0:0:
256,196,45259,1,0,0:0:0:0:
84,192,54679,5,0,0:0:0:0:
159,191,54964,2,0,P|255:163|363:199,1,200
420,192,55535,1,0,0:0:0:0:
420,260,55821,1,0,0:0:0:0:
420,268,55963,1,0,0:0:0:0:
420,276,56106,1,0,0:0:0:0:
88,64,56391,5,0,0:0:0:0:
416,64,56677,1,0,0:0:0:0:
84,288,56962,1,0,0:0:0:0:
416,288,57248,1,0,0:0:0:0:
216,160,57533,5,0,0:0:0:0:
296,224,57676,1,0,0:0:0:0:
256,192,57819,2,0,L|184:264,1,100
185,262,58389,1,0,0:0:0:0:
64,281,59531,5,0,0:0:0:0:
64,256,59817,1,0,0:0:0:0:
64,248,59959,1,0,0:0:0:0:
64,240,60102,1,0,0:0:0:0:
64,232,60245,1,0,0:0:0:0:
64,224,60388,1,0,0:0:0:0:
64,204,60673,1,0,0:0:0:0:
64,76,61244,5,0,0:0:0:0:
64,68,61387,1,0,0:0:0:0:
124,64,61815,1,0,0:0:0:0:
124,80,62100,1,0,0:0:0:0:
124,88,62243,1,0,0:0:0:0:
124,96,62386,1,0,0:0:0:0:
124,104,62528,1,0,0:0:0:0:
124,112,62671,1,0,0:0:0:0:
124,124,62957,1,0,0:0:0:0:
432,228,63813,5,0,0:0:0:0:
356,192,64098,2,0,P|256:172|156:192,1,200
80,228,64669,1,0,0:0:0:0:
80,236,64955,1,0,0:0:0:0:
80,244,65097,1,0,0:0:0:0:
80,252,65240,1,0,0:0:0:0:
416,64,65526,5,0,0:0:0:0:
88,64,65811,1,0,0:0:0:0:
416,288,66096,1,0,0:0:0:0:
84,288,66382,1,0,0:0:0:0:
296,160,66667,5,0,0:0:0:0:
216,224,66810,1,0,0:0:0:0:
256,192,66953,2,0,L|336:272,1,100
326,262,67524,1,0,0:0:0:0:
371,283,68665,5,0,0:0:0:0:
371,225,69236,1,0,0:0:0:0:
371,214,69379,1,0,0:0:0:0:
371,204,69522,1,0,0:0:0:0:
372,112,69807,1,0,0:0:0:0:
256,192,70378,5,0,0:0:0:0:
318,249,70664,1,0,0:0:0:0:
380,296,70949,1,0,0:0:0:0:
256,192,71234,1,0,0:0:0:0:
256,200,71377,1,0,0:0:0:0:
256,208,71520,1,0,0:0:0:0:
256,216,71663,1,0,0:0:0:0:
148,272,71805,2,0,P|256:284|384:268,1,225
56,192,73518,5,0,0:0:0:0:
148,192,73803,2,0,P|224:168|312:240,1,200
368,304,74374,1,0,0:0:0:0:
444,256,74660,2,0,P|480:160|476:136,1,100
456,92,74945,1,0,0:0:0:0:
368,92,75801,5,0,0:0:0:0:
308,92,76087,1,0,0:0:0:0:
248,92,76372,1,0,0:0:0:0:
184,92,76658,2,0,L|76:92,1,100
84,164,77086,1,0,0:0:0:0:
176,278,77514,5,0,0:0:0:0:
329,279,77800,1,0,0:0:0:0:
138,173,78085,1,0,0:0:0:0:
366,173,78228,1,0,0:0:0:0:
256,336,78370,1,0,0:0:0:0:
221,182,78656,1,0,0:0:0:0:
199,249,78799,1,0,0:0:0:0:
290,182,78941,1,0,0:0:0:0:
308,250,79084,1,0,0:0:0:0:
389,155,79370,6,0,B|350:190|350:190|350:190,1,50
128,151,79655,2,0,B|164:187|164:187|165:187,1,50
256,193,79940,2,0,P|256:126|256:126,2,50
168,306,80369,5,0,0:0:0:0:
230,305,80511,2,0,B|302:305|302:305,1,50
341,307,80797,2,0,L|341:255,3,50
341,205,81368,1,0,0:0:0:0:
