osu file format v14

[General]
AudioFilename: audio.mp3
AudioLeadIn: 0
PreviewTime: -1
Countdown: 1
SampleSet: Normal
StackLeniency: 0.7
Mode: 0
LetterboxInBreaks: 0
WidescreenStoryboard: 0

[Editor]
DistanceSpacing: 0.1
BeatDivisor: 4
GridSize: 4
TimelineZoom: 1

[Metadata]
Title:Crawling
TitleUnicode:Crawling
Artist:Linkin Park
ArtistUnicode:Linkin Park
Creator:mario5195
Version:Normal
Source:
Tags:
BeatmapID:1575571
BeatmapSetID:747790

[Difficulty]
HPDrainRate:4
CircleSize:4
OverallDifficulty:2
ApproachRate:6
SliderMultiplier:2
SliderTickRate:2

[Events]
//Background and Video events
//Break Periods
2,45459,53239
2,81996,89490
//Storyboard Layer 0 (Background)
//Storyboard Layer 1 (Fail)
//Storyboard Layer 2 (Pass)
//Storyboard Layer 3 (Foreground)
//Storyboard Sound Samples

[TimingPoints]
8723,570.884871550904,4,1,0,100,1,0

[HitObjects]
256,192,26991,5,0,0:0:0:0:
396,96,28133,1,0,0:0:0:0:
400,288,29274,1,0,0:0:0:0:
256,192,31558,5,0,0:0:0:0:
100,76,32700,1,0,0:0:0:0:
100,288,33556,1,0,0:0:0:0:
108,296,33841,1,0,0:0:0:0:
120,304,34127,1,0,0:0:0:0:
256,192,36125,5,0,0:0:0:0:
216,88,36981,1,0,0:0:0:0:
296,88,37267,1,0,0:0:0:0:
296,296,38123,1,0,0:0:0:0:
216,296,38409,1,0,0:0:0:0:
256,192,39550,1,0,0:0:0:0:
256,192,40121,1,0,0:0:0:0:
256,192,40692,5,0,0:0:0:0:
220,196,41548,1,0,0:0:0:0:
292,196,41834,1,0,0:0:0:0:
256,72,42690,1,0,0:0:0:0:
256,124,42976,1,0,0:0:0:0:
256,168,43261,2,0,B|176:272|484:368|232:108|536:124|512:284|512:284,1,400
480,292,44688,1,0,0:0:0:0:
464,324,45259,1,0,0:0:0:0:
88,108,54679,5,0,0:0:0:0:
176,72,54964,2,0,B|232:52|276:48|276:48,1,100
360,68,55535,1,0,0:0:0:0:
392,116,55821,1,0,0:0:0:0:
392,128,55963,1,0,0:0:0:0:
392,136,56106,1,0,0:0:0:0:
392,216,56391,1,0,0:0:0:0:
316,216,56677,2,0,L|200:216,1,100
216,292,57248,2,0,L|328:292,1,100
408,292,57819,1,0,0:0:0:0:
424,292,58104,1,0,0:0:0:0:
52,84,59531,5,0,0:0:0:0:
180,84,60102,2,0,L|232:84,2,50
312,84,60673,1,0,0:0:0:0:
312,196,61815,1,0,0:0:0:0:
200,196,62386,2,0,L|116:196,2,50
68,196,62957,1,0,0:0:0:0:
188,176,64098,5,0,0:0:0:0:
268,176,64384,1,0,0:0:0:0:
324,120,64669,1,0,0:0:0:0:
380,60,64955,1,0,0:0:0:0:
456,60,65240,1,0,0:0:0:0:
456,140,65526,2,0,P|456:244|456:244,1,100
376,240,66096,2,0,L|276:240,1,100
200,240,66667,2,0,L|200:128,1,100
200,96,67238,1,0,0:0:0:0:
308,100,68095,5,0,0:0:0:0:
308,280,68665,1,0,0:0:0:0:
308,200,69236,2,0,L|308:252,2,50
308,344,69807,1,0,0:0:0:0:
112,344,70378,5,0,0:0:0:0:
112,264,70806,2,0,L|112:200,1,50
168,216,71234,2,0,L|168:272,1,50
224,264,71663,2,0,L|224:204,1,50
224,168,72091,1,0,0:0:0:0:
256,92,73518,5,0,0:0:0:0:
256,108,73803,2,0,L|256:212,1,100
256,220,74374,2,0,L|256:332,1,100
172,320,74802,1,0,0:0:0:0:
144,320,74945,2,0,P|48:204|56:132,1,200
112,92,75801,5,0,0:0:0:0:
196,92,76087,2,0,L|308:92,1,100
376,92,76658,1,0,0:0:0:0:
376,160,76943,2,0,L|376:220,1,50
376,244,77229,1,0,0:0:0:0:
332,304,81082,1,0,0:0:0:0:
276,324,81225,2,0,L|224:324,1,50
176,328,81510,1,0,0:0:0:0:
256,192,81796,1,0,0:0:0:0:
256,192,90930,5,0,0:0:0:0:
144,192,91786,2,0,L|32:192,1,100
44,260,92928,1,0,0:0:0:0:
104,260,93213,1,0,0:0:0:0:
164,260,93784,1,0,0:0:0:0:
180,252,94070,1,0,0:0:0:0:
196,244,94355,1,0,0:0:0:0:
216,232,94926,1,0,0:0:0:0:
256,196,95497,1,0,0:0:0:0:
364,196,96353,2,0,L|500:196,1,100
440,228,97495,1,0,0:0:0:0:
424,244,97781,1,0,0:0:0:0:
408,260,98066,1,0,0:0:0:0:
256,192,100064,5,0,0:0:0:0:
360,192,100920,2,0,P|504:192|504:192,1,100
460,256,102062,1,0,0:0:0:0:
400,256,102348,1,0,0:0:0:0:
344,256,103489,1,0,0:0:0:0:
336,268,103775,1,0,0:0:0:0:
328,276,104060,1,0,0:0:0:0:
320,288,104346,1,0,0:0:0:0:
316,296,104631,1,0,0:0:0:0:
164,300,105487,2,0,L|164:196,1,100
176,192,106629,1,0,0:0:0:0:
336,192,106915,1,0,0:0:0:0:
256,192,107200,1,0,0:0:0:0:
