osu file format v14

[General]
AudioFilename: linkin-park-castle-of-glass-2012.mp3
AudioLeadIn: 0
PreviewTime: 115907
Countdown: 0
SampleSet: Soft
StackLeniency: 0.7
Mode: 0
LetterboxInBreaks: 0
WidescreenStoryboard: 1

[Editor]
Bookmarks: 36472,71992,89769,98648,116426,134204,151982,168926,169759,187537,196426
DistanceSpacing: 0.8
BeatDivisor: 4
GridSize: 4
TimelineZoom: 1

[Metadata]
Title:Castle of Glass
TitleUnicode:Castle of Glass
Artist:Linkin Park
ArtistUnicode:Linkin Park
Creator:narakucrimson
Version:Easy
Source:Medal of Honor: Warfighter
Tags:Aleks719 Living Things
BeatmapID:1457154
BeatmapSetID:140152

[Difficulty]
HPDrainRate:2
CircleSize:3.5
OverallDifficulty:2
ApproachRate:3
SliderMultiplier:0.7
SliderTickRate:1

[Events]
//Background and Video events
0,0,"LP_TeaserThumbnail.jpg",0,0
//Break Periods
2,152218,167752
//Storyboard Layer 0 (Background)
//Storyboard Layer 1 (Fail)
//Storyboard Layer 2 (Pass)
//Storyboard Layer 3 (Foreground)
//Storyboard Sound Samples

[TimingPoints]
907,277.777777777778,4,2,0,60,1,0
36297,-125,4,2,0,40,0,0
36990,-125,4,2,0,30,0,0
40740,-125,4,2,0,40,0,0
41434,-125,4,2,0,30,0,0
45176,-125,4,2,0,40,0,0
45871,-125,4,2,0,30,0,0
49623,-125,4,2,0,40,0,0
50315,-125,4,2,0,30,0,0
52259,-125,4,2,0,30,0,0
53787,-125,4,2,0,40,0,0
54067,-125,4,2,0,60,0,0
71426,-100,4,2,0,70,0,0
133579,-100,4,2,0,80,0,0
133857,-100,4,2,0,85,0,0
134134,-100,4,2,0,90,0,0
134273,-100,4,2,0,80,0,0
151912,-100,4,2,0,60,0,0
169795,-100,4,2,0,80,0,1
187573,-100,4,2,0,80,0,0
196287,-100,4,2,0,60,0,0
196634,-100,4,2,0,40,0,0
200662,-100,4,2,0,5,0,0

[Colours]
Combo1 : 214,194,120
Combo2 : 53,137,200
Combo3 : 180,101,14
Combo4 : 149,162,176

[HitObjects]
384,272,36462,6,0,P|448:268|504:188,2,168,4|2|0,3:0|2:3|0:0,0:0:0:0:
292,236,38684,2,0,L|180:240,1,112,4|0,3:0|0:3,0:0:0:0:
220,148,39795,2,0,L|332:144,1,112,4|0,3:0|0:3,0:0:0:0:
432,156,40907,5,4,3:3:0:0:
480,244,41462,1,0,0:0:0:0:
432,332,42018,1,4,3:3:0:0:
344,312,42573,2,0,P|276:368|168:312,2,224,0|0|0,0:0|3:0|3:0,0:0:0:0:
312,228,45351,6,0,B|256:248|200:228,1,112,12|0,3:0|3:0,0:0:0:0:
192,140,46462,2,0,P|128:144|68:276,2,224,4|4|4,3:0|2:3|3:0,0:0:0:0:
284,164,49240,1,0,0:0:0:0:
376,188,49795,6,0,P|444:188|500:60,1,224,12|4,3:0|3:0,0:0:0:0:
408,12,51462,2,0,L|296:20,1,112,0|0,3:0|0:0,0:0:0:0:
252,112,52573,2,0,L|364:120,1,112
408,212,53684,2,0,L|296:220,1,112,0|12,0:0|3:0,0:0:0:0:
212,164,54795,6,0,B|159:183|159:183|102:203|52:170,2,168,12|0|12,3:0|0:0|3:0,0:0:0:0:
300,220,57018,2,0,B|352:200|352:200|409:180|459:213,2,168,12|0|12,3:0|0:0|3:0,0:0:0:0:
336,316,59240,6,0,B|388:336|388:336|444:328,2,112,0|4|0,3:0|3:0|0:0,0:0:0:0:
256,256,60907,1,12,3:0:0:0:
176,316,61462,2,0,B|124:336|124:336|68:328,2,112,0|12|0,3:0|3:0|3:0,0:0:0:0:
256,256,63129,5,12,3:0:0:0:
356,264,63684,2,0,P|204:168|156:264,2,336,0|12|0,0:0|3:0|0:0,0:0:0:0:
456,276,67573,6,0,P|496:236|500:180,1,112,12|0,3:0|0:0,0:0:0:0:
432,108,68684,2,0,L|320:116,1,112,4|0,3:0|0:0,0:0:0:0:
220,140,69795,6,0,B|236:196|236:196|276:228|276:228|292:284,1,168,12|12,3:0|3:0,0:0:0:0:
116,256,72018,6,0,P|140:200|116:128,1,140,12|0,3:0|3:0,0:0:0:0:
192,52,73129,2,0,P|248:76|320:52,1,140,12|0,3:0|3:0,0:0:0:0:
396,128,74240,2,0,P|372:184|396:256,1,140,4|0,3:2|3:0,0:0:0:0:
320,332,75351,2,0,P|264:308|192:332,1,140,12|0,3:0|3:0,0:0:0:0:
128,256,76462,6,0,P|256:207|384:256,2,280,4|0|4,3:2|3:0|3:2,0:0:0:0:
192,348,79240,2,0,B|224:356|256:376|256:376|288:356|320:348,1,140,0|4,3:0|3:0,0:0:0:0:
432,340,80351,1,0,0:0:0:0:
480,240,80907,6,0,B|436:216|380:228|344:276|344:276|280:232|224:260,1,280,4|4,3:2|3:0,0:0:0:0:
140,192,82573,1,0,0:0:0:0:
224,124,83129,2,0,B|280:152|344:108|344:108|380:156|440:168|480:144,1,280,4|4,3:2|3:0,0:0:0:0:
436,40,84795,1,0,0:0:0:0:
332,16,85351,6,0,B|268:24|256:76|256:116|256:116|256:156|244:208|180:216,1,280,4|4,3:2|3:0,0:0:0:0:
130,110,87018,2,0,B|177:66|225:90|256:116|256:116|286:141|334:166|381:122,1,280
460,40,88684,1,4,3:0:0:0:
480,212,89795,6,0,B|436:236|436:236|396:236|396:236|352:212,2,140,4|0|0,1:0|3:0|1:0,0:0:0:0:
412,124,91462,2,0,P|344:168|288:164,1,140,8|0,3:0|3:0,0:0:0:0:
180,140,92573,1,0,3:0:0:0:
260,64,93129,1,0,1:0:0:0:
332,140,93684,1,0,0:0:0:0:
224,163,94240,6,0,P|155:164|100:124,1,140,4|0,3:2|0:0,0:0:0:0:
192,60,95351,2,0,B|236:84|236:84|276:84|276:84|320:60,1,140,0|0,1:0|3:0,0:0:0:0:
348,168,96462,2,0,B|296:180|256:216|256:216|216:180|164:168,2,210,4|0|0,3:0|1:0|0:0,0:0:0:0:
452,208,98684,5,4,1:2:0:0:
412,312,99240,1,0,0:0:0:0:
308,272,99795,1,4,3:0:0:0:
256,172,100351,1,0,1:0:0:0:
204,272,100907,2,0,P|168:316|88:320,1,140,4|0,3:0|3:0,3:0:0:0:
49,216,102018,2,0,P|95:167|164:168,1,140,4|0,3:0|3:0,3:0:0:0:
256,96,103129,6,0,B|312:140|312:140|380:144,1,140,4|0,0:0|3:0,0:0:0:0:
492,196,104240,2,0,P|488:92|408:24,2,210,0|0|4,0:0|1:0|3:0,0:0:0:0:
392,244,106462,1,4,3:0:0:0:
332,148,107018,1,0,1:0:0:0:
232,184,107573,6,0,B|176:228|176:228|108:232,1,140,4|0,0:0|3:0,0:0:0:0:
72,124,108684,1,0,3:0:0:0:
180,96,109240,1,0,1:0:0:0:
288,68,109795,1,4,3:0:0:0:
348,164,110351,1,4,3:0:0:0:
404,260,110907,2,0,P|364:332|312:340,1,140,0|0,3:0|1:0,0:0:0:0:
199,340,112018,6,4,P|134:322|108:260,1,140,4|4,3:2|3:0,0:0:0:0:
164,164,113129,1,0,3:0:0:0:
224,68,113684,1,0,1:0:0:0:
332,96,114239,1,4,3:0:0:0:
440,124,114795,1,4,3:0:0:0:
440,124,115351,1,12,3:0:0:0:
176,188,116462,22,0,L|180:264,2,70,4|0|0,0:0|1:0|0:0,0:0:0:0:
256,112,117573,1,0,0:0:0:0:
336,188,118129,2,0,L|332:260,2,70,0|2|4,3:0|1:2|0:0,0:0:0:0:
256,112,119240,1,0,3:0:0:0:
144,160,119795,2,0,P|88:196|16:192,1,140,0|0,3:0|1:0,0:0:0:0:
60,88,120907,5,4,0:0:0:0:
168,116,121462,2,0,B|240:120,2,70,0|2|0,3:0|1:2|3:0,0:0:0:0:
224,20,122573,2,0,B|296:24,2,70,0|2|4,3:0|1:2|3:2,0:0:0:0:
168,116,123684,2,0,P|224:152|296:148,2,140,4|4|0,3:0|3:0|1:0,0:0:0:0:
52,144,125351,6,0,P|84:276|212:292,1,280,4|8,0:0|3:0,0:0:0:0:
256,192,127018,1,2,1:2:0:0:
301,91,127573,2,0,P|431:111|460:240,1,280,4|8,0:0|3:0,0:0:0:0:
360,300,129240,1,2,1:2:0:0:
316,196,129795,6,0,B|328:120|328:120|364:68,2,140,4|2|0,1:0|1:2|1:0,1:0:0:0:
196,188,131462,2,0,B|184:264|184:264|148:316,2,140,2|4|2,1:2|3:0|1:2,1:0:0:0:
268,92,133129,1,4,1:0:0:0:
368,160,133684,2,0,P|424:196|496:192,1,140,2|4,1:2|1:0,0:0:0:0:
452,88,134795,5,0,1:0:0:0:
344,56,135351,2,0,L|132:40,2,210,8|0|4,3:0|1:0|3:0,0:0:0:0:
416,140,137573,2,0,P|368:188|348:256,1,140,8|0,3:0|1:0,0:0:0:0:
416,344,138684,6,0,L|488:328,2,70,0|0|0,0:0|1:0|0:0,0:0:0:0:
312,300,139795,2,0,L|336:232,2,70,0|0|0,0:0|1:0|0:0,0:0:0:0:
200,300,140907,2,0,L|176:232,2,70,0|0|0,0:0|1:0|0:0,0:0:0:0:
96,344,142018,2,0,L|24:328,2,70,0|0|0,0:0|1:0|0:0,0:0:0:0:
200,300,143129,22,0,P|264:296|316:244,1,140,4|4,2:2|3:0,0:0:0:0:
256,148,144240,2,0,L|256:76,2,70,0|0|0,0:0|1:0|0:0,0:0:0:0:
196,244,145351,2,0,P|243:294|312:300,1,140,4|0,2:2|0:0,0:0:0:0:
356,196,146462,2,0,P|308:146|240:140,1,140,4|0,2:2|0:0,0:0:0:0:
152,208,147573,6,0,L|80:224,2,70,0|2|0,0:0|1:2|0:0,0:0:0:0:
240,140,148684,2,0,L|252:68,2,70,0|2|0,0:0|1:2|0:0,0:0:0:0:
272,244,149795,2,0,L|260:316,2,70,0|2|0,0:0|1:2|0:0,0:0:0:0:
360,176,150907,2,0,L|432:160,2,70,0|2|0,0:0|1:2|0:0,0:0:0:0:
256,108,152018,37,4,0:0:0:0:
256,192,169240,5,0,1:0:0:0:
192,296,169795,2,0,B|256:324|256:324|320:296,1,140,4|0,1:0|1:0,0:0:0:0:
372,196,170907,2,0,P|384:128|440:88,1,140,4|0,3:0|1:0,0:0:0:0:
480,192,172018,2,0,L|488:264,2,70,4|0|0,2:0|1:0|0:0,0:0:0:0:
376,152,173129,1,2,0:2:0:0:
284,216,173684,2,0,L|292:288,2,70,0|0|4,2:0|1:0|2:0,0:0:0:0:
268,104,174795,5,0,3:0:0:0:
156,116,175351,1,2,0:2:0:0:
44,128,175907,1,0,1:0:0:0:
64,240,176462,2,0,P|188:220|252:344,1,280,4|2,0:0|0:2,0:0:0:0:
140,324,178129,1,4,1:3:0:0:
180,220,178684,6,0,P|244:220|296:168,1,140,4|0,0:0|1:0,0:0:0:0:
256,64,179795,1,2,0:2:0:0:
216,169,180351,2,0,P|263:218|332:220,1,140,0|4,1:0|0:2,0:0:0:0:
440,252,181462,2,0,B|424:312|424:312|384:308|352:336,1,140,0|2,1:0|0:0,0:0:0:0:
256,280,182573,1,0,1:0:0:0:
144,272,183129,6,0,L|68:268,2,70,6|2|0,0:0|1:2|3:0,0:0:0:0:
200,176,184240,2,0,P|192:140|180:104,2,70,0|2|0,3:0|1:2|3:0,0:0:0:0:
312,176,185351,2,0,P|320:140|332:104,2,70,0|2|0,3:0|1:2|3:0,0:0:0:0:
368,272,186462,2,0,L|444:268,2,70,0|2|0,3:0|1:2|3:0,0:0:0:0:
256,260,187573,6,0,P|188:228|40:348,2,280,4|4|4,1:0|3:2|1:0,0:0:0:0:
368,252,190351,1,0,1:0:0:0:
380,140,190907,2,0,B|324:96|324:96|312:28,1,140,4|0,2:0|0:0,0:0:0:0:
200,28,192018,6,0,B|188:96|188:96|132:140,1,140,4|0,1:0|0:0,0:0:0:0:
196,232,193129,2,0,P|280:204|316:232,1,140,4|0,0:0|0:0,0:0:0:0:
316,344,194240,2,0,P|232:372|196:344,1,140,4|0,1:0|0:0,0:0:0:0:
200,232,195351,1,4,0:0:0:0:
312,232,195907,1,0,0:0:0:0:
256,192,196462,12,0,200907,0:0:0:0:
