osu file format v14

[General]
AudioFilename: linkin-park-castle-of-glass-2012.mp3
AudioLeadIn: 0
PreviewTime: 115907
Countdown: 0
SampleSet: Soft
StackLeniency: 0.7
Mode: 0
LetterboxInBreaks: 0
WidescreenStoryboard: 0

[Editor]
Bookmarks: 71992,89769,98648,116426,134204,151982,168926,169759,187537,196426
DistanceSpacing: 1.2
BeatDivisor: 4
GridSize: 4
TimelineZoom: 1

[Metadata]
Title:Castle of Glass
TitleUnicode:Castle of Glass
Artist:Linkin Park
ArtistUnicode:Linkin Park
Creator:narakucrimson
Version:Insane
Source:Medal of Honor: Warfighter
Tags:Aleks719 Living Things
BeatmapID:350197
BeatmapSetID:140152

[Difficulty]
HPDrainRate:8
CircleSize:4.2
OverallDifficulty:8
ApproachRate:8.3
SliderMultiplier:1.15
SliderTickRate:1

[Events]
//Background and Video events
0,0,"LP_TeaserThumbnail.jpg",0,0
//Break Periods
2,152218,168381
//Storyboard Layer 0 (Background)
//Storyboard Layer 1 (Fail)
//Storyboard Layer 2 (Pass)
//Storyboard Layer 3 (Foreground)
//Storyboard Sound Samples

[TimingPoints]
907,277.777777777778,4,2,0,60,1,0
36297,-125,4,2,0,40,0,0
36990,-125,4,2,0,30,0,0
40740,-125,4,2,0,40,0,0
41434,-125,4,2,0,30,0,0
45176,-125,4,2,0,40,0,0
45871,-125,4,2,0,30,0,0
49623,-125,4,2,0,40,0,0
50315,-125,4,2,0,30,0,0
52259,-142.857142857143,4,2,0,30,0,0
53787,-125,4,2,0,40,0,0
54067,-125,4,2,0,60,0,0
71426,-111.111111111111,4,2,0,70,0,0
89623,-86.9565217391304,4,2,0,70,0,0
133301,-86.9565217391304,4,2,0,75,0,0
133579,-86.9565217391304,4,2,0,80,0,0
133857,-86.9565217391304,4,2,0,85,0,0
134134,-86.9565217391304,4,2,0,90,0,0
134273,-86.9565217391304,4,2,0,80,0,0
151912,-86.9565217391304,4,2,0,60,0,0
169795,-86.9565217391304,4,2,0,80,0,1
187573,-86.9565217391304,4,2,0,80,0,0
196287,-86.9565217391304,4,2,0,60,0,0
196634,-86.9565217391304,4,2,0,40,0,0
200662,-86.9565217391304,4,2,0,5,0,0

[Colours]
Combo1 : 214,194,120
Combo2 : 53,137,200
Combo3 : 180,101,14
Combo4 : 149,162,176

[HitObjects]
352,96,36462,5,4,3:3:0:0:
440,164,36740,1,0,0:0:0:0:
440,164,36879,2,0,P|444:236|404:288,1,138,12|2,3:3|2:3,0:0:0:0:
384,292,37434,1,0,0:0:0:0:
364,296,37573,2,0,B|340:293|316:300|316:300|292:289|268:287,1,92,0|2,0:0|3:0,0:0:0:0:
168,264,38129,2,0,P|100:308|4:288,1,184,0|4,0:0|3:0,0:0:0:0:
20,140,39101,6,0,B|40:144|60:160|60:160|104:140|152:156,1,138,4|4,3:0|2:3,0:0:0:0:
256,192,39795,1,4,3:0:0:0:
256,192,39934,1,0,0:0:0:0:
492,244,40212,2,0,B|472:240|452:224|452:224|408:244|360:228,1,138,4|4,3:0|2:3,0:0:0:0:
396,120,40907,5,4,3:3:0:0:
308,56,41184,1,0,0:0:0:0:
308,56,41323,2,0,P|240:88|176:92,1,138,12|2,3:3|2:3,0:0:0:0:
156,84,41879,1,0,0:0:0:0:
136,76,42018,2,0,P|90:79|49:100,2,92,0|2|0,0:0|3:0|0:0,0:0:0:0:
240,136,42851,1,2,3:0:0:0:
372,104,43129,5,4,3:0:0:0:
372,104,43268,1,0,0:0:0:0:
340,212,43545,2,0,P|368:272|356:340,1,138,4|4,3:0|2:3,0:0:0:0:
256,288,44240,1,4,3:0:0:0:
256,288,44379,1,0,3:0:0:0:
172,364,44657,2,0,P|144:304|156:236,1,138,4|4,3:0|2:3,0:0:0:0:
256,152,45351,5,12,0:3:0:0:
208,52,45629,1,0,0:0:0:0:
208,52,45768,2,0,P|166:71|121:71,1,92,12|0,0:3|0:0,0:0:0:0:
304,52,46323,1,0,0:0:0:0:
304,52,46462,2,0,P|345:71|390:71,1,92,12|0,0:3|0:0,0:0:0:0:
444,168,47018,2,0,L|364:216,1,92,0|2,0:0|3:0,0:0:0:0:
256,192,47573,5,4,3:0:0:0:
164,128,47851,1,2,3:0:0:0:
156,148,47990,1,0,3:0:0:0:
148,168,48129,2,0,L|69:215,1,92,8|2,3:0|3:0,0:0:0:0:
148,292,48684,2,0,P|172:332|212:352,1,92,0|2,0:0|3:0,0:0:0:0:
364,292,49240,2,0,P|340:331|300:351,1,92,0|2,0:0|3:0,0:0:0:0:
72,288,49795,5,12,3:0:0:0:
72,288,50212,1,12,3:0:0:0:
121,199,50490,1,0,0:0:0:0:
121,199,50629,2,0,B|166:182|212:204,1,92,2|0,3:0|0:0,0:0:0:0:
317,71,51184,2,0,B|309:119|267:147,1,92,2|0,3:0|0:0,0:0:0:0:
329,305,51740,2,0,B|292:274|288:224,1,92,2|4,3:0|3:0,0:0:0:0:
496,232,52434,6,0,P|452:252|388:228,1,120.749996315003,2|2,3:0|3:0,0:0:0:0:
392,144,53129,1,0,0:0:0:0:
392,144,53545,2,0,P|447:123|500:148,1,120.749996315003,2|4,3:0|3:0,0:0:0:0:
328,92,54240,6,0,B|284:108|284:108|236:108,1,92,12|0,3:0|0:0,0:0:0:0:
168,76,54657,1,12,3:0:0:0:
168,76,54934,2,0,P|128:100|100:136,1,92
80,208,55351,1,4,3:0:0:0:
184,264,55629,1,0,0:0:0:0:
256,244,55768,1,4,3:0:0:0:
328,264,55907,2,0,P|368:288|412:288,1,92,0|2,3:0|3:0,0:0:0:0:
488,188,56462,6,0,L|508:92,1,92,4|0,3:0|0:0,0:0:0:0:
428,40,56879,1,4,3:0:0:0:
428,40,57295,1,2,3:0:0:0:
368,188,57573,2,0,L|348:92,1,92,4|0,3:0|0:0,0:0:0:0:
256,128,57990,1,4,3:0:0:0:
256,128,58407,1,2,3:0:0:0:
24,224,58684,6,0,B|68:240|68:240|116:236,1,92,12|0,3:0|0:0,0:0:0:0:
168,180,59101,1,12,3:0:0:0:
168,180,59379,2,0,B|212:196|212:196|260:192,1,92,0|0,3:0|0:0,0:0:0:0:
312,136,59795,1,4,3:0:0:0:
428,112,60073,1,0,0:0:0:0:
456,180,60212,1,4,3:0:0:0:
484,248,60351,2,0,P|496:296|484:336,1,92,0|2,3:0|3:0,0:0:0:0:
348,300,60907,6,0,B|320:324|284:324|284:324|260:324,1,92,4|0,3:0|0:0,0:0:0:0:
184,300,61323,2,0,B|148:308|116:324|116:324|84:308|48:300,1,138,4|2,3:0|3:0,0:0:0:0:
32,188,62018,2,0,P|71:211|117:211,1,92,4|0,3:0|0:0,0:0:0:0:
196,176,62434,2,0,P|255:211|323:211,1,138,4|2,3:0|3:0,0:0:0:0:
300,100,63129,6,0,P|248:112|212:100,1,92,12|0,3:0|0:0,0:0:0:0:
256,32,63545,1,4,3:0:0:0:
256,32,63823,2,0,B|256:128,1,92,2|0,3:0|0:0,0:0:0:0:
184,160,64240,2,0,B|160:204|184:248,1,92,4|2,3:0|3:0,0:0:0:0:
256,288,64657,1,0,3:0:0:0:
328,248,64795,2,0,B|352:204|328:160,1,92,0|2,3:3|3:0,0:0:0:0:
256,76,65351,5,4,3:0:0:0:
256,76,65629,1,0,0:0:0:0:
204,132,65768,2,0,P|140:136|76:104,1,138,4|2,3:0|3:0,0:0:0:0:
12,192,66462,1,4,3:0:0:0:
76,280,66740,1,0,0:0:0:0:
75,280,66879,2,0,P|135:248|204:252,1,138,4|2,3:0|3:0,0:0:0:0:
348,184,67573,6,0,B|348:232|348:232|360:276,1,92,4|0,3:0|0:0,0:0:0:0:
404,336,67990,1,4,3:0:0:0:
404,336,68268,2,0,P|368:368|324:380,1,92,0|0,3:0|0:0,0:0:0:0:
280,324,68684,2,0,P|236:300|212:264,1,92,4|0,3:0|0:0,0:0:0:0:
232,196,69101,1,0,3:0:0:0:
256,128,69240,1,0,0:0:0:0:
256,128,69518,1,2,3:0:0:0:
396,228,69795,5,12,3:0:0:0:
256,264,70212,1,4,3:0:0:0:
116,300,70629,1,4,3:0:0:0:
36,96,71740,5,4,3:0:0:0:
36,96,72018,2,0,L|140:80,1,103.499996841431,12|0,3:0|0:0,0:0:0:0:
208,116,72434,2,0,B|364:92,1,155.249995262146,4|2,3:0|3:0,0:0:0:0:
420,204,73129,2,0,P|412:256|380:296,1,103.499996841431,12|0,3:0|0:0,0:0:0:0:
308,316,73545,1,4,3:0:0:0:
308,316,73684,1,0,0:0:0:0:
232,220,73962,1,2,3:0:0:0:
130,295,74240,6,0,P|99:254|92:204,1,103.499996841431,12|0,3:0|0:0,0:0:0:0:
160,168,74657,2,0,P|220:208|304:212,1,155.249995262146,4|2,3:0|3:0,0:0:0:0:
340,96,75351,2,0,P|280:56|196:52,1,155.249995262146,4|0,3:0|3:0,0:0:0:0:
140,96,75907,1,0,0:0:0:0:
76,224,76184,1,2,3:0:0:0:
264,308,76462,6,0,P|219:342|171:337,1,103.499996841431,12|0,3:0|0:0,0:0:0:0:
200,268,76879,2,0,B|264:308|264:308|344:308,1,155.249995262146,4|2,3:0|3:0,0:0:0:0:
476,284,77573,2,0,P|476:212|416:156,1,155.249995262146,4|0,3:0|3:0,0:0:0:0:
344,136,78129,1,4,3:0:0:0:
256,212,78407,1,2,3:0:0:0:
256,60,78684,5,12,3:0:0:0:
168,136,78962,1,0,0:0:0:0:
104,96,79101,2,0,L|4:124,1,103.499996841431,4|0,3:0|0:0,0:0:0:0:
4,123,79518,1,2,3:0:0:0:
4,260,79795,2,0,L|104:288,1,103.499996841431,4|2,3:0|3:0,0:0:0:0:
180,300,80212,1,8,3:0:0:0:
256,168,80490,1,0,3:0:0:0:
256,168,80629,1,2,3:0:0:0:
331,298,80907,6,0,P|400:304|428:288,1,103.499996841431,12|0,3:0|0:0,0:0:0:0:
480,232,81323,1,4,3:0:0:0:
368,176,81601,1,0,0:0:0:0:
368,176,81740,1,2,3:0:0:0:
256,232,82018,2,0,B|176:256|176:208|104:232,1,155.249995262146,4|4,3:0|3:0,0:0:0:0:
36,264,82573,1,0,3:0:0:0:
4,144,82851,1,2,3:0:0:0:
36,24,83129,6,0,B|80:48|80:48|132:60,1,103.499996841431,12|0,3:0|0:0,0:0:0:0:
208,48,83545,2,0,B|232:56|256:68|256:68|280:56|304:48,1,103.499996841431,4|0,3:0|0:0,0:0:0:0:
380,60,83962,2,0,B|432:48|432:48|476:24,1,103.499996841431,2|4,3:0|3:0,0:0:0:0:
304,48,84518,1,8,3:0:0:0:
256,108,84657,2,0,P|220:144|168:156,1,103.499996841431,4|0,3:0|0:0,0:0:0:0:
96,148,85073,1,2,3:0:0:0:
112,268,85351,6,0,B|156:288|204:280|204:280|216:308|244:324,1,155.249995262146,4|4,3:0|3:0,0:0:0:0:
408,232,86184,1,2,3:0:0:0:
400,116,86462,2,0,B|356:96|308:104|308:104|296:76|268:60,1,155.249995262146,4|4,3:0|3:0,0:0:0:0:
104,152,87295,1,2,3:0:0:0:
184,256,87573,6,0,B|256:284|256:284|328:256,1,155.249995262146,12|4,3:0|3:0,0:0:0:0:
444,212,88407,1,2,3:0:0:0:
444,212,88684,1,4,3:0:0:0:
444,212,89795,6,0,P|468:152|444:92,1,132.250002522469,4|0,1:0|1:0,0:0:0:0:
372,128,90212,2,0,B|328:128|328:128|280:128|252:92,1,132.250002522469,0|0,3:0|0:0,0:0:0:0:
196,32,90629,1,0,1:0:0:0:
67,92,90907,2,0,P|44:152|68:212,1,132.250002522469,4|0,3:0|1:0,0:0:0:0:
132,256,91323,2,0,B|197:267|197:267|247:224,1,132.250002522469,0|0,3:0|0:0,0:0:0:0:
300,164,91740,1,0,1:0:0:0:
320,360,92018,6,0,B|280:360|256:372|256:372|232:360|192:360,1,132.250002522469,4|0,0:0|1:0,0:0:0:0:
192,280,92434,2,0,B|232:280|256:268|256:268|280:280|320:280,1,132.250002522469,4|0,3:0|3:0,0:0:0:0:
392,244,92851,1,0,1:0:0:0:
320,104,93129,2,0,B|280:104|256:116|256:116|232:104|192:104,1,132.250002522469,8|0,3:0|1:0,0:0:0:0:
192,24,93545,2,0,B|232:24|256:12|256:12|280:24|320:24,1,132.250002522469,4|0,3:0|3:0,0:0:0:0:
392,64,93962,1,0,1:0:0:0:
512,168,94240,6,0,B|452:196|452:196|392:168,1,132.250002522469,4|0,0:0|1:0,0:0:0:0:
312,176,94657,2,0,P|264:232|208:244,1,132.250002522469,4|0,3:0|3:0,0:0:0:0:
132,220,95073,1,0,1:0:0:0:
24,336,95351,2,0,B|64:356|108:352|108:352|156:348,1,132.250002522469,4|0,3:0|1:0,0:0:0:0:
180,272,95768,1,0,3:0:0:0:
332,272,96045,1,0,3:0:0:0:
358,348,96184,2,0,B|404:352|404:352|448:356|488:336,1,132.250002522469,0|4,1:0|0:0,0:0:0:0:
508,180,96740,5,0,1:0:0:0:
448,232,96879,2,0,P|396:240|332:196,1,132.250002522469,4|0,3:0|3:0,0:0:0:0:
332,116,97295,1,0,1:0:0:0:
172,116,97573,1,4,3:2:0:0:
60,228,97851,1,0,1:0:0:0:
60,228,97990,2,0,P|112:236|176:192,1,132.250002522469,8|0,3:0|3:0,0:0:0:0:
256,180,98407,1,0,1:0:0:0:
424,132,98684,6,0,L|440:264,1,132.250002522469,4|0,1:0|1:0,0:0:0:0:
360,268,99101,2,0,L|344:136,1,132.250002522469,8|0,3:0|3:0,0:0:0:0:
332,56,99518,1,0,1:0:0:0:
180,56,99795,2,0,P|132:96|68:84,1,132.250002522469,8|0,3:0|1:0,0:0:0:0:
112,20,100212,1,4,3:0:0:0:
112,20,100351,1,0,3:0:0:0:
256,24,100629,2,0,B|264:68|264:68|248:108|248:108|256:152,1,132.250002522469,0|8,1:0|3:0,0:0:0:0:
392,232,101184,5,0,1:0:0:0:
392,232,101323,2,0,P|416:308|392:352,1,132.250002522469,0|0,3:0|3:0,0:0:0:0:
336,292,101740,1,0,1:0:0:0:
256,152,102018,1,8,3:0:0:0:
120,232,102295,1,0,1:0:0:0:
120,232,102434,2,0,P|96:308|120:352,1,132.250002522469,0|0,3:0|3:0,0:0:0:0:
176,292,102851,1,0,1:0:0:0:
187,115,103129,6,0,B|215:131|237:157|237:157|269:145|302:146,1,132.250002522469,4|0,0:0|1:0,0:0:0:0:
324,68,103545,2,0,B|295:51|273:25|273:25|241:37|208:36,1,132.250002522469,0|0,3:0|3:0,0:0:0:0:
132,58,103962,1,0,1:0:0:0:
228,196,104240,1,4,3:0:0:0:
379,125,104518,1,0,1:0:0:0:
452,156,104657,2,0,P|455:225|429:282,1,132.250002522469,4|0,3:0|0:0,0:0:0:0:
381,220,105073,2,0,P|444:204|508:220,1,132.250002522469,0|8,1:0|3:0,0:0:0:0:
504,360,105629,5,0,1:0:0:0:
504,360,105768,2,0,P|440:375|376:359,1,132.250002522469,0|0,3:0|0:0,0:0:0:0:
304,324,106184,1,0,1:0:0:0:
176,228,106462,2,0,B|176:196|176:196|176:136|216:108,1,132.250002522469,8|0,3:0|1:0,0:0:0:0:
296,108,106879,2,0,B|336:136|336:196|336:196|336:228,1,132.250002522469,0|0,3:0|3:0,0:0:0:0:
256,240,107295,1,0,1:0:0:0:
135,359,107573,6,0,P|71:375|8:360,1,132.250002522469,4|0,0:0|1:0,0:0:0:0:
8,360,107990,1,0,3:0:0:0:
4,219,108268,1,0,3:0:0:0:
4,219,108407,2,0,P|67:203|131:220,1,132.250002522469,0|4,1:0|3:0,0:0:0:0:
304,280,108962,1,0,1:0:0:0:
328,204,109101,1,0,3:0:0:0:
184,204,109379,1,0,3:0:0:0:
208,280,109518,1,0,1:0:0:0:
364,332,109795,6,0,B|392:244|392:244|416:212,1,132.250002522469,8|0,3:0|1:0,0:0:0:0:
468,152,110212,2,0,P|444:80|396:60,1,132.250002522469,0|0,3:0|3:0,0:0:0:0:
392,140,110629,1,0,1:0:0:0:
224,156,110907,2,0,B|176:168|176:168|144:160|144:160|96:172,1,132.250002522469,8|0,3:0|1:0,0:0:0:0:
44,232,111323,2,0,P|68:304|116:324,1,132.250002522469,0|0,3:0|3:0,0:0:0:0:
120,244,111740,1,0,1:0:0:0:
196,320,112018,6,0,B|256:348|256:348|316:320,1,132.250002522469,4|0,3:2|1:0,0:0:0:0:
396,323,112434,2,0,P|452:294|468:232,1,132.250002522469,8|0,3:0|3:0,0:0:0:0:
392,244,112851,2,0,B|352:248|316:228|316:228|292:236|264:228,1,132.250002522469,0|0,1:0|3:0,0:0:0:0:
120,140,113407,1,0,1:0:0:0:
120,140,113545,2,0,B|160:136|196:156|196:156|220:148|248:156,1,132.250002522469,0|0,3:0|3:0,0:0:0:0:
224,232,113962,37,0,1:0:0:0:
64,248,114240,1,8,3:0:0:0:
48,88,114518,1,0,1:0:0:0:
48,88,114657,1,0,3:0:0:0:
208,72,114934,1,0,3:0:0:0:
208,72,115073,1,0,1:0:0:0:
136,160,115351,5,12,3:0:0:0:
484,196,116462,22,0,P|491:260|449:308,1,132.250002522469,4|0,0:0|1:0,0:0:0:0:
374,284,116879,2,0,P|370:212|410:172,1,132.250002522469,4|0,3:0|3:0,0:0:0:0:
464,120,117295,1,0,1:0:0:0:
310,52,117573,2,0,P|283:71|252:80,1,66.1250012612343,4|0,3:0|3:0,0:0:0:0:
172,68,117851,1,0,1:0:0:0:
92,56,117990,2,0,P|28:108|28:152,1,132.250002522469,4|0,3:0|0:0,0:0:0:0:
88,208,118407,2,0,P|100:240|104:272,1,66.1250012612343,2|0,1:2|0:0,0:0:0:0:
184,284,118684,6,0,P|176:216|152:156,1,132.250002522469,4|0,0:0|1:0,0:0:0:0:
228,132,119101,2,0,B|252:176|252:176|260:208|260:208|284:252,1,132.250002522469,4|0,3:0|3:0,3:0:0:0:
359,226,119518,2,0,P|335:165|328:100,1,132.250002522469,0|0,1:0|0:0,0:0:0:0:
380,40,119934,1,0,3:0:0:0:
408,112,120073,2,0,P|412:145|424:176,2,66.1250012612343,2|0|0,1:2|3:0|3:0,0:0:0:0:
256,40,120629,1,2,1:2:0:0:
104,112,120907,6,0,L|116:248,1,132.250002522469,4|0,0:0|1:0,0:0:0:0:
80,316,121323,1,0,3:0:0:0:
140,368,121462,2,0,P|176:376|256:332,1,132.250002522469,4|0,3:0|1:0,0:0:0:0:
404,276,122018,2,0,P|428:292|468:292,1,66.1250012612343,0|0,3:0|3:0,0:0:0:0:
452,216,122295,1,0,1:2:0:0:
372,204,122434,2,0,P|336:212|256:168,1,132.250002522469,4|0,3:0|0:0,0:0:0:0:
264,88,122851,1,2,1:2:0:0:
340,68,122990,1,0,0:0:0:0:
408,112,123129,6,0,L|396:248,1,132.250002522469,4|0,0:0|1:0,0:0:0:0:
432,316,123545,1,0,3:0:0:0:
372,368,123684,2,0,P|336:376|256:332,1,132.250002522469,4|0,3:0|1:0,0:0:0:0:
100,268,124240,2,0,P|144:192|180:168,1,132.250002522469,4|0,3:0|1:0,0:0:0:0:
256,192,124657,1,0,3:0:0:0:
332,215,124795,2,0,P|383:175|412:116,1,132.250002522469,8|2,3:0|1:2,0:0:0:0:
276,36,125351,6,0,B|216:56|216:56|148:52,1,132.250002522469,4|0,0:0|1:0,0:0:0:0:
68,52,125768,2,0,P|80:96|156:132,1,132.250002522469,4|0,3:0|0:0,0:0:0:0:
232,132,126184,1,2,1:2:0:0:
380,192,126462,1,4,3:0:0:0:
332,256,126601,1,0,3:0:0:0:
256,280,126740,1,0,1:0:0:0:
180,256,126879,1,0,3:0:0:0:
132,192,127018,2,0,P|64:184|8:212,1,132.250002522469,0|2,3:0|1:2,0:0:0:0:
36,368,127573,6,0,P|104:376|160:348,1,132.250002522469,4|0,0:0|1:2,0:0:0:0:
212,288,127990,1,0,0:0:0:0:
256,220,128129,2,0,B|280:156|232:156|256:92,2,132.250002522469,0|0|4,0:0|1:0|3:0,0:0:0:0:
300,288,128823,1,0,3:0:0:0:
352,348,128962,2,0,P|411:376|476:368,2,132.250002522469,0|2|2,1:0|3:2|1:2,0:0:0:0:
172,224,129795,6,0,P|212:184|332:224,2,198.375003783703,4|8|0,1:0|3:0|1:0,1:0:0:0:
92,364,130907,2,0,B|172:372|172:372|216:344,1,132.250002522469,4|0,3:0|1:0,0:0:0:0:
296,344,131323,2,0,B|340:372|340:372|420:364,1,132.250002522469,4|0,3:0|3:0,0:0:0:0:
419,364,131740,1,0,1:0:0:0:
420,204,132018,2,0,B|340:196|340:196|296:224,1,132.250002522469,4|0,3:0|1:0,0:0:0:0:
216,224,132434,2,0,B|172:196|172:196|92:204,1,132.250002522469,4|0,3:0|3:0,0:0:0:0:
92,203,132851,1,0,1:0:0:0:
368,176,133129,6,0,P|396:188|424:216,1,66.1250012612343,0|0,3:0|3:0,0:0:0:0:
188,88,133407,2,0,P|172:64|168:28,1,66.1250012612343,0|0,1:0|3:0,0:0:0:0:
344,27,133684,2,0,P|342:59|325:87,1,66.1250012612343,2|0,1:2|3:0,0:0:0:0:
91,212,133962,2,0,P|114:189|145:176,1,66.1250012612343,2|0,1:2|3:2,0:0:0:0:
320,280,134240,6,0,P|264:296|192:280,1,132.250002522469,4|0,1:0|1:0,0:0:0:0:
112,292,134657,2,0,P|56:268|28:204,1,132.250002522469,4|0,3:0|3:0,0:0:0:0:
44,128,135073,1,0,1:0:0:0:
200,96,135351,2,0,L|332:116,1,132.250002522469,8|0,3:0|1:0,0:0:0:0:
312,40,135768,2,0,L|180:20,1,132.250002522469,4|0,3:0|3:0,0:0:0:0:
124,76,136184,1,0,1:0:0:0:
256,192,136462,5,4,0:0:0:0:
388,308,136740,1,0,1:0:0:0:
330,363,136879,2,0,L|200:344,1,132.250002522469,4|0,3:0|3:0,0:0:0:0:
181,268,137295,2,0,L|312:288,1,132.250002522469,0|4,1:0|3:0,0:0:0:0:
456,200,137851,1,0,1:0:0:0:
456,200,137990,2,0,P|408:228|336:216,1,132.250002522469,4|0,3:0|0:0,0:0:0:0:
256,192,138407,1,0,1:0:0:0:
55,184,138684,6,0,P|113:154|176:168,1,132.250002522469,4|0,0:0|1:0,0:0:0:0:
256,192,139101,1,8,3:0:0:0:
336,332,139379,1,0,0:0:0:0:
336,332,139518,1,0,1:0:0:0:
176,332,139795,2,0,P|124:296|104:232,1,132.250002522469,4|0,0:0|1:0,0:0:0:0:
104,148,140212,1,8,3:0:0:0:
256,192,140490,1,0,3:0:0:0:
256,192,140629,1,0,1:0:0:0:
336,332,140907,6,0,P|388:296|408:232,1,132.250002522469,4|0,0:0|1:0,0:0:0:0:
408,148,141323,1,8,3:0:0:0:
256,192,141601,1,0,3:0:0:0:
256,192,141740,1,0,1:0:0:0:
192,48,142018,2,0,P|248:32|320:48,1,132.250002522469,4|0,0:0|1:0,0:0:0:0:
320,128,142434,2,0,P|264:144|192:128,1,132.250002522469,8|0,3:0|3:0,0:0:0:0:
120,100,142851,2,0,L|52:112,1,66.1250012612343,0|0,1:0|3:0,0:0:0:0:
4,204,143129,6,0,L|134:181,1,132.250002522469,4|0,1:0|1:0,0:0:0:0:
192,236,143545,2,0,B|220:252|244:252|244:252|268:252|268:252|292:252|320:236,1,132.250002522469,4|0,3:0|3:0,0:0:0:0:
377,181,143962,2,0,L|508:204,2,132.250002522469,0|4|0,1:0|3:0|1:0,0:0:0:0:
320,124,144657,2,0,B|292:140|268:140|268:140|244:140|244:140|220:140|192:124,1,132.250002522469,4|0,3:0|3:0,0:0:0:0:
124,84,145073,1,0,1:0:0:0:
317,80,145351,6,0,B|291:137|246:112|220:169,1,132.250002522469,4|0,0:0|1:0,0:0:0:0:
292,218,145768,2,0,B|268:272|223:248|197:304,1,132.250002522469,4|0,3:0|3:0,0:0:0:0:
224,377,146184,1,0,1:2:0:0:
316,304,146462,2,0,B|290:248|245:272|221:218,1,132.250002522469,4|0,0:0|1:0,0:0:0:0:
293,166,146879,2,0,B|267:112|222:137|196:80,1,132.250002522469,4|0,3:0|3:0,0:0:0:0:
224,6,147295,1,0,1:0:0:0:
396,108,147573,6,0,B|424:168|424:168|400:192|396:228,1,132.250002522469,4|0,0:0|1:0,0:0:0:0:
456,288,147990,2,0,P|396:312|336:288,1,132.250002522469,8|0,3:0|3:0,0:0:0:0:
272,228,148407,1,0,1:0:0:0:
116,276,148684,2,0,B|88:216|88:216|112:192|116:156,1,132.250002522469,4|0,0:0|1:0,0:0:0:0:
56,96,149101,2,0,P|116:72|176:96,1,132.250002522469,8|0,3:0|3:0,0:0:0:0:
240,156,149518,1,0,1:0:0:0:
320,280,149795,38,0,B|256:296|256:296|192:280,1,132.250002522469,4|0,0:0|1:0,0:0:0:0:
192,360,150212,2,0,B|256:376|256:376|320:360,1,132.250002522469,8|0,3:0|3:0,0:0:0:0:
388,316,150629,1,0,1:0:0:0:
256,220,150907,1,4,2:0:0:0:
96,272,151184,22,0,P|72:256|36:240,1,66.1250012612343,0|0,1:0|0:0,0:0:0:0:
256,152,151462,2,0,L|256:84,1,66.1250012612343,0|0,1:0|0:0,0:0:0:0:
416,272,151740,2,0,P|440:256|476:240,1,66.1250012612343,0|0,1:0|3:0,0:0:0:0:
256,368,152018,1,4,3:2:0:0:
116,228,169101,53,8,3:0:0:0:
116,228,169240,1,0,1:0:0:0:
256,264,169518,1,0,1:0:0:0:
396,300,169795,1,4,1:0:0:0:
500,212,170073,5,0,1:0:0:0:
500,212,170212,2,0,P|452:168|388:164,1,132.250002522469,4|0,3:0|3:0,0:0:0:0:
320,208,170629,1,0,1:0:0:0:
192,108,170907,1,0,3:0:0:0:
256,154,171045,1,0,3:0:0:0:
321,108,171184,1,0,1:0:0:0:
296,32,171323,1,4,3:0:0:0:
217,32,171462,1,0,3:0:0:0:
192,208,171740,1,2,1:2:0:0:
11,212,172018,6,0,P|59:168|124:164,1,132.250002522469,4|0,2:0|1:0,0:0:0:0:
196,132,172434,2,0,P|256:144|296:200,1,132.250002522469,4|0,3:0|3:0,0:0:0:0:
256,268,172851,1,0,1:0:0:0:
256,268,172990,1,0,3:0:0:0:
216,199,173129,2,0,P|252:145|316:132,1,132.250002522469,4|0,3:0|1:0,0:0:0:0:
392,156,173545,1,8,3:0:0:0:
452,208,173684,1,0,3:0:0:0:
256,364,173962,1,2,1:2:0:0:
60,208,174240,6,0,P|56:136|96:96,1,132.250002522469,4|0,0:0|1:0,0:0:0:0:
170,120,174657,2,0,P|177:184|135:232,1,132.250002522469,4|0,3:0|3:0,0:0:0:0:
80,288,175073,2,0,P|84:332|92:356,1,66.1250012612343,0|0,1:0|3:0,0:0:0:0:
168,336,175351,2,0,B|196:352|218:378|218:378|250:366|283:367,1,132.250002522469,4|0,3:0|1:0,0:0:0:0:
364,372,175768,1,0,3:0:0:0:
440,348,175907,1,8,3:0:0:0:
480,280,176045,1,4,3:0:0:0:
480,200,176184,1,2,1:2:0:0:
320,168,176462,6,0,L|192:200,1,132.250002522469,4|0,0:0|1:0,0:0:0:0:
191,200,176879,1,4,3:0:0:0:
188,40,177157,1,0,3:0:0:0:
188,40,177295,2,0,L|316:72,1,132.250002522469,0|4,1:0|3:0,0:0:0:0:
392,92,177712,1,0,3:0:0:0:
468,112,177851,1,0,1:0:0:0:
484,192,177990,1,0,3:0:0:0:
468,272,178129,2,0,P|404:312|352:300,1,132.250002522469,8|2,3:0|1:2,0:0:0:0:
160,300,178684,6,0,P|96:309|44:271,1,132.250002522469,4|0,0:0|1:0,0:0:0:0:
116,232,179101,2,0,B|140:220|168:220|168:220|172:180|204:152,1,132.250002522469,4|0,3:0|3:0,0:0:0:0:
204,152,179518,1,0,1:0:0:0:
308,232,179795,2,0,B|340:204|344:164|344:164|372:164|396:152,1,132.250002522469,4|0,3:0|1:0,0:0:0:0:
468,112,180212,1,0,3:0:0:0:
472,32,180351,2,0,B|404:36|404:36|340:24,1,132.250002522469,4|2,3:0|1:2,0:0:0:0:
172,24,180907,6,0,B|108:36|108:36|40:32,1,132.250002522469,4|0,0:0|1:0,0:0:0:0:
16,108,181323,2,0,B|44:136|72:144|100:152|128:180,1,132.250002522469,4|0,3:0|3:0,0:0:0:0:
144,256,181740,1,0,1:0:0:0:
256,368,182018,1,0,0:0:0:0:
368,256,182295,1,0,1:0:0:0:
292,228,182434,1,0,0:0:0:0:
256,156,182573,2,0,B|248:112|248:112|264:72|264:72|256:28,1,132.250002522469,4|2,3:0|1:2,0:0:0:0:
380,128,183129,6,0,L|512:108,1,132.250002522469,4|0,0:0|1:0,0:0:0:0:
472,192,183545,2,0,L|340:212,1,132.250002522469,4|0,3:0|3:0,0:0:0:0:
256,172,183962,1,2,1:2:0:0:
132,256,184240,2,0,L|0:276,1,132.250002522469,4|0,0:0|1:0,0:0:0:0:
40,192,184657,2,0,L|172:172,1,132.250002522469,4|0,3:0|3:0,0:0:0:0:
256,212,185073,1,2,1:2:0:0:
320,356,185351,38,0,P|264:372|192:356,1,132.250002522469,4|0,0:0|1:0,0:0:0:0:
152,288,185768,2,0,P|166:231|216:177,1,132.250002522469,4|0,3:0|3:0,0:0:0:0:
296,177,186184,2,0,P|342:224|360:288,1,132.250002522469,2|4,1:2|0:0,0:0:0:0:
512,248,186740,22,0,P|464:232|448:220,1,66.1250012612343,0|0,1:0|0:0,0:0:0:0:
256,24,187018,2,0,L|256:92,1,66.1250012612343,0|0,1:0|0:0,0:0:0:0:
0,248,187295,2,0,P|48:232|64:220,1,66.1250012612343,2|0,1:2|0:0,0:0:0:0:
340,68,187573,6,0,L|332:204,1,132.250002522469,4|0,1:0|1:0,0:0:0:0:
336,280,187990,1,8,3:0:0:0:
176,280,188268,1,0,3:0:0:0:
180,200,188407,2,0,L|172:67,2,132.250002522469,0|4|0,1:0|0:0|1:0,0:0:0:0:
256,176,189101,2,0,B|264:224|248:256|256:308,1,132.250002522469,4|0,3:0|3:0,0:0:0:0:
316,356,189518,2,0,P|240:384|200:360,1,132.250002522469,0|4,1:0|0:0,0:0:0:0:
128,212,190073,5,0,1:0:0:0:
48,228,190212,1,8,3:0:0:0:
48,84,190490,1,0,3:0:0:0:
128,100,190629,1,0,1:0:0:0:
256,56,190907,1,4,0:0:0:0:
384,100,191184,1,0,1:0:0:0:
464,84,191323,1,4,3:0:0:0:
464,228,191601,1,0,3:0:0:0:
384,212,191740,1,0,1:0:0:0:
256,260,192018,5,4,0:0:0:0:
196,112,192295,1,0,1:0:0:0:
144,172,192434,2,0,P|60:211|28:196,1,132.250002522469,8|0,3:0|3:0,0:0:0:0:
76,132,192851,2,0,B|96:72|96:72|160:48,1,132.250002522469,0|4,1:0|0:0,0:0:0:0:
316,112,193407,1,0,1:0:0:0:
368,172,193545,2,0,P|452:211|484:196,1,132.250002522469,4|0,3:0|3:0,0:0:0:0:
436,132,193962,2,0,B|416:72|416:72|352:48,1,132.250002522469,0|4,1:0|0:0,0:0:0:0:
216,100,194518,5,0,1:0:0:0:
216,100,194657,1,8,3:0:0:0:
296,236,194934,1,0,3:0:0:0:
216,236,195073,1,0,1:0:0:0:
296,100,195351,1,4,0:0:0:0:
376,236,195629,1,0,1:0:0:0:
376,236,195768,1,4,3:0:0:0:
256,328,196045,1,0,3:0:0:0:
256,328,196184,1,0,1:0:0:0:
136,236,196462,1,4,0:0:0:0:
256,192,196740,12,0,200768,0:0:0:0:
