osu file format v14

[General]
AudioFilename: linkin-park-castle-of-glass-2012.mp3
AudioLeadIn: 0
PreviewTime: 115907
Countdown: 0
SampleSet: Soft
StackLeniency: 0.7
Mode: 0
LetterboxInBreaks: 0
WidescreenStoryboard: 0

[Editor]
Bookmarks: 36472,71992,89769,98648,116426,134204,151982,168926,169759,187537,196426
DistanceSpacing: 1.2
BeatDivisor: 4
GridSize: 4
TimelineZoom: 1

[Metadata]
Title:Castle of Glass
TitleUnicode:Castle of Glass
Artist:Linkin Park
ArtistUnicode:Linkin Park
Creator:narakucrimson
Version:Hard
Source:Medal of Honor: Warfighter
Tags:Aleks719 Living Things
BeatmapID:354514
BeatmapSetID:140152

[Difficulty]
HPDrainRate:6
CircleSize:3.9
OverallDifficulty:6.5
ApproachRate:7
SliderMultiplier:0.95
SliderTickRate:1

[Events]
//Background and Video events
0,0,"LP_TeaserThumbnail.jpg",0,0
//Break Periods
2,152218,168280
//Storyboard Layer 0 (Background)
//Storyboard Layer 1 (Fail)
//Storyboard Layer 2 (Pass)
//Storyboard Layer 3 (Foreground)
//Storyboard Sound Samples

[TimingPoints]
907,277.777777777778,4,2,0,60,1,0
36297,-125,4,2,0,40,0,0
36990,-125,4,2,0,30,0,0
40740,-125,4,2,0,40,0,0
41434,-125,4,2,0,30,0,0
45176,-125,4,2,0,40,0,0
45871,-125,4,2,0,30,0,0
49623,-125,4,2,0,40,0,0
50315,-125,4,2,0,30,0,0
52259,-142.857142857143,4,2,0,30,0,0
53787,-125,4,2,0,40,0,0
54067,-125,4,2,0,60,0,0
71426,-100,4,2,0,70,0,0
89623,-90.9090909090909,4,2,0,70,0,0
133301,-90.9090909090909,4,2,0,75,0,0
133579,-90.9090909090909,4,2,0,80,0,0
133857,-90.9090909090909,4,2,0,85,0,0
134134,-90.9090909090909,4,2,0,90,0,0
134273,-90.9090909090909,4,2,0,80,0,0
151912,-90.9090909090909,4,2,0,60,0,0
169795,-90.9090909090909,4,2,0,80,0,1
187573,-90.9090909090909,4,2,0,80,0,0
196287,-90.9090909090909,4,2,0,60,0,0
196634,-90.9090909090909,4,2,0,40,0,0
200662,-90.9090909090909,4,2,0,5,0,0

[Colours]
Combo1 : 214,194,120
Combo2 : 53,137,200
Combo3 : 180,101,14
Combo4 : 149,162,176

[HitObjects]
72,292,36462,5,4,3:3:0:0:
72,292,36879,2,0,P|124:288|168:248,1,114,12|2,3:0|2:3,0:0:0:0:
256,280,37573,1,0,0:0:0:0:
344,248,37851,1,2,3:0:0:0:
344,248,38129,2,0,P|368:208|344:112,1,152,0|4,0:0|3:0,0:0:0:0:
228,160,39101,6,0,B|208:164|188:180|188:180|116:176,1,114,0|2,3:0|2:3,0:0:0:0:
119,176,39795,1,4,3:0:0:0:
284,224,40212,2,0,B|304:220|324:204|324:204|396:208,1,114,0|2,3:0|2:3,0:0:0:0:
484,216,40907,5,4,3:3:0:0:
448,84,41323,2,0,P|400:108|340:108,1,114,12|2,3:3|2:3,0:0:0:0:
256,68,42018,2,0,L|180:76,1,76,0|2,3:0|0:3,0:0:0:0:
184,168,42573,2,0,B|208:176|236:180|236:180|276:204|276:204|304:208|328:216,1,152,0|4,0:0|3:0,0:0:0:0:
436,296,43545,6,0,P|388:332|336:332,1,114,4|4,3:0|2:3,0:0:0:0:
256,288,44240,1,4,3:0:0:0:
76,296,44657,2,0,P|124:332|176:332,1,114,4|4,3:0|2:3,0:0:0:0:
156,236,45351,5,12,0:3:0:0:
175,99,45768,2,0,P|143:79|106:72,1,76,12|0,0:3|0:0,0:0:0:0:
256,84,46462,2,0,L|256:160,1,76,12|2,0:3|3:0,0:0:0:0:
336,99,47018,2,0,P|368:79|405:72,1,76,12|2,0:3|3:0,0:0:0:0:
464,144,47573,6,0,L|476:260,1,114,12|4,0:3|3:0,0:0:0:0:
348,304,48407,1,2,3:0:0:0:
348,304,48684,2,0,L|336:188,1,114,12|4,0:3|3:0,0:0:0:0:
324,52,49518,1,2,3:0:0:0:
232,104,49795,6,0,P|164:104|128:76,1,114,12|12,3:0|3:0,0:0:0:0:
32,172,50629,2,0,B|108:180,1,76,2|0,3:0|0:0,0:0:0:0:
152,260,51184,2,0,B|227:248,1,76,2|0,3:0|0:0,0:0:0:0:
290,313,51740,2,0,B|359:281,1,76,2|4,3:0|3:0,0:0:0:0:
332,168,52434,6,0,P|288:192|180:168,1,166.249994926453,2|4,3:0|3:0,0:0:0:0:
208,52,53545,2,0,P|240:40|304:52,1,99.7499969558717,2|4,3:0|3:0,0:0:0:0:
256,136,54240,6,0,B|256:252,1,114,12|12,3:0|3:0,0:0:0:0:
308,332,54934,2,0,P|280:348|204:332,1,114,0|4,0:0|3:0,0:0:0:0:
156,256,55629,1,0,0:0:0:0:
132,260,55768,1,4,3:0:0:0:
108,264,55907,2,0,L|36:240,1,76,0|2,0:0|3:0,0:0:0:0:
104,180,56462,6,0,B|164:180|164:180|212:156,1,114,4|4,3:0|3:0,0:0:0:0:
348,92,57295,1,2,3:0:0:0:
408,180,57573,2,0,B|348:180|348:180|300:156,1,114,4|4,3:0|3:0,0:0:0:0:
164,92,58407,1,2,3:0:0:0:
76,120,58684,6,0,P|72:176|100:228,1,114,12|4,3:0|3:0,0:0:0:0:
188,220,59379,2,0,B|212:234|232:256|232:256|259:247|288:246,1,114,0|4,3:0|3:0,0:0:0:0:
380,244,60073,1,2,3:0:0:0:
468,264,60351,2,0,P|488:188|468:120,1,152,0|4,3:0|3:0,0:0:0:0:
336,84,61323,6,0,B|300:92|272:108|272:108|224:104,1,114,4|2,3:0|3:0,0:0:0:0:
256,192,62018,1,4,3:0:0:0:
176,300,62434,2,0,B|212:292|240:276|240:276|288:280,1,114,4|2,3:0|3:0,0:0:0:0:
368,236,63129,6,0,P|396:252|472:236,1,114,12|4,3:0|3:0,0:0:0:0:
472,148,63823,2,0,P|444:132|368:148,1,114,2|4,3:0|3:0,0:0:0:0:
288,192,64518,1,2,3:0:0:0:
204,156,64795,2,0,B|192:80,1,76,0|2,3:3|3:0,0:0:0:0:
108,112,65351,6,0,L|128:232,2,114,4|4|2,3:0|3:0|3:0,0:0:0:0:
24,144,66462,2,0,L|44:264,2,114,4|4|2,3:0|3:0|3:0,0:0:0:0:
80,56,67573,6,0,P|132:96|180:100,1,114,4|4,3:0|3:0,0:0:0:0:
268,88,68268,2,0,P|320:128|368:132,1,114,0|4,3:0|3:0,0:0:0:0:
452,104,68962,1,2,3:0:0:0:
504,176,69240,1,0,3:0:0:0:
452,248,69518,1,2,3:0:0:0:
367,220,69795,5,12,3:0:0:0:
256,272,70212,1,4,3:0:0:0:
144,220,70629,1,4,3:0:0:0:
188,88,71740,5,4,3:0:0:0:
188,88,72018,2,0,P|236:104|324:88,1,142.5,12|4,3:0|3:0,0:0:0:0:
352,76,72573,2,0,L|452:92,1,95,0|2,0:0|3:0,0:0:0:0:
484,200,73129,2,0,L|340:176,1,142.5,12|4,3:0|3:0,0:0:0:0:
312,172,73684,1,0,0:0:0:0:
216,232,73962,1,2,3:0:0:0:
120,292,74240,6,0,P|88:256|84:164,1,142.5,12|4,3:0|3:0,0:0:0:0:
248,116,75073,1,2,3:0:0:0:
248,116,75351,2,0,P|280:152|284:244,1,142.5,12|4,3:0|3:0,0:0:0:0:
272,272,75907,1,0,0:0:0:0:
364,336,76184,1,2,3:0:0:0:
476,316,76462,6,0,B|508:176,2,142.5,12|4|2,3:0|3:0|3:0,0:0:0:0:
340,316,77573,2,0,B|296:328|256:360|256:360|216:328|172:316,1,190,4|4,3:0|3:0,0:0:0:0:
160,200,78407,1,2,3:0:0:0:
188,84,78684,6,0,B|256:64|256:64|324:84,1,142.5,12|4,3:0|3:0,0:0:0:0:
392,224,79518,1,2,3:0:0:0:
324,316,79795,2,0,B|256:336|256:336|188:316,1,142.5,12|4,3:0|3:0,0:0:0:0:
120,176,80629,1,2,3:0:0:0:
136,48,80907,6,0,P|208:48|264:88,1,142.5,12|4,3:0|3:0,0:0:0:0:
280,112,81462,1,0,0:0:0:0:
296,224,81740,1,2,3:0:0:0:
256,332,82018,1,12,3:0:0:0:
256,332,82434,2,0,P|184:332|128:292,1,142.5,4|2,3:0|3:0,0:0:0:0:
164,184,83129,6,0,B|132:120|132:120|164:56,1,142.5,12|4,3:0|3:0,0:0:0:0:
256,224,83962,1,2,3:0:0:0:
348,184,84240,2,0,B|380:120|380:120|348:56,2,142.5,12|8|2,3:0|3:0|3:0,0:0:0:0:
432,264,85351,6,0,P|312:368|232:308,1,285,12|2,3:0|3:0,0:0:0:0:
280,180,86462,2,0,P|162:121|79:223,1,285,12|2,3:0|3:0,0:0:0:0:
188,296,87573,6,0,B|224:292|224:292|256:276|256:276|288:292|288:292|324:296,2,142.5,12|4|2,3:0|3:0|3:0,0:0:0:0:
188,296,88684,1,4,3:0:0:0:
432,208,89795,6,0,P|480:156|488:72,2,156.750004783631,4|2|0,1:0|3:0|1:0,0:0:0:0:
308,192,90907,2,0,B|280:192|256:200|256:200|232:192|204:192,1,104.500003189087,4|0,3:0|1:0,0:0:0:0:
180,208,91323,2,0,P|110:255|42:239,1,156.750004783631,8|0,3:0|1:0,0:0:0:0:
16,120,92018,6,0,P|85:72|153:88,1,156.750004783631,4|4,0:0|3:0,0:0:0:0:
308,192,92851,1,0,1:0:0:0:
412,264,93129,2,0,P|456:232|468:184,1,104.500003189087,8|0,3:0|1:0,0:0:0:0:
456,156,93545,2,0,B|380:128|380:128|332:68,1,156.750004783631,4|0,3:0|1:0,0:0:0:0:
179,68,94240,6,0,B|132:128|132:128|56:156,2,156.750004783631,4|4|0,0:0|3:0|1:0,0:0:0:0:
312,68,95351,2,0,P|328:128|312:164,1,104.500003189087,4|0,3:0|1:0,0:0:0:0:
296,192,95768,2,0,P|352:236|436:244,1,156.750004783631,0|0,0:0|1:0,0:0:0:0:
508,344,96462,6,4,B|352:356,1,156.750004783631,4|8,3:2|3:0,3:0:0:0:
256,224,97295,1,0,1:0:0:0:
256,224,97573,1,4,3:2:0:0:
160,356,97990,2,4,B|4:344,1,156.750004783631,4|0,3:0|1:0,3:0:0:0:
12,220,98684,6,4,B|116:228,1,104.500003189087,4|0,1:0|1:0,3:0:0:0:
148,216,99101,2,0,P|188:256|284:256,1,156.750004783631,8|0,3:0|1:0,0:0:0:0:
396,228,99795,2,0,B|500:220,2,104.500003189087,8|0|0,3:0|1:0|3:0,0:0:0:0:
328,124,100629,1,0,1:0:0:0:
204,156,100907,6,0,B|160:164|132:184|132:184|104:164|60:156,2,156.750004783631,8|0|0,3:0|3:0|1:0,0:0:0:0:
308,220,102018,2,0,B|352:212|380:192|380:192|408:212|452:220,2,156.750004783631,8|0|0,3:0|3:0|1:0,0:0:0:0:
188,304,103129,6,0,P|244:336|324:304,1,156.750004783631,4|4,0:0|3:0,0:0:0:0:
364,184,103823,1,0,3:0:0:0:
364,184,103962,1,0,1:0:0:0:
256,120,104240,1,0,0:0:0:0:
148,184,104518,2,0,P|96:180|52:152,1,104.500003189087,0|0,1:0|3:0,0:0:0:0:
56,28,105073,1,0,1:0:0:0:
180,52,105351,6,0,B|232:60|232:60|280:44|280:44|332:52,2,156.750004783631,8|4|0,3:0|3:0|1:0,0:0:0:0:
59,77,106462,2,0,P|79:150|148:184,1,156.750004783631,8|4,3:0|3:0,0:0:0:0:
256,120,107157,1,0,3:0:0:0:
256,120,107295,1,0,1:0:0:0:
364,184,107573,6,0,B|408:216|408:216|460:216,1,104.500003189087,4|0,0:0|1:0,0:0:0:0:
488,208,107990,2,0,P|504:272|460:348,1,156.750004783631,4|0,3:0|1:0,0:0:0:0:
344,300,108684,1,4,3:0:0:0:
256,212,108962,1,0,1:0:0:0:
168,300,109240,1,0,3:0:0:0:
52,348,109518,1,0,1:0:0:0:
52,348,109795,6,0,P|10:283|24:208,1,156.750004783631,8|4,3:0|3:0,0:0:0:0:
132,56,110629,1,0,1:0:0:0:
256,72,110907,2,0,B|256:176,1,104.500003189087,8|0,3:0|1:0,0:0:0:0:
256,208,111323,2,0,B|256:312,1,104.500003189087,4|0,3:0|0:0,0:0:0:0:
256,344,111740,1,0,1:0:0:0:
376,300,112018,6,0,P|460:304|500:252,1,156.750004783631,4|8,3:2|3:0,0:0:0:0:
400,172,112712,1,0,3:0:0:0:
400,172,112851,2,0,P|344:192|312:224,1,104.500003189087,0|4,1:0|3:0,0:0:0:0:
276,336,113407,2,0,P|256:280|224:248,1,104.500003189087,0|0,1:0|3:0,0:0:0:0:
112,212,113962,2,0,P|168:192|200:160,1,104.500003189087,0|8,1:0|3:0,0:0:0:0:
236,48,114518,5,0,1:0:0:0:
236,48,114657,2,0,P|256:104|288:136,1,104.500003189087,4|0,3:0|3:0,0:0:0:0:
308,144,115073,1,0,1:0:0:0:
256,256,115351,1,12,3:0:0:0:
20,104,116462,22,0,L|28:208,1,104.500003189087,4|0,0:0|1:0,0:0:0:0:
140,152,117018,2,0,L|144:260,1,104.500003189087,4|0,3:0|1:0,0:0:0:0:
256,196,117573,2,0,L|256:352,1,156.750004783631,4|4,3:0|3:0,0:0:0:0:
368,256,118407,2,0,L|372:152,1,104.500003189087,0|4,1:0|2:0,0:0:0:0:
492,104,118962,5,0,1:0:0:0:
492,104,119101,2,0,L|480:264,1,156.750004783631,8|0,3:0|1:0,0:0:0:0:
360,256,119795,2,0,P|304:288|264:292,1,104.500003189087,4|0,3:0|1:0,0:0:0:0:
152,256,120351,1,4,3:0:0:0:
256,108,120629,1,2,1:2:0:0:
308,208,120907,6,0,P|256:220|204:208,1,104.500003189087,4|0,0:0|1:0,0:0:0:0:
188,196,121323,1,8,3:0:0:0:
68,116,121601,1,0,3:0:0:0:
68,116,121740,2,0,L|172:108,1,104.500003189087,0|4,1:0|3:0,0:0:0:0:
296,96,122295,1,0,1:2:0:0:
359,200,122573,1,0,0:0:0:0:
280,293,122851,1,2,1:2:0:0:
167,246,123129,5,4,0:0:0:0:
177,124,123407,1,0,1:0:0:0:
177,124,123545,1,8,3:0:0:0:
444,116,123962,2,0,L|340:108,1,104.500003189087,0|4,1:0|3:0,0:0:0:0:
408,212,124518,2,0,L|512:220,2,104.500003189087,0|8|2,1:0|3:0|1:2,0:0:0:0:
204,168,125351,6,0,B|204:228|256:256|308:284|308:344,1,209.000006378174,4|8,0:0|3:0,0:0:0:0:
204,341,126184,1,2,1:2:0:0:
204,341,126462,2,0,B|204:284|256:256|308:228|308:168,1,209.000006378174,4|4,3:0|3:0,0:0:0:0:
256,76,127295,1,2,1:2:0:0:
144,132,127573,6,0,P|144:248|208:308,1,209.000006378174,4|4,0:0|3:0,0:0:0:0:
256,192,128407,1,2,1:2:0:0:
304,76,128684,2,0,P|374:150|368:252,1,209.000006378174,8|12,3:0|3:0,0:0:0:0:
256,308,129518,1,2,1:2:0:0:
184,208,129795,38,0,B|128:220|128:220|76:232|32:208,2,156.750004783631,4|8|0,1:0|3:0|1:0,1:0:0:0:
328,208,130907,2,0,B|384:220|384:220|436:232|480:208,2,156.750004783631,8|4|0,3:3|3:0|1:0,1:0:0:0:
256,104,132018,1,4,3:0:0:0:
184,280,132434,2,0,P|276:304|328:280,1,156.750004783631,4|0,3:0|1:0,0:0:0:0:
256,176,133129,1,0,3:0:0:0:
164,88,133407,22,0,L|160:32,1,52.2500015945435,0|0,1:0|3:0,0:0:0:0:
256,8,133684,2,0,L|256:60,1,52.2500015945435,2|0,1:2|3:0,0:0:0:0:
348,88,133962,2,0,L|352:36,1,52.2500015945435,2|0,1:2|3:2,0:0:0:0:
432,120,134240,6,0,P|456:172|492:208,1,104.500003189087,4|0,1:0|1:0,0:0:0:0:
512,208,134657,2,0,P|484:272|408:304,1,156.750004783631,4|0,3:0|1:0,0:0:0:0:
320,216,135351,2,0,P|272:180|192:216,2,156.750004783631,8|4|0,3:0|3:0|1:0,0:0:0:0:
104,304,136462,6,0,P|33:277|0:209,1,156.750004783631,4|4,0:0|3:0,0:0:0:0:
148,128,137295,1,0,1:0:0:0:
148,128,137573,2,0,B|188:156|188:156|244:168,1,104.500003189087,8|0,3:0|1:0,0:0:0:0:
269,167,137990,2,0,B|323:155|323:155|363:127,1,104.500003189087,4|0,3:0|3:0,0:0:0:0:
384,112,138407,1,0,1:0:0:0:
228,52,138684,6,0,B|188:92|188:92|148:108|148:108|108:148,2,156.750004783631,4|8|0,0:0|3:0|1:0,0:0:0:0:
316,144,139795,2,0,B|276:184|276:184|236:200|236:200|196:240,2,156.750004783631,4|8|0,0:0|3:0|1:0,0:0:0:0:
404,236,140907,2,0,B|364:276|364:276|324:292|324:292|284:332,2,156.750004783631,4|8|0,0:0|3:0|1:0,0:0:0:0:
328,136,142018,2,0,B|292:156|292:156|256:164|256:164|220:156|220:156|184:136,1,156.750004783631,4|4,0:0|3:0,0:0:0:0:
256,32,142712,1,0,0:0:0:0:
256,32,142851,1,0,1:0:0:0:
124,80,143129,22,0,L|136:184,1,104.500003189087,4|0,1:0|1:0,0:0:0:0:
124,200,143545,1,0,0:0:0:0:
200,300,143823,1,0,0:0:0:0:
204,304,143962,2,0,L|308:304,2,104.500003189087,0|4|0,1:0|3:0|1:0,0:0:0:0:
184,296,144657,2,0,P|116:312|40:276,1,156.750004783631,0|0,3:0|1:0,0:0:0:0:
72,156,145351,6,0,B|120:176|120:176|172:176,1,104.500003189087,4|0,0:0|1:0,0:0:0:0:
192,188,145768,2,0,P|224:132|304:92,1,156.750004783631,4|0,3:0|1:0,0:0:0:0:
440,156,146462,2,0,B|392:176|392:176|340:176,1,104.500003189087,4|0,0:0|1:0,0:0:0:0:
320,188,146879,2,0,P|288:132|208:92,1,156.750004783631,4|0,3:0|1:0,0:0:0:0:
188,96,147434,1,0,0:0:0:0:
172,100,147573,6,0,P|124:97|76:68,1,104.500003189087,4|0,0:0|1:0,0:0:0:0:
60,48,147990,2,0,P|4:92|8:172,1,156.750004783631,8|0,3:0|1:0,0:0:0:0:
112,240,148684,2,0,P|159:242|208:272,1,104.500003189087,4|0,0:0|1:0,0:0:0:0:
224,288,149101,2,0,L|380:276,1,156.750004783631,8|0,3:0|1:0,0:0:0:0:
400,144,149795,2,0,P|352:141|304:112,1,104.500003189087,4|0,0:0|1:0,0:0:0:0:
288,96,150212,2,0,L|132:108,1,156.750004783631,8|0,3:0|1:0,0:0:0:0:
92,228,150907,1,4,2:0:0:0:
184,340,151184,6,0,P|212:332|232:316,1,52.2500015945435,0|0,1:0|0:0,0:0:0:0:
243,193,151462,2,0,P|235:221|239:246,1,52.2500015945435,0|0,1:0|0:0,0:0:0:0:
340,318,151740,2,0,P|319:297|295:288,1,52.2500015945435,0|0,1:0|0:0,0:0:0:0:
184,340,152018,1,4,3:2:0:0:
256,192,169240,5,0,1:0:0:0:
204,280,169518,1,0,1:0:0:0:
308,280,169795,2,0,P|360:308|408:312,1,104.500003189087,4|0,1:0|1:0,0:0:0:0:
424,308,170212,1,0,3:0:0:0:
508,216,170490,1,0,0:0:0:0:
508,216,170629,1,0,1:0:0:0:
492,92,170907,2,0,P|428:56|352:80,1,156.750004783631,4|4,3:0|3:0,0:0:0:0:
336,96,171462,1,0,3:0:0:0:
256,192,171740,1,2,1:2:0:0:
360,264,172018,6,0,L|332:364,1,104.500003189087,4|0,2:0|1:0,0:0:0:0:
304,376,172434,2,0,P|268:360|208:376,1,104.500003189087,8|0,3:0|0:0,0:0:0:0:
180,364,172851,2,0,L|152:264,1,104.500003189087,0|4,1:0|3:0,0:0:0:0:
28,276,173407,2,0,L|0:176,2,104.500003189087,0|4|2,1:0|3:0|1:2,0:0:0:0:
152,264,174240,6,0,P|204:320|304:180,1,313.500009567261,4|0,0:0|1:0,0:0:0:0:
192,128,175351,2,0,P|176:96|192:32,1,104.500003189087,4|0,3:0|1:0,0:0:0:0:
319,31,175907,2,0,P|337:79|320:128,1,104.500003189087,8|2,3:0|1:2,0:0:0:0:
207,180,176462,6,0,P|232:315|360:264,1,313.500009567261,4|0,0:0|1:0,0:0:0:0:
512,176,177573,2,0,L|484:276,1,104.500003189087,4|0,3:0|1:0,0:0:0:0:
468,288,177990,1,4,3:0:0:0:
452,296,178129,1,0,3:0:0:0:
340,240,178407,1,2,1:2:0:0:
172,240,178684,6,0,P|108:240|76:216,1,104.500003189087,4|0,0:0|1:0,0:0:0:0:
64,196,179101,2,0,B|64:140|64:140|64:80|100:48,1,156.750004783631,8|0,3:0|1:0,0:0:0:0:
220,76,179795,1,4,3:0:0:0:
332,132,180073,1,0,1:0:0:0:
332,132,180212,1,4,3:0:0:0:
180,252,180629,1,2,1:2:0:0:
292,308,180907,5,4,3:2:0:0:
412,335,181184,1,0,1:0:0:0:
412,335,181323,2,0,B|448:304|448:244|448:244|448:188,1,156.750004783631,8|0,3:0|1:0,0:0:0:0:
404,72,182018,2,0,B|384:91|358:100|358:100|350:125|330:145,1,104.500003189087,4|0,3:0|1:0,0:0:0:0:
179,143,182573,2,0,B|161:125|153:100|153:100|127:91|108:72,1,104.500003189087,8|0,3:0|1:0,0:0:0:0:
256,84,183129,6,0,B|256:108|264:132|264:132|248:188|248:188|256:212|256:236,2,156.750004783631,4|8|2,0:0|3:0|1:2,0:0:0:0:
332,184,184240,2,0,P|384:220|476:224,2,156.750004783631,4|8|2,0:0|3:0|1:2,0:0:0:0:
180,184,185351,2,0,P|128:220|36:224,2,156.750004783631,4|8|2,0:0|3:0|1:2,0:0:0:0:
256,84,186462,1,4,3:0:0:0:
352,192,186740,6,0,P|360:219|372:248,1,52.2500015945435,0|0,1:0|0:0,0:0:0:0:
256,232,187018,2,0,L|256:284,1,52.2500015945435,0|0,1:0|0:0,0:0:0:0:
160,192,187295,2,0,P|152:220|140:248,1,52.2500015945435,2|0,1:2|0:0,0:0:0:0:
24,300,187573,6,0,P|-4:228|24:156,1,156.750004783631,4|8,1:0|3:0,0:0:0:0:
96,56,188268,1,0,3:0:0:0:
96,56,188407,2,0,B|144:48|144:48|204:8,1,104.500003189087,0|4,1:0|0:0,0:0:0:0:
320,16,188962,1,0,1:0:0:0:
320,16,189101,2,0,B|366:46|366:46|414:54,1,104.500003189087,4|0,3:0|3:0,0:0:0:0:
436,52,189518,1,0,1:0:0:0:
488,156,189795,6,0,P|515:228|488:300,1,156.750004783631,4|8,3:2|3:0,0:0:0:0:
364,288,190490,1,0,3:0:0:0:
364,288,190629,1,0,1:0:0:0:
256,224,190907,1,4,0:0:0:0:
148,288,191184,1,0,1:0:0:0:
148,288,191323,1,4,3:0:0:0:
256,384,191740,1,0,1:0:0:0:
376,344,192018,6,0,P|392:284|412:244,1,104.500003189087,4|0,0:0|1:0,0:0:0:0:
424,220,192434,2,0,P|424:128|376:92,1,156.750004783631,8|0,3:0|1:0,0:0:0:0:
256,124,193129,1,4,3:2:0:0:
136,92,193407,1,0,1:0:0:0:
136,92,193545,2,0,P|81:144|89:219,1,156.750004783631,4|0,3:0|1:0,0:0:0:0:
208,272,194240,6,0,B|232:280|256:292|256:292|280:280|304:272,1,104.500003189087,4|0,0:0|1:0,0:0:0:0:
328,272,194657,1,8,3:0:0:0:
256,100,195073,1,0,1:0:0:0:
256,100,195351,1,4,0:0:0:0:
128,216,195629,5,0,1:0:0:0:
256,268,195907,1,0,3:0:0:0:
384,216,196184,1,0,1:0:0:0:
384,216,196462,1,4,0:0:0:0:
256,192,196740,12,0,200768,0:0:0:0:
