osu file format v14

[General]
AudioFilename: audio.mp3
AudioLeadIn: 0
PreviewTime: 37663
Countdown: 0
SampleSet: Normal
StackLeniency: 0.4
Mode: 0
LetterboxInBreaks: 0
WidescreenStoryboard: 0

[Editor]
DistanceSpacing: 1
BeatDivisor: 4
GridSize: 32
TimelineZoom: 1.6

[Metadata]
Title:By Myself
TitleUnicode:By Myself
Artist:Linkin Park
ArtistUnicode:Linkin Park
Creator:pw384
Version:Thoughts of Failure
Source:
Tags:Hybrid Theory nu metal alternative English rock 384059043
BeatmapID:2405587
BeatmapSetID:1152507

[Difficulty]
HPDrainRate:6
CircleSize:4
OverallDifficulty:8
ApproachRate:7.5
SliderMultiplier:2
SliderTickRate:1

[Events]
//Background and Video events
0,0,"bg.jpg",0,0
//Break Periods
2,67267,76043
2,114401,131130
//Storyboard Layer 0 (Background)
//Storyboard Layer 1 (Fail)
//Storyboard Layer 2 (Pass)
//Storyboard Layer 3 (Foreground)
//Storyboard Layer 4 (Overlay)
//Storyboard Sound Samples

[TimingPoints]
931,581.902822228688,4,1,1,75,1,0
931,-50,4,1,1,75,0,0
1512,-41.6666666666667,4,1,1,75,0,0
2822,-50,4,1,1,75,0,0
3840,-41.6666666666667,4,1,1,75,0,0
5149,-50,4,1,1,75,0,0
6168,-35.7142857142857,4,1,1,75,0,0
7477,-50,4,1,1,75,0,0
8495,-35.7142857142857,4,1,1,75,0,0
9805,-50,4,1,1,75,0,0
10241,-83.3333333333333,4,1,1,52,0,0
28134,-83.3333333333333,4,1,1,75,0,0
28862,-66.6666666666667,4,1,1,58,0,0
33372,-66.6666666666667,4,1,1,62,0,0
33517,-58.8235294117647,4,1,1,62,0,0
35845,-50,4,1,1,65,0,0
38172,-41.6666666666667,4,1,1,75,0,0
38754,-31.25,4,1,1,75,0,0
40063,-41.6666666666667,4,1,1,75,0,0
41082,-62.5,4,1,1,75,0,0
42828,-41.6666666666667,4,1,1,75,0,0
43409,-31.25,4,1,1,75,0,0
44719,-41.6666666666667,4,1,1,75,0,0
45737,-62.5,4,1,1,75,0,0
47483,-62.5,4,1,1,75,0,1
51702,-41.6666666666667,4,1,1,75,0,1
52138,-62.5,4,1,1,75,0,1
56357,-41.6666666666667,4,1,1,75,0,1
56793,-62.5,4,1,1,75,0,1
61012,-41.6666666666667,4,1,1,75,0,1
61448,-62.5,4,1,1,75,0,1
64940,-83.3333333333333,4,1,1,75,0,1
67267,581.902822228688,4,1,1,75,1,0
76868,-83.3333333333333,4,1,1,75,0,0
77013,-83.3333333333333,4,1,1,52,0,0
81232,-62.5,4,1,1,52,0,0
81619,-62.5,4,1,1,62,0,0
84724,-50,4,1,1,62,0,0
84996,-50,4,1,1,68,0,0
85887,-41.6666666666667,4,1,1,68,0,0
86061,-41.6666666666667,4,1,1,75,0,0
86469,-31.25,4,1,1,75,0,0
87779,-41.6666666666667,4,1,1,75,0,0
88797,-50,4,1,1,75,0,0
89524,-62.5,4,1,1,75,0,0
90543,-41.6666666666667,4,1,1,75,0,0
91125,-31.25,4,1,1,75,0,0
92434,-41.6666666666667,4,1,1,75,0,0
93452,-50,4,1,1,75,0,0
94180,-62.5,4,1,1,75,0,0
95198,-62.5,4,1,1,75,0,1
99417,-41.6666666666667,4,1,1,75,0,1
99853,-62.5,4,1,1,75,0,1
104072,-41.6666666666667,4,1,1,75,0,1
104508,-62.5,4,1,1,75,0,1
108727,-41.6666666666667,4,1,1,75,0,1
109164,-62.5,4,1,1,75,0,1
112655,-83.3333333333333,4,1,1,75,0,1
113819,-83.3333333333333,4,1,1,75,0,0
132440,-166.666666666667,4,1,1,75,0,0
133022,-31.25,4,1,1,75,0,0
133749,-41.6666666666667,4,1,1,75,0,0
134767,-166.666666666667,4,1,1,75,0,0
135349,-31.25,4,1,1,75,0,0
135931,-41.6666666666667,4,1,1,75,0,0
137677,-31.25,4,1,1,75,0,0
138404,-41.6666666666667,4,1,1,75,0,0
139422,-166.666666666667,4,1,1,75,0,0
140004,-31.25,4,1,1,75,0,0
140586,-41.6666666666667,4,1,1,75,0,0
141750,-166.666666666667,4,1,1,75,0,0
142332,-31.25,4,1,1,75,0,0
143059,-41.6666666666667,4,1,1,75,0,0
144078,-166.666666666667,4,1,1,75,0,0
144660,-31.25,4,1,1,75,0,0
145241,-41.6666666666667,4,1,1,75,0,0
146987,-31.25,4,1,1,75,0,0
147715,-41.6666666666667,4,1,1,75,0,0
148733,-166.666666666667,4,1,1,75,0,0
149315,-31.25,4,1,1,75,0,0
149897,-50,4,1,1,75,0,0
150333,-41.6666666666667,4,1,1,75,0,0
150770,-62.5,4,1,1,75,0,0
153388,-62.5,4,1,1,75,0,1
155279,-41.6666666666667,4,1,1,75,0,1
155716,-62.5,4,1,1,75,0,1
159935,-41.6666666666667,4,1,1,75,0,1
160371,-62.5,4,1,1,75,0,1
164590,-41.6666666666667,4,1,1,75,0,1
165026,-62.5,4,1,1,75,0,1
173900,-41.6666666666667,4,1,1,75,0,1
174337,-62.5,4,1,1,75,0,1
178555,-41.6666666666667,4,1,1,75,0,1
178992,-62.5,4,1,1,75,0,1
183211,-41.6666666666667,4,1,1,75,0,1
183647,-62.5,4,1,1,75,0,1
187138,-166.666666666667,4,1,1,75,0,1
187720,-166.666666666667,4,1,1,75,0,0

[Colours]
Combo1 : 207,187,118
Combo2 : 170,105,74
Combo3 : 120,89,54

[HitObjects]
222,174,58,5,0,1:0:0:0:
405,120,203,1,2,1:3:0:0:
405,120,494,1,2,1:3:0:0:
405,120,785,1,2,1:3:0:0:
237,80,931,6,0,B|213:125|213:125|224:184,1,100,4|0,1:3|2:0,1:0:0:0:
389,213,1221,2,0,B|413:168|413:168|402:109,1,100,4|0,1:3|2:0,1:0:0:0:
173,6,1512,6,2,B|120:114|120:114|168:357|168:357|19:262|19:262|72:246,1,600,12|0,1:2|2:0,1:0:0:0:
239,281,2385,5,0,1:0:0:0:
406,316,2531,1,0,1:0:0:0:
239,281,2676,1,10,1:2:0:0:
406,316,2822,2,0,P|410:241|402:110,1,200,4|4,1:3|1:3,1:0:0:0:
269,10,3258,6,0,P|265:59|267:109,1,100,4|0,1:3|2:0,1:0:0:0:
378,213,3549,2,0,L|494:208,1,100,4|0,1:3|2:0,1:0:0:0:
268,111,3840,6,2,B|30:129|30:129|142:205|142:205|115:359|115:359|51:322,1,600,12|0,1:2|2:0,1:0:0:0:
0,267,4713,5,0,1:0:0:0:
235,300,4858,1,0,1:0:0:0:
55,325,5004,1,10,1:2:0:0:
235,300,5149,2,0,P|329:303|440:319,1,200,4|4,1:3|1:3,1:0:0:0:
327,201,5586,6,0,L|324:97,1,100,4|0,1:3|2:0,1:0:0:0:
500,43,5877,2,0,L|503:147,1,100,4|0,1:3|2:0,1:0:0:0:
327,201,6168,6,2,B|69:155|69:155|188:68|188:68|151:316|151:316|127:277,1,700,12|0,1:2|2:0,1:0:0:0:
83,182,7040,5,0,1:0:0:0:
266,156,7186,1,0,1:0:0:0:
83,182,7331,1,10,1:2:0:0:
327,201,7477,2,0,B|400:197|387:236|470:234|470:234|446:234|416:268,1,200,4|4,1:3|1:3,1:0:0:0:
282,361,7913,6,0,B|269:312|269:312|284:266,1,100,4|0,1:3|2:0,1:0:0:0:
450,145,8204,2,0,B|463:194|463:194|448:240,1,100,4|0,1:3|2:0,1:0:0:0:
197,318,8495,6,2,B|341:290|341:290|228:196|228:196|108:221|108:221|63:280|63:280|-6:194|-6:194|58:102,1,700,12|0,1:2|2:0,1:0:0:0:
110,31,9368,5,0,1:0:0:0:
331,68,9514,1,0,1:0:0:0:
162,90,9659,1,10,1:2:0:0:
375,5,9805,2,0,P|360:81|361:227,1,200,4|4,1:3|1:3,1:0:0:0:
449,63,10241,6,0,P|444:93|441:158,1,90.0000000000001,4|0,2:0|2:0,2:0:0:0:
452,167,10532,2,0,L|513:173,1,60,0|0,1:0|1:0,2:0:0:0:
446,306,10823,6,0,P|424:310|383:307,1,60,2|0,1:2|2:0,2:0:0:0:
317,285,11114,1,0,3:0:0:0:
317,285,11259,1,0,3:0:0:0:
200,336,11405,6,0,P|186:296|193:212,1,120,4|0,3:0|3:0,2:0:0:0:
223,155,11841,1,0,3:0:0:0:
338,188,11987,1,2,1:2:0:0:
182,225,12132,1,4,1:3:0:0:
182,225,12278,2,0,L|119:224,1,60,0|4,3:0|1:3,2:0:0:0:
23,60,12714,6,0,L|82:60,2,60,0|0|0,1:0|1:0|1:0,2:0:0:0:
109,219,13150,2,0,L|168:219,1,60,2|0,1:2|3:0,2:0:0:0:
254,118,13441,2,0,L|313:118,1,60,0|0,3:0|3:0,2:0:0:0:
313,118,13732,6,0,P|334:150|342:235,1,120,4|0,3:0|3:0,2:0:0:0:
314,297,14169,1,0,3:0:0:0:
418,213,14314,2,0,P|430:241|436:270,1,60,2|4,1:2|1:3,2:0:0:0:
331,353,14605,2,0,P|319:325|313:296,1,60,0|4,3:0|1:3,2:0:0:0:
360,158,14896,6,0,L|486:165,1,120,0|0,1:0|1:0,2:0:0:0:
300,113,15333,1,0,1:0:0:0:
230,131,15478,1,2,1:2:0:0:
230,131,15914,1,0,3:0:0:0:
92,220,16060,6,0,P|152:231|202:196,3,120,4|0|2|0,3:0|3:0|1:2|3:0,2:0:0:0:
198,200,17078,6,0,P|187:260|222:310,2,120,4|0|0,1:3|2:0|1:0,2:0:0:0:
250,149,17806,2,0,L|244:79,1,60,2|0,1:2|2:0,2:0:0:0:
113,143,18097,2,0,L|119:213,1,60,0|0,3:0|3:0,2:0:0:0:
270,225,18388,5,4,3:0:0:0:
341,218,18533,1,4,3:0:0:0:
412,211,18679,2,0,L|404:313,1,90.0000000000001,0|0,1:0|2:0,2:0:0:0:
393,317,18969,2,0,P|380:351|381:379,1,60,2|4,1:2|1:3,2:0:0:0:
482,284,19260,1,4,3:0:0:0:
482,284,19406,1,4,1:3:0:0:
482,284,19842,5,0,1:0:0:0:
393,317,19988,1,0,1:0:0:0:
325,293,20133,2,0,P|269:294|197:306,1,120,2|0,1:2|3:0,2:0:0:0:
146,345,20570,1,0,3:0:0:0:
21,285,20715,6,0,P|8:238|22:180,1,90.0000000000001,4|0,3:0|2:0,2:0:0:0:
26,185,21006,1,0,3:0:0:0:
26,185,21152,1,0,3:0:0:0:
70,52,21297,2,0,L|76:111,1,60,2|4,1:2|1:3,2:0:0:0:
94,235,21588,1,0,3:0:0:0:
94,235,21734,1,4,1:3:0:0:
94,235,22170,6,0,L|158:238,1,60,0|0,1:0|1:0,2:0:0:0:
217,203,22461,2,0,L|345:209,1,120,2|0,1:2|3:0,2:0:0:0:
397,247,22897,1,0,3:0:0:0:
323,134,23043,6,0,L|419:138,1,90.0000000000001,4|0,3:0|2:0,2:0:0:0:
432,139,23334,1,0,3:0:0:0:
432,139,23479,1,0,3:0:0:0:
270,21,23625,2,0,P|262:53|264:90,1,60,2|4,1:2|1:3,2:0:0:0:
329,267,23916,2,0,P|337:235|335:198,1,60,0|4,3:0|1:3,2:0:0:0:
336,208,24207,6,0,P|350:248|344:319,1,90.0000000000001,4|0,1:2|2:0,2:0:0:0:
335,313,24498,2,0,L|271:327,1,60,0|0,1:0|1:0,2:0:0:0:
109,292,24789,2,0,L|173:278,1,60,2|0,1:2|2:0,2:0:0:0:
335,313,25079,1,0,3:0:0:0:
335,313,25225,1,0,3:0:0:0:
181,367,25370,6,0,P|167:327|173:256,1,90.0000000000001,4|0,3:0|2:0,2:0:0:0:
178,269,25661,2,0,P|184:225|181:196,1,60,0|0,3:0|3:0,2:0:0:0:
126,73,25952,1,2,1:2:0:0:
126,73,26098,1,4,1:3:0:0:
62,112,26243,2,0,P|56:156|59:185,1,60,0|4,3:0|1:3,2:0:0:0:
178,269,26534,6,0,P|232:281|274:308,1,90.0000000000001,4|0,1:2|2:0,2:0:0:0:
267,307,26825,2,0,P|300:295|335:291,1,60,0|0,1:0|1:0,2:0:0:0:
432,218,27116,2,0,L|425:317,1,90.0000000000001,2|0,1:2|2:0,2:0:0:0:
432,321,27407,2,0,P|465:333|500:337,1,60,0|0,3:0|3:0,2:0:0:0:
432,218,27698,6,0,P|369:200|312:210,1,120,4|0,3:0|3:0,2:0:0:0:
199,93,28134,5,8,1:3:0:0:
124,81,28425,1,8,1:3:0:0:
49,69,28716,1,8,1:3:0:0:
321,213,28862,6,0,P|320:175|292:136,1,75,4|0,2:0|3:0,2:0:0:0:
226,271,29153,2,0,P|244:237|239:189,1,75,0|0,1:0|1:0,2:0:0:0:
177,165,29444,2,0,P|146:217|154:286,1,112.5,2|0,1:2|2:0,2:0:0:0:
147,279,29735,2,0,L|64:297,1,75,0|0,3:0|3:0,2:0:0:0:
0,206,30026,6,0,L|109:181,1,112.5,4|0,3:0|2:0,2:0:0:0:
118,173,30317,1,4,3:0:0:0:
168,85,30462,1,0,3:0:0:0:
220,263,30608,2,0,L|137:281,1,75,2|4,1:2|1:3,2:0:0:0:
135,290,31044,1,4,1:3:0:0:
223,337,31189,6,0,P|219:303|220:260,1,75,4|0,2:0|2:0,2:0:0:0:
263,201,31480,2,0,P|297:197|340:198,1,75,0|0,1:0|1:0,2:0:0:0:
506,285,31771,2,0,P|445:271|346:271,1,150,2|0,1:2|3:0,2:0:0:0:
292,308,32208,1,0,3:0:0:0:
195,170,32353,6,0,L|187:260,1,75,4|0,3:0|3:0,2:0:0:0:
285,384,32644,1,0,3:0:0:0:
188,244,32790,1,0,3:0:0:0:
285,384,32935,2,0,L|293:294,1,75,2|4,1:2|1:3,2:0:0:0:
291,309,33372,5,4,1:3:0:0:
214,211,33517,2,0,P|165:207|113:227,1,85,4|0,2:0|2:0,2:0:0:0:
76,282,33808,2,0,P|72:331|92:383,1,85,0|0,1:0|1:0,2:0:0:0:
291,309,34099,2,0,P|375:289|438:349,1,170,2|0,1:2|3:0,2:0:0:0:
353,367,34535,1,0,3:0:0:0:
291,309,34681,6,0,B|282:267|282:267|296:226,1,85,4|0,3:0|2:0,2:0:0:0:
451,181,34972,1,0,3:0:0:0:
291,309,35117,1,0,3:0:0:0:
451,181,35263,2,0,B|460:223|460:223|446:264,1,85,2|4,1:2|1:3,2:0:0:0:
446,262,35699,1,4,1:3:0:0:
295,227,35845,6,0,P|224:233|138:249,1,150,4|0,2:0|2:0,2:0:0:0:
116,174,36136,2,0,P|187:180|217:208,1,100,0|0,1:0|1:0,2:0:0:0:
178,320,36427,2,0,P|107:314|77:286,1,100,2|0,1:2|3:0,2:0:0:0:
146,246,36718,1,0,3:0:0:0:
146,246,36863,1,0,3:0:0:0:
293,281,37008,6,0,L|278:132,1,150,4|0,3:0|2:0,2:0:0:0:
304,62,37299,1,0,3:0:0:0:
279,358,37445,1,10,1:3:0:0:
279,358,37736,1,10,1:3:0:0:
279,358,38027,1,10,1:3:0:0:
396,116,38172,6,0,P|326:120|261:137,1,120,4|0,1:3|2:0,1:0:0:0:
39,245,38463,2,0,P|109:249|174:266,1,120,4|0,1:3|2:0,1:0:0:0:
459,165,38754,6,2,B|360:114|229:138|161:244|165:349|165:349|277:285|235:180|167:211|123:98|214:21,1,800,12|0,1:2|2:0,1:0:0:0:
331,101,39627,5,0,1:0:0:0:
325,115,39773,1,0,1:0:0:0:
408,308,39918,1,10,1:2:0:0:
273,254,40063,2,0,P|352:216|437:238,1,180,4|0,1:3|2:0,1:0:0:0:
449,248,40354,1,4,1:3:0:0:
265,373,40500,6,0,L|273:254,1,120,4|0,1:3|1:0,1:0:0:0:
474,12,40791,2,0,L|481:131,1,120,4|0,1:3|1:0,1:0:0:0:
482,132,41082,6,0,L|396:137,1,80,14|0,1:2|2:0,1:0:0:0:
335,91,41373,2,0,L|206:98,1,120,0|0,1:3|2:0,1:0:0:0:
207,108,41664,5,0,1:0:0:0:
34,70,41809,2,0,P|28:103|33:156,1,80,0|0,1:0|2:0,1:0:0:0:
89,204,42100,1,0,1:0:0:0:
40,318,42246,2,0,L|119:313,1,80,10|0,1:2|2:0,1:0:0:0:
264,244,42537,2,0,L|184:248,1,80,0|0,1:0|2:0,1:0:0:0:
184,247,42828,6,0,B|161:301|161:301|178:361,1,120,4|0,1:3|2:0,1:0:0:0:
441,299,43118,2,0,B|464:245|464:245|447:185,1,120,4|0,1:3|2:0,1:0:0:0:
66,152,43409,6,2,B|233:257|318:44|447:186|447:186|333:286|221:92|221:92|161:117|113:91,1,800,12|0,1:2|2:0,1:0:0:0:
158,9,44282,5,0,1:0:0:0:
170,20,44428,1,0,1:0:0:0:
45,50,44573,1,10,1:2:0:0:
301,63,44719,2,0,P|375:60|480:109,1,180,4|0,1:3|2:0,1:0:0:0:
482,117,45010,1,4,1:3:0:0:
356,345,45155,6,0,B|332:291|332:291|343:232,1,120,4|0,1:3|1:0,1:0:0:0:
482,117,45446,2,0,B|506:171|506:171|494:230,1,120,4|0,1:3|1:0,1:0:0:0:
307,147,45737,6,0,P|346:143|386:151,1,80,14|0,1:2|2:0,1:0:0:0:
234,98,46028,2,0,P|194:101|125:150,1,120,0|0,1:3|2:0,1:0:0:0:
129,144,46319,5,0,1:0:0:0:
40,203,46464,2,0,P|38:163|54:127,1,80,0|0,1:0|2:0,1:0:0:0:
103,64,46755,1,0,1:0:0:0:
314,91,46901,6,0,L|234:98,1,80,10|0,1:2|2:0,1:0:0:0:
93,258,47192,2,0,L|173:251,1,80,0|0,1:0|2:0,1:0:0:0:
433,365,47483,6,0,P|352:282|237:298,1,240,4|0,1:2|1:0,1:0:0:0:
224,310,48065,1,8,1:0:0:0:
135,295,48356,1,2,1:2:0:0:
252,287,48647,1,0,1:0:0:0:
120,283,48937,5,2,1:2:0:0:
224,310,49083,1,0,1:0:0:0:
334,338,49228,2,0,P|421:331|518:333,2,160,12|4|4,1:2|1:0|1:2,1:0:0:0:
3,180,50101,6,0,P|82:179|162:186,1,160,2|8,1:2|1:0,1:0:0:0:
190,370,50538,1,4,1:3:0:0:
190,370,50829,1,4,1:3:0:0:
161,100,50974,6,0,P|152:141|155:192,1,80,4|0,1:2|3:0,1:0:0:0:
292,311,51265,2,0,P|301:270|298:219,1,80,2|0,1:2|3:0,1:0:0:0:
275,97,51556,1,8,1:2:0:0:
275,97,51702,6,0,P|233:165|333:144,1,240,4|4,1:3|1:3,1:0:0:0:
159,183,52138,6,0,P|247:177|400:202,1,240,4|0,1:2|1:0,1:0:0:0:
416,212,52720,1,8,1:0:0:0:
229,145,53011,1,2,1:2:0:0:
356,85,53302,1,0,1:0:0:0:
289,272,53593,1,2,1:2:0:0:
356,85,53884,5,8,1:0:0:0:
289,272,54029,1,4,1:3:0:0:
289,272,54320,1,4,1:3:0:0:
229,145,54466,6,0,P|184:133|69:128,2,160,4|2|8,1:2|1:2|1:0,1:0:0:0:
416,212,55193,1,4,1:3:0:0:
416,212,55484,1,4,1:3:0:0:
239,254,55629,6,0,P|189:308|300:301,1,240,4|0,1:2|3:0,1:0:0:0:
119,274,56211,1,8,1:2:0:0:
119,274,56357,6,0,P|182:289|375:264,1,240,4|4,1:3|1:3,1:0:0:0:
499,231,56793,6,0,P|436:246|243:221,1,240,4|0,1:2|1:0,1:0:0:0:
254,220,57375,1,8,1:0:0:0:
320,41,57666,1,2,1:2:0:0:
354,271,57957,1,0,1:0:0:0:
154,169,58248,5,2,1:2:0:0:
233,161,58393,1,0,1:0:0:0:
312,153,58539,2,0,P|389:146|493:142,2,160,12|4|4,1:2|1:0|1:2,1:0:0:0:
0,50,59412,6,0,P|79:53|159:60,1,160,2|8,1:2|1:0,1:0:0:0:
374,107,59848,1,4,1:3:0:0:
374,107,60139,1,4,1:3:0:0:
117,149,60285,6,0,P|108:188|109:243,1,80,4|0,1:2|3:0,1:0:0:0:
244,292,60576,2,0,L|165:296,1,80,2|0,1:2|3:0,1:0:0:0:
22,315,60866,1,8,1:2:0:0:
22,315,61012,6,0,L|261:303,1,240,4|4,1:3|1:3,1:0:0:0:
404,284,61448,6,0,L|164:295,1,240,4|0,1:2|1:0,1:0:0:0:
139,298,62030,1,8,1:0:0:0:
204,78,62321,1,2,1:2:0:0:
281,220,62612,1,0,1:0:0:0:
61,155,62903,1,2,1:2:0:0:
172,144,63194,1,8,1:0:0:0:
282,132,63485,1,2,1:2:0:0:
184,349,63776,6,0,P|208:258|85:322,1,320,4|8,1:2|1:0,1:0:0:0:
87,326,64503,1,4,1:3:0:0:
90,330,64794,1,4,1:3:0:0:
147,290,64940,6,0,P|199:279|370:345,1,240,4|8,1:2|1:0,1:0:0:0:
447,358,65667,6,0,B|481:319|471:296|438:299|435:325|477:355,1,120,4|4,1:3|1:3,1:0:0:0:
224,50,76868,6,0,P|232:73|236:113,1,60,0|0,1:0|1:0,2:0:0:0:
178,161,77159,2,0,P|226:154|286:202,1,120,2|0,1:2|3:0,2:0:0:0:
313,267,77595,1,0,3:0:0:0:
217,321,77741,6,0,P|209:298|205:258,1,60,4|0,3:0|3:0,2:0:0:0:
282,194,78032,1,0,3:0:0:0:
282,194,78177,1,0,3:0:0:0:
113,230,78323,1,2,1:2:0:0:
313,267,78468,2,0,L|377:260,2,60,4|0|4,1:3|2:0|1:3,2:0:0:0:
313,267,79196,6,0,P|308:296|308:339,1,60,0|0,1:0|1:0,2:0:0:0:
501,234,79486,2,0,L|407:228,1,90.0000000000001,2|0,1:2|2:0,2:0:0:0:
404,234,79777,1,0,3:0:0:0:
313,267,79923,1,0,3:0:0:0:
234,214,80068,6,0,P|226:157|236:88,1,120,4|0,3:0|3:0,2:0:0:0:
277,30,80505,1,0,3:0:0:0:
142,39,80650,2,0,L|150:110,1,60,2|4,1:2|1:3,2:0:0:0:
316,164,80941,2,0,L|324:93,1,60,0|4,3:0|1:3,2:0:0:0:
142,115,81232,6,0,P|74:121|62:220,1,160,4|0,2:0|1:0,2:0:0:0:
89,269,81669,1,0,1:0:0:0:
9,277,81814,2,0,P|68:270|101:268,1,80,2|0,1:2|3:0,2:0:0:0:
161,303,82105,2,0,P|220:310|253:312,1,80,0|0,3:0|3:0,2:0:0:0:
342,251,82396,6,0,P|401:244|509:240,2,160,4|0|2,3:0|1:0|1:2,2:0:0:0:
240,311,83123,1,4,1:3:0:0:
282,117,83269,2,0,P|279:150|283:200,1,80,0|4,2:0|1:3,2:0:0:0:
413,280,83560,6,0,P|404:321|397:364,1,80,4|0,2:0|3:0,2:0:0:0:
195,230,83851,2,0,P|186:189|179:146,1,80,0|0,1:0|3:0,2:0:0:0:
368,70,84142,2,0,P|377:111|384:154,1,80,2|0,1:2|3:0,2:0:0:0:
195,230,84433,1,0,3:0:0:0:
195,230,84578,1,0,3:0:0:0:
8,79,84724,6,0,P|77:55|142:88,1,150,4|0,3:0|2:0,2:0:0:0:
179,151,85015,1,0,1:0:0:0:
137,354,85160,1,10,1:3:0:0:
137,354,85451,1,10,1:3:0:0:
137,354,85742,1,10,1:3:0:0:
179,151,85887,6,0,B|234:128|234:128|297:140,1,120,4|0,1:3|2:0,1:0:0:0:
343,198,86178,2,0,B|398:221|398:221|461:209,1,120,4|0,1:3|2:0,1:0:0:0:
177,140,86469,6,2,B|232:117|232:117|291:128|291:128|302:130|302:130|296:128|296:128|353:63|353:63|361:53|361:53|357:58|357:58|458:43|458:43|466:42|466:42|458:49|458:49|444:124|444:124|414:161|414:161|396:330|396:330|401:333|401:333|395:330|395:330|264:264,1,800,12|0,1:2|2:0,1:0:0:0:
177,140,87342,5,0,1:0:0:0:
182,160,87488,1,0,1:0:0:0:
262,31,87633,1,10,1:2:0:0:
278,271,87779,2,0,B|214:249|214:249|155:268|118:346,1,180,4|0,1:3|2:0,1:0:0:0:
127,340,88070,1,4,1:3:0:0:
41,276,88215,6,0,L|60:157,1,120,4|0,1:3|1:0,1:0:0:0:
278,271,88506,2,0,P|289:328|261:382,1,120,4|0,1:3|1:0,1:0:0:0:
61,158,88797,6,0,P|110:157|157:176,1,100,14|0,1:2|2:0,1:0:0:0:
312,184,89088,2,0,P|240:204|169:183,1,150,0|0,1:3|2:0,1:0:0:0:
157,176,89379,5,0,1:0:0:0:
202,35,89524,2,0,L|210:118,1,80,0|0,1:0|2:0,1:0:0:0:
231,287,89815,1,0,1:0:0:0:
372,64,89961,2,0,L|289:72,1,80,10|0,1:2|2:0,1:0:0:0:
43,99,90252,2,0,L|126:91,1,80,0|0,1:0|2:0,1:0:0:0:
358,224,90543,6,0,L|238:212,1,120,4|0,1:3|2:0,1:0:0:0:
287,143,90834,2,0,L|406:154,1,120,4|0,1:3|2:0,1:0:0:0:
392,303,91125,6,2,B|248:289|248:289|253:292|253:292|135:361|135:361|142:357|142:357|196:42|196:42|195:47|195:47|74:89|74:89|77:88|77:88|101:170,1,800,12|0,1:2|2:0,1:0:0:0:
123,222,91997,5,0,1:0:0:0:
117,240,92143,1,0,1:0:0:0:
6,126,92288,1,10,1:2:0:0:
27,255,92434,2,0,L|209:269,1,180,4|0,1:3|2:0,1:0:0:0:
216,277,92725,1,4,1:3:0:0:
264,87,92870,6,0,B|242:112|242:112|237:201,1,120,4|0,1:3|1:0,1:0:0:0:
299,258,93161,2,0,B|321:233|321:233|326:144,1,120,4|0,1:3|1:0,1:0:0:0:
56,335,93452,6,0,L|155:342,1,100,14|0,1:2|2:0,1:0:0:0:
216,277,93743,2,0,L|365:288,1,150,0|0,1:3|2:0,1:0:0:0:
377,298,94034,5,0,1:0:0:0:
456,169,94180,2,0,P|466:128|463:84,1,80,0|0,1:0|2:0,1:0:0:0:
445,177,94470,1,0,1:0:0:0:
336,30,94616,2,0,P|326:71|329:115,1,80,10|0,1:2|2:0,1:0:0:0:
328,109,94907,2,0,L|237:103,1,80,0|0,1:0|2:0,1:0:0:0:
88,241,95198,6,0,P|123:180|171:283,1,240,4|0,1:2|1:0,1:0:0:0:
109,320,95780,1,8,1:0:0:0:
88,241,96071,1,2,1:2:0:0:
67,162,96362,1,0,1:0:0:0:
46,83,96653,5,2,1:2:0:0:
9,219,96798,1,0,1:0:0:0:
146,184,96944,2,0,P|203:178|309:173,2,160,12|4|4,1:2|1:0|1:2,1:0:0:0:
443,260,97816,6,0,P|386:254|280:249,1,160,2|8,1:2|1:0,1:0:0:0:
214,289,98253,1,4,1:3:0:0:
214,289,98544,1,4,1:3:0:0:
346,354,98689,6,0,P|356:307|355:265,1,80,4|0,1:2|3:0,1:0:0:0:
180,106,98980,2,0,P|170:153|171:195,1,80,2|0,1:2|3:0,1:0:0:0:
214,289,99271,1,8,1:2:0:0:
170,185,99417,6,0,P|102:173|30:314,1,240,4|4,1:3|1:3,1:0:0:0:
214,289,99853,6,0,P|181:180|69:172,1,240,4|0,1:2|1:0,1:0:0:0:
11,228,100435,1,8,1:0:0:0:
141,202,100726,1,2,1:2:0:0:
11,228,101017,1,0,1:0:0:0:
141,202,101308,1,2,1:2:0:0:
11,228,101599,5,8,1:0:0:0:
209,249,101744,1,4,1:3:0:0:
209,249,102035,1,4,1:3:0:0:
11,228,102181,6,0,P|18:128|58:67,2,160,4|2|8,1:2|1:2|1:0,1:0:0:0:
66,287,102908,1,4,1:3:0:0:
66,287,103199,1,4,1:3:0:0:
258,181,103344,6,0,L|505:195,1,240,4|0,1:2|3:0,1:0:0:0:
431,149,103926,1,8,1:2:0:0:
430,277,104072,6,0,P|338:321|329:220,1,240,4|4,1:3|1:3,1:0:0:0:
229,160,104508,6,0,P|321:116|331:218,1,240,4|0,1:2|1:0,1:0:0:0:
256,243,105090,1,8,1:0:0:0:
176,228,105381,1,2,1:2:0:0:
96,213,105672,1,0,1:0:0:0:
16,198,105963,5,2,1:2:0:0:
148,152,106109,1,0,1:0:0:0:
121,289,106254,2,0,P|167:310|269:367,2,160,12|4|4,1:2|1:0|1:2,1:0:0:0:
391,95,107127,6,0,P|345:74|243:17,1,160,2|8,1:2|1:0,1:0:0:0:
180,62,107563,1,4,1:3:0:0:
180,62,107854,1,4,1:3:0:0:
112,104,108000,6,0,P|97:146|100:201,1,80,4|0,1:2|3:0,1:0:0:0:
250,244,108291,2,0,P|265:202|262:147,1,80,2|0,1:2|3:0,1:0:0:0:
100,193,108582,1,8,1:2:0:0:
260,160,108727,6,0,B|374:139|485:179|440:244,1,240,4|4,1:3|1:3,1:0:0:0:
375,293,109164,6,0,B|261:314|150:274|195:209,1,240,4|0,1:2|1:0,1:0:0:0:
260,160,109745,5,8,1:0:0:0:
41,129,110036,1,2,1:2:0:0:
216,232,110327,1,4,1:2:0:0:
84,56,110618,1,2,1:2:0:0:
134,254,110909,1,8,1:0:0:0:
166,35,111200,1,2,1:2:0:0:
328,349,111491,6,0,P|304:258|427:322,1,320,4|8,1:2|1:0,1:0:0:0:
425,326,112218,1,4,1:3:0:0:
422,330,112509,1,4,1:3:0:0:
365,290,112655,6,0,P|313:279|142:345,1,240,4|8,1:2|1:0,1:0:0:0:
35,355,113382,6,0,B|77:325|74:299|41:296|31:319|65:358,1,120,4|0,1:3|3:3,1:0:0:0:
76,368,113819,5,4,2:1:0:0:
171,107,132440,6,0,L|167:145,1,29.9999999999999,4|0,1:3|2:0,1:0:0:0:
242,170,132731,2,0,L|246:132,1,29.9999999999999,4|0,1:3|2:0,1:0:0:0:
99,159,133022,6,2,B|338:113|338:113|422:139|468:238|434:313,1,480,12|0,1:2|2:0,1:0:0:0:
282,257,133603,5,0,1:0:0:0:
328,190,133749,2,0,P|362:239|250:333,2,240,0|0|4,1:0|1:0|1:3,1:0:0:0:
174,217,134476,1,0,1:0:0:0:
174,217,134622,1,4,1:3:0:0:
242,170,134767,6,0,L|246:132,1,29.9999999999999,4|0,1:3|2:0,1:0:0:0:
171,107,135058,2,0,L|167:145,1,29.9999999999999,4|0,1:3|2:0,1:0:0:0:
233,313,135349,6,2,B|187:244|187:244|218:8,1,320,12|0,1:2|2:0,1:0:0:0:
322,78,135786,1,0,1:0:0:0:
167,136,135931,6,0,B|90:124|90:124|107:173,1,120,0|0,1:0|1:0,1:0:0:0:
233,313,136222,2,0,B|310:325|310:325|293:276,1,120,0|0,1:0|1:0,1:0:0:0:
66,265,136513,2,0,P|139:255|212:387,2,240,10|0|4,1:2|1:0|1:3,1:0:0:0:
66,265,137386,1,4,1:3:0:0:
160,79,137677,6,2,B|404:51|221:130|480:91|480:91|423:114|406:169|431:223,1,480,12|0,1:2|2:0,1:0:0:0:
502,172,138259,5,0,1:0:0:0:
410,31,138404,2,0,B|355:32|292:33|329:142|268:144|214:145,2,240,0|0|4,1:0|1:0|1:3,1:0:0:0:
502,172,139131,2,0,P|509:222|505:298,1,120,0|4,1:0|1:3,1:0:0:0:
448,348,139422,6,0,L|408:345,1,29.9999999999999,4|0,1:3|2:0,1:0:0:0:
341,339,139713,2,0,L|301:336,1,29.9999999999999,4|0,1:3|2:0,1:0:0:0:
448,348,140004,6,2,P|342:223|177:262,1,320,12|0,1:2|2:0,1:0:0:0:
137,307,140441,1,0,1:0:0:0:
20,172,140586,6,0,L|149:161,1,120,0|0,1:0|2:0,1:0:0:0:
237,350,140877,1,0,1:0:0:0:
148,155,141023,2,0,P|212:136|270:144,1,120,0|0,1:0|2:0,1:0:0:0:
454,101,141314,2,0,P|376:101|284:232,1,240,4|4,1:3|1:3,1:0:0:0:
309,301,141750,6,0,L|346:299,1,29.9999999999999,4|0,1:3|2:0,1:0:0:0:
202,282,142041,2,0,L|239:280,1,29.9999999999999,4|0,1:3|2:0,1:0:0:0:
95,263,142332,6,2,B|182:258|182:258|186:251|186:251|247:248|247:248|254:252|254:252|410:246|410:246|408:242|408:242|458:352|458:352|496:321,1,480,12|0,1:2|2:0,1:0:0:0:
440,174,142914,5,0,1:0:0:0:
485,330,143059,2,0,B|469:322|469:322|227:332,2,240,0|0|4,1:0|1:0|1:3,1:0:0:0:
440,174,143787,1,0,1:0:0:0:
440,174,143932,1,4,1:3:0:0:
290,126,144078,6,0,L|296:83,1,29.9999999999999,4|0,1:3|2:0,1:0:0:0:
364,153,144369,2,0,L|358:196,1,29.9999999999999,4|0,1:3|2:0,1:0:0:0:
225,81,144660,6,2,P|358:91|289:206,1,320,12|0,1:2|2:0,1:0:0:0:
191,214,145096,1,0,1:0:0:0:
290,126,145241,6,0,L|416:116,1,120,0|0,1:0|1:0,1:0:0:0:
512,24,145532,2,0,L|386:34,1,120,0|0,1:0|1:0,1:0:0:0:
192,215,145823,2,0,L|444:195,2,240,10|0|4,1:2|1:0|1:3,1:0:0:0:
192,215,146696,1,4,1:3:0:0:
178,31,146987,6,2,B|213:97|226:193|127:195|135:288|190:347|190:347|246:271|180:201,1,480,12|0,1:2|2:0,1:0:0:0:
102,109,147569,5,0,1:0:0:0:
42,322,147715,2,0,P|80:215|193:216,2,240,0|0|4,1:0|1:0|1:3,1:0:0:0:
106,370,148442,1,0,1:0:0:0:
106,370,148587,1,4,1:3:0:0:
266,262,148733,6,0,L|264:225,1,29.9999999999999,4|0,1:3|2:0,1:0:0:0:
341,233,149024,2,0,L|339:196,1,29.9999999999999,4|0,1:3|2:0,1:0:0:0:
0,119,149315,6,2,B|44:162|60:231|60:231|90:177|101:145|101:145|141:169|165:213|165:213|197:112|155:54,1,480,12|0,1:2|2:0,1:0:0:0:
258,113,149897,6,0,B|252:191|242:241|222:309,1,200,0|0,1:0|1:0,1:0:0:0:
222,309,150333,2,0,B|243:189|362:208|332:330,1,240,0|0,1:0|1:0,1:0:0:0:
367,181,150770,6,0,B|428:239|502:201|518:44|518:44|481:143|390:124|403:20,1,480,4|0,1:2|2:0,2:0:0:0:
159,238,153388,6,0,P|156:183|162:75,2,160,4|2|8,1:2|1:2|1:0,1:0:0:0:
375,321,154115,1,4,1:3:0:0:
375,321,154406,1,4,1:3:0:0:
223,287,154552,6,0,L|303:284,1,80,4|0,1:2|3:0,1:0:0:0:
322,121,154843,2,0,L|243:125,1,80,2|0,1:2|3:0,1:0:0:0:
223,287,155134,5,8,1:2:0:0:
403,178,155279,2,0,P|412:79|322:121,1,240,4|4,1:3|1:3,1:0:0:0:
403,178,155716,6,0,P|394:277|484:235,1,240,4|0,1:2|1:0,1:0:0:0:
474,220,156298,1,8,1:0:0:0:
372,240,156589,1,2,1:2:0:0:
270,260,156880,1,0,1:0:0:0:
168,280,157170,1,2,1:2:0:0:
66,300,157461,5,8,1:0:0:0:
338,333,157607,1,4,1:3:0:0:
338,333,157898,1,4,1:3:0:0:
66,300,158043,6,0,P|50:229|67:134,2,160,4|2|8,1:2|1:2|1:0,1:0:0:0:
125,353,158771,1,4,1:3:0:0:
125,353,159062,1,4,1:3:0:0:
220,170,159207,6,0,P|298:160|451:219,1,240,4|0,1:2|3:0,1:0:0:0:
487,283,159789,1,8,1:2:0:0:
372,54,159935,6,0,P|322:161|327:280,1,240,4|4,1:3|1:3,1:0:0:0:
446,215,160371,6,0,P|338:164|220:170,1,240,4|0,1:2|1:0,1:0:0:0:
162,225,160953,1,8,1:0:0:0:
200,94,161244,1,2,1:2:0:0:
294,192,161535,1,0,1:0:0:0:
153,151,161826,5,2,1:2:0:0:
267,123,161971,1,0,1:0:0:0:
235,236,162117,2,0,P|202:286|104:278,2,160,12|4|4,1:2|1:0|1:2,1:0:0:0:
178,5,162990,6,0,B|141:46|141:46|152:150,1,160,2|8,1:2|1:0,1:0:0:0:
162,225,163426,1,4,1:3:0:0:
162,225,163717,1,4,1:3:0:0:
48,332,163862,6,0,P|34:291|42:240,1,80,4|0,1:2|3:0,1:0:0:0:
228,178,164153,2,0,P|242:219|234:270,1,80,2|0,1:2|3:0,1:0:0:0:
48,332,164444,1,8,1:2:0:0:
162,225,164590,6,0,B|256:199|326:253|326:253|350:327,1,240,4|4,1:3|1:3,1:0:0:0:
295,375,165026,6,0,B|201:401|131:347|131:347|107:273,1,240,4|0,1:2|1:0,1:0:0:0:
162,225,165608,1,8,1:0:0:0:
84,57,165899,1,2,1:2:0:0:
207,102,166190,1,0,1:0:0:0:
39,180,166481,1,2,1:2:0:0:
207,102,166772,2,0,L|379:118,1,160,8|2,1:0|1:2,1:0:0:0:
485,246,167354,6,0,P|436:201|403:356,1,320,4|8,1:2|1:0,1:0:0:0:
411,276,168081,2,0,P|345:267|260:274,1,133.333333333333,4|4,1:3|1:3,1:0:0:0:
252,283,168421,1,4,1:3:0:0:
252,283,168518,1,4,1:2:0:0:
172,273,168663,5,0,1:0:0:0:
92,263,168809,2,0,P|83:297|83:350,1,80,0|0,1:0|2:0,1:0:0:0:
39,90,169099,5,10,1:2:0:0:
163,178,169245,1,4,1:3:0:0:
57,196,169390,1,2,1:2:0:0:
145,72,169536,1,4,1:3:0:0:
101,134,169681,6,0,P|184:123|268:148,1,160,4|0,1:2|1:0,1:0:0:0:
340,49,170118,1,0,1:0:0:0:
340,49,170263,2,0,L|502:64,1,160,12|2,1:2|1:2,1:0:0:0:
469,222,170700,6,0,L|461:142,1,80,2|0,1:2|3:0,1:0:0:0:
340,49,170991,2,0,L|347:128,1,80,2|0,1:2|3:0,1:0:0:0:
305,197,171282,1,0,1:0:0:0:
413,292,171427,2,0,P|348:289|253:317,1,160,12|2,1:2|1:2,1:0:0:0:
195,365,171864,1,0,1:0:0:0:
45,316,172009,5,4,1:2:0:0:
257,314,172154,1,0,1:0:0:0:
87,175,172300,2,0,P|100:218|95:280,1,80,2|0,1:2|3:0,1:0:0:0:
45,316,172591,1,8,1:0:0:0:
195,365,172736,1,4,1:3:0:0:
195,365,173027,1,4,1:3:0:0:
257,314,173173,6,0,P|258:274|255:231,1,80,4|2,0:2|3:2,0:0:0:0:
385,153,173464,2,0,P|382:193|384:233,1,80,0|0,0:0|3:0,0:0:0:0:
467,287,173755,1,8,1:2:0:0:
467,287,173900,6,0,P|491:182|387:153,1,240,4|4,1:3|1:3,1:0:0:0:
217,16,174337,6,0,P|196:92|203:172,1,160,4|2,1:2|1:2,1:0:0:0:
248,239,174773,1,0,3:0:0:0:
189,329,174919,2,0,P|210:253|203:173,1,160,12|2,1:2|1:2,1:0:0:0:
110,151,175355,6,0,P|113:190|126:228,1,80,2|0,1:2|3:0,1:0:0:0:
295,33,175646,2,0,P|282:70|278:110,1,80,2|0,1:2|3:0,1:0:0:0:
323,176,175937,1,0,1:0:0:0:
126,228,176082,2,0,P|186:247|292:240,1,160,12|2,1:2|1:2,1:0:0:0:
323,176,176519,1,4,1:3:0:0:
490,208,176664,6,0,P|507:284|482:383,2,160,4|2|12,1:2|1:2|1:2,1:0:0:0:
323,176,177392,1,4,1:3:0:0:
323,176,177683,1,4,1:3:0:0:
452,133,177828,5,4,1:2:0:0:
357,46,177974,2,0,L|440:53,1,80,0|0,1:0|1:0,1:0:0:0:
437,53,178410,1,8,1:2:0:0:
361,260,178555,6,0,P|263:254|321:175,1,240,4|4,1:3|1:3,1:0:0:0:
361,260,178992,6,0,P|219:274|139:337,1,240,4|0,1:2|1:0,1:0:0:0:
0,194,179574,2,0,P|71:183|150:219,1,160,12|2,1:2|1:2,1:0:0:0:
49,347,180010,6,0,L|38:257,1,80,2|0,1:2|3:0,1:0:0:0:
140,139,180301,2,0,L|151:229,1,80,2|0,1:2|3:0,1:0:0:0:
293,329,180592,1,0,1:0:0:0:
293,329,180738,6,0,P|366:331|469:377,1,160,12|2,1:2|1:2,1:0:0:0:
511,316,181174,1,0,1:0:0:0:
428,179,181319,6,0,P|426:114|437:13,2,160,4|2|8,1:2|1:2|1:0,1:0:0:0:
466,249,182047,1,4,1:3:0:0:
466,249,182338,1,4,1:3:0:0:
314,202,182483,5,4,1:2:0:0:
430,93,182629,1,2,3:2:0:0:
466,249,182774,2,0,P|473:304|472:351,1,80,0|0,1:0|3:0,1:0:0:0:
473,328,183065,5,12,1:2:0:0:
303,290,183211,2,0,P|215:275|60:280,1,240,4|4,1:3|1:3,1:0:0:0:
124,321,183647,6,0,P|101:217|0:247,1,240,4|0,1:2|3:0,1:0:0:0:
124,321,184229,2,0,P|107:259|122:157,1,160,12|2,1:2|1:2,1:0:0:0:
182,117,184665,2,0,L|177:21,1,80,2|0,1:2|3:0,1:0:0:0:
33,86,184956,2,0,L|38:182,1,80,2|0,1:2|3:0,1:0:0:0:
189,201,185247,1,0,1:0:0:0:
254,154,185393,6,0,P|322:150|402:192,1,160,12|2,1:2|1:2,1:0:0:0:
443,260,185829,1,4,1:3:0:0:
495,34,185975,6,0,P|441:141|443:260,1,240,4|0,1:2|1:0,1:0:0:0:
410,332,186557,1,12,1:2:0:0:
189,299,186702,1,4,1:3:0:0:
189,299,186993,1,4,1:3:0:0:
410,332,187138,6,0,B|396:331|396:331|391:334|391:334|370:333|370:333|365:336|365:336|347:335|347:335|339:338|339:338|314:337|314:337|307:341|307:341|286:342,1,119.999996337891,4|0,1:2|1:2,1:0:0:0:
