osu file format v14

[General]
AudioFilename: audio.mp3
AudioLeadIn: 0
PreviewTime: 105336
Countdown: 1
SampleSet: Soft
StackLeniency: 0.4
Mode: 0
LetterboxInBreaks: 0
WidescreenStoryboard: 0

[Editor]
Bookmarks: 36,9636,19236,28836,38436,48036,57636,72036,76836,86436,96036,105636,115236,129561,129636,148836,158436,177636
DistanceSpacing: 1
BeatDivisor: 4
GridSize: 8
TimelineZoom: 2.5

[Metadata]
Title:Breaking the Habit
TitleUnicode:Breaking the Habit
Artist:Linkin Park
ArtistUnicode:Linkin Park
Creator:TheNexus
Version:Meteora
Source:
Tags:Linkin Park Meteora Rock
BeatmapID:1793265
BeatmapSetID:858046

[Difficulty]
HPDrainRate:8
CircleSize:3.9
OverallDifficulty:8
ApproachRate:9.4
SliderMultiplier:2.1
SliderTickRate:1

[Events]
//Background and Video events
0,0,"linkin_park_symbol_background_triangle_circle_2177_1920x1080.jpg",0,0
//Break Periods
//Storyboard Layer 0 (Background)
//Storyboard Layer 1 (Fail)
//Storyboard Layer 2 (Pass)
//Storyboard Layer 3 (Foreground)
//Storyboard Sound Samples

[TimingPoints]
36,300,4,2,0,70,1,0
36,-333.333333333333,4,2,0,70,0,0
5136,-250,4,2,0,70,0,0
5436,-200,4,2,0,70,0,0
5736,-166.666666666667,4,2,0,70,0,0
6036,-333.333333333333,4,2,0,70,0,0
9636,-166.666666666667,4,2,0,70,0,0
14436,-125,4,2,0,70,0,0
14586,-142.857142857143,4,2,0,70,0,0
18186,-133.333333333333,4,2,0,70,0,0
18336,-125,4,2,0,70,0,0
18486,-117.647058823529,4,2,0,70,0,0
18636,-111.111111111111,4,2,0,70,0,0
18786,-105.263157894737,4,2,0,70,0,0
18936,-100,4,2,0,70,0,0
19086,-95.2380952380951,4,2,0,70,0,0
19236,-200,4,2,0,70,0,0
47661,-500,4,2,0,70,0,0
48036,-100,4,2,0,70,0,1
72036,-166.666666666667,4,2,0,70,0,0
105636,-100,4,2,0,70,0,1
129561,-100,4,2,0,70,0,0
129636,-100,4,2,0,70,0,1
177636,-100,4,2,0,70,0,0

[HitObjects]
36,71,36,6,0,P|89:44|99:44,1,62.9999980773926
109,43,636,1,0,0:0:0:0:
126,50,936,1,0,0:0:0:0:
219,105,1236,5,0,0:0:0:0:
202,112,1536,1,0,0:0:0:0:
289,140,1686,2,0,P|309:129|322:115,1,31.4999990386963
326,108,2136,1,0,0:0:0:0:
366,15,2436,5,0,0:0:0:0:
381,25,2736,1,0,0:0:0:0:
455,102,3036,1,0,0:0:0:0:
440,112,3336,1,0,0:0:0:0:
326,108,3636,6,0,L|319:152,1,31.4999990386963
387,179,3936,2,0,L|391:210,1,31.4999990386963
335,260,4236,2,0,L|331:291,1,31.4999990386963
396,329,4536,2,0,L|400:360,1,31.4999990386963
335,260,4836,6,0,L|297:265,1,31.4999990386963
229,195,5136,2,0,L|276:187,1,42
226,277,5436,2,0,L|170:285,1,52.5
77,219,5736,2,0,L|156:206,1,62.9999980773926
47,301,6036,5,0,0:0:0:0:
85,226,6186,1,0,0:0:0:0:
85,226,6261,1,0,0:0:0:0:
85,226,6336,1,0,0:0:0:0:
126,353,6486,1,0,0:0:0:0:
123,343,6636,1,0,0:0:0:0:
174,284,6786,1,0,0:0:0:0:
177,294,6936,1,0,0:0:0:0:
229,195,7236,5,0,0:0:0:0:
276,273,7536,1,0,0:0:0:0:
289,264,7611,1,0,0:0:0:0:
303,257,7686,1,0,0:0:0:0:
318,252,7761,1,0,0:0:0:0:
333,249,7836,1,0,0:0:0:0:
426,255,8136,1,0,0:0:0:0:
382,338,8436,5,0,0:0:0:0:
366,115,8736,1,0,0:0:0:0:
417,170,8886,2,0,P|396:184|381:189,1,31.4999990386963
195,145,9336,2,0,P|207:135|241:125,1,47.2499985580445
268,128,9636,6,0,P|256:168|253:209,1,62.9999980773926
392,60,9936,2,0,P|387:28|377:0,1,62.9999980773926
489,140,10236,1,0,0:0:0:0:
343,122,10386,1,0,0:0:0:0:
445,312,10536,2,0,P|425:267|415:220,1,94.499997116089
415,191,10836,6,0,P|392:221|361:242,1,62.9999980773926
227,156,11136,2,0,P|257:179|278:210,1,62.9999980773926
269,41,11436,1,0,0:0:0:0:
135,121,11586,1,0,0:0:0:0:
364,44,11736,2,0,P|346:82|340:139,1,94.499997116089
339,165,12036,6,0,P|375:148|411:146,1,62.9999980773926
497,269,12336,2,0,P|466:263|438:249,1,62.9999980773926
512,384,12636,1,0,0:0:0:0:
364,335,12786,1,0,0:0:0:0:
491,172,12936,2,0,P|465:219|425:260,1,94.499997116089
420,276,13236,6,0,P|401:236|375:209,1,62.9999980773926
229,261,13536,2,0,P|254:279|283:291,1,62.9999980773926
134,343,13836,1,0,0:0:0:0:
283,384,13986,1,0,0:0:0:0:
227,198,14136,2,0,P|230:255|221:287,1,62.9999980773926
143,131,14436,6,0,L|236:114,1,84
75,80,14736,2,0,P|60:113|61:155,1,73.4999977569581
0,0,15036,1,0,0:0:0:0:
149,43,15186,1,0,0:0:0:0:
15,212,15336,2,0,P|65:193|129:189,1,110.249996635437
158,188,15636,6,0,P|132:221|122:254,1,73.4999977569581
264,331,15936,2,0,P|251:296|228:268,1,73.4999977569581
402,278,16236,1,0,0:0:0:0:
264,331,16386,1,0,0:0:0:0:
271,103,16536,2,0,P|278:164|298:217,1,110.249996635437
310,242,16836,6,0,P|334:203|369:186,1,73.4999977569581
342,353,17136,1,0,0:0:0:0:
211,196,17286,1,0,0:0:0:0:
380,258,17436,1,0,0:0:0:0:
125,254,17586,1,0,0:0:0:0:
345,113,17736,2,0,P|326:164|292:211,1,110.249996635437
270,238,18036,6,0,L|307:260,1,36.749998878479
203,151,18186,2,0,L|246:167,1,39.3750015020371
103,158,18336,2,0,L|141:182,1,42
70,58,18486,2,0,L|113:76,1,44.6250008511543
24,168,18636,2,0,L|22:221,1,47.2499985580445
138,180,18786,2,0,L|139:235,1,49.8749986681939
270,238,18936,2,0,L|267:292,1,52.5
420,218,19086,2,0,L|417:275,1,55.1249983177186
310,109,19236,5,0,0:0:0:0:
310,109,19536,2,0,L|368:92,1,52.5
217,172,19836,2,0,P|211:135|200:114,1,52.5
70,98,20136,2,0,L|128:85,1,52.5
201,197,20436,6,0,P|195:160|184:139,1,52.5
54,123,20736,2,0,L|112:110,1,52.5
137,246,21036,2,0,P|91:236|55:206,1,78.75
47,199,21336,1,0,0:0:0:0:
56,321,21486,1,0,0:0:0:0:
201,197,21636,5,0,0:0:0:0:
201,197,21936,2,0,L|262:184,1,52.5
346,168,22236,2,0,P|340:200|341:233,1,52.5
399,100,22536,2,0,B|379:85|379:85|328:78,1,52.5
215,84,22836,6,0,P|255:62|277:38,1,78.75
287,13,23136,2,0,B|293:29|293:29|294:44,1,26.25
289,127,23286,2,0,P|286:137|286:184,1,52.5
316,298,23586,1,0,0:0:0:0:
181,204,23736,1,0,0:0:0:0:
173,369,23886,1,0,0:0:0:0:
350,222,24036,6,0,P|377:219|407:227,1,52.5
504,250,24336,2,0,P|479:212|473:163,1,78.75
471,153,24636,2,0,L|472:146,8,6.5625
368,80,24936,2,0,B|344:72|344:72|307:76,1,52.5
205,152,25236,6,0,P|241:129|261:106,1,52.5
117,80,25536,2,0,B|104:104|104:104|107:147,1,52.5
158,241,25836,1,0,0:0:0:0:
158,241,25986,1,0,0:0:0:0:
247,122,26136,1,0,0:0:0:0:
305,260,26286,1,0,0:0:0:0:
81,200,26436,6,0,P|52:215|36:230,1,52.5
46,349,26736,2,0,L|76:298,1,52.5
158,241,27036,1,0,0:0:0:0:
158,241,27186,1,0,0:0:0:0:
223,321,27336,2,0,L|253:270,1,52.5
335,213,27636,5,0,0:0:0:0:
249,275,27786,1,0,0:0:0:0:
372,313,27936,2,0,L|430:308,1,52.5
299,334,28236,1,0,0:0:0:0:
295,345,28536,1,0,0:0:0:0:
188,178,28686,1,0,0:0:0:0:
406,165,28836,6,0,P|387:137|378:108,1,52.5
297,62,29136,2,0,L|232:55,1,52.5
395,178,29436,2,0,P|376:150|367:121,1,52.5
286,75,29736,2,0,L|221:68,1,52.5
385,197,30036,6,0,P|366:169|357:140,1,52.5
276,94,30336,2,0,L|211:87,1,52.5
359,151,30636,2,0,P|392:144|419:128,1,52.5
215,109,30936,1,0,0:0:0:0:
396,29,31086,1,0,0:0:0:0:
332,255,31236,6,0,P|299:232|266:218,1,52.5
453,250,31536,2,0,L|430:302,1,52.5
302,256,31836,2,0,P|269:233|236:219,1,52.5
94,249,32136,2,0,B|93:277|93:277|105:306,1,52.5
168,181,32436,6,0,P|193:152|215:136,1,52.5
365,118,32736,2,0,L|353:148,1,26.25
396,205,32886,2,0,P|385:235|398:313,1,105
477,162,33336,1,0,0:0:0:0:
282,264,33486,1,0,0:0:0:0:
393,57,33636,6,0,P|366:59|317:53,1,52.5
222,124,33936,2,0,L|217:187,1,52.5
160,66,34236,2,0,P|187:46|212:39,1,52.5
298,210,34536,2,0,B|285:236|285:236|262:257,1,52.5
394,101,34836,6,0,P|423:93|457:94,1,52.5
404,199,35136,2,0,L|382:159,1,26.25
394,101,35286,2,0,P|398:70|445:12,1,105
310,57,35736,1,0,0:0:0:0:
506,158,35886,1,0,0:0:0:0:
251,188,36036,6,0,P|220:201|196:218,1,52.5
105,291,36336,2,0,B|98:264|98:264|106:218,1,52.5
141,109,36636,1,0,0:0:0:0:
141,109,36936,2,0,L|202:97,1,52.5
322,109,37236,5,0,0:0:0:0:
313,133,37311,1,0,0:0:0:0:
310,159,37386,1,0,0:0:0:0:
311,186,37461,1,0,0:0:0:0:
317,211,37536,2,0,L|373:203,1,52.5
212,319,37836,1,0,0:0:0:0:
368,203,37986,1,0,0:0:0:0:
212,319,38136,1,0,0:0:0:0:
212,319,38436,6,0,P|217:285|213:247,1,52.5
160,152,38736,2,0,L|231:135,1,52.5
63,90,39036,1,0,0:0:0:0:
160,152,39186,1,0,0:0:0:0:
29,246,39336,2,0,L|35:314,1,52.5
159,231,39636,6,0,L|106:235,1,52.5
242,305,39936,2,0,B|261:289|261:289|274:259,1,52.5
264,139,40236,1,0,0:0:0:0:
264,139,40386,1,0,0:0:0:0:
358,266,40536,2,0,L|423:253,1,52.5
198,196,40836,6,0,P|171:216|148:247,1,52.5
333,174,41136,2,0,L|394:183,1,52.5
211,73,41436,2,0,P|184:68|156:70,1,52.5
333,174,41736,2,0,L|383:129,1,52.5
198,196,42036,6,0,L|205:237,3,26.25
225,207,42336,2,0,L|272:262,1,52.5
340,342,42636,1,0,0:0:0:0:
333,174,42786,1,0,0:0:0:0:
187,316,42936,2,0,B|166:298|166:298|130:289,1,52.5
367,259,43236,6,0,P|405:254|437:263,1,52.5
232,154,43536,2,0,L|222:226,1,52.5
309,70,43836,2,0,P|341:59|374:58,1,52.5
142,145,44136,2,0,L|76:149,1,52.5
224,206,44436,6,0,P|255:208|287:218,1,52.5
365,254,44736,2,0,L|429:246,1,52.5
224,206,45036,1,0,0:0:0:0:
286,383,45186,1,0,0:0:0:0:
358,138,45336,2,0,B|336:118|336:118|301:110,1,52.5
91,138,45636,6,0,P|130:119|151:98,1,52.5
36,212,45936,2,0,B|37:241|37:241|49:272,1,52.5
90,344,46236,1,0,0:0:0:0:
36,212,46386,1,0,0:0:0:0:
220,250,46536,2,0,L|272:261,1,52.5
359,175,46836,6,0,P|332:209|321:236,1,52.5
446,125,47136,2,0,L|328:73,1,105
114,158,47736,6,0,P|129:148|141:135,1,31.5
165,92,48036,6,0,P|179:157|216:215,1,105
330,329,48336,2,0,L|199:321,1,105
407,198,48636,1,0,0:0:0:0:
225,322,48786,1,0,0:0:0:0:
512,205,48936,2,0,L|381:197,1,105
303,7,49236,6,0,P|265:63|258:136,1,105
369,261,49536,2,0,L|342:138,1,105
225,322,49836,1,0,0:0:0:0:
346,158,49986,1,0,0:0:0:0:
96,165,50136,2,0,L|135:314,1,105
256,98,50436,6,0,P|187:56|133:45,1,105
122,266,50736,1,0,0:0:0:0:
369,261,50886,2,0,P|411:192|422:138,1,105
122,266,51186,2,0,P|80:335|69:389,1,105
256,98,51486,2,0,L|265:158,1,52.5
294,192,51636,6,0,P|281:270|262:321,1,105
157,134,51936,2,0,L|283:87,1,105
421,211,52236,1,0,0:0:0:0:
157,134,52386,1,0,0:0:0:0:
327,292,52536,2,0,P|281:274|322:320,1,157.5
272,294,52836,6,0,P|205:284|143:294,1,105
421,211,53136,2,0,L|449:323,1,105
286,145,53436,1,0,0:0:0:0:
446,312,53586,1,0,0:0:0:0:
260,43,53736,2,0,L|288:155,1,105
168,287,54036,6,0,P|234:271|291:243,1,105
18,191,54336,2,0,L|26:318,1,105
166,84,54636,1,0,0:0:0:0:
24,295,54786,1,0,0:0:0:0:
267,256,54936,2,0,L|289:362,1,105
357,97,55236,6,0,P|303:64|238:53,1,105
288,359,55536,1,0,0:0:0:0:
470,159,55686,2,0,P|502:105|513:40,1,105
167,232,55986,2,0,P|134:285|123:350,1,105
430,249,56286,2,0,L|386:210,1,52.5
347,208,56436,6,0,P|282:172|219:169,1,105
278,360,56736,2,0,L|382:297,1,105
252,167,57036,1,0,0:0:0:0:
367,305,57186,1,0,0:0:0:0:
251,121,57336,2,0,P|225:78|229:139,1,157.5
205,87,57636,6,0,P|158:37|103:7,1,105
367,305,57936,2,0,L|440:223,1,105
183,229,58236,1,0,0:0:0:0:
436,226,58386,1,0,0:0:0:0:
113,307,58536,2,0,L|186:225,1,105
401,154,58836,6,0,P|340:97|277:85,1,105
35,219,59136,2,0,P|96:162|159:150,1,105
310,333,59436,1,0,0:0:0:0:
114,155,59586,1,0,0:0:0:0:
310,333,59736,2,0,L|430:305,1,105
35,219,60036,6,0,P|16:279|21:342,1,105
294,180,60336,2,0,P|313:120|308:57,1,105
156,335,60636,2,0,P|216:354|279:349,1,105
117,76,60936,2,0,P|57:57|-6:62,1,105
366,213,61236,6,0,P|347:273|352:336,1,105
470,107,61536,2,0,L|355:44,1,105
231,97,61836,1,0,0:0:0:0:
377,56,61986,1,0,0:0:0:0:
323,147,62136,2,0,L|208:84,1,105
74,297,62436,6,0,L|243:248,1,157.5
273,239,62736,1,0,0:0:0:0:
74,297,62886,1,0,0:0:0:0:
320,226,63036,1,0,0:0:0:0:
150,274,63186,1,0,0:0:0:0:
366,213,63336,2,0,L|473:182,1,105
73,261,63636,6,0,L|243:303,1,157.5
274,310,63936,1,0,0:0:0:0:
73,261,64086,1,0,0:0:0:0:
328,189,64236,1,0,0:0:0:0:
205,316,64386,1,0,0:0:0:0:
361,155,64536,2,0,L|439:74,1,105
74,297,64836,6,0,L|243:248,1,157.5
273,239,65136,1,0,0:0:0:0:
40,181,65286,1,0,0:0:0:0:
320,226,65436,1,0,0:0:0:0:
150,274,65586,1,0,0:0:0:0:
366,213,65736,2,0,L|473:182,1,105
72,223,66036,6,0,L|243:266,1,157.5
273,273,66336,1,0,0:0:0:0:
72,223,66486,1,0,0:0:0:0:
321,285,66636,1,0,0:0:0:0:
149,242,66786,1,0,0:0:0:0:
367,297,66936,2,0,L|476:324,1,105
395,38,67236,6,0,L|225:86,1,157.5
196,96,67536,1,0,0:0:0:0:
395,38,67686,1,0,0:0:0:0:
149,109,67836,1,0,0:0:0:0:
319,61,67986,1,0,0:0:0:0:
103,122,68136,2,0,L|-4:152,1,105
395,74,68436,6,0,L|224:31,1,157.5
194,25,68736,1,0,0:0:0:0:
395,74,68886,1,0,0:0:0:0:
140,146,69036,1,0,0:0:0:0:
263,19,69186,1,0,0:0:0:0:
107,180,69336,2,0,L|29:260,1,105
395,38,69636,6,0,L|225:86,1,157.5
196,96,69936,1,0,0:0:0:0:
429,154,70086,1,0,0:0:0:0:
149,109,70236,1,0,0:0:0:0:
319,61,70386,1,0,0:0:0:0:
103,122,70536,2,0,L|-4:152,1,105
396,112,70836,6,0,L|225:69,1,157.5
195,62,71136,1,0,0:0:0:0:
396,112,71286,1,0,0:0:0:0:
147,50,71436,1,0,0:0:0:0:
319,93,71586,1,0,0:0:0:0:
101,38,71736,2,0,P|111:93|149:154,1,105
276,264,72036,5,0,0:0:0:0:
