osu file format v14

[General]
AudioFilename: audio.mp3
AudioLeadIn: 0
PreviewTime: 148372
Countdown: 0
SampleSet: Normal
StackLeniency: 0.7
Mode: 1
LetterboxInBreaks: 0
WidescreenStoryboard: 0

[Editor]
DistanceSpacing: 1.4
BeatDivisor: 4
GridSize: 32
TimelineZoom: 2.5

[Metadata]
Title:Breaking The Habit
TitleUnicode:Breaking The Habit
Artist:Linkin Park
ArtistUnicode:Linkin Park
Creator:Surono
Version:Muzukashii
Source:
Tags:Meteora Alternative LP Chester Bennington Ulqui strickluke
BeatmapID:1364345
BeatmapSetID:643376

[Difficulty]
HPDrainRate:5
CircleSize:7
OverallDifficulty:5
ApproachRate:10
SliderMultiplier:1.4
SliderTickRate:1

[Events]
//Background and Video events
0,0,"bg2.jpg",0,0
//Break Periods
//Storyboard Layer 0 (Background)
//Storyboard Layer 1 (Fail)
//Storyboard Layer 2 (Pass)
//Storyboard Layer 3 (Foreground)
//Storyboard Sound Samples

[TimingPoints]
-8,299.910026991902,4,1,0,85,1,0
47977,-100,4,1,0,85,0,1
71969,-100,4,1,0,85,0,0
105558,-100,4,1,0,85,0,1
129550,-100,4,1,0,85,0,0
148743,-100,4,1,0,85,0,1
177534,-100,4,1,0,45,0,0

[HitObjects]
256,192,9589,5,4,0:0:0:0:
256,192,9889,1,8,0:0:0:0:
256,192,10038,1,0,0:0:0:0:
256,192,10488,1,8,0:0:0:0:
256,192,10788,1,0,0:0:0:0:
256,192,10863,1,0,0:0:0:0:
256,192,10938,1,0,0:0:0:0:
256,192,11088,1,8,0:0:0:0:
256,192,11238,1,0,0:0:0:0:
256,192,11688,1,8,0:0:0:0:
256,192,11988,5,0,0:0:0:0:
256,192,12288,1,8,0:0:0:0:
256,192,12438,1,0,0:0:0:0:
256,192,12888,1,8,0:0:0:0:
256,192,13188,1,0,0:0:0:0:
256,192,13263,1,0,0:0:0:0:
256,192,13337,1,0,0:0:0:0:
256,192,13487,1,8,0:0:0:0:
256,192,13637,1,0,0:0:0:0:
256,192,13937,1,0,0:0:0:0:
256,192,14087,1,8,0:0:0:0:
256,192,14387,5,4,0:0:0:0:
256,192,14687,1,8,0:0:0:0:
256,192,14837,1,0,0:0:0:0:
256,192,15287,1,8,0:0:0:0:
256,192,15587,1,0,0:0:0:0:
256,192,15662,1,0,0:0:0:0:
256,192,15737,1,0,0:0:0:0:
256,192,15887,1,8,0:0:0:0:
256,192,16037,1,0,0:0:0:0:
256,192,16487,1,8,0:0:0:0:
256,192,16786,5,0,0:0:0:0:
256,192,17086,1,8,0:0:0:0:
256,192,17236,1,8,0:0:0:0:
256,192,17686,1,8,0:0:0:0:
256,192,17986,1,0,0:0:0:0:
256,192,18061,1,0,0:0:0:0:
256,192,18136,1,0,0:0:0:0:
256,192,18286,1,8,0:0:0:0:
256,192,18586,1,0,0:0:0:0:
256,192,18736,1,8,0:0:0:0:
256,192,18886,1,8,0:0:0:0:
256,192,19036,1,8,0:0:0:0:
256,192,19186,1,0,0:0:0:0:
256,192,19486,1,8,0:0:0:0:
256,192,20085,1,8,0:0:0:0:
256,192,20385,1,0,0:0:0:0:
256,192,20535,1,0,0:0:0:0:
256,192,20685,1,8,0:0:0:0:
256,192,20835,1,0,0:0:0:0:
256,192,21285,1,8,0:0:0:0:
256,192,21435,1,0,0:0:0:0:
256,192,21585,5,0,0:0:0:0:
256,192,21885,1,8,0:0:0:0:
256,192,22485,1,8,0:0:0:0:
256,192,22785,1,0,0:0:0:0:
256,192,22935,1,0,0:0:0:0:
256,192,23085,1,8,0:0:0:0:
256,192,23235,1,0,0:0:0:0:
256,192,23684,1,8,0:0:0:0:
256,192,23834,1,0,0:0:0:0:
256,192,23984,5,0,0:0:0:0:
256,192,24284,1,8,0:0:0:0:
256,192,24434,1,0,0:0:0:0:
256,192,24584,1,8,0:0:0:0:
256,192,24884,1,8,0:0:0:0:
256,192,25184,1,8,0:0:0:0:
256,192,25334,1,0,0:0:0:0:
256,192,25484,1,8,0:0:0:0:
256,192,25634,1,0,0:0:0:0:
256,192,26084,1,8,0:0:0:0:
256,192,26234,1,0,0:0:0:0:
256,192,26384,5,0,0:0:0:0:
256,192,26683,1,8,0:0:0:0:
256,192,27283,1,8,0:0:0:0:
256,192,27583,1,0,0:0:0:0:
256,192,27733,1,8,0:0:0:0:
256,192,27883,1,8,0:0:0:0:
256,192,28033,1,0,0:0:0:0:
256,192,28483,1,8,0:0:0:0:
256,192,28633,1,8,0:0:0:0:
256,192,28783,1,0,0:0:0:0:
256,192,29083,1,8,0:0:0:0:
256,192,29683,1,8,0:0:0:0:
256,192,29983,1,0,0:0:0:0:
256,192,30132,1,0,0:0:0:0:
256,192,30282,1,8,0:0:0:0:
256,192,30582,1,0,0:0:0:0:
256,192,30882,1,8,0:0:0:0:
256,192,31032,1,0,0:0:0:0:
256,192,31182,1,0,0:0:0:0:
256,192,31482,1,8,0:0:0:0:
256,192,32082,1,8,0:0:0:0:
256,192,32382,1,0,0:0:0:0:
256,192,32532,1,0,0:0:0:0:
256,192,32682,1,8,0:0:0:0:
256,192,32982,1,0,0:0:0:0:
256,192,33282,1,8,0:0:0:0:
256,192,33431,1,8,0:0:0:0:
256,192,33581,1,0,0:0:0:0:
256,192,33881,1,8,0:0:0:0:
256,192,34481,1,8,0:0:0:0:
256,192,34781,1,8,0:0:0:0:
256,192,34931,1,0,0:0:0:0:
256,192,35081,1,8,0:0:0:0:
256,192,35381,1,0,0:0:0:0:
256,192,35681,1,8,0:0:0:0:
256,192,35831,1,0,0:0:0:0:
256,192,35981,1,0,0:0:0:0:
256,192,36281,1,8,0:0:0:0:
256,192,36880,1,8,0:0:0:0:
256,192,37180,1,0,0:0:0:0:
256,192,37330,1,8,0:0:0:0:
256,192,37480,1,8,0:0:0:0:
256,192,37780,1,0,0:0:0:0:
256,192,37930,1,0,0:0:0:0:
256,192,38080,1,0,0:0:0:0:
256,192,38380,1,0,0:0:0:0:
256,192,38680,1,8,0:0:0:0:
256,192,38830,1,0,0:0:0:0:
256,192,39130,1,0,0:0:0:0:
256,192,39280,1,8,0:0:0:0:
256,192,39580,1,0,0:0:0:0:
256,192,39655,1,0,0:0:0:0:
256,192,39730,1,0,0:0:0:0:
256,192,39880,1,8,0:0:0:0:
256,192,40179,1,0,0:0:0:0:
256,192,40479,1,8,0:0:0:0:
256,192,40779,1,0,0:0:0:0:
256,192,41079,1,8,0:0:0:0:
256,192,41229,1,0,0:0:0:0:
256,192,41529,1,0,0:0:0:0:
256,192,41679,1,8,0:0:0:0:
256,192,41979,1,0,0:0:0:0:
256,192,42054,1,0,0:0:0:0:
256,192,42129,1,0,0:0:0:0:
256,192,42279,1,8,0:0:0:0:
256,192,42729,1,0,0:0:0:0:
256,192,42879,1,8,0:0:0:0:
256,192,43179,1,0,0:0:0:0:
256,192,43478,1,8,0:0:0:0:
256,192,43628,1,0,0:0:0:0:
256,192,43928,1,0,0:0:0:0:
256,192,44078,1,8,0:0:0:0:
256,192,44378,1,0,0:0:0:0:
256,192,44453,1,0,0:0:0:0:
256,192,44528,1,0,0:0:0:0:
256,192,44678,1,8,0:0:0:0:
256,192,44978,1,0,0:0:0:0:
256,192,45128,1,0,0:0:0:0:
256,192,45278,1,8,0:0:0:0:
256,192,45578,1,0,0:0:0:0:
256,192,45878,1,8,0:0:0:0:
256,192,46328,1,0,0:0:0:0:
256,192,46478,1,8,0:0:0:0:
256,192,46777,1,0,0:0:0:0:
256,192,46927,1,0,0:0:0:0:
256,192,47077,1,8,0:0:0:0:
256,192,47227,1,8,0:0:0:0:
256,192,47977,1,4,0:0:0:0:
256,192,48277,1,8,0:0:0:0:
256,192,48427,1,0,0:0:0:0:
256,192,48727,1,0,0:0:0:0:
256,192,48877,1,8,0:0:0:0:
256,192,49177,1,0,0:0:0:0:
256,192,49477,1,8,0:0:0:0:
256,192,49627,1,0,0:0:0:0:
256,192,50076,1,8,0:0:0:0:
256,192,50376,1,0,0:0:0:0:
256,192,50676,1,8,0:0:0:0:
256,192,50826,1,0,0:0:0:0:
256,192,50976,1,0,0:0:0:0:
256,192,51276,1,8,0:0:0:0:
256,192,51426,1,8,0:0:0:0:
256,192,51576,1,0,0:0:0:0:
256,192,51876,1,8,0:0:0:0:
256,192,52026,1,8,0:0:0:0:
256,192,52326,1,8,0:0:0:0:
256,192,52476,1,8,0:0:0:0:
256,192,52776,1,0,0:0:0:0:
256,192,53076,1,8,0:0:0:0:
256,192,53226,1,0,0:0:0:0:
256,192,53525,1,0,0:0:0:0:
256,192,53675,1,8,0:0:0:0:
256,192,53975,1,0,0:0:0:0:
256,192,54275,1,8,0:0:0:0:
256,192,54425,1,8,0:0:0:0:
256,192,54875,1,8,0:0:0:0:
256,192,55175,1,0,0:0:0:0:
256,192,55475,1,8,0:0:0:0:
256,192,55625,1,8,0:0:0:0:
256,192,55775,1,0,0:0:0:0:
256,192,56075,1,8,0:0:0:0:
256,192,56225,1,0,0:0:0:0:
256,192,56375,1,0,0:0:0:0:
256,192,56674,1,8,0:0:0:0:
256,192,56824,1,8,0:0:0:0:
256,192,56974,1,0,0:0:0:0:
256,192,57124,1,8,0:0:0:0:
256,192,57274,1,8,0:0:0:0:
256,192,57574,1,4,0:0:0:0:
256,192,57874,1,8,0:0:0:0:
256,192,58024,1,0,0:0:0:0:
256,192,58324,1,0,0:0:0:0:
256,192,58474,1,8,0:0:0:0:
256,192,58774,1,0,0:0:0:0:
256,192,58924,1,0,0:0:0:0:
256,192,59074,1,8,0:0:0:0:
256,192,59374,1,0,0:0:0:0:
256,192,59674,1,8,0:0:0:0:
256,192,59974,1,0,0:0:0:0:
256,192,60273,1,8,0:0:0:0:
256,192,60423,1,0,0:0:0:0:
256,192,60723,1,0,0:0:0:0:
256,192,60873,1,8,0:0:0:0:
256,192,61023,1,8,0:0:0:0:
256,192,61173,1,0,0:0:0:0:
256,192,61473,1,8,0:0:0:0:
256,192,61623,1,8,0:0:0:0:
256,192,61923,1,8,0:0:0:0:
256,192,62073,1,8,0:0:0:0:
256,192,62373,1,4,0:0:0:0:
256,192,62673,1,8,0:0:0:0:
256,192,62823,1,0,0:0:0:0:
256,192,63273,1,8,0:0:0:0:
256,192,63572,1,0,0:0:0:0:
256,192,63722,1,0,0:0:0:0:
256,192,63872,1,8,0:0:0:0:
256,192,64172,1,0,0:0:0:0:
256,192,64472,1,8,0:0:0:0:
256,192,64772,1,0,0:0:0:0:
256,192,65072,1,8,0:0:0:0:
256,192,65222,1,8,0:0:0:0:
256,192,65372,1,0,0:0:0:0:
256,192,65672,1,8,0:0:0:0:
256,192,65972,1,0,0:0:0:0:
256,192,66272,1,8,0:0:0:0:
256,192,66721,1,0,0:0:0:0:
256,192,66871,1,8,0:0:0:0:
256,192,67171,1,4,0:0:0:0:
256,192,67471,1,8,0:0:0:0:
256,192,67621,1,8,0:0:0:0:
256,192,67771,1,0,0:0:0:0:
256,192,68071,1,8,0:0:0:0:
256,192,68371,1,0,0:0:0:0:
256,192,68521,1,0,0:0:0:0:
256,192,68671,1,8,0:0:0:0:
256,192,68971,1,0,0:0:0:0:
256,192,69271,1,8,0:0:0:0:
256,192,69571,1,0,0:0:0:0:
256,192,69871,1,8,0:0:0:0:
256,192,70020,1,0,0:0:0:0:
256,192,70170,1,0,0:0:0:0:
256,192,70470,1,8,0:0:0:0:
256,192,70770,1,0,0:0:0:0:
256,192,71070,1,8,0:0:0:0:
256,192,71370,1,0,0:0:0:0:
256,192,71520,1,0,0:0:0:0:
256,192,71670,1,8,0:0:0:0:
256,192,71820,1,0,0:0:0:0:
256,192,71970,1,8,0:0:0:0:
256,192,72270,1,0,0:0:0:0:
256,192,72870,1,8,0:0:0:0:
256,192,73469,1,8,0:0:0:0:
256,192,74069,1,8,0:0:0:0:
256,192,74369,1,0,0:0:0:0:
256,192,74669,1,8,0:0:0:0:
256,192,75269,1,8,0:0:0:0:
256,192,75494,1,0,0:0:0:0:
256,192,75569,1,0,0:0:0:0:
256,192,75794,1,0,0:0:0:0:
256,192,75869,1,0,0:0:0:0:
256,192,76094,1,0,0:0:0:0:
256,192,76169,1,0,0:0:0:0:
256,192,76469,1,8,0:0:0:0:
256,192,76619,1,0,0:0:0:0:
256,192,76768,1,12,0:0:0:0:
256,192,77068,1,8,0:0:0:0:
256,192,77518,1,0,0:0:0:0:
256,192,77668,1,8,0:0:0:0:
256,192,77968,1,0,0:0:0:0:
256,192,78118,1,0,0:0:0:0:
256,192,78268,1,8,0:0:0:0:
256,192,78568,1,0,0:0:0:0:
256,192,78868,1,8,0:0:0:0:
256,192,79168,1,0,0:0:0:0:
256,192,79468,1,8,0:0:0:0:
256,192,79618,1,8,0:0:0:0:
256,192,79768,1,0,0:0:0:0:
256,192,80067,1,8,0:0:0:0:
256,192,80367,1,0,0:0:0:0:
256,192,80517,1,0,0:0:0:0:
256,192,80667,1,8,0:0:0:0:
256,192,80967,1,0,0:0:0:0:
256,192,81267,1,8,0:0:0:0:
256,192,81417,1,0,0:0:0:0:
256,192,81567,1,0,0:0:0:0:
256,192,81867,1,8,0:0:0:0:
256,192,82317,1,0,0:0:0:0:
256,192,82467,1,8,0:0:0:0:
256,192,82767,1,0,0:0:0:0:
256,192,83067,1,8,0:0:0:0:
256,192,83217,1,0,0:0:0:0:
256,192,83516,1,0,0:0:0:0:
256,192,83666,1,8,0:0:0:0:
256,192,83966,1,0,0:0:0:0:
256,192,84266,1,8,0:0:0:0:
256,192,84416,1,0,0:0:0:0:
256,192,84866,1,8,0:0:0:0:
256,192,85166,1,0,0:0:0:0:
256,192,85241,1,0,0:0:0:0:
256,192,85316,1,0,0:0:0:0:
256,192,85466,1,8,0:0:0:0:
256,192,85616,1,0,0:0:0:0:
256,192,85916,1,0,0:0:0:0:
256,192,86066,1,8,0:0:0:0:
256,192,86216,1,8,0:0:0:0:
256,192,86366,1,0,0:0:0:0:
256,192,86665,1,8,0:0:0:0:
256,192,86740,1,8,0:0:0:0:
256,192,86815,1,8,0:0:0:0:
256,192,86965,1,8,0:0:0:0:
256,192,87265,1,8,0:0:0:0:
256,192,87565,1,0,0:0:0:0:
256,192,87715,1,0,0:0:0:0:
256,192,87865,1,8,0:0:0:0:
256,192,88165,1,0,0:0:0:0:
256,192,88465,1,8,0:0:0:0:
256,192,88765,1,8,0:0:0:0:
256,192,88915,1,0,0:0:0:0:
256,192,89065,1,8,0:0:0:0:
256,192,89515,1,0,0:0:0:0:
256,192,89665,1,8,0:0:0:0:
256,192,89965,1,0,0:0:0:0:
256,192,90039,1,0,0:0:0:0:
256,192,90114,1,0,0:0:0:0:
256,192,90264,1,8,0:0:0:0:
256,192,90564,1,0,0:0:0:0:
256,192,90714,1,8,0:0:0:0:
256,192,90864,1,8,0:0:0:0:
256,192,91164,1,0,0:0:0:0:
256,192,91314,1,0,0:0:0:0:
256,192,91464,1,8,0:0:0:0:
256,192,91914,1,0,0:0:0:0:
256,192,92064,1,8,0:0:0:0:
256,192,92364,1,8,0:0:0:0:
256,192,92514,1,0,0:0:0:0:
256,192,92664,1,8,0:0:0:0:
256,192,92814,1,0,0:0:0:0:
256,192,93114,1,0,0:0:0:0:
256,192,93264,1,8,0:0:0:0:
256,192,93563,1,0,0:0:0:0:
256,192,93863,1,8,0:0:0:0:
256,192,94013,1,8,0:0:0:0:
256,192,94163,1,0,0:0:0:0:
256,192,94463,1,8,0:0:0:0:
256,192,94763,1,0,0:0:0:0:
256,192,94913,1,0,0:0:0:0:
256,192,95063,1,8,0:0:0:0:
256,192,95363,1,0,0:0:0:0:
256,192,95513,1,0,0:0:0:0:
256,192,95663,1,0,0:0:0:0:
256,192,95813,1,0,0:0:0:0:
256,192,95963,1,0,0:0:0:0:
256,192,96263,1,8,0:0:0:0:
256,192,96413,1,0,0:0:0:0:
256,192,96862,1,8,0:0:0:0:
256,192,97162,1,0,0:0:0:0:
256,192,97312,1,0,0:0:0:0:
256,192,97462,1,8,0:0:0:0:
256,192,97612,1,0,0:0:0:0:
256,192,98062,1,8,0:0:0:0:
256,192,98362,1,0,0:0:0:0:
256,192,98512,1,0,0:0:0:0:
256,192,98662,1,8,0:0:0:0:
256,192,98812,1,0,0:0:0:0:
256,192,99112,1,0,0:0:0:0:
256,192,99262,1,8,0:0:0:0:
256,192,99562,1,0,0:0:0:0:
256,192,99637,1,0,0:0:0:0:
256,192,99712,1,0,0:0:0:0:
256,192,99862,1,8,0:0:0:0:
256,192,100311,1,0,0:0:0:0:
256,192,100461,1,8,0:0:0:0:
256,192,100761,1,0,0:0:0:0:
256,192,101061,1,8,0:0:0:0:
256,192,101211,1,0,0:0:0:0:
256,192,101511,1,0,0:0:0:0:
256,192,101661,1,8,0:0:0:0:
256,192,101961,1,0,0:0:0:0:
256,192,102111,1,0,0:0:0:0:
256,192,102261,1,8,0:0:0:0:
256,192,102411,1,0,0:0:0:0:
256,192,102861,1,8,0:0:0:0:
256,192,103161,1,0,0:0:0:0:
256,192,103460,1,8,0:0:0:0:
256,192,103610,1,0,0:0:0:0:
256,192,103910,1,0,0:0:0:0:
256,192,104060,1,8,0:0:0:0:
256,192,104360,1,0,0:0:0:0:
256,192,104660,1,8,0:0:0:0:
256,192,104960,1,8,0:0:0:0:
256,192,105260,1,8,0:0:0:0:
256,192,105560,5,4,0:0:0:0:
256,192,105860,1,8,0:0:0:0:
256,192,106010,1,0,0:0:0:0:
256,192,106310,1,0,0:0:0:0:
256,192,106460,1,8,0:0:0:0:
256,192,106759,1,0,0:0:0:0:
256,192,107059,1,8,0:0:0:0:
256,192,107209,1,0,0:0:0:0:
256,192,107659,1,8,0:0:0:0:
256,192,107959,1,0,0:0:0:0:
256,192,108259,1,8,0:0:0:0:
256,192,108409,1,0,0:0:0:0:
256,192,108559,1,0,0:0:0:0:
256,192,108859,1,8,0:0:0:0:
256,192,109009,1,8,0:0:0:0:
256,192,109159,1,0,0:0:0:0:
256,192,109459,1,8,0:0:0:0:
256,192,109609,1,8,0:0:0:0:
256,192,109909,1,8,0:0:0:0:
256,192,110058,1,8,0:0:0:0:
256,192,110358,1,0,0:0:0:0:
256,192,110658,1,8,0:0:0:0:
256,192,110808,1,0,0:0:0:0:
256,192,111108,1,0,0:0:0:0:
256,192,111258,1,8,0:0:0:0:
256,192,111558,1,0,0:0:0:0:
256,192,111858,1,8,0:0:0:0:
256,192,112008,1,8,0:0:0:0:
256,192,112458,1,8,0:0:0:0:
256,192,112758,1,0,0:0:0:0:
256,192,113058,1,8,0:0:0:0:
256,192,113208,1,8,0:0:0:0:
256,192,113357,1,0,0:0:0:0:
256,192,113657,1,8,0:0:0:0:
256,192,113807,1,0,0:0:0:0:
256,192,113957,1,0,0:0:0:0:
256,192,114257,1,8,0:0:0:0:
256,192,114407,1,8,0:0:0:0:
256,192,114557,1,0,0:0:0:0:
256,192,114707,1,8,0:0:0:0:
256,192,114857,1,8,0:0:0:0:
256,192,115157,1,4,0:0:0:0:
256,192,115457,1,8,0:0:0:0:
256,192,115607,1,0,0:0:0:0:
256,192,115907,1,0,0:0:0:0:
256,192,116057,1,8,0:0:0:0:
256,192,116357,1,0,0:0:0:0:
256,192,116507,1,0,0:0:0:0:
256,192,116657,1,8,0:0:0:0:
256,192,116956,1,0,0:0:0:0:
256,192,117256,1,8,0:0:0:0:
256,192,117556,1,0,0:0:0:0:
256,192,117856,1,8,0:0:0:0:
256,192,118006,1,0,0:0:0:0:
256,192,118306,1,0,0:0:0:0:
256,192,118456,1,8,0:0:0:0:
256,192,118606,1,8,0:0:0:0:
256,192,118756,1,0,0:0:0:0:
256,192,119056,1,8,0:0:0:0:
256,192,119206,1,8,0:0:0:0:
256,192,119506,1,8,0:0:0:0:
256,192,119656,1,8,0:0:0:0:
256,192,119956,1,4,0:0:0:0:
256,192,120255,1,8,0:0:0:0:
256,192,120405,1,0,0:0:0:0:
256,192,120855,1,8,0:0:0:0:
256,192,121155,1,0,0:0:0:0:
256,192,121305,1,0,0:0:0:0:
256,192,121455,1,8,0:0:0:0:
256,192,121755,1,0,0:0:0:0:
256,192,122055,1,8,0:0:0:0:
256,192,122355,1,0,0:0:0:0:
256,192,122655,1,8,0:0:0:0:
256,192,122805,1,8,0:0:0:0:
256,192,122955,1,0,0:0:0:0:
256,192,123255,1,8,0:0:0:0:
256,192,123554,1,0,0:0:0:0:
256,192,123854,1,8,0:0:0:0:
256,192,124304,1,0,0:0:0:0:
256,192,124454,1,8,0:0:0:0:
256,192,124754,1,4,0:0:0:0:
256,192,125054,1,8,0:0:0:0:
256,192,125204,1,8,0:0:0:0:
256,192,125354,1,0,0:0:0:0:
256,192,125654,1,8,0:0:0:0:
256,192,125954,1,0,0:0:0:0:
256,192,126104,1,0,0:0:0:0:
256,192,126254,1,8,0:0:0:0:
256,192,126554,1,0,0:0:0:0:
256,192,126853,1,8,0:0:0:0:
256,192,127153,1,0,0:0:0:0:
256,192,127303,1,0,0:0:0:0:
256,192,127453,1,8,0:0:0:0:
256,192,127603,1,0,0:0:0:0:
256,192,127903,1,0,0:0:0:0:
256,192,128053,1,8,0:0:0:0:
256,192,128353,1,0,0:0:0:0:
256,192,128653,1,8,0:0:0:0:
256,192,128803,1,0,0:0:0:0:
256,192,128953,1,8,0:0:0:0:
256,192,129103,1,0,0:0:0:0:
256,192,129253,1,8,0:0:0:0:
256,192,129553,1,12,0:0:0:0:
256,192,129853,1,8,0:0:0:0:
256,192,130302,1,0,0:0:0:0:
256,192,130452,1,8,0:0:0:0:
256,192,130752,1,0,0:0:0:0:
256,192,131052,1,8,0:0:0:0:
256,192,131202,1,0,0:0:0:0:
256,192,131502,1,0,0:0:0:0:
256,192,131652,1,8,0:0:0:0:
256,192,131952,1,4,0:0:0:0:
256,192,132252,1,8,0:0:0:0:
256,192,132702,1,0,0:0:0:0:
256,192,132852,1,8,0:0:0:0:
256,192,133002,1,8,0:0:0:0:
256,192,133152,1,0,0:0:0:0:
256,192,133451,1,8,0:0:0:0:
256,192,133601,1,0,0:0:0:0:
256,192,133901,1,0,0:0:0:0:
256,192,134051,1,8,0:0:0:0:
256,192,134351,1,4,0:0:0:0:
256,192,134651,1,8,0:0:0:0:
256,192,135101,1,0,0:0:0:0:
256,192,135251,1,8,0:0:0:0:
256,192,135551,1,0,0:0:0:0:
256,192,135851,1,8,0:0:0:0:
256,192,136001,1,0,0:0:0:0:
256,192,136301,1,0,0:0:0:0:
256,192,136451,1,8,0:0:0:0:
256,192,136750,1,4,0:0:0:0:
256,192,137050,1,8,0:0:0:0:
256,192,137200,1,8,0:0:0:0:
256,192,137650,1,8,0:0:0:0:
256,192,137950,1,0,0:0:0:0:
256,192,138100,1,0,0:0:0:0:
256,192,138250,1,8,0:0:0:0:
256,192,138400,1,0,0:0:0:0:
256,192,138550,1,0,0:0:0:0:
256,192,138850,1,8,0:0:0:0:
256,192,139000,1,0,0:0:0:0:
256,192,139150,1,12,0:0:0:0:
256,192,139450,1,8,0:0:0:0:
256,192,139900,1,0,0:0:0:0:
256,192,140049,1,8,0:0:0:0:
256,192,140349,1,0,0:0:0:0:
256,192,140649,1,8,0:0:0:0:
256,192,140799,1,0,0:0:0:0:
256,192,141099,1,0,0:0:0:0:
256,192,141249,1,8,0:0:0:0:
256,192,141549,1,4,0:0:0:0:
256,192,141849,1,8,0:0:0:0:
256,192,141999,1,8,0:0:0:0:
256,192,142449,1,8,0:0:0:0:
256,192,142749,1,0,0:0:0:0:
256,192,142899,1,0,0:0:0:0:
256,192,143049,1,8,0:0:0:0:
256,192,143199,1,0,0:0:0:0:
256,192,143498,1,0,0:0:0:0:
256,192,143648,1,8,0:0:0:0:
256,192,143948,1,4,0:0:0:0:
256,192,144248,1,8,0:0:0:0:
256,192,144698,1,0,0:0:0:0:
256,192,144848,1,8,0:0:0:0:
256,192,145148,1,0,0:0:0:0:
256,192,145448,1,8,0:0:0:0:
256,192,145598,1,0,0:0:0:0:
256,192,145898,1,0,0:0:0:0:
256,192,146048,1,8,0:0:0:0:
256,192,146348,1,4,0:0:0:0:
256,192,146648,1,8,0:0:0:0:
256,192,146797,1,8,0:0:0:0:
256,192,146947,1,0,0:0:0:0:
256,192,147247,1,8,0:0:0:0:
256,192,147397,1,8,0:0:0:0:
256,192,147547,1,0,0:0:0:0:
256,192,147847,1,8,0:0:0:0:
256,192,147997,1,0,0:0:0:0:
256,192,148447,1,8,0:0:0:0:
256,192,148747,5,4,0:0:0:0:
256,192,149047,1,8,0:0:0:0:
256,192,149197,1,0,0:0:0:0:
256,192,149497,1,0,0:0:0:0:
256,192,149647,1,8,0:0:0:0:
256,192,149947,1,0,0:0:0:0:
256,192,150246,1,8,0:0:0:0:
256,192,150396,1,0,0:0:0:0:
256,192,150846,1,8,0:0:0:0:
256,192,150996,1,0,0:0:0:0:
256,192,151146,1,0,0:0:0:0:
256,192,151446,1,8,0:0:0:0:
256,192,151596,1,0,0:0:0:0:
256,192,151896,1,0,0:0:0:0:
256,192,152046,1,8,0:0:0:0:
256,192,152196,1,8,0:0:0:0:
256,192,152346,1,0,0:0:0:0:
256,192,152646,1,8,0:0:0:0:
256,192,152796,1,0,0:0:0:0:
256,192,152946,1,0,0:0:0:0:
256,192,153096,1,8,0:0:0:0:
256,192,153246,1,8,0:0:0:0:
256,192,153545,1,0,0:0:0:0:
256,192,153845,1,8,0:0:0:0:
256,192,153995,1,0,0:0:0:0:
256,192,154295,1,0,0:0:0:0:
256,192,154445,1,8,0:0:0:0:
256,192,154745,1,0,0:0:0:0:
256,192,155045,1,8,0:0:0:0:
256,192,155195,1,8,0:0:0:0:
256,192,155645,1,8,0:0:0:0:
256,192,155795,1,8,0:0:0:0:
256,192,155945,1,0,0:0:0:0:
256,192,156245,1,8,0:0:0:0:
256,192,156395,1,8,0:0:0:0:
256,192,156694,1,0,0:0:0:0:
256,192,156844,1,8,0:0:0:0:
256,192,156994,1,0,0:0:0:0:
256,192,157144,1,0,0:0:0:0:
256,192,157444,1,8,0:0:0:0:
256,192,157594,1,0,0:0:0:0:
256,192,157744,1,0,0:0:0:0:
256,192,157894,1,8,0:0:0:0:
256,192,158044,1,8,0:0:0:0:
256,192,158344,1,4,0:0:0:0:
256,192,158644,1,8,0:0:0:0:
256,192,158794,1,0,0:0:0:0:
256,192,159094,1,0,0:0:0:0:
256,192,159244,1,8,0:0:0:0:
256,192,159544,1,0,0:0:0:0:
256,192,159694,1,0,0:0:0:0:
256,192,159844,1,8,0:0:0:0:
256,192,160143,1,0,0:0:0:0:
256,192,160443,1,8,0:0:0:0:
256,192,160593,1,8,0:0:0:0:
256,192,160743,1,0,0:0:0:0:
256,192,161043,1,8,0:0:0:0:
256,192,161193,1,0,0:0:0:0:
256,192,161493,1,0,0:0:0:0:
256,192,161643,1,8,0:0:0:0:
256,192,161793,1,8,0:0:0:0:
256,192,161943,1,0,0:0:0:0:
256,192,162243,1,8,0:0:0:0:
256,192,162393,1,8,0:0:0:0:
256,192,162543,1,0,0:0:0:0:
256,192,162693,1,8,0:0:0:0:
256,192,162843,1,8,0:0:0:0:
256,192,163143,1,4,0:0:0:0:
256,192,163442,1,8,0:0:0:0:
256,192,163592,1,0,0:0:0:0:
256,192,164042,1,8,0:0:0:0:
256,192,164342,1,0,0:0:0:0:
256,192,164492,1,0,0:0:0:0:
256,192,164642,1,8,0:0:0:0:
256,192,164942,1,0,0:0:0:0:
256,192,165242,1,8,0:0:0:0:
256,192,165542,1,0,0:0:0:0:
256,192,165842,1,8,0:0:0:0:
256,192,165992,1,8,0:0:0:0:
256,192,166142,1,0,0:0:0:0:
256,192,166442,1,8,0:0:0:0:
256,192,166741,1,0,0:0:0:0:
256,192,167041,1,8,0:0:0:0:
256,192,167641,1,8,0:0:0:0:
256,192,167791,1,8,0:0:0:0:
256,192,167941,1,4,0:0:0:0:
256,192,168241,1,8,0:0:0:0:
256,192,168541,1,0,0:0:0:0:
256,192,168691,1,8,0:0:0:0:
256,192,168841,1,8,0:0:0:0:
256,192,169141,1,0,0:0:0:0:
256,192,169441,1,8,0:0:0:0:
256,192,169741,1,0,0:0:0:0:
256,192,169891,1,8,0:0:0:0:
256,192,170040,1,8,0:0:0:0:
256,192,170190,1,8,0:0:0:0:
256,192,170340,1,0,0:0:0:0:
256,192,170640,1,8,0:0:0:0:
256,192,171090,1,0,0:0:0:0:
256,192,171240,1,8,0:0:0:0:
256,192,171540,1,0,0:0:0:0:
256,192,171615,1,0,0:0:0:0:
256,192,171690,1,0,0:0:0:0:
256,192,171840,1,8,0:0:0:0:
256,192,172140,1,0,0:0:0:0:
256,192,172290,1,0,0:0:0:0:
256,192,172440,1,8,0:0:0:0:
256,192,172740,1,4,0:0:0:0:
256,192,173040,1,8,0:0:0:0:
256,192,173190,1,8,0:0:0:0:
256,192,173339,1,0,0:0:0:0:
256,192,173639,1,8,0:0:0:0:
256,192,173789,1,0,0:0:0:0:
256,192,173939,1,0,0:0:0:0:
256,192,174089,1,0,0:0:0:0:
256,192,174239,1,8,0:0:0:0:
256,192,174539,1,0,0:0:0:0:
256,192,174689,1,8,0:0:0:0:
256,192,174839,1,8,0:0:0:0:
256,192,174989,1,8,0:0:0:0:
256,192,175139,1,0,0:0:0:0:
256,192,175439,1,8,0:0:0:0:
256,192,175739,1,8,0:0:0:0:
256,192,176039,1,8,0:0:0:0:
256,192,176339,1,0,0:0:0:0:
256,192,176639,1,8,0:0:0:0:
256,192,176788,1,0,0:0:0:0:
256,192,176938,1,0,0:0:0:0:
256,192,177088,1,0,0:0:0:0:
256,192,177238,1,8,0:0:0:0:
256,192,177538,12,0,183536,0:0:0:0:
