osu file format v14

[General]
AudioFilename: audio.mp3
AudioLeadIn: 0
PreviewTime: 51592
Countdown: 0
SampleSet: Soft
StackLeniency: 0.5
Mode: 2
LetterboxInBreaks: 0
WidescreenStoryboard: 1

[Editor]
Bookmarks: 23121,51911,80701,96295,109491,133482,143079,152675,167070,174268,181465
DistanceSpacing: 1
BeatDivisor: 3
GridSize: 32
TimelineZoom: 1.8

[Metadata]
Title:Breaking The Habit
TitleUnicode:Breaking The Habit
Artist:Linkin Park
ArtistUnicode:Linkin Park
Creator:Secre
Version:Tonight
Source:
Tags:chickenbible aakki nu metal english alternative rock meteora chester bennington osu!catch 3 digit world cup 2022 3CWC2022 RO16 Round of 16 DT1 DoubleTime1
BeatmapID:3700843
BeatmapSetID:1804743

[Difficulty]
HPDrainRate:4
CircleSize:3.8
OverallDifficulty:8.3
ApproachRate:8.3
SliderMultiplier:1.38
SliderTickRate:1

[Events]
//Background and Video events
0,0,"i cant break the habit of making vtuber references in my bg names.jpg",0,0
//Break Periods
//Storyboard Layer 0 (Background)
//Storyboard Layer 1 (Fail)
//Storyboard Layer 2 (Pass)
//Storyboard Layer 3 (Foreground)
//Storyboard Layer 4 (Overlay)
//Storyboard Sound Samples

[TimingPoints]
3928,299.895036737142,4,2,1,20,1,0
4227,-100,4,2,1,20,0,0
6027,-100,4,2,1,20,0,0
13224,-100,4,2,1,20,0,0
13524,-100,4,2,1,60,0,0
14274,-100,4,2,1,60,0,0
15923,-100,4,2,1,60,0,0
16673,-100,4,2,1,60,0,0
18322,-100,4,2,1,60,0,0
19072,-100,4,2,1,60,0,0
20722,-100,4,2,1,60,0,0
21471,-100,4,2,1,60,0,0
22221,-100,4,2,1,60,0,0
22371,-100,4,2,1,60,0,0
22521,-100,4,2,1,60,0,0
22671,-100,4,2,1,60,0,0
22821,-100,4,2,1,60,0,0
22971,-100,4,2,1,60,0,0
23121,-100,4,2,1,45,0,0
26420,-100,4,2,1,45,0,0
30018,-100,4,2,1,45,0,0
31218,-100,4,2,1,45,0,0
32418,-100,4,2,1,45,0,0
35866,-100,4,2,1,45,0,0
37216,-100,4,2,1,45,0,0
38415,-100,4,2,1,45,0,0
40815,-100,4,2,1,45,0,0
42314,-100,4,2,1,55,0,0
43139,-100,4,2,1,55,0,0
44413,-100,4,2,1,55,0,0
48012,-100,4,2,1,55,0,0
51611,-100,4,2,1,55,0,0
51911,-100,4,2,1,85,0,1
51986,-100,4,2,1,85,0,0
52211,-100,4,2,1,85,0,0
53110,-100,4,2,1,85,0,0
55809,-100,4,2,1,85,0,0
56709,-100,4,2,1,85,0,0
57009,-100,4,2,1,85,0,0
57909,-100,4,2,1,85,0,0
61507,-100,4,2,1,85,0,0
61807,-100,4,2,1,85,0,0
62707,-100,4,2,1,85,0,0
65406,-100,4,2,1,85,0,0
66306,-100,4,2,1,85,0,0
68705,-100,4,2,1,85,0,0
71104,-100,4,2,1,85,0,0
71423,-100,4,2,1,45,0,0
71554,-100,4,2,1,85,0,0
72304,-100,4,2,1,85,0,0
73503,-100,4,2,1,85,0,0
79351,-100,4,2,1,55,0,0
79401,-100,4,2,1,55,0,0
80701,-100,4,2,1,60,0,0
83400,-100,4,2,1,60,0,0
99444,-100,4,2,1,60,0,0
99594,-100,4,2,1,60,0,0
99894,-100,4,2,1,65,0,0
101093,-100,4,2,1,65,0,0
102293,-100,4,2,1,65,0,0
104692,-100,4,2,1,65,0,0
105442,-100,4,2,1,65,0,0
106642,-100,4,2,1,65,0,0
108291,-100,4,2,1,65,0,0
109191,-100,4,2,1,65,0,0
109491,-100,4,2,1,85,0,1
109566,-100,4,2,1,85,0,0
110690,-100,4,2,1,85,0,0
113089,-100,4,2,1,85,0,0
114289,-100,4,2,1,85,0,0
115488,-100,4,2,1,85,0,0
116238,-100,4,2,1,85,0,0
116988,-100,4,2,1,85,0,0
117438,-100,4,2,1,85,0,0
119087,-100,4,2,1,85,0,0
120287,-100,4,2,1,85,0,0
121486,-100,4,2,1,85,0,0
122986,-100,4,2,1,85,0,0
123886,-100,4,2,1,85,0,0
125685,-100,4,2,1,85,0,0
126285,-100,4,2,1,85,0,0
128684,-100,4,2,1,85,0,0
129002,-100,4,2,1,45,0,0
129134,-100,4,2,1,85,0,0
129883,-100,4,2,1,85,0,0
131083,-100,4,2,1,85,0,0
133482,-100,4,2,1,95,0,1
133557,-100,4,2,1,95,0,0
133782,-100,4,2,1,95,0,0
134682,-100,4,2,1,95,0,0
135431,-100,4,2,1,95,0,0
135881,-100,4,2,1,95,0,1
137081,-100,4,2,1,95,0,1
137981,-100,4,2,1,95,0,0
139480,-100,4,2,1,95,0,0
140680,-100,4,2,1,95,0,1
141879,-100,4,2,1,95,0,1
142779,-100,4,2,1,95,0,0
145028,-100,4,2,1,95,0,0
145478,-100,4,2,1,95,0,1
146678,-100,4,2,1,95,0,1
147577,-100,4,2,1,95,0,0
149077,-100,4,2,1,95,0,0
150276,-100,4,2,1,95,0,1
151326,-100,4,2,1,95,0,1
151476,-100,4,2,1,95,0,1
152376,-100,4,2,1,95,0,0
152675,-100,4,2,1,90,0,1
152750,-100,4,2,1,90,0,0
152975,-100,4,2,1,90,0,0
154625,-100,4,2,1,90,0,0
157774,-100,4,2,1,90,0,0
160623,-100,4,2,1,90,0,0
162572,-100,4,2,1,90,0,0
164671,-100,4,2,1,90,0,0
167070,-100,4,2,1,90,0,0
168270,-100,4,2,1,90,0,0
171419,-100,4,2,1,90,0,0
172169,-100,4,2,1,90,0,0
175467,-100,4,2,1,90,0,0
178466,-100,4,2,1,90,0,0
181315,-100,4,2,1,90,0,0
181765,-100,4,2,1,40,0,0

[Colours]
Combo1 : 255,128,128
Combo2 : 186,193,199
Combo3 : 164,108,137
Combo4 : 139,139,139

[HitObjects]
285,240,3927,6,0,L|132:274,3,138,2|2|2|2,0:0|0:0|0:0|0:0,0:0:0:0:
360,244,5127,6,0,L|370:88,1,138,2|2,0:0|0:0,0:0:0:0:
289,79,5577,1,8,0:0:0:0:
212,91,5727,2,0,L|206:231,1,138,0|2,0:0|0:0,0:0:0:0:
415,174,6327,6,0,L|257:203,3,138,2|2|2|2,0:0|0:0|0:0|0:0,0:0:0:0:
65,126,7526,6,0,L|62:-19,1,138,2|2,0:0|0:0,0:0:0:0:
209,52,8126,2,0,L|347:51,1,138,2|2,0:0|0:0,0:0:0:0:
144,195,8726,6,0,L|3:204,3,138,2|2|2|2,0:0|0:0|0:0|0:0,0:0:0:0:
218,160,9925,6,0,L|221:11,1,138,2|2,0:0|0:0,0:0:0:0:
76,56,10525,2,0,L|67:223,1,138,2|2,0:0|0:0,0:0:0:0:
276,196,11125,6,0,L|429:187,1,138,2|2,0:0|0:0,0:0:0:0:
338,121,11575,1,2,0:0:0:0:
265,142,11725,2,0,L|260:-11,1,138,2|2,0:0|0:0,0:0:0:0:
463,90,12325,6,0,L|301:93,1,138,2|2,0:0|0:0,0:0:0:0:
254,94,12774,1,8,0:0:0:0:
326,90,12924,2,0,L|331:234,1,138,0|2,0:0|0:0,0:0:0:0:
260,248,13374,1,0,0:0:0:0:
39,174,13524,6,0,P|36:116|110:87,1,138,6|8,1:2|0:0,0:0:0:0:
241,129,13974,2,0,P|292:150|234:176,1,138,2|2,0:0|1:2,0:0:0:0:
174,177,14424,2,0,L|172:88,1,69,10|0,0:0|0:0,0:0:0:0:
311,86,14724,6,0,L|167:90,1,138,2|8,1:2|0:0,0:0:0:0:
311,86,15174,2,0,P|350:94|306:154,1,138,2|2,0:0|1:2,0:0:0:0:
245,161,15623,2,0,L|170:159,1,69,10|0,0:0|0:0,0:0:0:0:
319,165,15923,6,0,P|361:169|406:264,1,138,2|8,1:2|0:0,0:0:0:0:
268,275,16373,2,0,P|228:259|286:202,1,138,2|2,0:0|1:2,0:0:0:0:
336,187,16823,2,0,L|339:93,1,69,10|0,0:0|0:0,0:0:0:0:
194,98,17123,6,0,L|352:97,1,138,2|8,1:2|0:0,0:0:0:0:
194,98,17573,2,0,P|153:112|210:159,1,138,2|2,0:0|1:2,0:0:0:0:
275,160,18023,2,0,L|280:83,1,69,10|0,0:0|0:0,0:0:0:0:
50,210,18322,6,0,P|51:167|133:134,1,138,6|8,1:2|0:0,0:0:0:0:
273,147,18772,2,0,L|415:148,1,138,2|2,0:0|1:2,0:0:0:0:
338,212,19222,2,0,L|249:212,1,69,10|0,0:0|0:0,0:0:0:0:
415,281,19522,6,0,P|447:270|407:198,1,138,2|8,1:2|0:0,0:0:0:0:
276,174,19972,2,0,L|130:173,1,138,2|2,0:0|1:2,0:0:0:0:
214,103,20422,2,0,L|300:99,1,69,10|0,0:0|0:0,0:0:0:0:
140,225,20722,6,0,P|99:210|152:152,1,138,2|8,1:2|0:0,0:0:0:0:
278,148,21171,2,0,P|330:112|270:86,1,138,10|2,0:0|1:2,0:0:0:0:
206,76,21621,2,0,L|128:77,1,69,10|0,0:0|0:0,0:0:0:0:
278,145,21921,6,0,L|430:143,1,138,2|8,1:2|0:0,0:0:0:0:
278,145,22371,2,0,P|239:158|286:219,1,138,2|2,0:0|1:2,0:0:0:0:
416,217,22821,2,0,L|421:127,1,69,10|0,0:0|0:0,0:0:0:0:
276,100,23121,6,0,L|132:105,1,138,0|8,1:0|0:0,0:0:0:0:
352,170,23721,2,0,L|356:8,1,138,2|8,0:0|0:0,0:0:0:0:
217,98,24320,6,0,L|374:97,1,138,2|8,3:2|0:0,0:0:0:0:
285,150,24770,1,0,0:0:0:0:
144,167,24920,2,0,P|120:103|164:36,1,138,2|8,0:0|0:0,0:0:0:0:
390,96,25520,6,0,L|227:93,2,138,2|8|0,1:2|0:0|0:0,0:0:0:0:
161,180,26420,1,10,0:0:0:0:
404,177,26720,6,0,P|437:159|393:82,1,138,2|10,3:2|0:0,0:0:0:0:
333,82,27169,2,0,L|188:84,1,138,2|0,0:0|0:0,0:0:0:0:
267,86,27619,1,10,0:0:0:0:
195,83,27769,1,2,1:2:0:0:
337,98,27919,6,0,L|341:256,1,138,2|8,1:2|0:0,0:0:0:0:
477,236,28519,1,0,3:0:0:0:
229,235,28819,1,10,0:0:0:0:
477,236,29119,6,0,P|482:191|401:158,1,138,2|10,3:2|0:0,0:0:0:0:
337,148,29569,2,0,L|190:145,1,138,2|0,0:0|0:0,0:0:0:0:
268,228,30018,2,0,L|347:229,1,69,10|0,0:0|1:0,0:0:0:0:
189,212,30318,6,0,P|142:191|194:142,1,138,2|10,1:2|0:0,0:0:0:0:
257,124,30768,2,0,L|404:125,1,138,2|0,0:0|0:0,0:0:0:0:
322,182,31218,2,0,L|243:181,1,69,8|0,0:0|0:0,0:0:0:0:
399,197,31518,6,0,P|426:155|389:66,1,138,0|8,3:0|0:0,0:0:0:0:
323,74,31968,2,0,L|183:75,1,138
259,141,32418,2,0,L|351:138,1,69,8|0,0:0|1:0,0:0:0:0:
183,191,32717,6,0,L|179:24,1,138,0|8,1:0|0:0,0:0:0:0:
393,47,33317,2,0,L|234:47,1,138,2|8,0:0|0:0,0:0:0:0:
478,140,33917,6,0,L|488:-26,1,138,2|8,3:2|0:0,0:0:0:0:
263,43,34517,2,0,L|99:45,1,138,2|8,0:0|0:0,0:0:0:0:
357,114,35117,6,0,P|409:111|350:240,1,276,2|0,1:2|0:0,0:0:0:0:
137,166,36016,1,10,0:0:0:0:
368,173,36316,6,0,L|208:176,1,138,2|10,3:2|0:0,0:0:0:0:
299,178,36766,2,0,P|366:184|382:244,1,138,2|0,0:0|0:0,0:0:0:0:
305,191,37216,1,10,0:0:0:0:
373,178,37366,1,0,1:0:0:0:
237,260,37516,6,0,L|87:262,2,138,2|8|0,1:2|0:0|0:0,0:0:0:0:
472,250,38415,1,10,0:0:0:0:
225,154,38715,6,0,P|155:153|115:221,1,138,2|10,3:2|0:0,0:0:0:0:
263,226,39165,2,0,L|414:226,1,138,2|0,0:0|0:0,0:0:0:0:
263,226,39615,2,0,L|183:227,1,69,10|0,0:0|1:0,0:0:0:0:
333,294,39915,6,0,P|371:277|327:214,1,138,2|10,1:2|0:0,0:0:0:0:
108,190,40365,2,0,P|61:165|119:116,1,138,2|0,0:0|0:0,0:0:0:0:
245,110,40815,2,0,L|322:106,1,69,8|0,0:0|0:0,0:0:0:0:
175,267,41114,6,0,P|133:251|185:195,1,138,0|8,3:0|0:0,0:0:0:0:
422,164,41714,2,0,L|336:167,2,69,0|0|8,1:0|1:0|0:0,0:0:0:0:
178,253,42314,6,0,P|134:237|194:195,1,138,2|10,1:2|0:0,0:0:0:0:
321,178,42764,2,0,L|465:175,1,138,2|0,0:0|3:0,0:0:0:0:
317,173,43214,2,0,L|316:88,1,69,10|0,0:0|0:0,0:0:0:0:
453,84,43514,5,2,3:2:0:0:
315,172,43664,2,0,L|230:172,1,69,0|10,3:0|0:0,0:0:0:0:
387,191,43963,2,0,P|428:196|375:248,1,138,2|0,0:0|0:0,0:0:0:0:
328,264,44413,1,8,0:0:0:0:
399,261,44563,1,2,1:2:0:0:
254,264,44713,5,2,1:2:0:0:
183,258,44863,2,0,L|181:178,1,69,2|10,0:0|0:0,0:0:0:0:
324,162,45163,2,0,L|328:78,1,69,2|0,0:0|0:0,0:0:0:0:
185,78,45463,2,0,L|107:76,1,69,2|0,0:0|0:0,0:0:0:0:
264,98,45763,6,0,P|321:106|359:201,1,138,2|0,0:0|3:0,0:0:0:0:
222,215,46213,2,0,L|222:140,1,69,8|0,0:0|0:0,0:0:0:0:
308,121,46513,2,0,L|229:121,1,69,0|0,0:0|1:0,0:0:0:0:
380,124,46812,2,0,L|478:125,1,69,10|0,0:0|0:0,0:0:0:0:
230,98,47112,6,0,P|186:97|132:188,1,138,2|8,1:2|0:0,0:0:0:0:
276,203,47562,2,0,L|426:205,1,138,2|0,0:0|0:0,0:0:0:0:
276,203,48012,2,0,L|198:198,1,69,10|0,0:0|0:0,0:0:0:0:
352,268,48312,6,0,P|396:248|351:184,1,138,2|10,3:2|0:0,0:0:0:0:
220,168,48762,2,0,L|74:167,1,138,2|0,0:0|1:0,0:0:0:0:
152,168,49212,1,8,0:0:0:0:
82,167,49362,1,2,1:2:0:0:
220,168,49512,6,0,L|379:164,1,138,2|10,1:2|0:0,0:0:0:0:
220,168,49961,2,0,P|174:182|222:238,1,138,2|0,0:0|1:0,0:0:0:0:
349,239,50411,2,0,L|353:156,1,69,10|0,0:0|0:0,0:0:0:0:
211,119,50711,6,0,L|59:118,1,138,2|8,1:2|0:0,0:0:0:0:
73,118,51311,1,0,0:0:0:0:
328,129,51611,2,0,L|331:217,1,69,2|0,0:0|0:0,0:0:0:0:
120,280,51911,6,0,L|277:281,1,138,6|10,1:1|0:0,0:0:0:0:
120,280,52361,2,0,L|118:189,1,69,2|0,0:0|0:0,0:0:0:0:
270,182,52660,2,0,L|425:183,1,138,2|0,1:2|0:0,0:0:0:0:
182,131,53110,6,0,L|104:132,2,69,2|2|8,1:2|0:0|0:0,0:0:0:0:
334,175,53560,2,0,P|335:129|240:100,1,138,2|0,0:0|1:0,0:0:0:0:
112,108,54010,2,0,L|109:23,1,69,8|2,0:0|0:0,0:0:0:0:
319,166,54310,6,0,P|378:172|410:249,1,138,2|10,1:2|0:0,0:0:0:0:
266,235,54760,2,0,L|262:155,1,69,2|0,0:0|0:0,0:0:0:0:
401,135,55060,2,0,L|408:41,1,69,2|8,1:2|0:0,0:0:0:0:
187,65,55359,6,0,L|37:63,1,138,2|0,0:0|0:0,0:0:0:0:
126,126,55809,1,8,0:0:0:0:
275,145,55959,2,0,P|312:117|264:58,1,138,0|0,0:0|1:0,0:0:0:0:
126,126,56409,2,0,L|121:36,1,69,10|0,0:0|0:0,0:0:0:0:
351,78,56709,6,0,L|496:79,1,138,2|10,1:2|0:0,0:0:0:0:
351,78,57159,2,0,L|350:-7,1,69,2|0,0:0|0:0,0:0:0:0:
487,36,57459,2,0,P|485:81|391:116,1,138,2|0,1:2|0:0,0:0:0:0:
182,165,57909,6,0,L|179:66,1,69,2|0,1:2|0:0,0:0:0:0:
257,71,58209,1,10,0:0:0:0:
402,68,58358,2,0,P|441:75|392:131,1,138,2|0,0:0|1:0,0:0:0:0:
334,141,58808,1,8,0:0:0:0:
196,138,58958,1,2,0:0:0:0:
334,141,59108,6,0,L|339:56,1,69,2|0,1:2|0:0,0:0:0:0:
196,138,59408,1,10,0:0:0:0:
334,141,59558,2,0,L|416:140,1,69,10|0,0:0|0:0,0:0:0:0:
265,76,59858,2,0,L|185:75,1,69,2|8,1:2|0:0,0:0:0:0:
407,213,60158,6,0,P|455:192|401:141,1,138,2|0,0:0|0:0,0:0:0:0:
346,127,60608,1,8,0:0:0:0:
196,166,60758,2,0,L|46:164,1,138,0|0,0:0|1:0,0:0:0:0:
58,164,61207,1,10,0:0:0:0:
419,238,61507,6,0,L|260:236,1,138,6|10,1:2|0:0,0:0:0:0:
419,238,61957,2,0,L|424:160,1,69,2|0,0:0|0:0,0:0:0:0:
275,125,62257,2,0,L|120:128,1,138,2|0,1:2|0:0,0:0:0:0:
353,192,62707,6,0,L|493:187,1,138,2|10,1:2|0:0,0:0:0:0:
224,216,63307,2,0,P|180:188|230:130,1,138,2|8,0:0|0:0,0:0:0:0:
360,120,63757,1,2,0:0:0:0:
218,129,63907,6,0,L|75:135,1,138,2|10,1:2|0:0,0:0:0:0:
218,129,64356,2,0,L|221:32,1,69,2|0,0:0|0:0,0:0:0:0:
78,43,64656,2,0,L|71:-57,1,69,2|8,1:2|0:0,0:0:0:0:
296,68,64956,6,0,L|465:73,1,138,2|0,0:0|0:0,0:0:0:0:
433,72,65406,1,8,0:0:0:0:
176,188,65706,1,2,0:0:0:0:
433,72,66006,1,10,0:0:0:0:
73,255,66306,6,0,L|72:109,1,138,6|8,1:1|0:0,0:0:0:0:
315,90,66905,2,0,L|477:88,1,138,0|8,0:0|0:0,0:0:0:0:
205,204,67505,6,0,L|366:203,1,138,2|8,1:2|0:0,0:0:0:0:
95,125,68105,2,0,L|87:-19,1,138,2|8,0:0|0:0,0:0:0:0:
460,103,68705,6,0,L|309:101,3,138,2|8|0|8,1:2|0:0|0:0|0:0,0:0:0:0:
56,208,69904,6,0,L|57:37,1,138,2|8,1:2|0:0,0:0:0:0:
132,55,70354,2,0,L|288:56,1,138,8|0,0:0|1:0,0:0:0:0:
194,114,70804,2,0,L|193:22,1,69,10|0,0:0|0:0,0:0:0:0:
426,164,71104,6,0,P|463:146|417:76,1,138,6|8,1:2|3:2,0:0:0:0:
357,67,71554,1,0,3:0:0:0:
215,139,71704,2,0,L|75:140,1,138,0|8,0:0|0:0,0:0:0:0:
331,145,72304,6,0,L|331:311,1,138,2|8,1:2|0:0,0:0:0:0:
64,166,72903,2,0,L|64:13,1,138,2|8,1:2|0:0,0:0:0:0:
436,82,73503,6,0,L|283:80,3,138,2|8|0|8,1:2|0:0|0:0|0:0,0:0:0:0:
71,181,74703,6,0,L|70:19,1,138,2|8,1:2|0:0,0:0:0:0:
142,38,75153,2,0,L|290:38,1,138,8|0,0:0|1:0,0:0:0:0:
142,38,75602,2,0,L|74:39,1,69,8|0,2:2|2:2,0:0:0:0:
287,92,75902,6,0,P|326:98|371:194,1,138,0|0,1:2|3:0,0:0:0:0:
308,180,76352,1,0,3:0:0:0:
178,111,76652,2,0,L|177:32,1,69
313,44,77102,6,0,L|168:42,1,138,0|0,1:2|0:0,0:0:0:0:
175,42,77552,1,0,3:0:0:0:
310,103,77852,2,0,L|391:103,1,69
155,203,78301,6,0,P|110:176|170:127,1,138,0|0,1:2|0:0,0:0:0:0:
210,114,78751,1,0,3:0:0:0:
344,100,79051,2,0,L|347:187,1,69
219,255,79501,6,0,L|375:255,1,138,8|8,3:0|3:0,0:0:0:0:
357,255,79951,1,0,0:0:0:0:
213,140,80251,2,0,L|133:139,2,69,0|8|0,0:0|3:0|0:0,0:0:0:0:
429,193,80701,6,0,P|467:174|422:107,1,138,6|8,1:2|0:0,0:0:0:0:
168,195,81300,2,0,L|164:33,1,138,2|8,0:0|0:0,0:0:0:0:
302,57,81899,6,0,L|145:56,1,138,2|8,1:2|0:0,0:0:0:0:
232,147,82349,1,0,3:0:0:0:
374,164,82499,2,0,P|398:100|354:33,1,138,2|8,3:2|0:0,0:0:0:0:
122,96,83099,6,0,L|285:93,2,138,2|8|0,1:2|0:0|0:0,0:0:0:0:
351,180,83999,1,10,0:0:0:0:
108,177,84299,6,0,P|75:159|119:82,1,138,2|10,1:2|0:0,0:0:0:0:
179,82,84748,2,0,L|324:84,1,138,2|0,0:0|1:0,0:0:0:0:
247,81,85199,1,10,0:0:0:0:
317,83,85348,1,2,0:0:0:0:
175,98,85498,6,0,L|171:256,1,138,0|8,1:0|0:0,0:0:0:0:
102,232,85949,1,0,0:0:0:0:
235,142,86249,2,0,L|315:142,1,69,0|10,1:0|0:0,0:0:0:0:
35,236,86698,6,0,P|30:191|111:158,1,138,2|10,1:2|0:0,0:0:0:0:
175,148,87148,2,0,L|322:145,1,138,2|0,0:0|1:0,0:0:0:0:
244,228,87597,2,0,L|165:229,1,69,10|0,0:0|0:0,0:0:0:0:
323,212,87897,6,0,P|370:191|318:142,1,138,2|10,1:2|0:0,0:0:0:0:
255,124,88347,2,0,L|108:125,1,138,2|0,0:0|1:0,0:0:0:0:
190,182,88797,2,0,L|269:181,1,69,8|0,0:0|0:0,0:0:0:0:
113,197,89097,6,0,P|86:155|123:66,1,138,0|8,1:3|0:0,0:0:0:0:
189,74,89547,2,0,L|329:75,1,138,0|0,0:0|1:0,0:0:0:0:
253,141,89997,2,0,L|161:138,1,69,8|0,0:0|3:0,0:0:0:0:
329,191,90296,6,0,L|333:24,1,138,0|10,1:0|0:0,0:0:0:0:
281,45,90672,1,10,0:0:0:0:
229,45,90747,1,10,0:0:0:0:
119,47,90896,2,0,L|278:47,1,138,10|8,0:0|0:0,0:0:0:0:
34,140,91496,6,0,L|24:-26,1,138,2|8,1:2|0:0,0:0:0:0:
249,43,92096,2,0,L|413:45,1,138,2|8,1:2|0:0,0:0:0:0:
155,114,92696,6,0,P|103:111|162:240,1,276,2|0,1:2|0:0,0:0:0:0:
375,166,93595,1,10,0:0:0:0:
144,173,93895,6,0,L|304:176,1,138,2|8,1:2|0:0,0:0:0:0:
142,179,94345,2,0,P|106:187|156:248,1,138,2|0,0:0|1:0,0:0:0:0:
207,179,94796,1,10,0:0:0:0:
139,178,94945,1,0,0:0:0:0:
275,260,95095,6,0,L|425:262,2,138,0|8|0,1:0|0:0|0:0,0:0:0:0:
40,250,95994,1,10,0:0:0:0:
287,154,96294,6,0,P|357:153|397:221,1,138,2|10,1:2|0:0,0:0:0:0:
249,226,96744,2,0,L|98:226,1,138,2|0,0:0|1:0,0:0:0:0:
249,226,97194,2,0,L|329:227,1,69,10|0,0:0|0:0,0:0:0:0:
179,294,97494,6,0,P|141:277|185:214,1,138,2|10,1:2|0:0,0:0:0:0:
404,190,97944,2,0,P|451:165|393:116,1,138,10|0,0:0|1:0,0:0:0:0:
267,110,98394,2,0,L|190:106,1,69,8|0,0:0|0:0,0:0:0:0:
337,267,98693,6,0,P|379:251|327:195,1,138,0|8,1:3|0:0,0:0:0:0:
90,164,99293,2,0,L|176:167,2,69,0|0|8,1:0|1:0|0:0,0:0:0:0:
334,253,99893,6,0,P|378:237|318:195,1,138,2|10,1:2|0:0,0:0:0:0:
191,178,100343,2,0,L|47:175,1,138,2|0,0:0|1:0,0:0:0:0:
195,173,100793,2,0,L|196:88,1,69,10|0,0:0|0:0,0:0:0:0:
59,84,101093,6,0,L|144:83,1,69,2|0,1:2|3:0,0:0:0:0:
265,28,101393,1,10,0:0:0:0:
125,191,101542,2,0,P|84:196|137:248,1,138,2|0,0:0|1:0,0:0:0:0:
184,264,101992,1,8,0:0:0:0:
118,263,102142,1,0,0:0:0:0:
261,264,102292,5,2,1:2:0:0:
329,258,102442,2,0,L|331:178,1,69,2|10,0:0|0:0,0:0:0:0:
188,162,102742,2,0,L|184:78,1,69,2|0,0:0|0:0,0:0:0:0:
327,78,103042,2,0,L|405:76,1,69,2|8,1:2|0:0,0:0:0:0:
248,98,103342,6,0,P|191:106|153:201,1,138,2|0,0:0|3:0,0:0:0:0:
290,215,103792,2,0,L|290:140,1,69,8|2,0:0|0:0,0:0:0:0:
204,121,104092,2,0,L|283:121,1,69,0|0,0:0|1:0,0:0:0:0:
132,124,104391,2,0,L|34:125,1,69,10|0,0:0|0:0,0:0:0:0:
282,98,104691,6,0,P|326:97|380:188,1,138,2|8,1:2|0:0,0:0:0:0:
236,203,105141,2,0,L|86:205,1,138,2|0,0:0|1:0,0:0:0:0:
236,203,105591,2,0,L|314:198,1,69,10|0,0:0|0:0,0:0:0:0:
160,268,105891,6,0,P|116:248|161:184,1,138,2|8,1:2|0:0,0:0:0:0:
292,168,106341,2,0,L|438:167,1,138,2|0,0:0|1:0,0:0:0:0:
360,170,106791,1,10,0:0:0:0:
430,167,106941,1,2,0:0:0:0:
292,168,107091,6,0,L|133:164,1,138,2|10,1:2|0:0,0:0:0:0:
292,168,107540,2,0,P|338:182|290:238,1,138,2|0,0:0|1:0,0:0:0:0:
163,239,107990,2,0,L|159:156,1,69,10|0,0:0|0:0,0:0:0:0:
301,119,108290,6,0,L|453:118,1,138,2|8,1:2|0:0,0:0:0:0:
439,118,108890,1,10,0:0:0:0:
184,129,109190,2,0,L|181:217,1,69,2|0,0:0|0:0,0:0:0:0:
392,280,109490,6,0,L|235:281,1,138,6|10,1:1|0:0,0:0:0:0:
392,280,109940,2,0,L|394:189,1,69,2|0,0:0|0:0,0:0:0:0:
242,182,110239,2,0,L|87:183,1,138,2|0,1:2|0:0,0:0:0:0:
330,131,110689,6,0,L|408:132,2,69,2|2|8,1:2|0:0|0:0,0:0:0:0:
178,175,111139,2,0,P|177:129|272:100,1,138,2|0,0:0|1:0,0:0:0:0:
400,108,111589,2,0,L|403:23,1,69,8|2,0:0|0:0,0:0:0:0:
193,166,111889,6,0,P|134:172|102:249,1,138,2|10,1:2|0:0,0:0:0:0:
246,235,112339,2,0,L|250:155,1,69,2|0,0:0|0:0,0:0:0:0:
111,135,112639,2,0,L|104:41,1,69,2|8,1:2|0:0,0:0:0:0:
325,65,112938,6,0,L|475:63,1,138,2|0,0:0|0:0,0:0:0:0:
386,126,113388,1,8,0:0:0:0:
237,145,113538,2,0,P|200:117|248:58,1,138,0|0,1:0|1:0,0:0:0:0:
386,126,113988,2,0,L|391:36,1,69,10|0,0:0|0:0,0:0:0:0:
161,78,114288,6,0,L|16:79,1,138,2|10,1:2|0:0,0:0:0:0:
161,78,114738,2,0,L|162:-7,1,69,2|0,0:0|0:0,0:0:0:0:
25,36,115038,2,0,P|27:81|121:116,1,138,2|0,1:2|0:0,0:0:0:0:
330,165,115488,6,0,L|333:66,1,69,2|0,1:2|0:0,0:0:0:0:
255,71,115788,1,10,0:0:0:0:
110,68,115937,2,0,P|71:75|120:131,1,138,2|0,0:0|1:0,0:0:0:0:
178,141,116387,1,8,0:0:0:0:
316,138,116537,1,2,0:0:0:0:
178,141,116687,6,0,L|173:56,1,69,2|0,1:2|0:0,0:0:0:0:
316,138,116987,1,10,0:0:0:0:
178,141,117137,2,0,L|96:140,1,69,10|0,0:0|0:0,0:0:0:0:
247,76,117437,2,0,L|327:75,1,69,2|8,1:2|0:0,0:0:0:0:
105,213,117737,6,0,P|57:192|111:141,1,138,2|0,0:0|0:0,0:0:0:0:
166,127,118187,1,8,0:0:0:0:
316,166,118337,2,0,L|466:164,1,138,0|0,0:0|1:0,0:0:0:0:
454,164,118786,1,10,0:0:0:0:
93,238,119086,6,0,L|252:236,1,138,6|10,1:2|0:0,0:0:0:0:
93,238,119536,2,0,L|88:160,1,69,2|0,0:0|0:0,0:0:0:0:
237,125,119836,2,0,L|392:128,1,138,2|0,1:2|0:0,0:0:0:0:
159,192,120286,6,0,L|19:187,1,138,2|10,1:2|0:0,0:0:0:0:
288,216,120886,2,0,P|332:188|282:130,1,138,2|8,0:0|0:0,0:0:0:0:
152,120,121336,1,0,0:0:0:0:
294,129,121486,6,0,L|437:135,1,138,2|10,1:2|0:0,0:0:0:0:
294,129,121935,2,0,L|291:32,1,69,2|0,0:0|0:0,0:0:0:0:
434,43,122235,2,0,L|441:-57,1,69,2|8,1:2|0:0,0:0:0:0:
216,68,122535,6,0,L|47:73,1,138,2|0,0:0|0:0,0:0:0:0:
79,72,122985,1,8,0:0:0:0:
336,188,123285,1,2,1:2:0:0:
79,72,123585,1,10,0:0:0:0:
439,255,123885,6,0,L|440:109,1,138,6|8,1:1|0:0,0:0:0:0:
197,90,124484,2,0,L|35:88,1,138,0|8,0:0|0:0,0:0:0:0:
307,204,125084,6,0,L|146:203,1,138,2|8,1:2|0:0,0:0:0:0:
417,125,125684,2,0,L|425:-19,1,138,2|8,0:0|0:0,0:0:0:0:
52,103,126284,6,0,L|203:101,3,138,2|8|0|8,1:2|0:0|0:0|0:0,0:0:0:0:
456,208,127483,6,0,L|455:37,1,138,2|8,1:2|0:0,0:0:0:0:
380,55,127933,2,0,L|224:56,1,138,0|0,1:0|1:0,0:0:0:0:
318,114,128383,2,0,L|319:22,1,69,10|0,0:0|0:0,0:0:0:0:
86,164,128683,6,0,P|49:146|95:76,1,138,6|8,1:2|3:2,0:0:0:0:
155,67,129133,1,0,3:0:0:0:
297,139,129283,2,0,L|437:140,1,138,0|8,0:0|0:0,0:0:0:0:
181,145,129883,6,0,L|181:311,1,138,2|8,1:2|0:0,0:0:0:0:
448,166,130482,2,0,L|448:13,1,138,2|8,1:2|0:0,0:0:0:0:
76,82,131082,6,0,L|229:80,3,138,2|8|0|8,1:2|0:0|1:0|0:0,0:0:0:0:
441,181,132282,6,0,L|442:19,1,138,0|8,1:0|0:0,0:0:0:0:
370,38,132732,2,0,L|222:38,1,138,0|0,1:0|1:0,0:0:0:0:
370,38,133181,2,0,L|438:39,1,69,10|2,0:0|1:2,0:0:0:0:
225,92,133481,6,0,P|186:98|141:194,1,138,6|10,1:1|0:0,0:0:0:0:
211,180,133932,2,0,L|367:176,1,138,2|0,0:0|1:0,0:0:0:0:
211,180,134382,2,0,L|134:182,1,69,10|0,0:0|0:0,0:0:0:0:
286,284,134682,6,0,P|323:273|271:212,1,138,2|10,1:2|0:0,0:0:0:0:
221,190,135132,2,0,L|222:103,1,69,2|0,0:0|0:0,0:0:0:0:
365,103,135431,2,0,L|451:107,2,69,2|8|0,1:2|0:0|0:0,0:0:0:0:
147,259,135881,6,2,P|106:237|153:176,1,138,2|0,1:2|0:0,0:1:0:0:
221,167,136331,2,0,L|365:166,1,138,2|0,1:2|0:0,0:0:0:0:
282,100,136781,1,0,2:0:0:0:
247,99,136855,1,0,2:0:0:0:
213,99,136930,1,0,2:0:0:0:
355,144,137081,6,0,P|400:131|345:88,1,138,2|0,1:2|0:0,0:0:0:0:
287,81,137531,2,0,L|135:84,1,138,2|0,1:2|0:0,0:0:0:0:
219,150,137981,2,0,L|294:149,1,69,8|2,0:0|0:0,0:0:0:0:
64,240,138280,6,0,L|60:82,1,138,0|8,1:0|0:0,0:0:0:0:
131,81,138730,2,0,L|299:83,1,138,0|0,0:0|1:0,0:0:0:0:
133,216,139180,2,0,L|132:139,1,69,10|0,0:0|0:0,0:0:0:0:
271,177,139480,6,0,P|325:179|368:265,1,138,2|10,1:2|0:0,0:0:0:0:
301,273,139930,2,0,L|299:190,1,69,2|0,0:0|0:0,0:0:0:0:
366,163,140230,2,0,L|450:162,2,69,0|10|0,1:0|0:0|0:0,0:0:0:0:
155,199,140680,6,2,P|115:177|165:114,1,138,2|0,1:2|0:0,0:1:0:0:
224,107,141129,2,0,L|361:106,1,138,2|0,1:2|0:0,0:0:0:0:
283,52,141579,2,0,L|284:-42,1,69
426,27,141879,6,0,P|464:38|424:105,1,138,2|0,1:2|0:0,0:0:0:0:
362,113,142329,2,0,L|218:116,1,138,2|0,1:2|0:0,0:0:0:0:
298,155,142779,2,0,L|384:153,1,69,8|0,0:0|0:0,0:0:0:0:
148,228,143079,6,0,P|104:211|156:162,1,138,4|8,1:2|0:0,0:0:0:0:
219,145,143529,2,0,L|361:143,1,138,0|0,0:0|1:0,0:0:0:0:
204,86,143978,2,0,L|135:89,1,69,10|0,0:0|0:0,0:0:0:0:
276,105,144278,6,0,L|429:103,1,138,2|10,1:2|0:0,0:0:0:0:
341,170,144728,2,0,L|341:89,1,69,2|0,0:0|0:0,0:0:0:0:
416,75,145028,2,0,L|497:73,2,69,2|10|0,1:2|0:0|0:0,0:0:0:0:
194,163,145478,6,2,L|52:166,1,138,0|0,1:0|0:0,0:1:0:0:
132,209,145928,2,0,L|295:207,1,138,2|0,1:2|0:0,0:0:0:0:
195,144,146378,2,0,L|186:56,1,69
330,55,146678,6,0,P|365:62|324:125,1,138,2|0,1:2|0:0,0:0:0:0:
260,155,147127,2,0,P|223:139|260:68,1,138,2|0,1:2|0:0,0:0:0:0:
329,66,147577,2,0,L|332:157,1,69,8|0,0:0|0:0,0:0:0:0:
114,217,147877,6,0,P|71:211|125:167,1,138,0|8,1:0|0:0,0:0:0:0:
179,155,148327,2,0,L|327:151,1,138,0|0,0:0|1:0,0:0:0:0:
176,98,148777,2,0,L|177:10,1,69,10|0,0:0|0:0,0:0:0:0:
316,33,149077,6,0,P|374:39|395:107,1,138,2|10,1:2|0:0,0:0:0:0:
323,116,149527,2,0,L|225:117,1,69,2|0,0:0|0:0,0:0:0:0:
323,116,149826,2,0,L|412:113,2,69,0|10|0,1:0|0:2|0:0,0:0:0:0:
87,206,150276,6,2,L|77:59,1,138,0|0,1:0|0:0,0:1:0:0:
154,45,150726,2,0,L|295:42,1,138,2|0,1:2|0:0,0:0:0:0:
219,115,151176,2,0,L|122:114,1,69
290,118,151476,6,0,L|452:116,1,138,2|0,1:2|0:0,0:0:0:0:
356,176,151926,2,0,L|210:179,1,138,2|0,1:2|0:0,0:0:0:0:
356,176,152376,2,0,L|451:170,1,69,8|0,0:0|1:0,0:0:0:0:
206,238,152675,6,0,P|167:217|217:157,1,138,6|10,1:1|0:0,0:0:0:0:
350,129,153125,2,0,L|436:131,1,69,2|0,0:0|0:0,0:0:0:0:
280,49,153425,2,0,L|139:47,1,138,2|0,1:2|0:0,0:0:0:0:
280,49,153875,5,2,1:2:0:0:
142,47,154025,2,0,L|138:144,1,69,2|8,0:0|0:0,0:0:0:0:
286,187,154325,2,0,L|115:180,1,138,2|0,0:0|1:0,0:0:0:0:
148,181,154775,1,8,0:0:0:0:
219,182,154925,1,2,0:0:0:0:
358,177,155075,6,0,L|360:97,1,69,2|0,1:2|0:0,0:0:0:0:
221,89,155374,1,10,0:0:0:0:
356,86,155524,2,0,L|425:85,1,69,2|0,0:0|0:0,0:0:0:0:
283,134,155824,2,0,L|209:135,1,69,2|8,1:2|0:0,0:0:0:0:
356,251,156124,5,2,0:0:0:0:
423,225,156273,1,0,1:0:0:0:
423,159,156423,1,0,1:0:0:0:
356,127,156573,1,8,0:0:0:0:
210,146,156724,2,0,L|61:142,1,138,0|0,1:0|1:0,0:0:0:0:
210,146,157174,2,0,L|309:147,1,69,10|0,0:0|0:0,0:0:0:0:
62,236,157474,6,0,P|12:217|73:190,1,138,2|10,1:2|0:0,0:0:0:0:
201,177,157924,2,0,L|203:90,1,69,2|0,0:0|0:0,0:0:0:0:
58,93,158223,2,0,L|222:95,1,138,2|0,1:2|0:0,0:0:0:0:
58,93,158673,6,0,P|15:77|73:30,1,138,2|10,1:2|0:0,0:0:0:0:
199,66,159123,2,0,P|238:75|192:136,1,138,2|0,0:0|1:0,0:0:0:0:
136,143,159573,1,8,0:0:0:0:
280,152,159723,1,2,0:0:0:0:
136,143,159873,6,0,L|135:52,1,69,2|0,1:2|0:0,0:0:0:0:
280,152,160173,1,10,0:0:0:0:
136,143,160323,2,0,L|48:145,1,69,10|0,0:0|0:0,0:0:0:0:
211,211,160623,2,0,L|306:212,1,69,2|8,1:2|0:0,0:0:0:0:
139,281,160923,5,2,0:0:0:0:
70,249,161072,1,0,1:0:0:0:
72,184,161222,1,0,0:0:0:0:
143,154,161372,1,8,0:0:0:0:
290,144,161522,2,0,P|356:161|375:243,1,138,0|0,1:0|1:0,0:0:0:0:
233,211,161972,2,0,L|179:211,2,34.5,10|0|0,0:0|1:0|1:0,0:0:0:0:
453,211,162272,6,0,L|460:47,1,138,6|10,1:2|0:0,0:0:0:0:
317,71,162722,2,0,L|231:71,1,69,2|0,0:0|0:0,0:0:0:0:
389,76,163022,2,0,P|436:82|470:179,1,138,2|0,1:2|0:0,0:0:0:0:
256,221,163472,6,0,L|108:217,2,138,2|10|2,1:2|0:0|0:0,0:0:0:0:
191,150,164221,2,0,L|190:69,1,69,0|8,1:0|0:0,0:0:0:0:
270,66,164521,1,0,0:0:0:0:
60,211,164671,6,0,P|17:194|76:143,1,138,2|10,1:2|0:0,0:0:0:0:
196,133,165121,2,0,L|201:42,1,69,2|0,0:0|0:0,0:0:0:0:
60,79,165421,2,0,L|58:-4,1,69,2|8,1:2|0:0,0:0:0:0:
277,56,165721,1,2,0:0:0:0:
350,58,165871,6,0,P|385:65|339:122,1,138,0|8,1:0|0:0,0:0:0:0:
278,135,166321,1,0,1:0:0:0:
134,150,166471,2,0,L|131:51,1,69,2|0,0:0|1:0,0:0:0:0:
279,53,166771,2,0,L|286:-32,1,69,10|0,0:0|0:0,0:0:0:0:
58,123,167070,6,0,P|11:86|69:32,1,138,6|8,1:1|0:0,0:0:0:0:
255,150,167670,2,0,L|84:141,1,138,0|8,0:0|0:0,0:0:0:0:
489,207,168270,6,0,L|502:43,1,138,2|8,1:2|0:0,0:0:0:0:
286,67,168870,2,0,L|446:70,1,138,2|8,1:2|0:0,0:0:0:0:
46,206,169470,6,0,L|213:218,3,138,2|8|0|8,1:2|0:0|0:0|0:0,0:0:0:0:
444,213,170669,6,0,L|452:69,1,138,2|8,1:2|0:0,0:0:0:0:
382,59,171119,2,0,L|220:60,1,138,0|0,0:0|1:0,0:0:0:0:
382,59,171569,2,0,L|471:60,1,69,10|0,0:0|0:0,0:0:0:0:
228,165,171869,6,0,L|63:165,1,138,6|8,1:2|0:0,0:0:0:0:
315,165,172469,2,0,L|478:167,1,138,0|8,0:0|0:0,0:0:0:0:
90,201,173068,6,0,L|88:55,1,138,2|8,1:2|0:0,0:0:0:0:
321,64,173668,2,0,L|468:65,1,138,2|8,0:0|0:0,0:0:0:0:
88,206,174268,6,0,L|229:209,3,138,2|8|0|8,1:2|0:0|1:0|0:0,0:0:0:0:
470,204,175467,6,0,L|481:47,1,138,2|8,1:2|0:0,0:0:0:0:
410,47,175917,2,0,L|257:48,1,138,8|0,0:0|1:0,0:0:0:0:
410,47,176367,2,0,L|492:47,1,69,10|0,0:0|0:0,0:0:0:0:
238,191,176667,6,0,P|190:169|247:128,1,138,6|8,1:1|0:0,0:0:0:0:
305,117,177117,1,0,1:0:0:0:
443,117,177267,2,0,L|447:34,1,69,0|0,1:0|1:0,0:0:0:0:
305,117,177567,2,0,L|212:114,1,69,8|0,0:0|0:0,0:0:0:0:
453,117,177867,6,0,L|454:286,1,138,2|8,1:2|0:0,0:0:0:0:
201,276,178466,2,0,L|371:275,1,138,2|8,1:2|0:0,0:0:0:0:
338,275,178916,1,0,0:0:0:0:
115,213,179066,6,0,P|78:195|125:135,1,138,2|8,1:2|0:0,0:0:0:0:
261,126,179516,2,0,L|417:123,1,138,0|0,0:0|1:0,0:0:0:0:
261,126,179966,2,0,L|177:124,1,69,8|0,0:0|0:0,0:0:0:0:
412,222,180266,6,0,P|454:202|396:145,1,138,2|8,1:2|0:0,0:0:0:0:
276,133,180716,2,0,P|241:114|286:47,1,138,0|0,0:0|1:0,0:0:0:0:
421,56,181165,2,0,L|426:-27,1,69,10|2,0:0|1:2,0:0:0:0:
191,205,181465,5,4,1:2:0:0:
256,192,181615,12,0,186264,0:0:0:0:
