osu file format v14

[General]
AudioFilename: audio.mp3
AudioLeadIn: 0
PreviewTime: 51592
Countdown: 0
SampleSet: Soft
StackLeniency: 0.5
Mode: 2
LetterboxInBreaks: 0
WidescreenStoryboard: 1

[Editor]
Bookmarks: 23121,51911,80701,96295,109491,133482,143079,152675,167070,174268,181465
DistanceSpacing: 1
BeatDivisor: 4
GridSize: 32
TimelineZoom: 1.8

[Metadata]
Title:Breaking The Habit
TitleUnicode:Breaking The Habit
Artist:Linkin Park
ArtistUnicode:Linkin Park
Creator:Secre
Version:Salad
Source:
Tags:chickenbible aakki nu metal english alternative rock meteora chester bennington osu!catch 3 digit world cup 2022 3CWC2022 RO16 Round of 16 DT1 DoubleTime1
BeatmapID:3757472
BeatmapSetID:1804743

[Difficulty]
HPDrainRate:3
CircleSize:3.3
OverallDifficulty:7.2
ApproachRate:7.2
SliderMultiplier:1.08
SliderTickRate:1

[Events]
//Background and Video events
0,0,"i cant break the habit of making vtuber references in my bg names.jpg",0,0
//Break Periods
2,76102,78631
//Storyboard Layer 0 (Background)
//Storyboard Layer 1 (Fail)
//Storyboard Layer 2 (Pass)
//Storyboard Layer 3 (Foreground)
//Storyboard Layer 4 (Overlay)
//Storyboard Sound Samples

[TimingPoints]
3928,299.895036737142,4,2,1,20,1,0
4227,-100,4,2,1,20,0,0
6027,-100,4,2,1,20,0,0
13224,-100,4,2,1,20,0,0
13524,-100,4,2,1,60,0,0
14274,-100,4,2,1,60,0,0
15923,-100,4,2,1,60,0,0
16673,-100,4,2,1,60,0,0
18322,-100,4,2,1,60,0,0
19072,-100,4,2,1,60,0,0
20722,-100,4,2,1,60,0,0
21471,-100,4,2,1,60,0,0
22221,-100,4,2,1,60,0,0
22371,-100,4,2,1,60,0,0
22521,-100,4,2,1,60,0,0
22671,-100,4,2,1,60,0,0
22821,-100,4,2,1,60,0,0
22971,-100,4,2,1,60,0,0
23121,-100,4,2,1,45,0,0
26420,-100,4,2,1,45,0,0
30018,-100,4,2,1,45,0,0
31218,-100,4,2,1,45,0,0
32418,-100,4,2,1,45,0,0
35866,-100,4,2,1,45,0,0
37216,-100,4,2,1,45,0,0
38415,-100,4,2,1,45,0,0
40815,-100,4,2,1,45,0,0
42314,-100,4,2,1,55,0,0
43139,-100,4,2,1,55,0,0
44413,-100,4,2,1,55,0,0
48012,-100,4,2,1,55,0,0
51611,-100,4,2,1,55,0,0
51911,-100,4,2,1,85,0,1
51986,-100,4,2,1,85,0,0
52211,-100,4,2,1,85,0,0
53110,-100,4,2,1,85,0,0
55809,-100,4,2,1,85,0,0
56709,-100,4,2,1,85,0,0
57009,-100,4,2,1,85,0,0
57909,-100,4,2,1,85,0,0
61507,-100,4,2,1,85,0,0
61807,-100,4,2,1,85,0,0
62707,-100,4,2,1,85,0,0
65406,-100,4,2,1,85,0,0
66306,-100,4,2,1,85,0,0
68705,-100,4,2,1,85,0,0
71104,-100,4,2,1,85,0,0
71423,-100,4,2,1,45,0,0
71554,-100,4,2,1,85,0,0
72304,-100,4,2,1,85,0,0
73503,-100,4,2,1,85,0,0
79351,-100,4,2,1,55,0,0
79401,-100,4,2,1,55,0,0
80701,-100,4,2,1,60,0,0
83400,-100,4,2,1,60,0,0
99444,-100,4,2,1,60,0,0
99594,-100,4,2,1,60,0,0
99894,-100,4,2,1,65,0,0
101093,-100,4,2,1,65,0,0
102293,-100,4,2,1,65,0,0
104692,-100,4,2,1,65,0,0
105442,-100,4,2,1,65,0,0
106642,-100,4,2,1,65,0,0
108291,-100,4,2,1,65,0,0
109191,-100,4,2,1,65,0,0
109491,-100,4,2,1,85,0,1
109566,-100,4,2,1,85,0,0
110690,-100,4,2,1,85,0,0
113089,-100,4,2,1,85,0,0
114289,-100,4,2,1,85,0,0
115488,-100,4,2,1,85,0,0
116238,-100,4,2,1,85,0,0
116988,-100,4,2,1,85,0,0
117438,-100,4,2,1,85,0,0
119087,-100,4,2,1,85,0,0
120287,-100,4,2,1,85,0,0
121486,-100,4,2,1,85,0,0
122986,-100,4,2,1,85,0,0
123886,-100,4,2,1,85,0,0
125685,-100,4,2,1,85,0,0
126285,-100,4,2,1,85,0,0
128684,-100,4,2,1,85,0,0
129002,-100,4,2,1,45,0,0
129134,-100,4,2,1,85,0,0
129883,-100,4,2,1,85,0,0
131083,-100,4,2,1,85,0,0
133482,-100,4,2,1,95,0,1
133557,-100,4,2,1,95,0,0
133782,-100,4,2,1,95,0,0
134682,-100,4,2,1,95,0,0
135431,-100,4,2,1,95,0,0
135881,-100,4,2,1,95,0,1
137081,-100,4,2,1,95,0,1
137981,-100,4,2,1,95,0,0
139480,-100,4,2,1,95,0,0
140680,-100,4,2,1,95,0,1
141879,-100,4,2,1,95,0,1
142779,-100,4,2,1,95,0,0
145028,-100,4,2,1,95,0,0
145478,-100,4,2,1,95,0,1
146678,-100,4,2,1,95,0,1
147577,-100,4,2,1,95,0,0
149077,-100,4,2,1,95,0,0
150276,-100,4,2,1,95,0,1
151326,-100,4,2,1,95,0,1
151476,-100,4,2,1,95,0,1
152376,-100,4,2,1,95,0,0
152675,-83.3333333333333,4,2,1,90,0,1
152750,-83.3333333333333,4,2,1,90,0,0
152975,-83.3333333333333,4,2,1,90,0,0
154625,-83.3333333333333,4,2,1,90,0,0
157774,-83.3333333333333,4,2,1,90,0,0
160623,-83.3333333333333,4,2,1,90,0,0
162572,-83.3333333333333,4,2,1,90,0,0
164671,-83.3333333333333,4,2,1,90,0,0
167070,-83.3333333333333,4,2,1,90,0,0
168270,-83.3333333333333,4,2,1,90,0,0
171419,-83.3333333333333,4,2,1,90,0,0
172169,-83.3333333333333,4,2,1,90,0,0
175467,-83.3333333333333,4,2,1,90,0,0
178466,-83.3333333333333,4,2,1,90,0,0
181315,-83.3333333333333,4,2,1,90,0,0
181765,-83.3333333333333,4,2,1,40,0,0

[Colours]
Combo1 : 255,128,128
Combo2 : 186,193,199
Combo3 : 164,108,137
Combo4 : 139,139,139

[HitObjects]
312,172,3927,6,0,L|183:175,3,108,2|2|2|2,0:0|0:0|0:0|0:0,0:0:0:0:
310,112,5127,6,0,L|434:104,3,108,2|2|0|2,0:0|0:0|0:0|0:0,0:0:0:0:
309,155,6327,6,0,L|177:152,3,108,2|2|2|2,0:0|0:0|0:0|0:0,0:0:0:0:
317,144,7526,6,0,L|317:270,1,108,2|2,0:0|0:0,0:0:0:0:
208,260,8126,2,0,L|209:151,1,108,2|2,0:0|0:0,0:0:0:0:
315,136,8726,6,0,L|434:137,1,108,2|2,0:0|0:0,0:0:0:0:
314,137,9326,2,0,L|186:138,1,108,2|2,0:0|0:0,0:0:0:0:
315,138,9925,6,0,L|316:251,1,108,2|2,0:0|0:0,0:0:0:0:
214,247,10525,2,0,L|102:248,1,108,2|2,0:0|0:0,0:0:0:0:
213,248,11125,6,0,L|340:248,1,108,2|2,0:0|0:0,0:0:0:0:
211,247,11725,2,0,L|211:120,1,108,2|2,0:0|0:0,0:0:0:0:
320,113,12325,6,0,L|440:114,1,108,2|2,0:0|0:0,0:0:0:0:
320,113,12924,2,0,L|440:114,1,108,0|2,0:0|0:0,0:0:0:0:
179,204,13524,6,0,L|64:204,1,108,6|8,1:2|0:0,0:0:0:0:
71,204,13974,1,2,0:0:0:0:
176,127,14274,2,0,L|177:199,1,54,2|10,1:2|0:0,0:0:0:0:
71,242,14724,6,0,L|197:244,1,108,2|8,1:2|0:0,0:0:0:0:
178,243,15174,1,2,0:0:0:0:
69,117,15473,2,0,L|5:121,2,54,2|10|0,1:2|0:0|0:0,0:0:0:0:
124,103,15923,6,0,L|255:101,1,108,2|8,1:2|0:0,0:0:0:0:
231,101,16373,1,2,0:0:0:0:
130,199,16673,2,0,L|128:130,1,54,2|10,1:2|0:0,0:0:0:0:
240,122,17123,6,0,L|371:124,1,108,2|8,1:2|0:0,0:0:0:0:
347,123,17573,1,2,0:0:0:0:
232,179,17873,2,0,L|164:181,2,54,2|10|0,1:2|0:0|0:0,0:0:0:0:
372,168,18322,6,0,L|372:45,1,108,6|8,1:2|0:0,0:0:0:0:
313,38,18772,1,2,0:0:0:0:
200,84,19072,2,0,L|135:85,1,54,2|10,1:2|0:0,0:0:0:0:
252,144,19522,6,0,L|381:143,1,108,2|8,1:2|0:0,0:0:0:0:
359,143,19972,1,2,0:0:0:0:
252,69,20272,2,0,L|194:68,2,54,2|10|0,1:2|0:0|0:0,0:0:0:0:
310,70,20722,6,0,L|443:72,1,108,2|8,1:2|0:0,0:0:0:0:
417,71,21171,1,10,0:0:0:0:
307,150,21471,2,0,L|243:150,1,54,2|10,1:2|0:0,0:0:0:0:
369,146,21921,6,0,L|372:273,1,108,2|8,1:2|0:0,0:0:0:0:
315,288,22371,1,2,0:0:0:0:
201,170,22671,1,2,1:2:0:0:
254,170,22820,1,10,0:0:0:0:
308,171,22970,1,0,0:0:0:0:
254,170,23121,6,0,L|139:167,1,108,0|8,1:0|0:0,0:0:0:0:
254,170,23721,2,0,L|258:302,1,108,2|8,0:0|0:0,0:0:0:0:
149,252,24320,6,0,L|151:132,1,108,2|8,3:2|0:0,0:0:0:0:
259,116,24920,2,0,L|389:118,1,108,2|8,0:0|0:0,0:0:0:0:
111,117,25520,6,0,P|76:176|190:234,1,216,2|0,1:2|0:0,0:0:0:0:
299,236,26420,1,10,0:0:0:0:
193,187,26720,6,0,L|193:56,1,108,2|10,3:2|0:0,0:0:0:0:
255,63,27169,2,0,L|383:65,1,108,2|0,0:0|0:0,0:0:0:0:
310,120,27619,1,10,0:0:0:0:
255,65,27769,1,2,1:2:0:0:
310,120,27919,6,0,L|311:244,1,108,2|8,1:2|0:0,0:0:0:0:
258,269,28369,1,0,0:0:0:0:
142,172,28669,2,0,L|142:98,1,54,0|10,0:0|0:0,0:0:0:0:
255,86,29119,6,0,L|378:87,1,108,2|10,3:2|0:0,0:0:0:0:
362,86,29569,1,2,0:0:0:0:
202,148,30018,2,0,L|273:148,1,54,10|0,0:0|1:0,0:0:0:0:
317,147,30318,6,0,L|321:275,1,108,2|10,1:2|0:0,0:0:0:0:
262,277,30768,2,0,L|141:276,1,108,2|0,0:0|0:0,0:0:0:0:
154,276,31218,1,8,0:0:0:0:
262,202,31518,6,0,L|262:89,1,108,0|8,3:0|0:0,0:0:0:0:
201,87,31968,2,0,L|81:90,1,108
149,152,32418,2,0,L|226:153,1,54,8|0,0:0|1:0,0:0:0:0:
149,152,32717,6,0,L|34:149,1,108,0|8,1:0|0:0,0:0:0:0:
147,151,33317,2,0,L|146:266,1,108,2|8,0:0|0:0,0:0:0:0:
36,274,33917,6,0,L|153:277,1,108,2|8,3:2|0:0,0:0:0:0:
254,273,34517,2,0,L|371:276,1,108,2|8,0:0|0:0,0:0:0:0:
87,206,35117,6,0,P|38:196|94:87,1,216,2|0,1:2|0:0,0:0:0:0:
192,64,36016,1,10,0:0:0:0:
312,63,36316,6,0,L|313:194,1,108,2|10,3:2|0:0,0:0:0:0:
253,197,36766,2,0,L|129:196,1,108,2|0,0:0|0:0,0:0:0:0:
201,131,37216,1,10,0:0:0:0:
253,197,37366,1,0,1:0:0:0:
201,131,37516,6,0,L|200:16,1,108,2|8,1:2|0:0,0:0:0:0:
261,13,37966,1,0,0:0:0:0:
382,29,38265,2,0,L|382:95,1,54,0|10,0:0|0:0,0:0:0:0:
269,136,38715,6,0,L|141:137,1,108,2|10,3:2|0:0,0:0:0:0:
217,82,39165,2,0,L|336:79,1,108,2|0,0:0|0:0,0:0:0:0:
324,79,39615,1,10,0:0:0:0:
217,189,39915,6,0,P|178:175|226:144,1,108,2|10,1:2|0:0,0:0:0:0:
266,133,40365,2,0,L|389:131,1,108,2|0,0:0|0:0,0:0:0:0:
373,131,40815,1,8,0:0:0:0:
262,183,41114,6,0,L|143:182,1,108,0|8,3:0|0:0,0:0:0:0:
212,127,41564,2,0,L|208:254,1,108,0|0,0:0|1:0,0:0:0:0:
152,249,42014,2,0,L|76:243,1,54,8|0,0:0|0:0,0:0:0:0:
236,209,42314,6,0,L|369:209,1,108,2|10,1:2|0:0,0:0:0:0:
290,158,42764,2,0,L|291:36,1,108,2|0,0:0|3:0,0:0:0:0:
346,37,43214,1,10,0:0:0:0:
461,51,43514,6,0,P|457:93|392:105,1,108,2|10,3:2|0:0,0:0:0:0:
337,136,43963,2,0,L|206:136,1,108,2|0,0:0|0:0,0:0:0:0:
286,77,44413,1,8,0:0:0:0:
337,137,44563,1,2,1:2:0:0:
286,77,44713,6,0,L|219:77,1,54,2|2,1:2|0:0,0:0:0:0:
346,82,45163,2,0,L|471:83,1,108,2|2,0:0|0:0,0:0:0:0:
397,136,45613,1,0,0:0:0:0:
338,139,45763,6,0,L|218:139,1,108,2|0,0:0|3:0,0:0:0:0:
230,139,46213,1,8,0:0:0:0:
338,75,46513,2,0,L|401:73,2,54,0|0|10,0:0|1:0|0:0,0:0:0:0:
96,208,47112,6,0,L|96:76,1,108,2|8,1:2|0:0,0:0:0:0:
156,84,47562,2,0,L|270:86,1,108,2|0,0:0|0:0,0:0:0:0:
263,85,48012,1,10,0:0:0:0:
157,173,48312,6,0,L|85:172,1,54,2|0,3:2|0:0,0:0:0:0:
209,118,48762,2,0,L|325:119,1,108,2|0,0:0|1:0,0:0:0:0:
263,69,49212,1,8,0:0:0:0:
207,119,49362,1,2,1:2:0:0:
68,133,49512,6,0,L|65:262,1,108,2|10,1:2|0:0,0:0:0:0:
125,257,49961,2,0,L|242:257,1,108,2|0,0:0|1:0,0:0:0:0:
233,257,50411,1,10,0:0:0:0:
133,179,50711,6,0,L|131:52,1,108,2|8,1:2|0:0,0:0:0:0:
249,55,51311,1,0,0:0:0:0:
16,53,51611,1,2,0:0:0:0:
249,55,51911,6,0,L|368:58,1,108,6|10,1:1|0:0,0:0:0:0:
303,175,52361,2,0,L|304:109,1,54,2|0,0:0|0:0,0:0:0:0:
363,105,52660,2,0,L|476:105,1,108,2|0,1:2|0:0,0:0:0:0:
345,79,53110,6,0,L|270:78,1,54,2|2,1:2|0:0,0:0:0:0:
407,99,53560,2,0,L|410:212,1,108,2|0,0:0|1:0,0:0:0:0:
347,227,54010,1,8,0:0:0:0:
291,227,54160,1,2,0:0:0:0:
347,227,54310,6,0,P|346:176|285:154,1,108,2|10,1:2|0:0,0:0:0:0:
238,121,54760,2,0,L|237:54,1,54,2|0,0:0|0:0,0:0:0:0:
296,46,55060,2,0,L|373:49,1,54,2|8,1:2|0:0,0:0:0:0:
214,138,55359,6,0,L|94:136,1,108,2|0,0:0|0:0,0:0:0:0:
106,136,55809,1,8,0:0:0:0:
166,87,55959,2,0,L|281:88,1,108,0|0,0:0|1:0,0:0:0:0:
328,88,56409,1,10,0:0:0:0:
76,174,56709,6,0,L|75:60,1,108,2|10,1:2|0:0,0:0:0:0:
131,47,57159,2,0,L|208:45,1,54,2|0,0:0|0:0,0:0:0:0:
131,47,57459,2,0,L|15:49,1,108,2|0,1:2|0:0,0:0:0:0:
160,57,57909,6,0,L|292:56,1,108,2|10,1:2|0:0,0:0:0:0:
214,126,58358,2,0,P|214:88|274:59,1,108,2|0,0:0|1:0,0:0:0:0:
327,51,58808,1,8,0:0:0:0:
390,52,58958,1,2,0:0:0:0:
327,51,59108,6,0,P|316:106|268:127,1,108,2|10,1:2|0:0,0:0:0:0:
212,122,59558,2,0,L|210:51,1,54,10|0,0:0|0:0,0:0:0:0:
273,52,59858,2,0,L|340:51,1,54,2|8,1:2|0:0,0:0:0:0:
273,52,60158,6,0,L|144:60,1,108,2|0,0:0|0:0,0:0:0:0:
165,58,60608,1,8,0:0:0:0:
225,98,60758,2,0,L|340:93,1,108,0|0,0:0|1:0,0:0:0:0:
332,93,61207,1,10,0:0:0:0:
84,197,61507,6,0,L|193:199,1,108,6|10,1:2|0:0,0:0:0:0:
135,144,61957,2,0,L|138:79,1,54,2|0,0:0|0:0,0:0:0:0:
198,70,62257,2,0,L|317:69,1,108,2|0,1:2|0:0,0:0:0:0:
169,116,62707,6,0,L|51:118,1,108,2|10,1:2|0:0,0:0:0:0:
169,116,63307,2,0,L|299:119,1,108,2|8,0:0|0:0,0:0:0:0:
335,120,63757,1,2,0:0:0:0:
200,76,63907,6,0,P|200:33|264:15,1,108,2|10,1:2|0:0,0:0:0:0:
314,12,64356,2,0,L|320:72,1,54,2|0,0:0|0:0,0:0:0:0:
263,81,64656,2,0,L|190:83,1,54,2|8,1:2|0:0,0:0:0:0:
263,81,64956,6,0,L|386:83,1,108,2|0,0:0|0:0,0:0:0:0:
370,82,65406,1,8,0:0:0:0:
258,172,65706,1,2,0:0:0:0:
364,187,66006,1,10,0:0:0:0:
116,217,66306,6,0,L|112:90,1,108,6|8,1:1|0:0,0:0:0:0:
233,63,66905,2,0,L|364:62,1,108,0|8,0:0|0:0,0:0:0:0:
233,63,67505,6,0,L|120:67,1,108,2|8,1:2|0:0,0:0:0:0:
259,49,68105,2,0,L|262:171,1,108,2|8,0:0|0:0,0:0:0:0:
16,198,68705,6,0,L|143:199,3,108,2|8|0|8,1:2|0:0|0:0|0:0,0:0:0:0:
362,206,69904,6,0,L|363:89,1,108,2|8,1:2|0:0,0:0:0:0:
252,91,70504,1,0,0:0:0:0:
496,83,70804,1,10,0:0:0:0:
252,91,71104,6,0,L|124:89,1,108,6|8,1:2|3:2,0:0:0:0:
260,79,71704,2,0,L|260:201,1,108,0|8,0:0|0:0,0:0:0:0:
151,209,72304,6,0,L|266:209,1,108,2|8,1:2|0:0,0:0:0:0:
153,198,72903,2,0,L|152:81,1,108,2|8,1:2|0:0,0:0:0:0:
396,71,73503,6,0,L|503:73,3,108,2|8|0|8,1:2|0:0|0:0|0:0,0:0:0:0:
254,125,74703,6,0,L|124:126,1,108,2|8,1:2|0:0,0:0:0:0:
207,180,75153,2,0,L|320:179,1,108,8|0,0:0|1:0,0:0:0:0:
254,125,75602,2,0,L|251:57,1,54,8|0,2:2|2:2,0:0:0:0:
394,40,75902,5,0,1:2:0:0:
256,192,79501,12,8,80401,3:0:0:0:
258,170,80701,6,0,L|373:167,1,108,6|8,1:2|0:0,0:0:0:0:
258,170,81301,2,0,L|254:302,1,108,2|8,0:0|0:0,0:0:0:0:
363,252,81900,6,0,L|361:132,1,108,2|8,1:2|0:0,0:0:0:0:
253,116,82500,2,0,L|123:118,1,108,2|8,3:2|0:0,0:0:0:0:
401,117,83100,6,0,P|436:176|322:234,1,216,2|0,1:2|0:0,0:0:0:0:
213,236,84000,1,10,0:0:0:0:
319,187,84300,6,0,L|319:56,1,108,2|10,1:2|0:0,0:0:0:0:
257,63,84749,2,0,L|129:65,1,108,2|0,0:0|1:0,0:0:0:0:
202,120,85199,1,10,0:0:0:0:
257,65,85349,1,2,0:0:0:0:
202,120,85499,6,0,L|201:244,1,108,0|8,1:0|0:0,0:0:0:0:
254,269,85949,1,0,0:0:0:0:
370,172,86249,2,0,L|370:98,1,54,0|10,1:0|0:0,0:0:0:0:
257,86,86699,6,0,L|134:87,1,108,2|10,1:2|0:0,0:0:0:0:
150,86,87149,1,2,0:0:0:0:
310,148,87598,2,0,L|239:148,1,54,10|0,0:0|0:0,0:0:0:0:
195,147,87898,6,0,L|191:275,1,108,2|10,1:2|0:0,0:0:0:0:
250,277,88348,2,0,L|371:276,1,108,2|0,0:0|1:0,0:0:0:0:
358,276,88798,1,8,0:0:0:0:
250,202,89098,6,0,L|250:89,1,108,0|8,1:3|0:0,0:0:0:0:
311,87,89548,2,0,L|431:90,1,108,0|0,0:0|1:0,0:0:0:0:
363,152,89998,2,0,L|286:153,1,54,8|0,0:0|3:0,0:0:0:0:
363,152,90297,6,0,L|478:149,1,108,0|10,1:0|0:0,0:0:0:0:
416,84,90747,1,10,0:0:0:0:
365,151,90897,2,0,L|366:266,1,108,10|8,0:0|0:0,0:0:0:0:
476,274,91497,6,0,L|359:277,1,108,2|8,1:2|0:0,0:0:0:0:
258,273,92097,2,0,L|141:276,1,108,2|8,1:2|0:0,0:0:0:0:
425,206,92697,6,0,P|474:196|418:87,1,216,2|0,1:2|0:0,0:0:0:0:
320,64,93596,1,10,0:0:0:0:
200,63,93896,6,0,L|199:194,1,108,2|8,1:2|0:0,0:0:0:0:
259,197,94346,2,0,L|383:196,1,108,2|0,0:0|1:0,0:0:0:0:
311,131,94796,1,10,0:0:0:0:
259,197,94946,1,0,0:0:0:0:
311,131,95096,6,0,L|312:16,1,108,0|8,1:0|0:0,0:0:0:0:
251,13,95546,1,0,0:0:0:0:
130,29,95845,2,0,L|130:95,1,54,0|10,0:0|0:0,0:0:0:0:
243,136,96295,6,0,L|371:137,1,108,2|10,1:2|0:0,0:0:0:0:
295,82,96745,2,0,L|176:79,1,108,2|0,0:0|1:0,0:0:0:0:
188,79,97195,1,10,0:0:0:0:
295,189,97495,6,0,P|334:175|286:144,1,108,2|10,1:2|0:0,0:0:0:0:
246,133,97945,2,0,L|123:131,1,108,10|0,0:0|1:0,0:0:0:0:
139,131,98395,1,8,0:0:0:0:
250,183,98694,6,0,L|369:182,1,108,0|8,1:3|0:0,0:0:0:0:
300,127,99144,2,0,L|304:254,1,108,0|0,0:0|1:0,0:0:0:0:
360,249,99594,2,0,L|436:243,1,54,8|0,0:0|0:0,0:0:0:0:
276,209,99894,6,0,L|143:209,1,108,2|10,1:2|0:0,0:0:0:0:
222,158,100344,2,0,L|221:36,1,108,2|0,0:0|1:0,0:0:0:0:
166,37,100794,1,10,0:0:0:0:
59,53,101093,6,0,P|65:102|125:111,1,108,2|10,1:2|0:0,0:0:0:0:
175,136,101543,2,0,L|306:136,1,108,2|0,0:0|1:0,0:0:0:0:
226,77,101993,1,8,0:0:0:0:
175,137,102143,1,0,0:0:0:0:
226,77,102293,6,0,L|293:77,1,54,2|2,1:2|0:0,0:0:0:0:
166,82,102743,2,0,L|41:83,1,108,2|2,0:0|1:2,0:0:0:0:
115,136,103193,1,8,0:0:0:0:
174,139,103343,6,0,L|294:139,1,108,2|0,0:0|3:0,0:0:0:0:
282,139,103793,1,8,0:0:0:0:
174,75,104093,2,0,L|111:73,2,54,0|0|10,0:0|1:0|0:0,0:0:0:0:
416,208,104692,6,0,L|416:76,1,108,2|8,1:2|0:0,0:0:0:0:
356,84,105142,2,0,L|242:86,1,108,2|0,0:0|1:0,0:0:0:0:
249,85,105592,1,10,0:0:0:0:
349,180,105892,6,0,L|421:179,1,54,2|0,1:2|0:0,0:0:0:0:
297,125,106342,2,0,L|181:126,1,108,2|0,0:0|1:0,0:0:0:0:
243,76,106792,1,10,0:0:0:0:
299,126,106942,1,2,0:0:0:0:
438,140,107092,6,0,L|441:269,1,108,2|10,1:2|0:0,0:0:0:0:
381,264,107541,2,0,L|264:264,1,108,2|0,0:0|1:0,0:0:0:0:
273,264,107991,1,10,0:0:0:0:
376,187,108291,6,0,L|378:60,1,108,2|8,1:2|0:0,0:0:0:0:
261,63,108891,1,10,0:0:0:0:
483,66,109191,1,2,0:0:0:0:
261,63,109491,6,0,L|142:66,1,108,6|10,1:1|0:0,0:0:0:0:
207,175,109941,2,0,L|206:109,1,54,2|0,0:0|0:0,0:0:0:0:
144,111,110240,2,0,L|31:111,1,108,2|0,1:2|0:0,0:0:0:0:
172,79,110690,6,0,L|247:78,1,54,2|2,1:2|0:0,0:0:0:0:
102,98,111140,2,0,L|99:211,1,108,2|0,0:0|1:0,0:0:0:0:
165,227,111590,1,8,0:0:0:0:
221,227,111740,1,2,0:0:0:0:
165,227,111890,6,0,P|166:181|233:172,1,108,2|10,1:2|0:0,0:0:0:0:
274,121,112340,2,0,L|275:54,1,54,2|0,0:0|0:0,0:0:0:0:
216,46,112640,2,0,L|139:49,1,54,2|8,1:2|0:0,0:0:0:0:
298,138,112939,6,0,L|418:136,1,108,2|0,0:0|0:0,0:0:0:0:
406,136,113389,1,8,0:0:0:0:
346,87,113539,2,0,L|231:88,1,108,0|0,1:0|1:0,0:0:0:0:
184,88,113989,1,10,0:0:0:0:
436,174,114289,6,0,L|437:60,1,108,2|10,1:2|0:0,0:0:0:0:
381,47,114739,2,0,L|304:45,1,54,2|0,0:0|0:0,0:0:0:0:
381,47,115039,2,0,L|497:49,1,108,2|0,1:2|0:0,0:0:0:0:
352,57,115489,6,0,L|220:56,1,108,2|10,1:2|0:0,0:0:0:0:
298,126,115938,2,0,L|295:54,1,54,2|0,0:0|0:0,0:0:0:0:
239,52,116238,1,0,1:0:0:0:
185,51,116388,1,8,0:0:0:0:
239,52,116538,1,2,0:0:0:0:
300,122,116688,6,0,P|296:74|228:57,1,108,2|10,1:2|0:0,0:0:0:0:
180,121,117138,2,0,L|175:49,1,54,10|0,0:0|0:0,0:0:0:0:
239,52,117438,2,0,L|172:51,1,54,2|8,1:2|0:0,0:0:0:0:
239,52,117738,6,0,L|368:60,1,108,2|0,0:0|0:0,0:0:0:0:
347,58,118188,1,8,0:0:0:0:
287,98,118338,2,0,L|172:93,1,108,0|0,0:0|1:0,0:0:0:0:
180,93,118787,1,10,0:0:0:0:
428,197,119087,6,0,L|319:199,1,108,6|10,1:2|0:0,0:0:0:0:
377,144,119537,2,0,L|374:79,1,54,2|0,0:0|0:0,0:0:0:0:
314,70,119837,2,0,L|195:69,1,108,2|0,1:2|0:0,0:0:0:0:
342,118,120287,6,0,L|460:120,1,108,2|10,1:2|0:0,0:0:0:0:
342,118,120887,2,0,L|212:121,1,108,2|8,0:0|0:0,0:0:0:0:
177,121,121337,1,0,0:0:0:0:
312,76,121486,6,0,P|315:37|242:14,1,108,2|10,1:2|0:0,0:0:0:0:
198,12,121936,2,0,L|196:73,1,54,2|0,0:0|0:0,0:0:0:0:
249,81,122236,2,0,L|322:83,1,54,2|8,1:2|0:0,0:0:0:0:
249,81,122536,6,0,L|126:83,1,108,2|0,0:0|0:0,0:0:0:0:
142,82,122986,1,8,0:0:0:0:
248,193,123286,1,2,1:2:0:0:
148,187,123586,1,10,0:0:0:0:
396,217,123886,6,0,L|400:90,1,108,6|8,1:1|0:0,0:0:0:0:
279,63,124485,2,0,L|148:62,1,108,0|8,0:0|0:0,0:0:0:0:
279,63,125085,6,0,L|392:67,1,108,2|8,1:2|0:0,0:0:0:0:
263,54,125685,2,0,L|260:176,1,108,2|8,0:0|0:0,0:0:0:0:
496,197,126285,6,0,L|369:198,3,108,2|8|0|8,1:2|0:0|0:0|0:0,0:0:0:0:
150,206,127484,6,0,L|149:89,1,108,2|8,1:2|0:0,0:0:0:0:
260,91,128084,1,0,0:0:0:0:
14,83,128384,1,10,0:0:0:0:
268,92,128684,6,0,L|396:90,1,108,6|8,1:2|3:2,0:0:0:0:
260,80,129284,2,0,L|260:202,1,108,0|8,0:0|0:0,0:0:0:0:
369,210,129884,6,0,L|254:210,1,108,2|8,1:2|0:0,0:0:0:0:
367,199,130483,2,0,L|368:82,1,108,2|8,1:2|0:0,0:0:0:0:
124,72,131083,6,0,L|17:74,3,108,2|8|0|8,1:2|0:0|1:0|0:0,0:0:0:0:
266,126,132283,6,0,L|396:127,1,108,0|8,1:0|0:0,0:0:0:0:
313,181,132733,2,0,L|200:180,1,108,0|0,1:0|1:0,0:0:0:0:
266,126,133182,2,0,L|269:58,1,54,10|2,0:0|1:2,0:0:0:0:
126,41,133482,5,6,1:1:0:0:
233,105,133782,2,0,L|309:107,1,54,10|2,0:0|0:0,0:0:0:0:
170,153,134232,2,0,L|168:80,1,54,0|10,1:0|0:0,0:0:0:0:
435,89,134682,5,2,1:2:0:0:
321,83,134982,2,0,L|320:148,1,54,10|2,0:0|0:0,0:0:0:0:
440,86,135431,2,0,L|502:88,1,54,2|8,1:2|0:0,0:0:0:0:
251,199,135881,6,2,L|130:194,1,108,2|0,1:2|0:0,0:1:0:0:
143,194,136331,1,2,1:2:0:0:
261,85,136631,2,0,L|263:12,2,54,0|0|0,0:0|2:0|2:0,0:0:0:0:
206,91,137081,6,0,L|86:90,1,108,2|0,1:2|0:0,0:0:0:0:
98,90,137531,1,2,1:2:0:0:
225,165,137831,2,0,L|293:170,1,54,0|8,0:0|0:0,0:0:0:0:
35,187,138280,6,0,L|32:61,1,108,0|8,1:0|0:0,0:0:0:0:
95,53,138730,1,0,0:0:0:0:
220,74,139030,2,0,L|288:74,1,54,0|10,1:0|0:0,0:0:0:0:
168,139,139480,5,2,1:2:0:0:
285,96,139780,2,0,L|289:22,1,54,10|2,0:0|0:0,0:0:0:0:
177,35,140230,2,0,L|113:36,1,54,0|10,1:0|0:0,0:0:0:0:
376,64,140680,6,2,L|376:187,1,108,2|0,1:2|0:0,0:1:0:0:
318,197,141129,2,0,L|201:196,1,108,2|0,1:2|0:0,0:0:0:0:
210,196,141579,1,0,0:0:0:0:
318,144,141879,6,0,L|447:144,1,108,2|0,1:2|0:0,0:0:0:0:
426,144,142329,2,0,L|309:147,1,108,2|0,1:2|0:0,0:0:0:0:
370,93,142779,1,8,0:0:0:0:
131,199,143079,6,0,L|129:69,1,108,4|8,1:2|0:0,0:0:0:0:
195,69,143529,2,0,L|317:66,1,108,0|0,0:0|1:0,0:0:0:0:
302,66,143978,1,10,0:0:0:0:
65,182,144278,6,0,L|65:54,1,108,2|10,1:2|0:0,0:0:0:0:
129,68,144728,2,0,L|203:67,1,54,2|0,0:0|0:0,0:0:0:0:
129,68,145028,2,0,L|63:69,2,54,2|10|0,1:2|0:0|0:0,0:0:0:0:
272,107,145478,6,2,L|401:108,1,108,0|0,1:0|0:0,0:1:0:0:
379,107,145928,1,2,1:2:0:0:
257,183,146228,2,0,L|185:183,1,54
325,178,146678,6,0,L|326:65,1,108,2|0,1:2|0:0,0:0:0:0:
268,62,147127,1,2,1:2:0:0:
152,108,147427,2,0,L|152:44,1,54,0|8,0:0|0:0,0:0:0:0:
406,51,147877,6,0,L|408:164,1,108,0|8,1:0|0:0,0:0:0:0:
346,178,148327,1,0,0:0:0:0:
234,95,148627,2,0,L|173:97,1,54,0|10,1:0|0:0,0:0:0:0:
428,57,149077,6,0,L|430:176,1,108,2|10,1:2|0:0,0:0:0:0:
364,179,149527,2,0,L|302:178,1,54,2|0,0:0|0:0,0:0:0:0:
364,179,149826,2,0,L|438:177,2,54,0|10|0,1:0|0:2|0:0,0:0:0:0:
227,134,150276,6,2,L|117:132,1,108,0|0,1:0|0:0,0:1:0:0:
119,132,150726,1,2,1:2:0:0:
246,56,151026,2,0,L|323:57,2,54
104,146,151476,6,0,L|103:32,1,108,2|0,1:2|0:0,0:0:0:0:
171,18,151926,1,2,1:2:0:0:
302,94,152226,2,0,L|368:93,1,54,0|8,0:0|0:0,0:0:0:0:
91,206,152675,6,0,P|56:192|110:138,1,129.599996044922,6|10,1:1|0:0,0:0:0:0:
161,123,153125,2,0,L|160:38,1,64.799998022461,2|0,0:0|0:0,0:0:0:0:
96,40,153425,2,0,L|245:42,1,129.599996044922,2|0,1:2|0:0,0:0:0:0:
152,123,153875,6,0,L|152:53,1,64.799998022461,2|2,1:2|0:0,0:0:0:0:
285,49,154325,2,0,L|421:47,1,129.599996044922,2|0,0:0|1:0,0:0:0:0:
414,47,154775,1,8,0:0:0:0:
351,113,154925,1,2,0:0:0:0:
414,47,155075,6,0,P|418:88|342:124,1,129.599996044922,2|10,1:2|0:0,0:0:0:0:
286,115,155524,2,0,L|286:43,1,64.799998022461,2|0,0:0|0:0,0:0:0:0:
351,45,155824,2,0,L|351:-35,1,64.799998022461,2|8,1:2|0:0,0:0:0:0:
283,25,156124,6,0,L|131:28,1,129.599996044922,2|0,0:0|1:0,0:0:0:0:
153,27,156574,1,8,0:0:0:0:
219,66,156724,2,0,L|355:66,1,129.599996044922,0|0,1:0|1:0,0:0:0:0:
348,66,157174,1,10,0:0:0:0:
92,187,157474,6,0,L|94:52,1,129.599996044922,2|10,1:2|0:0,0:0:0:0:
162,43,157924,2,0,L|245:43,1,64.799998022461,2|0,0:0|0:0,0:0:0:0:
162,43,158223,2,0,P|117:53|172:96,1,129.599996044922,2|0,1:2|0:0,0:0:0:0:
286,117,158673,6,0,L|432:118,1,129.599996044922,2|10,1:2|0:0,0:0:0:0:
347,73,159123,2,0,L|208:71,1,129.599996044922,2|0,0:0|1:0,0:0:0:0:
217,71,159573,1,8,0:0:0:0:
286,71,159723,1,2,0:0:0:0:
211,71,159873,6,0,P|210:32|290:1,1,129.599996044922,2|10,1:2|0:0,0:0:0:0:
349,11,160323,2,0,L|350:77,1,64.799998022461,10|0,0:0|0:0,0:0:0:0:
284,77,160623,2,0,L|210:77,1,64.799998022461,2|8,1:2|0:0,0:0:0:0:
351,91,160923,6,0,L|433:92,2,64.799998022461,2|0|0,0:0|1:0|0:0,0:0:0:0:
284,103,161372,1,8,0:0:0:0:
216,115,161522,2,0,L|61:115,1,129.599996044922,0|0,1:0|1:0,0:0:0:0:
156,176,161972,2,0,L|227:176,1,64.799998022461,10|0,0:0|1:0,0:0:0:0:
86,188,162272,6,0,L|87:55,1,129.599996044922,6|10,1:2|0:0,0:0:0:0:
158,42,162722,2,0,L|252:44,1,64.799998022461,2|0,0:0|0:0,0:0:0:0:
158,42,163022,2,0,L|20:45,1,129.599996044922,2|0,1:2|0:0,0:0:0:0:
158,42,163472,6,0,L|289:41,1,129.599996044922,2|10,1:2|0:0,0:0:0:0:
156,42,164071,2,0,L|152:194,1,129.599996044922,2|8,0:0|0:0,0:0:0:0:
225,177,164521,1,0,0:0:0:0:
359,179,164671,6,0,P|359:128|282:103,1,129.599996044922,2|10,1:2|0:0,0:0:0:0:
228,71,165121,2,0,L|225:-14,1,64.799998022461,2|0,0:0|0:0,0:0:0:0:
293,16,165421,2,0,L|376:15,1,64.799998022461,2|8,1:2|0:0,0:0:0:0:
229,69,165721,6,0,L|92:70,1,129.599996044922,2|0,0:0|0:0,0:0:0:0:
99,69,166171,1,8,0:0:0:0:
227,131,166471,1,2,0:0:0:0:
99,69,166771,1,10,0:0:0:0:
348,134,167070,6,0,L|348:-2,1,129.599996044922,6|8,1:1|0:0,0:0:0:0:
223,50,167670,2,0,L|80:51,1,129.599996044922,0|8,0:0|0:0,0:0:0:0:
353,75,168270,6,0,L|352:211,1,129.599996044922,2|8,1:2|0:0,0:0:0:0:
221,198,168870,2,0,L|86:193,1,129.599996044922,2|8,1:2|0:0,0:0:0:0:
343,115,169470,6,0,L|489:116,3,129.599996044922,2|8|0|8,1:2|0:0|0:0|0:0,0:0:0:0:
215,192,170669,6,0,P|183:172|242:114,1,129.599996044922,2|8,1:2|0:0,0:0:0:0:
286,97,171119,1,0,0:0:0:0:
419,89,171419,2,0,L|421:172,1,64.799998022461,0|10,1:0|0:0,0:0:0:0:
163,197,171869,6,0,L|20:193,1,129.599996044922,6|8,1:2|0:0,0:0:0:0:
162,199,172469,2,0,L|160:58,1,129.599996044922,0|8,0:0|0:0,0:0:0:0:
32,57,173068,6,0,L|184:53,1,129.599996044922,2|8,1:2|0:0,0:0:0:0:
287,50,173668,2,0,L|428:50,1,129.599996044922,2|8,0:0|0:0,0:0:0:0:
164,152,174268,6,0,L|27:147,3,129.599996044922,2|8|0|8,1:2|0:0|1:0|0:0,0:0:0:0:
298,177,175467,6,0,L|296:37,1,129.599996044922,2|8,1:2|0:0,0:0:0:0:
233,38,175917,1,8,0:0:0:0:
98,113,176217,2,0,L|97:36,1,64.799998022461,0|10,1:0|0:0,0:0:0:0:
350,103,176667,6,0,L|497:103,1,129.599996044922,6|8,1:1|0:0,0:0:0:0:
350,102,177267,2,0,L|200:104,1,129.599996044922,0|8,1:0|0:0,0:0:0:0:
472,185,177867,6,0,L|472:50,1,129.599996044922,2|8,1:2|0:0,0:0:0:0:
350,54,178466,2,0,L|495:52,1,129.599996044922,2|8,1:2|0:0,0:0:0:0:
206,118,179066,6,0,L|71:122,3,129.599996044922,2|8|0|8,1:2|0:0|0:0|0:0,0:0:0:0:
338,141,180266,6,0,L|338:283,1,129.599996044922,2|8,1:2|0:0,0:0:0:0:
265,286,180716,1,0,0:0:0:0:
128,177,181016,2,0,L|126:101,1,64.799998022461,0|10,1:0|0:0,0:0:0:0:
200,83,181315,1,2,1:2:0:0:
336,85,181465,5,4,1:2:0:0:
256,192,181765,12,0,186264,0:0:0:0:
