osu file format v14

[General]
AudioFilename: audio.mp3
AudioLeadIn: 0
PreviewTime: 51592
Countdown: 0
SampleSet: Soft
StackLeniency: 0.5
Mode: 2
LetterboxInBreaks: 0
WidescreenStoryboard: 1

[Editor]
Bookmarks: 23121,51911,80701,96295,109491,133482,143079,152675,167070,174268,181465
DistanceSpacing: 1
BeatDivisor: 4
GridSize: 32
TimelineZoom: 1.8

[Metadata]
Title:Breaking The Habit
TitleUnicode:Breaking The Habit
Artist:Linkin Park
ArtistUnicode:Linkin Park
Creator:Secre
Version:Cup
Source:
Tags:chickenbible aakki nu metal english alternative rock meteora chester bennington osu!catch 3 digit world cup 2022 3CWC2022 RO16 Round of 16 DT1 DoubleTime1
BeatmapID:3774601
BeatmapSetID:1804743

[Difficulty]
HPDrainRate:2
CircleSize:3
OverallDifficulty:6.1
ApproachRate:6.1
SliderMultiplier:1.08
SliderTickRate:1

[Events]
//Background and Video events
0,0,"i cant break the habit of making vtuber references in my bg names.jpg",0,0
//Break Periods
2,76102,78466
//Storyboard Layer 0 (Background)
//Storyboard Layer 1 (Fail)
//Storyboard Layer 2 (Pass)
//Storyboard Layer 3 (Foreground)
//Storyboard Layer 4 (Overlay)
//Storyboard Sound Samples

[TimingPoints]
3928,299.895036737142,4,2,1,20,1,0
4227,-100,4,2,1,20,0,0
6027,-100,4,2,1,20,0,0
13224,-100,4,2,1,20,0,0
13524,-100,4,2,1,60,0,0
14274,-100,4,2,1,60,0,0
15923,-100,4,2,1,60,0,0
16673,-100,4,2,1,60,0,0
18322,-100,4,2,1,60,0,0
19072,-100,4,2,1,60,0,0
20722,-100,4,2,1,60,0,0
21471,-100,4,2,1,60,0,0
22221,-100,4,2,1,60,0,0
22371,-100,4,2,1,60,0,0
22521,-100,4,2,1,60,0,0
22671,-100,4,2,1,60,0,0
22821,-100,4,2,1,60,0,0
22971,-100,4,2,1,60,0,0
23121,-100,4,2,1,45,0,0
26420,-100,4,2,1,45,0,0
30018,-100,4,2,1,45,0,0
31218,-100,4,2,1,45,0,0
32418,-100,4,2,1,45,0,0
35866,-100,4,2,1,45,0,0
37216,-100,4,2,1,45,0,0
38415,-100,4,2,1,45,0,0
40815,-100,4,2,1,45,0,0
42314,-100,4,2,1,55,0,0
43139,-100,4,2,1,55,0,0
44413,-100,4,2,1,55,0,0
48012,-100,4,2,1,55,0,0
51611,-100,4,2,1,55,0,0
51911,-100,4,2,1,85,0,1
51986,-100,4,2,1,85,0,0
52211,-100,4,2,1,85,0,0
53110,-100,4,2,1,85,0,0
55809,-100,4,2,1,85,0,0
56709,-100,4,2,1,85,0,0
57009,-100,4,2,1,85,0,0
57909,-100,4,2,1,85,0,0
61507,-100,4,2,1,85,0,0
61807,-100,4,2,1,85,0,0
62707,-100,4,2,1,85,0,0
65406,-100,4,2,1,85,0,0
66306,-100,4,2,1,85,0,0
68705,-100,4,2,1,85,0,0
71104,-100,4,2,1,85,0,0
71423,-100,4,2,1,45,0,0
71554,-100,4,2,1,85,0,0
72304,-100,4,2,1,85,0,0
73503,-100,4,2,1,85,0,0
79351,-100,4,2,1,55,0,0
79401,-100,4,2,1,55,0,0
80701,-100,4,2,1,60,0,0
83400,-100,4,2,1,60,0,0
99444,-100,4,2,1,60,0,0
99594,-100,4,2,1,60,0,0
99894,-100,4,2,1,65,0,0
101093,-100,4,2,1,65,0,0
102293,-100,4,2,1,65,0,0
104692,-100,4,2,1,65,0,0
105442,-100,4,2,1,65,0,0
106642,-100,4,2,1,65,0,0
108291,-100,4,2,1,65,0,0
109191,-100,4,2,1,65,0,0
109491,-100,4,2,1,85,0,1
109566,-100,4,2,1,85,0,0
110690,-100,4,2,1,85,0,0
113089,-100,4,2,1,85,0,0
114289,-100,4,2,1,85,0,0
115488,-100,4,2,1,85,0,0
116238,-100,4,2,1,85,0,0
116988,-100,4,2,1,85,0,0
117438,-100,4,2,1,85,0,0
119087,-100,4,2,1,85,0,0
120287,-100,4,2,1,85,0,0
121486,-100,4,2,1,85,0,0
122986,-100,4,2,1,85,0,0
123886,-100,4,2,1,85,0,0
125685,-100,4,2,1,85,0,0
126285,-100,4,2,1,85,0,0
128684,-100,4,2,1,85,0,0
129002,-100,4,2,1,45,0,0
129134,-100,4,2,1,85,0,0
129883,-100,4,2,1,85,0,0
131083,-100,4,2,1,85,0,0
133482,-100,4,2,1,95,0,1
133557,-100,4,2,1,95,0,0
133782,-100,4,2,1,95,0,0
134682,-100,4,2,1,95,0,0
135431,-100,4,2,1,95,0,0
135881,-100,4,2,1,95,0,1
137081,-100,4,2,1,95,0,1
137981,-100,4,2,1,95,0,0
139480,-100,4,2,1,95,0,0
140680,-100,4,2,1,95,0,1
141879,-100,4,2,1,95,0,1
142779,-100,4,2,1,95,0,0
145028,-100,4,2,1,95,0,0
145478,-100,4,2,1,95,0,1
146678,-100,4,2,1,95,0,1
147577,-100,4,2,1,95,0,0
149077,-100,4,2,1,95,0,0
150276,-100,4,2,1,95,0,1
151326,-100,4,2,1,95,0,1
151476,-100,4,2,1,95,0,1
152376,-100,4,2,1,95,0,0
152675,-83.3333333333333,4,2,1,90,0,1
152750,-83.3333333333333,4,2,1,90,0,0
152975,-83.3333333333333,4,2,1,90,0,0
154625,-83.3333333333333,4,2,1,90,0,0
157774,-83.3333333333333,4,2,1,90,0,0
160623,-83.3333333333333,4,2,1,90,0,0
162572,-83.3333333333333,4,2,1,90,0,0
164671,-83.3333333333333,4,2,1,90,0,0
167070,-83.3333333333333,4,2,1,90,0,0
168270,-83.3333333333333,4,2,1,90,0,0
171419,-83.3333333333333,4,2,1,90,0,0
172169,-83.3333333333333,4,2,1,90,0,0
175467,-83.3333333333333,4,2,1,90,0,0
178466,-83.3333333333333,4,2,1,90,0,0
181315,-83.3333333333333,4,2,1,90,0,0
181765,-83.3333333333333,4,2,1,40,0,0

[Colours]
Combo1 : 255,128,128
Combo2 : 186,193,199
Combo3 : 164,108,137
Combo4 : 139,139,139

[HitObjects]
319,203,3927,5,2,0:0:0:0:
417,220,4226,1,2,0:0:0:0:
421,320,4526,1,2,0:0:0:0:
324,345,4826,1,2,0:0:0:0:
215,213,5127,5,2,0:0:0:0:
212,105,5426,1,2,0:0:0:0:
321,163,5727,1,0,0:0:0:0:
323,55,6026,1,2,0:0:0:0:
211,61,6327,5,2,0:0:0:0:
106,69,6626,1,2,0:0:0:0:
47,155,6926,1,2,0:0:0:0:
75,256,7226,1,2,0:0:0:0:
188,224,7526,5,2,0:0:0:0:
189,116,7825,1,2,0:0:0:0:
81,110,8126,1,2,0:0:0:0:
73,3,8425,1,2,0:0:0:0:
199,52,8726,5,2,0:0:0:0:
306,52,9025,1,2,0:0:0:0:
199,52,9326,1,2,0:0:0:0:
193,159,9625,1,2,0:0:0:0:
312,72,9925,5,2,0:0:0:0:
407,110,10224,1,2,0:0:0:0:
413,218,10524,1,2,0:0:0:0:
321,268,10824,1,2,0:0:0:0:
208,161,11125,6,0,L|204:29,1,108,2|2,0:0|0:0,0:0:0:0:
261,27,11575,1,2,0:0:0:0:
316,17,11725,2,0,L|316:143,1,108,2|2,0:0|0:0,0:0:0:0:
192,173,12325,6,0,L|81:174,1,108,2|2,0:0|0:0,0:0:0:0:
190,174,12924,2,0,L|308:173,1,108,0|2,0:0|0:0,0:0:0:0:
175,173,13524,6,0,L|176:51,1,108,6|8,1:2|0:0,0:0:0:0:
240,41,13974,1,2,0:0:0:0:
346,45,14274,2,0,L|406:44,1,54,2|10,1:2|0:0,0:0:0:0:
294,142,14724,6,0,L|181:144,1,108,2|8,1:2|0:0,0:0:0:0:
186,143,15174,1,2,0:0:0:0:
301,119,15473,2,0,L|302:47,1,54,2|10,1:2|0:0,0:0:0:0:
181,47,15923,6,0,L|49:50,1,108,2|8,1:2|0:0,0:0:0:0:
73,49,16373,1,2,0:0:0:0:
186,131,16673,2,0,L|187:60,1,54,2|10,1:2|0:0,0:0:0:0:
75,66,17123,6,0,L|199:62,1,108,2|8,1:2|0:0,0:0:0:0:
182,62,17573,1,2,0:0:0:0:
65,157,17873,2,0,L|64:88,1,54,2|10,1:2|0:0,0:0:0:0:
178,78,18322,6,0,L|303:78,1,108,6|8,1:2|0:0,0:0:0:0:
286,78,18772,1,2,0:0:0:0:
188,162,19072,2,0,L|189:87,1,54,2|10,1:2|0:0,0:0:0:0:
298,80,19522,6,0,L|173:81,1,108,2|8,1:2|0:0,0:0:0:0:
190,80,19972,1,2,0:0:0:0:
301,70,20272,2,0,L|373:68,1,54,2|10,1:2|0:0,0:0:0:0:
241,165,20722,6,0,L|244:47,1,108,2|8,1:2|0:0,0:0:0:0:
301,37,21171,1,10,0:0:0:0:
420,32,21471,2,0,L|419:103,1,54,2|10,1:2|0:0,0:0:0:0:
296,142,21921,6,0,L|182:145,1,108,2|8,1:2|0:0,0:0:0:0:
242,87,22371,1,2,0:0:0:0:
347,97,22670,1,2,1:2:0:0:
349,147,22820,1,10,0:0:0:0:
302,167,22970,1,0,0:0:0:0:
240,176,23121,6,0,L|241:59,1,108,0|8,1:0|0:0,0:0:0:0:
357,68,23721,2,0,L|356:201,1,108,2|8,0:0|0:0,0:0:0:0:
241,215,24320,6,0,L|117:218,1,108,2|8,3:2|0:0,0:0:0:0:
240,217,24920,2,0,L|352:214,1,108,2|8,0:0|0:0,0:0:0:0:
242,219,25520,6,0,P|175:195|251:113,1,216,2|0,1:2|0:0,0:0:0:0:
353,99,26420,1,10,0:0:0:0:
248,153,26720,6,0,L|129:156,1,108,2|10,3:2|0:0,0:0:0:0:
145,158,27169,1,2,0:0:0:0:
310,121,27619,2,0,L|309:57,1,54,10|2,0:0|1:2,0:0:0:0:
251,59,27919,6,0,L|124:57,1,108,2|8,1:2|0:0,0:0:0:0:
143,57,28369,1,0,0:0:0:0:
251,114,28669,2,0,L|311:115,1,54,0|10,0:0|0:0,0:0:0:0:
191,186,29119,6,0,L|190:71,1,108,2|10,3:2|0:0,0:0:0:0:
243,37,29569,1,2,0:0:0:0:
404,46,30018,1,10,0:0:0:0:
288,150,30318,6,0,L|180:148,1,108,2|10,1:2|0:0,0:0:0:0:
180,148,30768,1,2,0:0:0:0:
290,85,31068,2,0,L|290:14,1,54,0|8,0:0|0:0,0:0:0:0:
181,42,31518,6,0,L|52:43,1,108,0|8,3:0|0:0,0:0:0:0:
80,42,31968,1,0,0:0:0:0:
182,141,32268,2,0,L|255:141,1,54,0|8,0:0|0:0,0:0:0:0:
122,190,32717,6,0,L|120:68,1,108,0|8,1:0|0:0,0:0:0:0:
241,58,33317,2,0,L|365:58,1,108,2|8,0:0|0:0,0:0:0:0:
245,60,33917,6,0,L|130:62,1,108,2|8,3:2|0:0,0:0:0:0:
243,62,34517,2,0,L|244:189,1,108,2|8,0:0|0:0,0:0:0:0:
128,214,35117,6,0,P|76:203|142:103,1,216,2|0,1:2|0:0,0:0:0:0:
231,91,36016,1,10,0:0:0:0:
343,92,36316,6,0,L|346:219,1,108,2|10,3:2|0:0,0:0:0:0:
291,222,36766,1,2,0:0:0:0:
142,134,37216,2,0,L|142:66,1,54,10|0,0:0|1:0,0:0:0:0:
203,54,37516,6,0,L|327:55,1,108,2|8,1:2|0:0,0:0:0:0:
310,54,37966,1,0,0:0:0:0:
200,58,38265,2,0,L|200:135,1,54,0|10,0:0|0:0,0:0:0:0:
316,132,38715,6,0,L|448:127,1,108,2|10,3:2|0:0,0:0:0:0:
423,127,39165,1,2,0:0:0:0:
264,72,39615,1,10,0:0:0:0:
381,57,39915,5,2,1:2:0:0:
264,72,40215,2,0,L|197:71,1,54,10|2,0:0|0:0,0:0:0:0:
316,86,40665,2,0,L|320:157,1,54,0|8,0:0|0:0,0:0:0:0:
213,188,41114,6,0,L|97:190,1,108,0|8,3:0|0:0,0:0:0:0:
161,162,41714,1,0,1:0:0:0:
220,141,41864,1,0,1:0:0:0:
277,122,42014,1,8,0:0:0:0:
148,133,42314,6,0,L|150:253,1,108,2|10,1:2|0:0,0:0:0:0:
209,243,42764,1,2,0:0:0:0:
370,238,43214,1,10,0:0:0:0:
260,150,43514,6,0,L|134:148,1,108,2|10,3:2|0:0,0:0:0:0:
152,148,43963,1,2,0:0:0:0:
270,63,44263,2,0,L|272:134,1,54,0|8,0:0|0:0,0:0:0:0:
209,146,44563,1,2,1:2:0:0:
145,83,44713,6,0,L|143:9,1,54,2|2,1:2|0:0,0:0:0:0:
264,45,45163,2,0,L|394:47,1,108,2|2,0:0|0:0,0:0:0:0:
273,89,45763,6,0,P|242:93|292:248,1,270,2|0,0:0|0:0,0:0:0:0:
389,267,46812,1,10,0:0:0:0:
279,175,47112,6,0,L|278:59,1,108,2|8,1:2|0:0,0:0:0:0:
343,40,47562,1,2,0:0:0:0:
498,30,48012,1,10,0:0:0:0:
387,135,48312,6,0,L|265:137,1,108,2|10,3:2|0:0,0:0:0:0:
279,136,48762,1,2,0:0:0:0:
394,82,49062,2,0,L|395:7,1,54,0|8,1:0|0:0,0:0:0:0:
334,14,49362,1,2,1:2:0:0:
274,10,49512,5,2,1:2:0:0:
164,99,49811,1,10,0:0:0:0:
108,102,49961,1,2,0:0:0:0:
268,93,50411,1,10,0:0:0:0:
383,94,50711,6,0,L|384:225,1,108,2|8,1:2|0:0,0:0:0:0:
276,215,51311,1,0,0:0:0:0:
384,222,51611,1,2,0:0:0:0:
255,172,51911,6,0,L|131:168,1,108,6|10,1:1|0:0,0:0:0:0:
147,168,52361,1,2,0:0:0:0:
257,102,52660,2,0,L|385:100,1,108,2|0,1:2|0:0,0:0:0:0:
307,153,53110,6,0,L|306:226,1,54,2|2,1:2|0:0,0:0:0:0:
417,220,53560,2,0,L|419:100,1,108,2|0,0:0|1:0,0:0:0:0:
366,87,54010,1,8,0:0:0:0:
306,79,54160,1,2,0:0:0:0:
250,81,54310,5,2,1:2:0:0:
366,87,54610,2,0,L|429:86,1,54,10|2,0:0|0:0,0:0:0:0:
296,158,55060,1,2,1:2:0:0:
175,165,55359,6,0,L|172:51,1,108,2|0,0:0|0:0,0:0:0:0:
227,29,55809,1,8,0:0:0:0:
286,22,55959,1,0,0:0:0:0:
399,34,56259,2,0,L|404:112,1,54,0|10,1:0|0:0,0:0:0:0:
284,161,56709,6,0,L|171:160,1,108,2|10,1:2|0:0,0:0:0:0:
176,160,57159,1,2,0:0:0:0:
293,121,57459,1,2,1:2:0:0:
118,109,57909,6,0,L|121:237,1,108,2|10,1:2|0:0,0:0:0:0:
177,227,58358,1,2,0:0:0:0:
291,155,58658,2,0,L|293:80,1,54,0|8,1:0|0:0,0:0:0:0:
234,76,58958,1,2,0:0:0:0:
178,67,59108,5,2,1:2:0:0:
67,78,59408,1,10,0:0:0:0:
67,78,59558,1,10,0:0:0:0:
181,78,59858,1,2,1:2:0:0:
300,82,60158,6,0,L|299:209,1,108,2|0,0:0|0:0,0:0:0:0:
238,218,60608,1,8,0:0:0:0:
182,213,60758,1,0,0:0:0:0:
297,125,61058,2,0,L|365:126,1,54,0|10,1:0|0:0,0:0:0:0:
234,70,61507,6,0,L|107:73,1,108,6|10,1:2|0:0,0:0:0:0:
126,72,61957,1,2,0:0:0:0:
240,139,62257,2,0,L|362:138,1,108,2|0,1:2|0:0,0:0:0:0:
347,138,62707,5,2,1:2:0:0:
237,80,63007,1,10,0:0:0:0:
127,87,63307,2,0,L|126:207,1,108,2|8,0:0|0:0,0:0:0:0:
184,204,63757,1,2,0:0:0:0:
240,201,63907,5,2,1:2:0:0:
346,189,64206,1,10,0:0:0:0:
346,189,64356,1,2,0:0:0:0:
238,124,64656,1,2,1:2:0:0:
346,189,64956,6,0,L|347:76,1,108,2|0,0:0|0:0,0:0:0:0:
292,54,65406,1,8,0:0:0:0:
176,67,65706,2,0,L|53:68,1,108,2|10,0:0|0:0,0:0:0:0:
180,92,66306,6,0,L|306:95,1,108,6|8,1:1|0:0,0:0:0:0:
413,100,66905,2,0,L|415:221,1,108,0|8,0:0|0:0,0:0:0:0:
302,236,67505,6,0,L|191:235,1,108,2|8,1:2|0:0,0:0:0:0:
81,166,68105,2,0,L|80:47,1,108,2|8,0:0|0:0,0:0:0:0:
193,47,68705,6,0,L|316:50,3,108,2|8|0|8,1:2|0:0|0:0|0:0,0:0:0:0:
416,74,69904,6,0,L|415:205,1,108,2|8,1:2|0:0,0:0:0:0:
358,213,70354,1,8,0:0:0:0:
245,120,70654,2,0,L|242:51,1,54,0|10,1:0|0:0,0:0:0:0:
359,40,71104,6,0,L|485:40,1,108,6|8,1:2|3:2,0:0:0:0:
359,40,71704,2,0,L|238:42,1,108,0|8,0:0|0:0,0:0:0:0:
133,84,72304,6,0,L|135:198,1,108,2|8,1:2|0:0,0:0:0:0:
259,186,72903,2,0,L|259:65,1,108,2|8,1:2|0:0,0:0:0:0:
143,54,73503,6,0,L|19:57,3,108,2|8|0|8,1:2|0:0|0:0|0:0,0:0:0:0:
151,93,74703,6,0,L|151:210,1,108,2|8,1:2|0:0,0:0:0:0:
98,219,75153,1,8,0:0:0:0:
216,124,75452,2,0,L|294:123,2,54,0|8|0,1:0|2:2|2:2,0:0:0:0:
156,124,75902,5,0,1:2:0:0:
256,192,79501,12,8,80401,3:0:0:0:
231,80,80701,6,0,L|344:79,1,108,6|8,1:2|0:0,0:0:0:0:
209,67,81300,2,0,L|210:200,1,108,2|8,0:0|0:0,0:0:0:0:
316,211,81899,6,0,L|440:214,1,108,2|8,1:2|0:0,0:0:0:0:
299,238,82499,2,0,L|187:235,1,108,2|8,3:2|0:0,0:0:0:0:
299,215,83099,6,0,P|366:191|290:109,1,216,2|0,1:2|0:0,0:0:0:0:
174,101,83999,1,10,0:0:0:0:
281,156,84299,6,0,L|400:159,1,108,2|10,1:2|0:0,0:0:0:0:
388,158,84748,1,2,0:0:0:0:
212,124,85198,2,0,L|208:61,1,54,10|2,0:0|0:0,0:0:0:0:
260,58,85498,6,0,L|387:56,1,108,0|8,1:0|0:0,0:0:0:0:
368,57,85948,1,0,0:0:0:0:
261,114,86248,2,0,L|201:115,1,54,0|10,1:0|0:0,0:0:0:0:
321,186,86698,6,0,L|322:71,1,108,2|10,1:2|0:0,0:0:0:0:
269,37,87148,1,2,0:0:0:0:
108,46,87597,1,10,0:0:0:0:
224,150,87897,6,0,L|332:148,1,108,2|10,1:2|0:0,0:0:0:0:
331,148,88347,1,2,0:0:0:0:
222,85,88647,2,0,L|222:14,1,54,0|8,1:0|0:0,0:0:0:0:
331,42,89097,6,0,L|460:43,1,108,0|8,1:3|0:0,0:0:0:0:
432,42,89547,1,0,0:0:0:0:
330,141,89847,2,0,L|257:141,1,54,0|8,1:0|0:0,0:0:0:0:
390,190,90296,6,0,L|392:68,1,108,0|10,1:0|0:0,0:0:0:0:
331,66,90747,1,10,0:0:0:0:
271,58,90896,2,0,L|147:58,1,108,10|8,0:0|0:0,0:0:0:0:
267,60,91496,6,0,L|382:62,1,108,2|8,1:2|0:0,0:0:0:0:
269,62,92096,2,0,L|268:189,1,108,2|8,1:2|0:0,0:0:0:0:
384,214,92696,6,0,P|436:203|370:103,1,216,2|0,1:2|0:0,0:0:0:0:
281,91,93595,1,10,0:0:0:0:
169,92,93895,6,0,L|166:219,1,108,2|8,1:2|0:0,0:0:0:0:
221,222,94345,1,2,0:0:0:0:
370,134,94795,2,0,L|370:66,1,54,10|0,0:0|0:0,0:0:0:0:
309,54,95095,6,0,L|185:55,1,108,0|8,1:0|0:0,0:0:0:0:
201,54,95545,1,0,0:0:0:0:
312,58,95844,2,0,L|312:135,1,54,0|10,0:0|0:0,0:0:0:0:
196,132,96294,6,0,L|64:127,1,108,2|10,1:2|0:0,0:0:0:0:
88,127,96744,1,2,0:0:0:0:
248,72,97194,1,10,0:0:0:0:
190,63,97344,1,0,0:0:0:0:
131,57,97494,5,2,1:2:0:0:
248,72,97794,2,0,L|315:71,1,54,10|10,0:0|0:0,0:0:0:0:
196,86,98244,2,0,L|192:157,1,54,0|8,1:0|0:0,0:0:0:0:
299,188,98693,6,0,L|415:190,1,108,0|8,1:3|0:0,0:0:0:0:
351,162,99293,1,0,1:0:0:0:
292,141,99443,1,0,1:0:0:0:
235,122,99593,1,8,0:0:0:0:
364,133,99893,6,0,L|362:253,1,108,2|10,1:2|0:0,0:0:0:0:
303,243,100343,1,2,0:0:0:0:
142,238,100793,1,10,0:0:0:0:
252,150,101093,6,0,L|378:148,1,108,2|10,1:2|0:0,0:0:0:0:
359,148,101542,1,2,0:0:0:0:
242,63,101842,2,0,L|240:134,1,54,0|8,1:0|0:0,0:0:0:0:
303,146,102142,1,0,0:0:0:0:
367,83,102292,6,0,L|369:9,1,54,2|2,1:2|0:0,0:0:0:0:
248,45,102742,2,0,L|118:47,1,108,2|2,0:0|1:2,0:0:0:0:
239,89,103342,6,0,P|270:93|220:248,1,270,2|0,0:0|0:0,0:0:0:0:
123,267,104391,1,10,0:0:0:0:
233,175,104691,6,0,L|234:59,1,108,2|8,1:2|0:0,0:0:0:0:
169,40,105141,1,2,0:0:0:0:
14,30,105591,1,10,0:0:0:0:
125,135,105891,6,0,L|247:137,1,108,2|8,1:2|0:0,0:0:0:0:
232,136,106341,1,2,0:0:0:0:
118,82,106641,2,0,L|117:7,1,54,0|10,1:0|0:0,0:0:0:0:
178,14,106941,1,2,0:0:0:0:
238,10,107091,5,2,1:2:0:0:
348,99,107390,1,10,0:0:0:0:
404,102,107540,1,2,0:0:0:0:
244,93,107990,1,10,0:0:0:0:
129,94,108290,6,0,L|128:225,1,108,2|8,1:2|0:0,0:0:0:0:
236,215,108890,1,10,0:0:0:0:
128,222,109190,1,2,0:0:0:0:
257,172,109490,6,0,L|381:168,1,108,6|10,1:1|0:0,0:0:0:0:
364,168,109940,1,2,0:0:0:0:
255,102,110239,2,0,L|127:100,1,108,2|0,1:2|0:0,0:0:0:0:
205,153,110689,6,0,L|206:226,1,54,2|2,1:2|0:0,0:0:0:0:
95,220,111139,2,0,L|93:100,1,108,2|0,0:0|1:0,0:0:0:0:
146,87,111589,1,8,0:0:0:0:
206,79,111739,1,2,0:0:0:0:
262,81,111889,5,2,1:2:0:0:
146,87,112189,2,0,L|83:86,1,54,10|2,0:0|0:0,0:0:0:0:
216,158,112639,1,2,1:2:0:0:
337,165,112938,6,0,L|340:51,1,108,2|0,0:0|0:0,0:0:0:0:
285,29,113388,1,8,0:0:0:0:
226,22,113538,1,0,1:0:0:0:
113,34,113838,2,0,L|108:112,1,54,0|10,1:0|0:0,0:0:0:0:
228,161,114288,6,0,L|341:160,1,108,2|10,1:2|0:0,0:0:0:0:
335,160,114738,1,2,0:0:0:0:
219,121,115038,1,2,1:2:0:0:
394,109,115488,6,0,L|391:237,1,108,2|10,1:2|0:0,0:0:0:0:
335,227,115937,1,2,0:0:0:0:
221,155,116237,2,0,L|219:80,1,54,0|8,1:0|0:0,0:0:0:0:
278,76,116537,1,2,0:0:0:0:
334,67,116687,5,2,1:2:0:0:
445,78,116987,1,10,0:0:0:0:
445,78,117137,1,10,0:0:0:0:
331,78,117437,1,2,1:2:0:0:
212,82,117737,6,0,L|213:209,1,108,2|0,0:0|0:0,0:0:0:0:
274,218,118187,1,8,0:0:0:0:
330,213,118337,1,0,0:0:0:0:
215,125,118637,2,0,L|147:126,1,54,0|10,1:0|0:0,0:0:0:0:
278,70,119086,6,0,L|405:73,1,108,6|10,1:2|0:0,0:0:0:0:
385,72,119536,1,2,0:0:0:0:
272,139,119836,2,0,L|150:138,1,108,2|0,1:2|0:0,0:0:0:0:
164,138,120287,5,2,1:2:0:0:
275,80,120586,1,10,0:0:0:0:
385,87,120886,2,0,L|386:207,1,108,2|8,0:0|0:0,0:0:0:0:
328,204,121336,1,0,0:0:0:0:
272,201,121486,5,2,1:2:0:0:
166,189,121785,1,10,0:0:0:0:
166,189,121935,1,2,0:0:0:0:
274,124,122235,1,2,1:2:0:0:
166,189,122535,6,0,L|165:76,1,108,2|0,0:0|0:0,0:0:0:0:
220,54,122985,1,8,0:0:0:0:
336,67,123285,2,0,L|459:68,1,108,2|10,1:2|0:0,0:0:0:0:
332,92,123885,6,0,L|206:95,1,108,6|8,1:1|0:0,0:0:0:0:
99,100,124484,2,0,L|97:221,1,108,0|8,0:0|0:0,0:0:0:0:
210,236,125084,6,0,L|321:235,1,108,2|8,1:2|0:0,0:0:0:0:
431,166,125684,2,0,L|432:47,1,108,2|8,0:0|0:0,0:0:0:0:
319,47,126284,6,0,L|196:50,3,108,2|8|0|8,1:2|0:0|0:0|0:0,0:0:0:0:
96,74,127483,6,0,L|97:205,1,108,2|8,1:2|0:0,0:0:0:0:
154,213,127933,1,0,1:0:0:0:
267,120,128233,2,0,L|270:51,1,54,0|10,1:0|0:0,0:0:0:0:
153,40,128683,6,0,L|27:40,1,108,6|8,1:2|3:2,0:0:0:0:
153,40,129283,2,0,L|274:42,1,108,0|8,0:0|0:0,0:0:0:0:
379,84,129883,6,0,L|377:198,1,108,2|8,1:2|0:0,0:0:0:0:
253,186,130482,2,0,L|253:65,1,108,2|8,1:2|0:0,0:0:0:0:
369,54,131082,6,0,L|493:57,3,108,2|8|0|8,1:2|0:0|1:0|0:0,0:0:0:0:
361,93,132282,6,0,L|361:210,1,108,0|8,1:0|0:0,0:0:0:0:
414,219,132732,1,0,1:0:0:0:
296,124,133031,2,0,L|218:123,2,54,0|10|2,1:0|0:0|1:2,0:0:0:0:
356,124,133481,5,6,1:1:0:0:
460,115,133781,2,0,L|462:47,1,54,10|2,0:0|0:0,0:0:0:0:
351,110,134231,2,0,L|351:44,1,54,0|10,1:0|0:0,0:0:0:0:
241,106,134681,6,0,L|243:225,1,108,2|10,1:2|0:0,0:0:0:0:
300,234,135131,1,2,0:0:0:0:
400,153,135431,2,0,L|398:92,1,54,2|8,1:2|0:0,0:0:0:0:
284,73,135880,6,2,L|166:73,1,108,2|0,1:2|0:0,0:1:0:0:
176,73,136330,1,2,1:2:0:0:
281,143,136630,2,0,L|281:72,1,54,0|0,0:0|2:0,0:0:0:0:
216,76,136931,1,0,2:0:0:0:
156,81,137080,6,0,L|158:209,1,108,2|0,1:2|0:0,0:0:0:0:
216,212,137530,1,2,1:2:0:0:
335,168,137830,2,0,L|336:92,1,54,0|8,0:0|0:0,0:0:0:0:
215,88,138280,6,0,L|93:89,1,108,0|8,1:0|0:0,0:0:0:0:
163,34,138730,1,0,0:0:0:0:
282,38,139030,2,0,L|281:106,1,54,0|10,1:0|0:0,0:0:0:0:
164,152,139480,6,0,L|284:152,1,108,2|10,1:2|0:0,0:0:0:0:
272,152,139930,1,2,0:0:0:0:
163,71,140230,2,0,L|100:71,1,54,0|10,1:0|0:0,0:0:0:0:
221,85,140680,6,2,L|346:89,1,108,2|0,1:2|0:0,0:1:0:0:
328,88,141129,1,2,1:2:0:0:
217,178,141429,2,0,L|217:110,1,54
333,106,141879,6,0,L|448:106,1,108,2|0,1:2|0:0,0:0:0:0:
441,106,142329,1,2,1:2:0:0:
384,98,142479,1,0,0:0:0:0:
324,96,142629,2,0,L|323:39,1,54,0|8,0:0|0:0,0:0:0:0:
450,41,143079,6,0,L|324:41,1,108,4|8,1:2|0:0,0:0:0:0:
342,41,143529,1,0,0:0:0:0:
454,50,143829,2,0,L|454:106,1,54,0|10,1:0|0:0,0:0:0:0:
339,147,144278,6,0,L|211:152,1,108,2|10,1:2|0:0,0:0:0:0:
231,151,144728,1,2,0:0:0:0:
339,81,145028,2,0,L|341:22,1,54,2|10,1:2|0:0,0:0:0:0:
227,38,145478,6,2,L|100:41,1,108,0|0,1:0|0:0,0:1:0:0:
119,40,145928,1,2,1:2:0:0:
231,101,146228,1,0,0:0:0:0:
177,104,146378,1,0,0:0:0:0:
61,177,146678,6,0,L|59:67,1,108,2|0,1:2|0:0,0:0:0:0:
116,41,147127,1,2,1:2:0:0:
228,64,147427,2,0,L|296:62,1,54,0|8,0:0|0:0,0:0:0:0:
175,133,147877,6,0,L|54:137,1,108,0|8,1:0|0:0,0:0:0:0:
67,136,148327,1,0,0:0:0:0:
178,74,148627,2,0,L|247:75,1,54,0|10,1:0|0:0,0:0:0:0:
124,120,149077,6,0,L|128:245,1,108,2|10,1:2|0:0,0:0:0:0:
184,237,149527,1,2,0:0:0:0:
298,164,149826,2,0,L|375:163,1,54,0|10,1:0|0:2,0:0:0:0:
240,137,150276,6,2,L|242:11,1,108,0|0,1:0|0:0,0:1:0:0:
303,12,150726,1,2,1:2:0:0:
415,27,151026,2,0,L|413:92,1,54
355,102,151326,1,0,0:0:0:0:
293,116,151476,6,0,L|296:242,1,108,2|0,1:2|0:0,0:0:0:0:
353,233,151926,1,2,1:2:0:0:
461,174,152226,2,0,L|461:106,1,54,0|8,0:0|0:0,0:0:0:0:
309,111,152675,6,0,L|178:114,1,129.599996044922,6|10,1:1|0:0,0:0:0:0:
179,113,153125,1,2,0:0:0:0:
310,109,153425,2,0,L|309:42,1,64.799998022461,2|0,1:2|0:0,0:0:0:0:
172,37,153875,6,0,L|90:38,1,64.799998022461,2|2,1:2|0:0,0:0:0:0:
242,120,154325,2,0,L|376:116,1,129.599996044922,2|0,0:0|1:0,0:0:0:0:
371,116,154775,1,8,0:0:0:0:
303,68,154925,6,0,L|301:-6,1,64.799998022461,2|2,0:0|1:2,0:0:0:0:
433,4,155374,2,0,L|431:84,1,64.799998022461,10|2,0:0|0:0,0:0:0:0:
303,133,155824,1,2,1:2:0:0:
175,93,156124,6,0,L|175:238,1,129.599996044922,2|0,0:0|1:0,0:0:0:0:
238,227,156574,1,8,0:0:0:0:
301,230,156724,1,0,1:0:0:0:
180,113,157024,2,0,L|107:114,1,64.799998022461,0|10,1:0|0:0,0:0:0:0:
244,59,157474,6,0,L|386:62,1,129.599996044922,2|10,1:2|0:0,0:0:0:0:
373,61,157924,1,2,0:0:0:0:
241,185,158223,2,0,L|237:42,1,129.599996044922,2|0,1:2|0:0,0:0:0:0:
302,31,158673,5,2,1:2:0:0:
430,36,158973,2,0,L|432:109,1,64.799998022461,10|2,0:0|0:0,0:0:0:0:
306,143,159423,2,0,L|308:71,1,64.799998022461,0|8,1:0|0:0,0:0:0:0:
376,74,159723,6,0,L|380:-9,1,64.799998022461,2|2,0:0|1:2,0:0:0:0:
258,48,160173,2,0,L|179:51,1,64.799998022461,10|10,0:0|0:0,0:0:0:0:
319,83,160623,1,2,1:2:0:0:
188,130,160923,6,0,L|191:267,1,129.599996044922,2|0,0:0|0:0,0:0:0:0:
251,269,161372,1,8,0:0:0:0:
314,265,161522,1,0,1:0:0:0:
184,211,161822,2,0,L|181:139,1,64.799998022461,0|10,1:0|0:0,0:0:0:0:
327,129,162272,6,0,L|474:126,1,129.599996044922,6|10,1:2|0:0,0:0:0:0:
456,126,162722,1,2,0:0:0:0:
310,88,163022,2,0,L|158:91,1,129.599996044922,2|0,1:2|0:0,0:0:0:0:
180,90,163472,5,2,1:2:0:0:
314,114,163772,1,10,0:0:0:0:
180,90,164071,2,0,L|180:227,1,129.599996044922,2|8,0:0|0:0,0:0:0:0:
249,226,164521,1,0,0:0:0:0:
318,228,164671,5,2,1:2:0:0:
190,145,164971,1,10,0:0:0:0:
190,145,165121,1,2,0:0:0:0:
320,141,165421,1,2,1:2:0:0:
190,145,165721,6,0,L|187:10,1,129.599996044922,2|0,0:0|0:0,0:0:0:0:
256,7,166171,1,8,0:0:0:0:
392,47,166471,2,0,L|391:188,1,129.599996044922,2|10,0:0|0:0,0:0:0:0:
251,197,167070,6,0,L|109:194,1,129.599996044922,6|8,1:1|0:0,0:0:0:0:
255,199,167670,2,0,L|393:195,1,129.599996044922,0|8,0:0|0:0,0:0:0:0:
252,195,168270,6,0,L|252:58,1,129.599996044922,2|8,1:2|0:0,0:0:0:0:
391,51,168870,2,0,L|390:187,1,129.599996044922,2|8,1:2|0:0,0:0:0:0:
244,219,169470,6,0,L|108:221,3,129.599996044922,2|8|0|8,1:2|0:0|0:0|0:0,0:0:0:0:
245,227,170669,6,0,L|249:87,1,129.599996044922,2|8,1:2|0:0,0:0:0:0:
181,78,171119,1,0,0:0:0:0:
49,92,171419,2,0,L|45:0,1,64.799998022461,0|10,1:0|0:0,0:0:0:0:
185,35,171869,6,0,L|343:38,1,129.599996044922,6|8,1:2|0:0,0:0:0:0:
187,39,172469,2,0,L|188:180,1,129.599996044922,0|8,0:0|0:0,0:0:0:0:
324,187,173068,6,0,L|457:186,1,129.599996044922,2|8,1:2|0:0,0:0:0:0:
319,189,173668,2,0,L|182:189,1,129.599996044922,2|8,0:0|0:0,0:0:0:0:
326,111,174268,6,0,L|475:110,3,129.599996044922,2|8|0|8,1:2|0:0|1:0|0:0,0:0:0:0:
305,119,175467,6,0,L|305:262,1,129.599996044922,2|8,1:2|0:0,0:0:0:0:
376,263,175917,1,8,0:0:0:0:
242,151,176217,2,0,L|163:153,1,64.799998022461,0|10,1:0|0:0,0:0:0:0:
309,88,176667,6,0,L|459:89,1,129.599996044922,6|8,1:1|0:0,0:0:0:0:
304,93,177267,2,0,L|157:95,1,129.599996044922,0|8,1:0|0:0,0:0:0:0:
304,92,177867,6,0,L|307:238,1,129.599996044922,2|8,1:2|0:0,0:0:0:0:
176,248,178466,2,0,L|47:250,1,129.599996044922,2|8,1:2|0:0,0:0:0:0:
187,171,179066,6,0,L|319:168,3,129.599996044922,2|8|0|8,1:2|0:0|0:0|0:0,0:0:0:0:
189,174,180266,6,0,L|184:18,1,129.599996044922,2|8,1:2|0:0,0:0:0:0:
255,17,180716,1,0,0:0:0:0:
120,69,181016,2,0,L|40:70,2,64.799998022461,0|10|2,1:0|0:0|1:2,0:0:0:0:
186,68,181465,5,4,1:2:0:0:
256,192,181765,12,0,186264,0:0:0:0:
