osu file format v14

[General]
AudioFilename: audio.mp3
AudioLeadIn: 0
PreviewTime: 51521
Countdown: 0
SampleSet: Soft
StackLeniency: 0.2
Mode: 0
LetterboxInBreaks: 0
WidescreenStoryboard: 0

[Editor]
DistanceSpacing: 1
BeatDivisor: 4
GridSize: 32
TimelineZoom: 1.5

[Metadata]
Title:Breaking The Habit
TitleUnicode:Breaking The Habit
Artist:Linkin Park
ArtistUnicode:Linkin Park
Creator:Mordred
Version:Normal
Source:
Tags:english alternative rock meteora chester bennington pw384 384059043 lmt
BeatmapID:2824561
BeatmapSetID:1365175

[Difficulty]
HPDrainRate:4
CircleSize:2.5
OverallDifficulty:4
ApproachRate:6
SliderMultiplier:0.999999999999999
SliderTickRate:1

[Events]
//Background and Video events
0,0,"1.jpg",0,0
Video,3272,"BadHabit.avi"
//Break Periods
2,76086,79636
//Storyboard Layer 0 (Background)
//Storyboard Layer 1 (Fail)
//Storyboard Layer 2 (Pass)
//Storyboard Layer 3 (Foreground)
//Storyboard Layer 4 (Overlay)
//Storyboard Sound Samples

[TimingPoints]
3913,299.895036737142,4,2,0,40,1,0
13434,-100,4,2,0,5,0,0
13509,-100,4,2,0,60,0,0
23106,-111.111111111111,4,2,0,40,0,0
42299,-100,4,2,0,50,0,0
51896,-90.9090909090909,4,1,0,70,0,1
52346,-90.9090909090909,4,1,0,70,0,1
61492,-90.9090909090909,4,1,0,70,0,1
61942,-90.9090909090909,4,1,0,70,0,1
75887,-100,4,1,0,70,0,0
79486,-100,4,1,0,40,0,0
80086,-100,4,1,0,50,0,0
80611,-100,4,1,0,5,0,0
80686,-100,4,1,0,70,0,0
80986,-100,4,2,0,60,0,0
108276,-100,4,1,0,50,0,0
109176,-100,4,1,0,70,0,0
109476,-90.9090909090909,4,1,0,70,0,1
109925,-90.9090909090909,4,1,0,70,0,1
119072,-90.9090909090909,4,1,0,70,0,1
119522,-90.9090909090909,4,1,0,70,0,1
133167,-90.9090909090909,4,1,0,70,0,0
133467,-90.9090909090909,4,1,0,70,0,1
134367,-90.9090909090909,4,1,0,70,0,1
152361,-90.9090909090909,4,1,0,70,0,0
152660,-90.9090909090909,4,1,0,70,0,1
153110,-90.9090909090909,4,1,0,70,0,1
162257,-90.9090909090909,4,1,0,70,0,1
162707,-90.9090909090909,4,1,0,70,0,1
176352,-90.9090909090909,4,1,0,70,0,0
176652,-90.9090909090909,4,1,0,80,0,1
181450,-90.9090909090909,4,1,0,70,0,0

[Colours]
Combo1 : 164,194,200
Combo2 : 215,157,158
Combo3 : 177,169,172
Combo4 : 115,115,115

[HitObjects]
54,355,13509,6,0,L|35:243,1,99.9999999999999,6|10,1:2|0:2,0:0:0:0:
65,214,13959,2,0,L|177:195,1,99.9999999999999,2|2,0:2|1:2,0:0:0:0:
208,219,14409,1,10,0:2:0:0:
275,145,14709,2,0,P|263:97|219:-3,2,150,2|2|10,1:2|0:2|0:2,0:0:0:0:
360,196,15908,6,0,P|409:203|459:207,1,99.9999999999999,2|10,1:2|0:2,0:0:0:0:
497,240,16358,2,0,P|504:289|508:339,1,99.9999999999999,2|2,0:2|1:2,0:0:0:0:
475,377,16808,1,8,0:2:0:0:
381,341,17108,2,0,P|331:333|281:329,1,99.9999999999999,2|10,1:2|0:2,0:0:0:0:
236,351,17558,1,2,0:2:0:0:
148,301,17858,1,2,1:2:0:0:
148,301,18008,1,8,0:2:0:0:
207,219,18307,6,0,P|221:172|230:123,1,99.9999999999999,6|10,1:2|0:2,0:0:0:0:
214,75,18757,2,0,P|164:65|117:51,1,99.9999999999999,2|2,0:2|1:2,0:0:0:0:
67,59,19207,1,10,0:2:0:0:
7,138,19507,2,0,P|-14:209|12:277,2,150,2|2|10,1:2|0:2|0:2,0:0:0:0:
67,59,20707,5,2,1:2:0:0:
150,124,21007,1,10,0:2:0:0:
150,124,21156,2,0,L|261:137,1,99.9999999999999,10|2,0:2|1:2,0:0:0:0:
292,161,21606,1,10,0:2:0:0:
367,95,21906,2,0,L|478:108,1,99.9999999999999,2|8,1:2|0:2,0:0:0:0:
483,205,22506,2,0,L|535:198,2,50,0|0|8,1:2|1:2|0:2,0:0:0:0:
391,243,23106,6,0,P|380:278|366:330,1,89.999997253418,0|8,1:2|0:2,0:0:0:0:
280,379,23706,2,0,P|244:368|192:354,1,89.999997253418,0|8,0:2|0:2,0:0:0:0:
143,268,24305,2,0,P|154:232|168:181,1,89.999997253418,0|8,0:2|0:2,0:0:0:0:
254,131,24905,2,0,P|289:142|341:156,1,89.999997253418,0|8,0:2|0:2,0:0:0:0:
388,142,25355,1,0,1:2:0:0:
388,142,25505,5,0,1:2:0:0:
481,173,25805,1,8,0:2:0:0:
376,4,26405,1,8,0:2:0:0:
297,64,26705,2,0,P|260:68|206:73,1,89.999997253418,0|8,0:2|0:2,0:0:0:0:
161,56,27154,1,0,0:2:0:0:
15,23,27604,2,0,L|28:77,1,44.999998626709,8|0,0:2|1:2,0:0:0:0:
9,113,27904,6,0,L|32:210,1,89.999997253418,0|8,1:2|0:2,0:0:0:0:
135,368,28804,1,8,0:2:0:0:
204,297,29104,2,0,L|182:209,1,89.999997253418,0|8,0:2|0:2,0:0:0:0:
144,177,29554,1,0,0:2:0:0:
165,30,30003,2,0,L|208:19,1,44.999998626709,8|0,0:2|1:2,0:0:0:0:
253,41,30303,6,0,L|274:128,1,89.999997253418,0|8,1:2|0:2,0:0:0:0:
316,152,30753,2,0,P|382:168|444:194,1,134.999995880127,0|8,0:2|0:2,0:0:0:0:
503,274,31503,2,0,L|481:361,1,89.999997253418,0|8,0:2|0:2,0:0:0:0:
283,378,32403,2,0,L|293:334,1,44.999998626709,8|0,0:2|1:2,0:0:0:0:
275,288,32702,6,0,L|362:266,1,89.999997253418,0|8,1:2|0:2,0:0:0:0:
419,185,33302,2,0,L|397:97,1,89.999997253418,0|8,0:2|0:2,0:0:0:0:
316,41,33902,2,0,L|228:62,1,89.999997253418,0|8,0:2|0:2,0:0:0:0:
172,143,34502,2,0,L|193:230,1,89.999997253418,0|8,0:2|0:2,0:0:0:0:
180,281,34952,1,0,1:2:0:0:
180,281,35102,6,0,L|79:268,1,89.999997253418,0|8,1:2|0:2,0:0:0:0:
13,87,36001,1,8,0:2:0:0:
89,24,36301,2,0,L|178:35,1,89.999997253418,0|8,0:2|0:2,0:0:0:0:
217,66,36751,1,0,0:2:0:0:
119,178,37201,2,0,L|113:222,1,44.999998626709,8|0,0:2|1:2,0:0:0:0:
78,257,37501,6,0,L|89:346,1,89.999997253418,0|8,1:2|0:2,0:0:0:0:
128,376,37951,1,0,0:2:0:0:
272,341,38400,1,8,0:2:0:0:
361,383,38700,2,0,L|450:371,1,89.999997253418,0|8,0:2|0:2,0:0:0:0:
488,339,39150,1,0,0:2:0:0:
428,202,39600,2,0,L|422:157,1,44.999998626709,8|0,0:2|1:2,0:0:0:0:
445,113,39900,6,0,L|355:101,1,89.999997253418,0|8,1:2|0:2,0:0:0:0:
311,124,40350,2,0,P|289:188|281:254,1,134.999995880127,0|8,0:2|0:2,0:0:0:0:
216,329,41099,2,0,P|172:334|126:336,1,89.999997253418,0|8,0:2|0:2,0:0:0:0:
41,284,41699,1,0,1:2:0:0:
34,257,41849,1,0,1:2:0:0:
27,230,41999,1,0,1:2:0:0:
44,131,42299,6,0,P|93:137|141:151,1,99.9999999999999,0|8,1:2|0:2,0:0:0:0:
169,193,42749,2,0,P|218:186|266:172,1,99.9999999999999,0|0,0:2|0:2,0:0:0:0:
297,132,43199,1,8,0:2:0:0:
249,43,43499,1,0,0:2:0:0:
344,4,43799,1,8,0:2:0:0:
344,4,43948,2,0,L|502:30,1,150,0|8,0:2|0:2,0:0:0:0:
512,131,44698,5,0,1:2:0:0:
512,131,44848,1,0,0:2:0:0:
461,217,45148,1,0,0:2:0:0:
507,305,45448,1,0,0:2:0:0:
424,361,45748,2,0,B|390:366|345:375|268:375,1,150,0|8,0:2|0:2,0:0:0:0:
176,269,46648,1,0,1:2:0:0:
176,269,46797,1,8,0:2:0:0:
234,191,47097,6,0,P|307:180|370:218,2,150,0|0|8,1:2|0:2|0:2,0:0:0:0:
168,123,48297,1,0,0:2:0:0:
168,123,48447,1,0,0:2:0:0:
69,141,48747,2,0,L|46:249,1,99.9999999999999,0|0,0:2|1:2,0:0:0:0:
88,336,49347,1,0,1:2:0:0:
88,336,49497,6,0,L|185:356,1,99.9999999999999,0|8,1:2|0:2,0:0:0:0:
232,338,49946,2,0,P|255:294|254:245,1,99.9999999999999,0|0,0:2|1:2,0:0:0:0:
221,207,50396,1,8,0:2:0:0:
126,175,50696,2,0,L|18:195,2,99.9999999999999,0|8|0,1:2|0:2|0:0,0:0:0:0:
289,27,51896,6,0,B|321:72|321:72|304:124,1,110.000003356934,6|10,1:2|0:2,0:0:0:0:
259,156,52346,1,2,0:2:0:0:
204,251,52645,2,0,P|214:304|235:355,1,110.000003356934,2|0,1:2|0:2,0:0:0:0:
289,382,53095,1,2,1:2:0:0:
289,382,53245,1,2,0:2:0:0:
392,345,53545,2,0,L|418:182,1,165.0000050354,2|8,0:2|0:2,0:0:0:0:
471,159,54145,1,2,1:2:0:0:
471,159,54295,6,0,L|450:41,1,110.000003356934,2|8,1:2|0:2,0:0:0:0:
410,13,54745,1,2,0:2:0:0:
313,65,55045,1,2,1:2:0:0:
210,24,55344,2,0,P|128:21|59:64,1,165.0000050354,2|8,0:2|0:2,0:0:0:0:
22,225,56244,1,0,1:2:0:0:
22,225,56394,1,10,0:2:0:0:
89,312,56694,6,0,L|203:291,1,110.000003356934,2|10,0:2|0:2,0:0:0:0:
233,250,57144,1,2,0:2:0:0:
162,165,57444,2,0,P|150:111|145:56,1,110.000003356934,2|0,0:2|0:2,0:0:0:0:
182,15,57894,1,2,0:2:0:0:
284,68,58194,1,10,0:2:0:0:
284,68,58343,2,0,P|333:57|453:49,1,165.0000050354,2|8,0:2|0:2,0:0:0:0:
490,83,58943,1,2,0:2:0:0:
490,83,59093,5,2,0:2:0:0:
449,187,59393,1,10,0:2:0:0:
449,187,59543,1,10,0:2:0:0:
502,282,59843,1,2,0:2:0:0:
413,347,60143,2,0,P|331:358|248:362,1,165.0000050354,2|8,0:2|0:2,0:0:0:0:
161,295,60893,1,0,0:2:0:0:
167,268,61043,1,0,0:2:0:0:
174,242,61192,1,10,0:2:0:0:
242,156,61492,6,0,B|289:131|289:131|343:148,1,110.000003356934,6|10,0:2|0:2,0:0:0:0:
377,191,61942,1,2,0:2:0:0:
487,189,62242,2,0,P|498:149|502:75,1,110.000003356934,2|0,0:2|0:2,0:0:0:0:
466,38,62692,1,2,0:2:0:0:
356,31,62992,1,10,0:2:0:0:
246,24,63292,2,0,L|184:9,2,55.0000016784668,2|0|8,0:2|0:2|0:2,0:0:0:0:
272,79,63742,1,2,0:2:0:0:
272,79,63892,6,0,P|284:130|294:203,1,110.000003356934,2|8,0:2|0:2,0:0:0:0:
263,233,64341,1,2,0:2:0:0:
293,338,64641,1,2,0:2:0:0:
188,374,64941,2,0,L|25:343,1,165.0000050354,2|8,0:2|0:2,0:0:0:0:
0,236,65691,1,2,0:2:0:0:
78,158,65991,1,10,0:2:0:0:
4,75,66291,6,0,B|106:33|106:33|195:75|195:75|335:44,1,330.000010070801,6|8,0:2|0:2,0:0:0:0:
409,101,67490,2,0,P|423:154|432:208,1,110.000003356934,2|8,0:2|0:2,0:0:0:0:
375,302,68090,2,0,P|321:316|267:325,1,110.000003356934,2|8,0:2|0:2,0:0:0:0:
172,381,68690,6,0,B|149:273|149:273|189:234|189:234|154:73,1,330.000010070801,2|8,0:2|0:2,0:0:0:0:
63,11,69889,1,2,0:2:0:0:
5,103,70189,2,0,L|25:216,1,110.000003356934,8|0,0:2|0:2,0:0:0:0:
9,264,70639,1,0,0:2:0:0:
9,264,70789,1,10,0:2:0:0:
70,353,71089,6,0,B|179:343|179:343|230:122,1,330.000010070801,6|8,0:2|0:2,0:0:0:0:
293,37,72289,2,0,P|346:26|401:22,1,110.000003356934,2|8,0:2|0:2,0:0:0:0:
478,101,72888,2,0,P|488:154|492:209,1,110.000003356934,2|8,0:2|0:2,0:0:0:0:
453,313,73488,6,0,B|344:302|344:302|293:81,1,330.000010070801,2|8,0:2|0:2,0:0:0:0:
221,4,74688,1,2,0:2:0:0:
133,70,74988,2,0,L|156:182,1,110.000003356934,8|0,0:2|0:2,0:0:0:0:
133,228,75437,1,0,0:2:0:0:
133,228,75587,2,0,L|69:244,2,55.0000016784668,8|0|0,3:2|3:2|3:2,0:0:0:0:
38,66,80686,6,0,L|68:185,1,99.9999999999999,6|8,1:2|0:2,0:0:0:0:
25,256,81285,2,0,L|37:304,1,50,2|0,0:2|1:2,0:0:0:0:
79,331,81585,1,8,0:2:0:0:
162,276,81885,2,0,P|211:266|260:262,1,99.9999999999999,2|8,1:2|0:2,0:0:0:0:
341,201,82485,2,0,P|345:176|347:151,1,50,2|0,0:2|1:2,0:0:0:0:
316,111,82785,1,8,0:2:0:0:
344,15,83085,5,2,1:2:0:0:
442,32,83385,2,2,B|450:54|450:54|451:68|451:68|468:85|468:85|467:102|467:102|482:132,1,99.9999999999999,10|2,0:2|0:2,0:1:0:0:
455,218,83984,1,10,0:2:0:0:
493,310,84284,2,0,P|448:335|385:349,1,99.9999999999999,2|10,1:2|0:2,0:0:0:0:
354,328,84734,2,0,L|327:231,1,99.9999999999999,2|0,0:2|1:2,0:0:0:0:
344,184,85184,2,0,L|330:135,1,50,10|2,0:2|1:2,0:0:0:0:
346,87,85484,6,0,P|297:75|247:69,1,99.9999999999999,0|8,1:2|0:2,0:0:0:0:
210,35,85934,1,0,0:0:0:0:
112,3,86234,1,0,1:2:0:0:
112,3,86384,1,10,0:2:0:0:
27,56,86684,2,0,P|15:92|0:155,1,99.9999999999999,2|10,1:2|0:2,0:0:0:0:
36,187,87133,2,0,P|48:223|63:286,1,99.9999999999999,2|0,0:2|1:2,0:0:0:0:
39,328,87583,1,10,0:2:0:0:
123,379,87883,6,0,P|172:366|221:357,1,99.9999999999999,2|10,1:2|0:2,0:0:0:0:
251,317,88333,2,0,P|242:267|229:219,1,99.9999999999999,2|0,0:2|1:2,0:0:0:0:
192,185,88783,1,8,0:2:0:0:
93,168,89083,2,0,P|83:118|70:70,1,99.9999999999999,0|8,1:2|0:2,0:0:0:0:
95,27,89533,2,0,P|143:14|192:4,1,99.9999999999999,0|0,1:2|1:2,0:0:0:0:
237,26,89982,2,2,B|243:48|243:48|242:62|242:62|258:81|258:81|255:97|255:97|268:129,1,99.9999999999999,10|2,0:2|1:2,0:1:0:0:
202,197,90582,6,0,B|191:230|191:230|210:248|210:248|199:285,1,99.9999999999999,10|10,0:2|0:2,0:0:0:0:
220,330,91032,1,0,1:2:0:0:
220,330,91182,1,8,0:2:0:0:
304,383,91482,2,0,L|402:365,1,99.9999999999999,2|8,1:2|0:2,0:0:0:0:
445,274,92082,2,0,L|435:225,1,50,2|0,1:2|1:2,0:0:0:0:
471,188,92382,1,8,0:2:0:0:
417,104,92681,6,0,P|428:56|433:6,2,99.9999999999999,2|8|0,1:2|0:2|0:0,0:0:0:0:
317,118,93581,1,10,0:2:0:0:
279,210,93881,2,0,L|301:317,1,99.9999999999999,2|8,1:2|0:2,0:0:0:0:
277,353,94331,2,0,L|170:375,1,99.9999999999999,2|0,0:2|1:2,0:0:0:0:
132,353,94781,1,10,0:2:0:0:
132,353,94931,6,0,L|101:206,1,150,2|8,1:2|0:2,0:0:0:0:
56,182,95530,1,0,0:0:0:0:
39,88,95830,1,0,1:0:0:0:
39,88,95980,1,10,0:2:0:0:
104,11,96280,2,0,P|153:21|201:36,1,99.9999999999999,2|10,1:2|0:2,0:0:0:0:
226,80,96730,2,0,P|215:128|200:176,1,99.9999999999999,2|0,0:2|1:2,0:0:0:0:
160,207,97180,1,10,0:2:0:0:
200,298,97480,6,0,P|248:311|297:319,1,99.9999999999999,2|10,1:2|0:2,0:0:0:0:
345,303,97930,1,10,0:2:0:0:
440,347,98229,1,0,1:2:0:0:
440,347,98379,1,8,0:2:0:0:
500,266,98679,2,0,L|513:158,1,99.9999999999999,0|8,1:2|0:2,0:0:0:0:
472,74,99279,1,0,1:2:0:0:
447,69,99429,1,0,1:2:0:0:
423,64,99579,1,0,1:2:0:0:
331,104,99879,6,0,L|319:203,1,99.9999999999999,2|10,1:2|0:2,0:0:0:0:
293,247,100329,2,0,P|248:267|199:272,1,99.9999999999999,2|0,0:2|1:2,0:0:0:0:
161,306,100779,1,10,0:2:0:0:
66,273,101078,2,0,L|54:173,1,99.9999999999999,2|10,1:2|0:2,0:0:0:0:
91,140,101528,2,0,P|140:135|185:114,1,99.9999999999999,2|0,0:2|1:2,0:0:0:0:
209,70,101978,1,8,0:2:0:0:
286,6,102278,5,2,1:2:0:0:
286,6,102428,1,2,0:2:0:0:
352,80,102728,1,2,0:2:0:0:
296,162,103028,1,2,1:2:0:0:
302,261,103328,2,0,L|406:291,1,99.9999999999999,2|0,0:2|0:2,0:0:0:0:
428,328,103778,1,8,0:2:0:0:
506,266,104077,2,0,L|499:204,1,50,0|0,1:2|1:2,0:0:0:0:
468,177,104377,1,10,0:2:0:0:
503,82,104677,6,0,P|484:38|439:19,1,99.9999999999999,2|8,1:2|0:2,0:0:0:0:
394,42,105127,2,0,L|272:50,1,99.9999999999999,2|2,0:2|1:2,0:0:0:0:
266,90,105577,1,10,0:2:0:0:
340,165,105877,1,2,1:2:0:0:
340,165,106027,1,2,0:2:0:0:
354,264,106327,2,0,P|323:330|254:353,1,150,2|8,0:2|0:2,0:0:0:0:
208,333,106926,1,2,1:2:0:0:
208,333,107076,6,0,L|191:215,1,99.9999999999999,2|8,1:2|0:2,0:0:0:0:
228,197,107526,2,0,L|211:79,1,99.9999999999999,2|0,0:2|1:2,0:0:0:0:
179,61,107976,1,10,0:2:0:0:
112,135,108276,2,0,L|13:149,2,99.9999999999999,2|8|8,1:2|2:2|2:2,0:0:0:0:
275,282,109476,6,0,B|307:237|307:237|290:185,1,110.000003356934,6|10,0:2|0:2,0:0:0:0:
251,145,109926,1,2,0:2:0:0:
281,39,110225,2,0,P|331:17|385:7,1,110.000003356934,2|0,0:2|0:2,0:0:0:0:
442,25,110675,1,2,0:2:0:0:
442,25,110825,1,2,0:2:0:0:
503,116,111125,2,0,L|477:279,1,165.0000050354,2|8,0:2|0:2,0:0:0:0:
492,337,111725,1,2,0:2:0:0:
492,337,111875,6,0,L|374:316,1,110.000003356934,2|10,0:2|0:2,0:0:0:0:
333,341,112325,1,2,0:2:0:0:
240,280,112625,1,2,0:2:0:0:
161,357,112924,2,0,P|79:360|10:317,1,165.0000050354,2|8,0:2|0:2,0:0:0:0:
6,156,113824,1,0,0:2:0:0:
6,156,113974,1,10,0:2:0:0:
107,197,114274,6,0,L|221:176,1,110.000003356934,2|10,0:2|0:2,0:0:0:0:
256,140,114724,1,2,0:2:0:0:
354,189,115024,2,0,P|366:243|371:298,1,110.000003356934,2|0,0:2|0:2,0:0:0:0:
412,334,115474,1,2,0:2:0:0:
512,290,115773,1,10,0:2:0:0:
512,290,115924,2,0,P|501:208|478:129,1,165.0000050354,2|8,0:2|0:2,0:0:0:0:
503,82,116523,1,2,0:2:0:0:
503,82,116673,5,2,0:2:0:0:
410,33,116973,1,10,0:2:0:0:
410,33,117123,1,10,0:2:0:0:
318,94,117423,1,2,0:2:0:0:
241,14,117723,2,0,P|159:25|78:43,1,165.0000050354,2|8,0:2|0:2,0:0:0:0:
23,138,118473,1,0,0:2:0:0:
29,165,118623,1,0,0:2:0:0:
36,191,118772,1,10,0:2:0:0:
111,271,119072,6,0,B|158:246|158:246|212:263,1,110.000003356934,6|10,0:2|0:2,0:0:0:0:
249,303,119522,1,2,0:2:0:0:
342,244,119822,2,0,P|353:204|357:130,1,110.000003356934,2|0,0:2|0:2,0:0:0:0:
328,88,120272,1,2,0:2:0:0:
406,11,120572,1,10,0:2:0:0:
477,93,120872,2,0,L|538:78,2,55.0000016784668,2|0|8,0:2|0:2|0:2,0:0:0:0:
462,150,121322,1,2,0:2:0:0:
462,150,121472,6,0,P|474:201|484:274,1,110.000003356934,2|10,0:2|0:2,0:0:0:0:
509,305,121921,1,2,0:2:0:0:
409,351,122221,1,2,0:2:0:0:
313,295,122521,2,0,L|282:132,1,165.0000050354,2|8,0:2|0:2,0:0:0:0:
335,36,123271,1,2,0:2:0:0:
230,0,123571,1,10,0:2:0:0:
124,31,123871,6,0,B|82:133|82:133|124:222|124:222|93:362,1,330.000010070801,6|8,0:2|0:2,0:0:0:0:
199,381,125070,2,0,P|253:371|306:357,1,110.000003356934,2|8,0:2|0:2,0:0:0:0:
379,275,125670,2,0,P|369:220|355:167,1,110.000003356934,2|8,0:2|0:2,0:0:0:0:
405,69,126270,6,0,B|296:46|296:46|257:86|257:86|96:51,1,330.000010070801,2|8,0:2|0:2,0:0:0:0:
15,123,127469,1,2,0:2:0:0:
29,232,127769,2,0,L|142:212,1,110.000003356934,8|0,0:2|0:2,0:0:0:0:
189,188,128219,1,0,0:2:0:0:
189,188,128369,1,10,0:2:0:0:
239,286,128669,6,0,B|348:276|348:276|399:55,1,330.000010070801,6|8,0:2|0:2,0:0:0:0:
505,40,129868,2,0,L|479:154,1,110.000003356934,2|8,0:2|0:2,0:0:0:0:
511,253,130468,2,0,L|485:367,1,110.000003356934,2|8,0:2|0:2,0:0:0:0:
377,377,131068,6,0,B|268:366|268:366|289:291|289:291|275:261|275:261|298:143,1,330.000010070801,2|8,0:2|0:2,0:0:0:0:
386,89,132268,1,6,0:2:0:0:
301,18,132567,1,12,0:2:0:0:
197,56,132867,1,12,0:2:0:0:
91,24,133167,2,0,L|70:91,1,55.0000016784668,8|8,0:2|0:2,0:0:0:0:
89,129,133467,5,6,0:2:0:0:
0,194,133767,2,0,L|30:356,1,165.0000050354,8|0,0:2|0:2,0:0:0:0:
81,376,134367,1,10,0:2:0:0:
158,299,134667,2,0,P|212:285|266:277,1,110.000003356934,2|10,0:2|0:2,0:0:0:0:
310,243,135117,1,2,0:2:0:0:
411,297,135416,1,2,0:2:0:0:
411,297,135566,1,8,0:2:0:0:
496,228,135866,1,2,0:2:0:0:
256,192,136016,12,6,138265,0:2:0:0:
142,362,139165,5,10,0:2:0:0:
64,284,139465,2,0,L|50:174,1,110.000003356934,2|10,0:2|0:2,0:0:0:0:
69,123,139915,2,0,P|119:101|173:108,1,110.000003356934,2|2,0:2|0:2,0:0:0:0:
202,155,140365,1,8,0:2:0:0:
309,133,140665,1,2,0:2:0:0:
256,192,140815,12,6,143064,0:2:0:0:
363,29,143963,5,10,0:2:0:0:
455,88,144263,2,0,L|474:200,1,110.000003356934,2|10,0:2|0:2,0:0:0:0:
508,239,144713,1,2,0:2:0:0:
466,340,145013,1,2,0:2:0:0:
466,340,145163,1,8,0:2:0:0:
357,324,145463,1,2,0:2:0:0:
256,192,145613,12,6,147862,0:2:0:0:
394,121,148762,5,10,0:2:0:0:
300,62,149062,2,0,L|169:50,1,110.000003356934,2|10,0:2|0:2,0:0:0:0:
148,87,149512,1,2,0:2:0:0:
48,56,149811,1,2,0:2:0:0:
48,56,149961,1,8,0:2:0:0:
17,161,150261,2,0,P|19:233|308:89,1,660.000020141602,2|4,0:2|0:2,0:0:0:0:
381,7,152361,1,14,0:2:0:0:
480,54,152660,6,0,L|501:161,1,110.000003356934,6|10,0:2|0:2,0:0:0:0:
467,205,153110,1,2,0:2:0:0:
502,309,153410,2,0,P|451:329|397:337,1,110.000003356934,2|0,0:2|0:2,0:0:0:0:
356,374,153860,1,2,0:2:0:0:
356,374,154010,1,2,0:2:0:0:
285,289,154310,2,0,L|269:124,1,165.0000050354,2|8,0:2|0:2,0:0:0:0:
308,86,154910,1,2,0:2:0:0:
308,86,155060,5,2,0:2:0:0:
229,18,155359,1,8,0:2:0:0:
229,18,155509,1,2,0:2:0:0:
136,77,155809,1,2,0:2:0:0:
28,51,156109,2,0,P|12:104|2:158,1,110.000003356934,2|0,0:2|0:2,0:0:0:0:
32,205,156559,1,8,0:2:0:0:
32,205,156709,2,0,L|95:216,2,55.0000016784668,0|0|0,0:2|0:2|0:2,0:0:0:0:
5,253,157159,1,10,0:2:0:0:
41,356,157459,6,0,P|95:345|150:337,1,110.000003356934,2|8,0:2|0:2,0:0:0:0:
201,359,157909,1,2,0:2:0:0:
289,296,158208,2,0,P|302:242|305:187,1,110.000003356934,2|0,0:2|0:2,0:0:0:0:
266,148,158658,1,2,0:2:0:0:
294,44,158958,1,10,0:2:0:0:
294,44,159108,2,0,P|375:33|458:38,1,165.0000050354,2|8,0:2|0:2,0:0:0:0:
497,77,159708,1,2,0:2:0:0:
497,77,159858,5,2,0:2:0:0:
435,169,160158,1,10,0:2:0:0:
435,169,160308,1,10,0:2:0:0:
494,261,160608,1,2,0:2:0:0:
431,351,160908,2,0,P|377:361|322:368,1,110.000003356934,2|0,0:2|0:2,0:0:0:0:
273,344,161357,2,0,P|267:317|264:289,1,55.0000016784668,8|0,0:2|0:2,0:0:0:0:
293,242,161657,2,0,P|289:214|284:187,1,55.0000016784668,0|0,0:2|0:2,0:0:0:0:
316,142,161957,1,10,0:2:0:0:
267,43,162257,6,0,P|227:30|155:20,1,110.000003356934,6|10,0:2|0:2,0:0:0:0:
107,38,162707,1,2,0:2:0:0:
132,144,163007,1,2,0:2:0:0:
132,144,163157,1,0,0:0:0:0:
37,200,163457,5,2,0:2:0:0:
61,307,163757,1,10,0:2:0:0:
168,330,164056,2,0,L|190:390,2,55.0000016784668,2|0|8,0:2|0:2|0:2,0:0:0:0:
204,289,164506,1,2,0:2:0:0:
204,289,164656,2,0,P|258:292|313:299,1,110.000003356934,2|10,0:2|0:2,0:0:0:0:
366,285,165106,1,2,0:2:0:0:
445,360,165406,1,2,0:2:0:0:
510,271,165706,6,0,L|489:152,1,110.000003356934,2|0,0:2|0:2,0:0:0:0:
508,110,166156,1,8,0:2:0:0:
425,36,166456,1,2,0:2:0:0:
340,106,166756,1,10,0:2:0:0:
240,60,167055,6,0,B|137:24|137:24|165:257,1,330.000010070801,6|8,0:2|0:2,0:0:0:0:
116,342,168255,2,0,P|169:359|223:364,1,110.000003356934,2|8,0:2|0:2,0:0:0:0:
324,319,168855,2,0,P|340:266|345:212,1,110.000003356934,2|8,0:2|0:2,0:0:0:0:
431,143,169455,6,0,B|337:84|337:84|135:170,1,330.000010070801,2|8,0:2|0:2,0:0:0:0:
26,160,170654,1,2,0:2:0:0:
48,52,170954,2,0,L|151:15,1,110.000003356934,8|0,0:2|0:2,0:0:0:0:
210,27,171404,1,0,0:2:0:0:
210,27,171554,1,10,0:2:0:0:
227,135,171854,6,0,B|180:236|180:236|397:217,1,330.000010070801,6|8,0:2|0:2,0:0:0:0:
492,163,173053,2,0,P|500:108|496:53,1,110.000003356934,2|8,0:2|0:2,0:0:0:0:
394,10,173653,2,0,L|284:5,1,110.000003356934,2|8,0:2|0:2,0:0:0:0:
260,113,174253,6,0,B|307:214|307:214|89:195,1,330.000010070801,2|8,0:2|0:2,0:0:0:0:
0,258,175452,2,0,P|7:312|27:363,1,110.000003356934,2|8,0:2|0:2,0:0:0:0:
135,382,176052,2,0,L|200:375,1,55.0000016784668,0|0,0:2|0:2,0:0:0:0:
234,343,176352,1,10,0:2:0:0:
339,373,176652,6,0,B|390:346|447:339|447:339|452:236|382:122,1,330.000010070801,6|8,0:2|0:2,0:0:0:0:
375,24,177852,1,2,0:2:0:0:
266,8,178152,1,8,0:2:0:0:
207,100,178451,1,2,0:2:0:0:
285,177,178751,1,8,0:2:0:0:
252,282,179051,6,0,B|157:334|157:334|54:279|83:138,1,330.000010070801,2|8,0:2|0:2,0:0:0:0:
148,55,180251,2,0,P|107:37|28:25,2,110.000003356934,2|8|0,0:2|0:2|0:2,0:0:0:0:
257,50,181150,1,10,0:2:0:0:
284,44,181300,1,10,0:2:0:0:
311,39,181450,1,4,0:2:0:0:
