osu file format v14

[General]
AudioFilename: audio.mp3
AudioLeadIn: 0
PreviewTime: 51521
Countdown: 0
SampleSet: Soft
StackLeniency: 0.2
Mode: 0
LetterboxInBreaks: 0
WidescreenStoryboard: 1

[Editor]
DistanceSpacing: 1.2
BeatDivisor: 4
GridSize: 32
TimelineZoom: 1.6

[Metadata]
Title:Breaking The Habit
TitleUnicode:Breaking The Habit
Artist:Linkin Park
ArtistUnicode:Linkin Park
Creator:Mordred
Version:Hard
Source:
Tags:english alternative rock meteora chester bennington pw384 384059043 lmt
BeatmapID:2825958
BeatmapSetID:1365175

[Difficulty]
HPDrainRate:5
CircleSize:3.6
OverallDifficulty:6
ApproachRate:8
SliderMultiplier:1.4
SliderTickRate:1

[Events]
//Background and Video events
0,0,"1.jpg",0,0
Video,3272,"BadHabit.avi"
//Break Periods
2,76087,79936
//Storyboard Layer 0 (Background)
//Storyboard Layer 1 (Fail)
//Storyboard Layer 2 (Pass)
//Storyboard Layer 3 (Foreground)
//Storyboard Layer 4 (Overlay)
//Storyboard Sound Samples

[TimingPoints]
3913,299.895036737142,4,2,0,40,1,0
13434,-100,4,2,0,5,0,0
13509,-100,4,2,0,60,0,0
23106,-142.857142857143,4,2,0,40,0,0
42299,-125,4,2,0,50,0,0
51896,-76.9230769230769,4,1,0,70,0,1
52346,-100,4,1,0,70,0,1
61492,-76.9230769230769,4,1,0,70,0,1
61942,-100,4,1,0,70,0,1
75887,-100,4,1,0,70,0,0
79486,-100,4,1,0,40,0,0
80086,-100,4,1,0,50,0,0
80611,-100,4,1,0,5,0,0
80686,-76.9230769230769,4,1,0,70,0,0
80986,-100,4,2,0,60,0,0
108276,-100,4,1,0,50,0,0
109176,-142.857142857143,4,1,0,70,0,0
109476,-71.4285714285714,4,1,0,70,0,1
109925,-100,4,1,0,70,0,1
119072,-71.4285714285714,4,1,0,70,0,1
119522,-100,4,1,0,70,0,1
133167,-100,4,1,0,70,0,0
133467,-83.3333333333333,4,1,0,70,0,1
134367,-83.3333333333333,4,1,0,70,0,1
152361,-83.3333333333333,4,1,0,70,0,0
152660,-71.4285714285714,4,1,0,70,0,1
153110,-83.3333333333333,4,1,0,70,0,1
162257,-71.4285714285714,4,1,0,70,0,1
162707,-83.3333333333333,4,1,0,70,0,1
176352,-83.3333333333333,4,1,0,70,0,0
176652,-71.4285714285714,4,1,0,80,0,1
177102,-83.3333333333333,4,1,0,80,0,1
181450,-100,4,1,0,70,0,0

[Colours]
Combo1 : 164,194,200
Combo2 : 215,157,158
Combo3 : 177,169,172
Combo4 : 115,115,115

[HitObjects]
51,307,13509,6,0,P|38:238|33:168,1,140,6|10,1:2|0:2,0:0:0:0:
82,99,13959,2,0,P|151:93|220:81,1,140,2|2,0:2|1:2,0:0:0:0:
270,13,14409,1,10,0:2:0:0:
435,39,14709,2,0,B|473:72|473:72|446:164,1,140,2|10,1:2|0:2,0:0:0:0:
492,229,15159,2,0,P|432:196|368:219,1,140,2|2,0:2|1:2,0:0:0:0:
345,300,15608,1,10,0:2:0:0:
231,175,15908,6,0,L|208:36,1,140,2|10,1:2|0:2,0:0:0:0:
131,3,16358,1,2,0:2:0:0:
4,114,16658,1,2,1:2:0:0:
4,114,16808,2,0,L|16:183,1,70,8|0,0:2|0:2,0:0:0:0:
4,267,17108,2,0,P|50:215|118:208,1,140,2|10,1:2|0:2,0:0:0:0:
179,265,17558,2,0,P|248:281|317:286,1,140,2|2,0:2|1:2,0:0:0:0:
393,245,18008,1,8,0:2:0:0:
393,245,18158,1,0,1:2:0:0:
332,187,18307,6,0,B|293:143|293:143|320:66,1,140,6|10,1:2|0:2,0:0:0:0:
382,9,18757,1,2,0:2:0:0:
500,127,19057,1,2,1:2:0:0:
500,127,19207,2,0,L|511:205,1,70,10|0,0:2|0:2,0:0:0:0:
466,269,19507,2,0,P|399:287|334:313,1,140,2|8,1:2|0:2,0:0:0:0:
269,368,19957,2,0,P|201:349|136:323,1,140,2|2,0:2|1:2,0:0:0:0:
54,345,20407,1,10,0:2:0:0:
4,183,20707,6,0,P|-5:114|-2:45,1,140,2|10,1:2|0:2,0:0:0:0:
75,14,21156,1,10,0:2:0:0:
144,166,21456,1,2,1:2:0:0:
144,166,21606,2,0,P|178:176|213:180,1,70,10|0,0:2|0:2,0:0:0:0:
234,261,21906,2,0,L|268:96,2,140,2|8|0,1:2|0:2|1:2,0:0:0:0:
280,337,22656,1,0,1:2:0:0:
280,337,22806,2,0,L|357:354,1,70,8|0,0:2|1:2,0:0:0:0:
422,384,23106,5,0,1:2:0:0:
503,238,23406,1,8,0:2:0:0:
462,76,23706,2,0,L|363:60,1,97.9999970092774,0|8,0:2|0:2,0:0:0:0:
208,3,24305,2,0,L|243:96,1,97.9999970092774,0|8,0:2|0:2,0:0:0:0:
272,260,24905,2,0,L|335:182,1,97.9999970092774,0|8,0:2|0:2,0:0:0:0:
417,173,25355,1,0,1:2:0:0:
417,173,25505,6,0,L|518:193,1,97.9999970092774,0|8,1:2|0:2,0:0:0:0:
232,373,26405,1,8,0:2:0:0:
68,340,26705,2,0,P|56:292|51:243,1,97.9999970092774,0|8,0:2|0:2,0:0:0:0:
105,180,27154,2,0,P|153:174|201:163,1,97.9999970092774,0|0,0:2|0:2,0:0:0:0:
247,93,27604,1,8,0:2:0:0:
247,93,27754,1,0,1:2:0:0:
306,151,27904,6,0,L|319:248,2,97.9999970092774,0|8|0,1:2|0:2|0:2,0:0:0:0:
468,109,28804,1,8,0:2:0:0:
336,4,29104,2,0,P|289:16|241:26,1,97.9999970092774,0|8,0:2|0:2,0:0:0:0:
190,93,29554,2,0,P|202:140|212:188,1,97.9999970092774,0|0,0:2|0:2,0:0:0:0:
282,242,30003,1,8,0:2:0:0:
282,242,30153,1,0,1:2:0:0:
257,321,30303,6,0,P|210:335|162:345,1,97.9999970092774,0|8,1:2|0:2,0:0:0:0:
81,323,30753,2,0,P|66:276|56:228,1,97.9999970092774,0|0,0:2|0:2,0:0:0:0:
3,163,31203,1,8,0:2:0:0:
94,23,31503,2,0,L|189:43,1,97.9999970092774,0|8,0:2|0:2,0:0:0:0:
235,113,31953,2,0,L|214:208,1,97.9999970092774,0|0,0:2|0:2,0:0:0:0:
158,271,32403,1,8,0:2:0:0:
158,271,32552,1,0,1:2:0:0:
210,335,32702,6,0,L|316:356,1,97.9999970092774,0|8,1:2|0:2,0:0:0:0:
423,234,33302,2,0,L|326:253,1,97.9999970092774,0|8,0:2|0:2,0:0:0:0:
210,133,33902,2,0,L|306:152,1,97.9999970092774,0|8,0:2|0:2,0:0:0:0:
423,32,34502,2,0,L|326:51,1,97.9999970092774,0|8,0:2|0:2,0:0:0:0:
254,20,34952,1,0,1:2:0:0:
254,20,35102,6,0,L|157:39,1,97.9999970092774,0|8,1:2|0:2,0:0:0:0:
0,256,36001,1,8,0:2:0:0:
104,370,36301,2,0,L|200:350,1,97.9999970092774,0|8,0:2|0:2,0:0:0:0:
250,284,36751,2,0,P|259:236|252:187,1,97.9999970092774,0|0,0:2|0:2,0:0:0:0:
193,136,37201,1,8,0:2:0:0:
193,136,37351,1,0,1:2:0:0:
210,54,37501,6,0,P|163:40|114:42,2,97.9999970092774,0|8|0,1:2|0:2|0:0,0:0:0:0:
370,7,38400,1,8,0:2:0:0:
502,108,38700,2,0,L|512:205,1,97.9999970092774,0|8,0:2|0:2,0:0:0:0:
470,278,39150,2,0,L|372:288,1,97.9999970092774,0|0,0:2|0:2,0:0:0:0:
327,360,39600,1,8,0:2:0:0:
327,360,39750,1,0,1:2:0:0:
253,314,39900,6,0,L|242:216,1,97.9999970092774,0|8,1:2|0:2,0:0:0:0:
184,155,40350,2,0,P|137:141|88:135,1,97.9999970092774,0|0,0:2|0:2,0:0:0:0:
13,172,40800,1,8,0:2:0:0:
100,30,41099,2,0,P|146:16|195:10,1,97.9999970092774,0|8,0:2|0:2,0:0:0:0:
355,58,41699,1,0,1:2:0:0:
397,46,41849,1,0,1:2:0:0:
439,34,41999,1,0,1:2:0:0:
493,216,42299,6,0,P|461:219|415:291,1,112,0|8,1:2|0:2,0:0:0:0:
378,355,42749,2,0,P|324:367|268:364,1,112,0|0,0:2|0:2,0:0:0:0:
216,298,43199,1,8,0:2:0:0:
262,136,43499,2,0,P|317:130|373:128,1,112,0|8,0:2|0:2,0:0:0:0:
401,48,43948,2,0,P|317:51|233:59,1,168,0|8,0:2|0:2,0:0:0:0:
163,12,44548,1,0,0:2:0:0:
87,44,44698,5,0,1:2:0:0:
87,44,44848,2,0,L|75:98,1,56,0|8,0:2|0:2,0:0:0:0:
24,166,45148,2,0,L|35:220,1,56,0|0,0:2|0:2,0:0:0:0:
8,300,45448,2,0,L|41:344,1,56,0|8,0:2|0:2,0:0:0:0:
119,377,45748,2,0,L|290:354,2,168,0|8|0,0:2|0:2|1:2,0:0:0:0:
41,344,46797,1,8,0:2:0:0:
146,212,47097,6,0,P|163:159|168:104,1,112,0|8,1:2|0:2,0:0:0:0:
222,38,47547,2,0,P|275:20|330:15,1,112,0|0,0:2|0:2,0:0:0:0:
406,53,47997,1,8,0:2:0:0:
486,206,48297,1,0,0:2:0:0:
486,206,48447,2,0,L|479:268,1,56,0|8,0:2|0:2,0:0:0:0:
499,343,48747,2,0,P|472:309|350:304,1,168,0|8,0:2|0:2,0:0:0:0:
296,360,49347,1,0,1:2:0:0:
296,360,49497,6,0,P|240:367|184:368,1,112,0|8,1:2|0:2,0:0:0:0:
131,303,49946,2,0,L|112:187,1,112,0|0,0:2|1:2,0:0:0:0:
45,141,50396,1,8,0:2:0:0:
170,28,50696,2,0,L|56:11,2,112,0|8|0,1:2|0:2|0:0,0:0:0:0:
409,7,51896,6,0,B|376:60|376:60|419:171,1,181.999991668702,6|10,1:2|0:2,0:0:0:0:
492,227,52346,2,0,L|483:313,1,70,2|0,0:2|0:2,0:0:0:0:
428,368,52645,2,0,L|289:345,1,140,2|0,1:2|0:2,0:0:0:0:
246,264,53095,1,2,1:2:0:0:
246,264,53245,2,0,L|253:194,1,70,2|8,0:2|0:2,0:0:0:0:
183,134,53545,2,0,L|391:168,1,210,2|8,0:2|0:2,0:0:0:0:
468,225,54145,1,2,1:2:0:0:
468,225,54295,6,0,P|481:186|437:82,1,140,2|8,1:2|0:2,0:0:0:0:
367,58,54745,2,0,L|297:46,1,70,2|0,0:2|0:2,0:0:0:0:
217,90,55045,2,0,L|147:78,1,70,2|8,1:2|0:2,0:0:0:0:
88,10,55344,2,0,P|93:109|5:155,1,210,2|8,0:2|0:2,0:0:0:0:
96,384,56244,1,0,1:2:0:0:
96,384,56394,2,0,L|109:315,1,70,10|0,0:2|0:0,0:0:0:0:
58,248,56694,6,0,L|194:277,1,140,2|10,0:2|0:2,0:0:0:0:
249,350,57144,2,0,L|317:335,1,70,2|0,0:2|0:2,0:0:0:0:
398,377,57444,2,0,L|427:240,1,140,2|0,0:2|0:2,0:0:0:0:
494,176,57894,2,0,P|430:199|372:164,1,140,2|10,0:2|0:2,0:0:0:0:
346,76,58343,2,0,L|302:281,1,210,2|8,0:2|0:2,0:0:0:0:
244,352,58943,1,2,0:2:0:0:
244,352,59093,6,0,P|165:358|107:326,1,140,2|10,0:2|0:2,0:0:0:0:
20,331,59543,2,0,L|6:262,1,70,10|0,0:2|0:2,0:0:0:0:
63,190,59843,2,0,L|76:121,1,70,2|8,0:2|0:2,0:0:0:0:
26,43,60143,2,0,P|91:74|157:90,1,140,2|0,0:2|0:2,0:0:0:0:
216,159,60593,1,8,0:2:0:0:
341,26,60893,1,0,0:2:0:0:
341,26,61043,1,0,0:2:0:0:
428,49,61192,2,0,L|442:122,1,70,10|0,0:2|0:0,0:0:0:0:
510,184,61492,6,0,B|450:150|450:150|346:209,1,181.999991668702,6|10,0:2|0:2,0:0:0:0:
291,270,61942,2,0,L|279:339,1,70,2|0,0:2|0:2,0:0:0:0:
187,365,62242,2,0,L|209:226,1,140,2|0,0:2|0:2,0:0:0:0:
160,148,62692,1,2,0:2:0:0:
330,212,62992,1,10,0:2:0:0:
397,42,63292,2,0,L|465:28,2,70,2|0|8,0:2|0:2|0:2,0:0:0:0:
311,8,63742,1,2,0:2:0:0:
311,8,63892,6,0,L|168:33,1,140,2|8,0:2|0:2,0:0:0:0:
76,19,64341,2,0,P|85:52|89:87,1,70,2|0,0:2|0:2,0:0:0:0:
43,166,64641,2,0,P|46:200|56:234,1,70,2|8,0:2|0:2,0:0:0:0:
112,307,64941,2,0,P|215:326|317:350,1,210,2|8,0:2|0:2,0:0:0:0:
496,313,65691,1,2,0:2:0:0:
330,236,65991,1,10,0:2:0:0:
499,169,66291,6,0,L|507:99,1,70,6|0,0:2|0:2,0:0:0:0:
477,12,66591,2,0,P|408:25|338:33,1,140,8|0,0:2|0:2,0:0:0:0:
253,17,67040,1,0,0:2:0:0:
253,17,67190,2,0,P|235:81|231:105,1,70,8|0,0:2|0:2,0:0:0:0:
279,163,67490,2,0,P|347:176|417:184,1,140,2|8,0:2|0:2,0:0:0:0:
509,341,68090,2,0,P|474:344|439:351,1,70,2|0,0:2|0:2,0:0:0:0:
353,383,68390,1,8,0:2:0:0:
171,369,68690,6,0,L|140:232,1,140,2|8,0:2|0:2,0:0:0:0:
52,204,69140,2,0,L|82:67,1,140,8|0,0:2|0:2,0:0:0:0:
162,21,69590,2,0,L|230:36,1,70,8|0,0:2|0:2,0:0:0:0:
321,41,69889,2,0,L|290:177,1,140,2|8,0:2|0:2,0:0:0:0:
206,214,70339,2,0,L|236:350,1,140,0|0,0:0|0:2,0:0:0:0:
322,381,70789,1,10,0:2:0:0:
500,347,71089,6,0,B|467:313|467:313|487:222,1,140,6|8,0:2|0:2,0:0:0:0:
503,135,71539,1,0,0:2:0:0:
503,135,71689,2,0,L|484:63,1,70,0|0,0:2|0:2,0:0:0:0:
411,19,71989,2,0,L|334:35,1,70,8|0,0:2|0:2,0:0:0:0:
259,70,72289,2,0,P|326:74|362:131,1,140,2|8,0:2|0:2,0:0:0:0:
414,305,72888,2,0,L|335:319,1,70,2|0,0:2|0:2,0:0:0:0:
259,283,73188,1,8,0:2:0:0:
87,220,73488,6,0,P|101:288|109:358,2,140,2|8|0,0:2|0:2|0:2,0:0:0:0:
19,159,74238,1,0,0:2:0:0:
19,159,74388,2,0,P|10:125|8:90,1,70,8|0,0:2|0:2,0:0:0:0:
78,30,74688,2,0,L|242:10,2,140,2|8|0,0:2|0:2|0:2,0:0:0:0:
8,90,75437,1,0,0:2:0:0:
8,90,75587,2,0,P|10:125|19:159,1,70,8|0,3:2|3:2,0:0:0:0:
81,225,75887,5,0,3:2:0:0:
63,316,80686,6,0,B|31:263|31:263|71:139,2,181.999991668702,6|8|2,1:2|0:2|0:2,0:0:0:0:
141,371,81435,1,0,1:2:0:0:
141,371,81585,2,0,L|215:363,1,70,8|0,0:2|0:2,0:0:0:0:
290,318,81885,2,0,P|298:249|264:189,1,140,2|8,1:2|0:2,0:0:0:0:
178,177,82335,1,0,0:2:0:0:
178,177,82485,2,0,P|163:130|162:101,1,70,2|0,0:2|1:2,0:0:0:0:
194,23,82785,1,8,0:2:0:0:
374,1,83085,6,0,P|431:13|493:34,1,105,2|0,1:2|0:2,0:0:0:0:
499,66,83385,2,0,B|509:94|509:94|501:108|501:108|511:126|511:126|504:142|504:142|513:157|513:157|504:170|504:170|515:210,1,140,8|0,0:2|0:2,0:0:0:0:
494,285,83835,1,0,1:2:0:0:
494,285,83984,1,10,0:2:0:0:
341,183,84284,2,0,P|279:209|259:274,1,140,2|10,1:2|0:2,0:0:0:0:
302,355,84734,2,0,P|252:325|160:288,1,140,2|0,0:2|1:2,0:0:0:0:
90,313,85184,1,10,0:2:0:0:
90,313,85334,6,0,P|64:248|61:178,1,140,2|0,1:2|0:0,0:0:0:0:
5,112,85784,1,8,0:2:0:0:
5,112,85934,2,0,L|154:137,1,140,0|0,0:2|1:2,0:0:0:0:
199,207,86384,1,10,0:2:0:0:
270,39,86684,2,0,L|419:14,1,140,2|10,1:2|0:2,0:0:0:0:
495,41,87133,2,0,L|520:178,1,140,2|0,0:2|1:2,0:0:0:0:
486,263,87583,1,10,0:2:0:0:
343,375,87883,6,0,L|368:237,1,140,2|10,1:2|0:2,0:0:0:0:
349,146,88333,2,0,P|288:115|219:123,1,140,2|0,0:2|1:2,0:0:0:0:
165,197,88783,2,0,L|152:265,1,70,8|0,0:2|0:2,0:0:0:0:
71,308,89083,2,0,L|45:170,1,140,0|8,1:2|0:2,0:0:0:0:
20,82,89533,2,0,P|70:127|136:112,1,140,0|0,1:2|1:2,0:0:0:0:
198,46,89982,2,0,B|225:58|225:58|239:51|239:51|256:63|256:63|273:57|273:57|287:67|287:67|301:60|301:60|340:74,1,140,8|0,0:2|1:2,0:0:0:0:
512,32,90582,5,10,0:2:0:0:
512,32,90657,1,10,0:2:0:0:
512,32,90732,1,10,0:2:0:0:
512,32,90807,1,10,0:2:0:0:
512,31,90882,2,0,P|504:66|499:100,1,70,10|0,0:2|1:2,0:0:0:0:
509,192,91182,1,8,0:2:0:0:
397,336,91482,2,0,P|328:348|258:352,1,140,2|8,1:2|0:2,0:0:0:0:
183,309,91932,1,0,0:2:0:0:
183,309,92082,2,0,L|168:232,1,70,2|0,1:2|1:2,0:0:0:0:
234,175,92382,1,8,0:2:0:0:
133,23,92681,6,0,P|64:21|17:70,2,140,2|8|0,1:2|0:2|0:0,0:0:0:0:
204,88,93431,1,0,1:2:0:0:
204,88,93581,2,0,L|216:186,1,70,10|0,0:2|0:2,0:0:0:0:
267,230,93881,2,0,P|207:195|139:205,1,140,2|8,1:2|0:2,0:0:0:0:
52,175,94331,2,0,P|17:234|27:302,1,140,2|0,0:2|1:2,0:0:0:0:
91,368,94781,1,10,0:2:0:0:
91,368,94931,6,0,L|230:351,1,140,2|0,1:2|0:0,0:0:0:0:
320,383,95380,1,8,0:2:0:0:
320,383,95530,2,0,L|352:217,1,140,0|0,0:2|1:2,0:0:0:0:
418,188,95980,1,10,0:2:0:0:
236,197,96280,2,0,L|209:59,1,140,2|10,1:2|0:2,0:0:0:0:
278,0,96730,2,0,P|348:0|417:15,1,140,2|0,0:2|1:2,0:0:0:0:
467,92,97180,2,0,L|480:160,1,70,10|0,0:2|0:2,0:0:0:0:
453,248,97480,6,0,L|315:222,1,140,2|10,1:2|0:2,0:0:0:0:
260,295,97930,2,0,L|122:269,1,140,10|0,0:2|1:2,0:0:0:0:
42,313,98379,1,8,0:2:0:0:
5,134,98679,2,0,L|142:159,1,140,0|8,1:2|0:2,0:0:0:0:
260,295,99279,1,0,1:2:0:0:
302,283,99429,1,0,1:2:0:0:
344,271,99579,1,0,1:2:0:0:
498,367,99879,6,0,P|490:297|487:227,1,140,2|10,1:2|0:2,0:0:0:0:
435,151,100329,2,0,P|365:147|295:140,1,140,2|0,0:2|1:2,0:0:0:0:
210,174,100779,1,10,0:2:0:0:
59,73,101078,2,0,P|66:142|69:212,1,140,2|10,1:2|0:2,0:0:0:0:
99,299,101528,2,0,P|167:314|304:360,1,210,2|8,0:2|0:2,0:0:0:0:
390,371,102128,1,2,1:2:0:0:
479,343,102278,5,2,1:2:0:0:
479,343,102428,2,0,L|499:273,1,70,2|8,0:2|0:2,0:0:0:0:
416,233,102728,2,0,L|403:153,1,70,2|0,0:2|0:2,0:0:0:0:
493,141,103028,2,0,L|513:71,1,70,2|8,1:2|0:2,0:0:0:0:
443,13,103328,2,0,P|375:33|307:46,1,140,2|0,0:2|0:2,0:0:0:0:
245,113,103778,1,8,0:2:0:0:
391,220,104077,1,0,1:2:0:0:
391,220,104227,1,0,1:2:0:0:
378,310,104377,2,0,L|304:328,1,70,10|0,0:2|0:2,0:0:0:0:
232,374,104677,6,0,P|272:318|265:250,1,140,2|8,1:2|0:2,0:0:0:0:
183,207,105127,2,0,L|38:195,1,140,2|2,0:2|1:2,0:0:0:0:
0,115,105577,1,10,0:2:0:0:
155,18,105877,1,2,1:2:0:0:
155,18,106027,2,0,L|224:23,1,70,2|8,0:2|0:2,0:0:0:0:
281,95,106327,2,0,L|265:304,1,210,2|8,0:2|0:2,0:0:0:0:
327,371,106926,1,2,1:2:0:0:
327,371,107076,6,0,P|392:346|460:331,1,140,2|8,1:2|0:2,0:0:0:0:
494,246,107526,2,0,P|469:180|454:112,1,140,2|0,0:2|1:2,0:0:0:0:
490,27,107976,1,10,0:2:0:0:
309,5,108276,1,2,1:2:0:0:
381,173,108576,1,8,2:2:0:0:
214,245,108876,1,8,2:2:0:0:
142,77,109176,2,0,L|111:70,3,24.4999992523194,2|0|0|0,1:2|1:2|1:2|1:2,0:0:0:0:
72,71,109476,6,0,B|109:129|109:129|47:255,1,195.999994018555,6|10,0:2|0:2,0:0:0:0:
78,337,109925,2,0,L|147:346,1,70,2|0,0:2|0:2,0:0:0:0:
240,379,110225,2,0,L|378:360,1,140,2|0,0:2|0:2,0:0:0:0:
480,371,110675,1,2,0:2:0:0:
480,371,110825,2,0,L|494:289,1,70,2|8,0:2|0:2,0:0:0:0:
399,266,111125,2,0,L|435:52,1,210,2|8,0:2|0:2,0:0:0:0:
355,0,111725,1,2,0:2:0:0:
355,0,111875,6,0,L|283:13,1,70,2|0,0:2|0:0,0:0:0:0:
238,100,112175,1,10,0:2:0:0:
238,100,112325,2,0,L|251:172,1,70,2|0,0:2|0:2,0:0:0:0:
335,216,112624,2,0,L|322:288,1,70,2|8,0:2|0:2,0:0:0:0:
263,362,112924,2,0,P|194:370|123:370,1,140,2|0,0:2|0:2,0:0:0:0:
45,309,113374,2,0,L|20:150,1,140,8|0,0:2|0:2,0:0:0:0:
55,77,113824,1,0,0:2:0:0:
55,77,113974,1,10,0:2:0:0:
133,256,114274,6,0,P|194:279|264:243,1,140,2|10,0:2|0:2,0:0:0:0:
281,153,114724,2,0,L|268:84,1,70,2|0,0:2|0:2,0:0:0:0:
335,11,115024,2,0,P|414:7|476:48,1,140,2|0,0:2|0:2,0:0:0:0:
489,131,115473,2,0,L|476:199,1,70,2|0,0:2|0:2,0:0:0:0:
496,296,115773,1,10,0:2:0:0:
496,296,115923,2,0,P|458:239|332:262,1,210,2|8,0:2|0:2,0:0:0:0:
288,350,116523,1,2,0:2:0:0:
288,350,116673,6,0,P|211:357|145:356,1,140,2|10,0:2|0:2,0:0:0:0:
70,296,117123,2,0,L|56:227,1,70,10|0,0:2|0:2,0:0:0:0:
151,198,117423,2,0,L|164:129,1,70,2|8,0:2|0:2,0:0:0:0:
234,59,117723,2,0,P|166:75|97:86,1,140,2|0,0:2|0:2,0:0:0:0:
12,37,118173,1,8,0:2:0:0:
21,232,118472,1,0,0:2:0:0:
21,232,118622,1,0,0:2:0:0:
70,316,118772,2,0,P|104:323|138:329,1,70,10|0,0:2|0:2,0:0:0:0:
218,384,119072,6,0,B|169:332|169:332|213:215,1,195.999994018555,6|10,0:2|0:2,0:0:0:0:
136,153,119522,2,0,L|125:62,1,70,2|0,0:2|0:2,0:0:0:0:
195,12,119822,2,0,L|343:-4,1,140,2|0,0:2|0:2,0:0:0:0:
420,44,120272,1,2,0:2:0:0:
245,132,120572,1,10,0:2:0:0:
432,190,120872,2,0,L|501:182,2,70,2|0|8,0:2|0:2|0:2,0:0:0:0:
341,165,121321,1,2,0:2:0:0:
341,165,121471,6,0,L|361:303,1,140,2|10,0:2|0:2,0:0:0:0:
291,374,121921,2,0,L|221:384,1,70,2|0,0:2|0:2,0:0:0:0:
165,302,122221,2,0,L|95:291,1,70,2|8,0:2|0:2,0:0:0:0:
19,354,122521,2,0,L|-1:215,1,140,2|0,0:2|0:2,0:0:0:0:
40,126,122971,1,8,0:2:0:0:
206,229,123271,1,2,0:2:0:0:
309,63,123571,1,10,0:2:0:0:
475,166,123871,6,0,L|492:304,2,140,6|8|0,0:2|0:2|0:2,0:0:0:0:
386,137,124620,1,0,0:2:0:0:
386,137,124770,2,0,L|316:146,1,70,8|0,0:2|0:2,0:0:0:0:
239,207,125070,2,0,L|221:68,2,140,2|8|2,0:2|0:2|0:2,0:0:0:0:
329,258,125820,1,0,0:2:0:0:
329,258,125970,2,0,L|337:327,1,70,8|0,0:2|0:2,0:0:0:0:
246,366,126270,6,0,P|180:343|113:325,1,140,2|8,0:2|0:2,0:0:0:0:
32,384,126720,2,0,P|18:315|0:247,1,140,8|0,0:2|0:2,0:0:0:0:
16,151,127169,1,8,0:2:0:0:
186,248,127469,2,0,P|167:315|154:384,2,140,2|8|0,0:2|0:2|0:2,0:0:0:0:
265,189,128219,1,0,0:2:0:0:
265,189,128369,2,0,L|333:204,1,70,10|0,0:2|0:2,0:0:0:0:
403,273,128669,6,0,P|385:205|375:135,1,140,6|8,0:2|0:2,0:0:0:0:
437,59,129119,1,0,0:2:0:0:
437,59,129269,1,0,0:2:0:0:
360,6,129419,1,0,0:2:0:0:
360,6,129569,2,0,L|276:19,1,70,8|0,0:2|0:2,0:0:0:0:
218,83,129868,2,0,L|239:221,1,140,2|8,0:2|0:2,0:0:0:0:
124,381,130468,1,2,0:2:0:0:
124,381,130618,1,0,0:2:0:0:
46,321,130768,2,0,L|35:251,1,70,8|0,0:2|0:2,0:0:0:0:
75,161,131068,5,2,0:2:0:0:
75,161,131218,1,0,0:2:0:0:
151,221,131368,2,0,L|221:210,1,70,8|0,0:2|0:2,0:0:0:0:
282,133,131668,1,0,0:2:0:0:
282,133,131818,1,0,0:2:0:0:
272,35,131968,1,8,0:2:0:0:
272,35,132118,1,8,0:2:0:0:
365,5,132268,2,0,L|435:16,1,70,6|0,0:2|0:2,0:0:0:0:
485,99,132567,2,0,L|474:169,1,70,12|0,0:2|0:2,0:0:0:0:
509,260,132867,2,0,L|498:330,1,70,12|0,0:2|0:2,0:0:0:0:
413,379,133167,1,8,0:2:0:0:
336,317,133317,1,8,0:2:0:0:
241,362,133467,6,0,B|174:373|174:373|81:334,2,167.999994873047,6|8|0,0:2|0:2|0:2,0:0:0:0:
336,317,134217,1,0,0:2:0:0:
336,317,134367,2,0,L|354:223,1,83.9999974365235,10|0,0:2|0:2,0:0:0:0:
425,164,134667,2,0,L|410:70,1,83.9999974365235,2|0,0:2|0:2,0:0:0:0:
340,16,134967,1,10,0:2:0:0:
340,16,135117,2,0,L|240:30,1,83.9999974365235,2|0,0:2|0:2,0:0:0:0:
199,111,135416,1,2,0:2:0:0:
199,111,135566,2,0,L|99:97,1,83.9999974365235,8|0,0:2|0:2,0:0:0:0:
49,176,135866,6,0,P|40:129|6:2,2,167.999994873047,2|8|0,0:2|0:2|0:2,0:0:0:0:
30,275,136616,1,0,0:2:0:0:
30,275,136766,2,0,L|-11:292,2,41.9999987182618,8|8|8,0:2|0:2|0:2,0:0:0:0:
91,354,137066,2,0,P|133:358|175:365,1,83.9999974365235,0|0,0:2|0:2,0:0:0:0:
276,366,137366,2,0,P|247:287|231:205,1,167.999994873047,8|0,0:2|0:2,0:0:0:0:
163,129,137816,1,0,0:2:0:0:
163,129,137966,2,0,L|178:34,1,83.9999974365235,8|0,0:2|0:2,0:0:0:0:
266,1,138265,5,6,0:2:0:0:
466,22,138565,2,0,L|504:194,1,167.999994873047,8|0,0:2|0:2,0:0:0:0:
478,284,139015,1,0,0:2:0:0:
478,284,139165,2,0,L|392:303,1,83.9999974365235,10|0,0:2|0:2,0:0:0:0:
321,370,139465,2,0,L|235:351,1,83.9999974365235,2|0,0:2|0:2,0:0:0:0:
190,262,139765,1,10,0:2:0:0:
190,262,139915,2,0,L|208:179,1,83.9999974365235,2|0,0:2|0:2,0:0:0:0:
300,133,140215,1,2,0:2:0:0:
300,133,140365,2,0,L|281:50,1,83.9999974365235,8|0,0:2|0:2,0:0:0:0:
191,4,140665,6,0,P|132:18|31:83,1,167.999994873047,2|8,0:2|0:2,0:0:0:0:
6,168,141114,2,0,L|25:249,1,83.9999974365235,8|0,0:2|0:2,0:0:0:0:
126,264,141414,1,0,0:2:0:0:
126,264,141564,2,0,P|46:277|5:347,2,167.999994873047,8|0|8,0:2|0:2|0:2,0:0:0:0:
199,333,142314,1,0,0:2:0:0:
292,294,142464,1,0,0:2:0:0:
292,294,142539,1,0,0:2:0:0:
292,294,142614,1,0,0:2:0:0:
378,345,142764,2,0,P|436:351|465:350,1,83.9999974365235,8|0,0:2|0:2,0:0:0:0:
512,263,143064,6,0,L|477:81,2,167.999994873047,6|8|0,0:2|0:2|0:2,0:0:0:0:
461,350,143814,1,0,0:2:0:0:
461,350,143963,2,0,P|419:350|378:345,1,83.9999974365235,10|0,0:2|0:2,0:0:0:0:
318,261,144263,2,0,L|302:178,1,83.9999974365235,2|0,0:2|0:2,0:0:0:0:
380,113,144563,1,10,0:2:0:0:
380,113,144713,2,0,L|310:65,1,83.9999974365235,2|0,0:2|0:2,0:0:0:0:
236,4,145013,1,2,0:2:0:0:
236,4,145163,2,0,L|153:19,1,83.9999974365235,8|0,0:2|0:2,0:0:0:0:
112,112,145463,6,0,L|134:220,1,83.9999974365235,2|0,0:2|0:2,0:0:0:0:
215,247,145763,2,0,B|245:249|245:249|257:240|257:240|275:241|275:241|286:233|286:233|299:237|299:237|305:229|305:229|320:236|320:236|334:227|334:227|390:222,1,167.999994873047,8|0,0:2|0:2,0:0:0:0:
450,164,146213,1,0,0:2:0:0:
450,164,146363,2,0,L|470:262,1,83.9999974365235,8|0,0:2|0:2,0:0:0:0:
419,336,146663,2,0,L|321:356,1,83.9999974365235,0|0,0:2|0:2,0:0:0:0:
257,290,146962,1,8,0:2:0:0:
257,290,147112,2,0,P|179:270|111:315,1,167.999994873047,0|0,0:2|0:2,0:0:0:0:
9,294,147562,2,0,P|-2:254|-6:213,1,83.9999974365235,8|0,0:2|0:2,0:0:0:0:
38,122,147862,5,6,0:2:0:0:
203,236,148162,2,0,P|285:250|369:256,1,167.999994873047,8|0,0:2|0:2,0:0:0:0:
443,334,148612,1,0,0:2:0:0:
443,334,148762,2,0,P|455:293|472:255,1,83.9999974365235,10|0,0:2|0:2,0:0:0:0:
510,161,149062,2,0,P|497:120|480:82,1,83.9999974365235,2|0,0:2|0:2,0:0:0:0:
391,33,149362,1,10,0:2:0:0:
391,33,149512,2,0,P|350:39|310:52,1,83.9999974365235,2|0,0:2|0:2,0:0:0:0:
255,137,149811,1,2,0:2:0:0:
255,137,149961,2,0,P|213:130|173:117,1,83.9999974365235,8|0,0:2|0:2,0:0:0:0:
96,51,150261,6,0,P|127:104|88:211,1,167.999994873047,2|8,0:2|0:2,0:0:0:0:
16,260,150711,2,0,P|69:237|164:290,1,167.999994873047,8|0,0:2|0:2,0:0:0:0:
215,375,151161,1,8,0:2:0:0:
215,375,151311,1,8,0:2:0:0:
294,313,151461,2,0,L|322:125,1,167.999994873047,0|8,0:2|0:2,0:0:0:0:
253,68,151911,2,0,P|316:109|400:75,1,167.999994873047,0|0,0:2|0:2,0:0:0:0:
453,0,152361,1,14,0:2:0:0:
507,228,152660,6,0,B|442:200|442:200|325:261,1,195.999994018555,6|10,0:2|0:2,0:0:0:0:
280,346,153110,2,0,P|226:354|182:349,1,83.9999974365235,2|0,0:2|0:2,0:0:0:0:
109,299,153410,1,2,0:2:0:0:
109,299,153560,2,0,L|82:217,1,83.9999974365235,8|0,0:0|0:2,0:0:0:0:
12,152,153860,1,2,0:2:0:0:
12,152,154010,2,0,L|94:125,1,83.9999974365235,2|8,0:2|0:2,0:0:0:0:
148,41,154310,2,0,L|226:280,1,251.999992309571,2|8,0:2|0:2,0:0:0:0:
230,381,154910,1,2,0:2:0:0:
230,381,155060,2,0,L|312:354,1,83.9999974365235,2|0,0:2|0:0,0:0:0:0:
411,384,155359,1,8,0:2:0:0:
411,384,155509,2,0,L|449:306,1,83.9999974365235,2|0,0:2|0:2,0:0:0:0:
512,231,155809,2,0,L|484:149,1,83.9999974365235,2|8,0:2|0:2,0:0:0:0:
504,51,156109,6,0,P|455:114|375:105,1,167.999994873047,2|0,0:2|0:2,0:0:0:0:
302,34,156559,1,8,0:2:0:0:
223,96,156709,1,0,0:2:0:0:
223,96,156784,1,0,0:2:0:0:
223,96,156859,2,0,P|227:137|238:178,1,83.9999974365235,0|0,0:2|0:2,0:0:0:0:
326,228,157159,1,10,0:2:0:0:
175,361,157459,6,0,P|106:365|48:289,1,167.999994873047,2|8,0:2|0:2,0:0:0:0:
14,197,157909,2,0,L|32:104,1,83.9999974365235,2|0,0:2|0:2,0:0:0:0:
4,21,158208,1,2,0:2:0:0:
4,21,158358,2,0,L|97:38,1,83.9999974365235,8|0,0:0|0:2,0:0:0:0:
157,109,158658,2,0,L|328:77,1,167.999994873047,2|10,0:2|0:2,0:0:0:0:
399,12,159108,2,0,P|442:36|467:244,1,251.999992309571,2|8,0:2|0:2,0:0:0:0:
426,303,159708,1,2,0:2:0:0:
426,303,159858,6,0,L|260:333,1,167.999994873047,2|10,0:2|0:2,0:0:0:0:
168,375,160308,2,0,L|98:327,1,83.9999974365235,10|0,0:2|0:2,0:0:0:0:
2,295,160608,2,0,L|49:225,1,83.9999974365235,2|8,0:2|0:2,0:0:0:0:
149,240,160908,2,0,L|314:209,1,167.999994873047,2|0,0:2|0:2,0:0:0:0:
404,253,161357,1,8,0:2:0:0:
404,253,161507,1,0,0:2:0:0:
491,203,161657,1,0,0:2:0:0:
491,203,161807,1,0,0:2:0:0:
488,102,161957,2,0,L|472:54,3,41.9999987182618,10|0|0|0,0:2|0:2|0:2|0:2,0:0:0:0:
498,15,162257,6,0,B|444:54|444:54|298:31,1,195.999994018555,6|10,0:2|0:2,0:0:0:0:
225,0,162707,2,0,L|142:15,1,83.9999974365235,2|0,0:2|0:2,0:0:0:0:
64,80,163007,2,0,L|95:251,1,167.999994873047,2|0,0:2|0:2,0:0:0:0:
32,325,163457,1,2,0:2:0:0:
221,256,163757,1,10,0:2:0:0:
390,364,164056,2,0,L|484:375,2,83.9999974365235,2|0|8,0:2|0:2|0:2,0:0:0:0:
339,275,164506,1,2,0:2:0:0:
339,274,164656,6,0,P|366:195|403:120,1,167.999994873047,2|10,0:2|0:2,0:0:0:0:
486,61,165106,2,0,P|446:47|408:29,1,83.9999974365235,2|0,0:2|0:2,0:0:0:0:
309,4,165406,2,0,P|269:17|231:35,1,83.9999974365235,2|8,0:2|0:2,0:0:0:0:
131,52,165706,2,0,P|105:127|88:231,1,167.999994873047,2|0,0:2|0:2,0:0:0:0:
163,283,166156,1,8,0:2:0:0:
163,283,166306,1,0,0:2:0:0:
248,229,166456,1,2,0:2:0:0:
248,229,166606,1,0,0:2:0:0:
347,246,166756,2,0,L|373:338,1,83.9999974365235,10|0,0:2|0:2,0:0:0:0:
280,373,167055,6,0,L|114:341,2,167.999994873047,6|8|0,0:2|0:2|0:2,0:0:0:0:
369,326,167805,1,0,0:2:0:0:
369,326,167955,2,0,L|390:242,1,83.9999974365235,8|0,0:2|0:2,0:0:0:0:
476,193,168255,2,0,L|514:375,2,167.999994873047,2|8|2,0:2|0:2|0:2,0:0:0:0:
500,94,169005,1,0,0:2:0:0:
500,94,169155,2,0,L|418:113,1,83.9999974365235,8|0,0:2|0:2,0:0:0:0:
357,194,169455,6,0,L|275:174,1,83.9999974365235,2|0,0:2|0:2,0:0:0:0:
215,93,169754,2,0,P|135:75|65:118,1,167.999994873047,8|0,0:2|0:2,0:0:0:0:
26,214,170204,1,0,0:2:0:0:
26,214,170354,2,0,L|48:311,1,83.9999974365235,8|0,0:2|0:2,0:0:0:0:
133,344,170654,2,0,P|81:329|-16:384,2,167.999994873047,2|8|0,0:2|0:2|0:2,0:0:0:0:
226,304,171404,1,0,0:2:0:0:
226,304,171554,2,0,L|246:210,1,83.9999974365235,10|0,0:2|0:2,0:0:0:0:
159,164,171854,6,0,B|132:108|132:108|191:20,1,167.999994873047,6|8,0:2|0:2,0:0:0:0:
291,1,172304,1,0,0:2:0:0:
291,1,172454,1,0,0:2:0:0:
349,82,172603,1,0,0:2:0:0:
349,82,172753,2,0,L|436:68,1,83.9999974365235,8|8,0:2|0:2,0:0:0:0:
511,5,173053,2,0,P|477:51|502:167,1,167.999994873047,2|8,0:2|0:2,0:0:0:0:
445,245,173503,1,0,0:2:0:0:
445,245,173653,1,2,0:2:0:0:
476,340,173803,1,0,0:2:0:0:
476,340,173953,2,0,P|440:360|399:369,1,83.9999974365235,8|0,0:2|0:2,0:0:0:0:
309,320,174253,6,0,L|277:135,2,167.999994873047,2|8|0,0:2|0:2|0:2,0:0:0:0:
225,375,175003,1,0,0:2:0:0:
225,375,175153,2,0,P|183:377|142:367,1,83.9999974365235,8|0,0:2|0:2,0:0:0:0:
74,325,175452,1,2,0:2:0:0:
74,325,175527,1,0,0:2:0:0:
74,325,175602,1,0,0:2:0:0:
74,325,175677,1,0,0:2:0:0:
74,325,175752,2,0,L|57:236,1,83.9999974365235,8|0,0:2|0:2,0:0:0:0:
4,156,176052,1,0,0:2:0:0:
4,156,176202,1,0,0:2:0:0:
49,66,176352,2,0,L|131:48,1,83.9999974365235,10|0,0:2|0:2,0:0:0:0:
215,1,176652,6,0,B|160:54|160:54|196:180,1,195.999994018555,6|8,0:2|0:2,0:0:0:0:
279,221,177102,1,0,0:2:0:0:
279,221,177252,2,0,L|361:201,1,83.9999974365235,0|0,0:2|0:2,0:0:0:0:
420,119,177552,1,8,0:2:0:0:
511,182,177702,1,0,0:2:0:0:
511,182,177777,1,0,0:2:0:0:
511,182,177852,2,0,L|497:285,1,83.9999974365235,2|0,0:2|0:2,0:0:0:0:
450,353,178152,1,8,0:2:0:0:
358,311,178301,1,0,0:2:0:0:
358,311,178376,1,0,0:2:0:0:
358,311,178451,2,0,L|273:335,1,83.9999974365235,2|0,0:2|0:2,0:0:0:0:
182,371,178751,2,0,L|97:347,1,83.9999974365235,8|0,0:2|0:2,0:0:0:0:
5,381,179051,6,0,P|59:341|39:232,1,167.999994873047,2|8,0:2|0:2,0:0:0:0:
16,163,179501,1,0,0:2:0:0:
16,163,179576,1,0,0:2:0:0:
16,163,179651,2,0,P|10:121|14:79,1,83.9999974365235,0|0,0:2|0:2,0:0:0:0:
103,30,179951,2,0,P|144:35|186:31,1,83.9999974365235,8|0,0:2|0:2,0:0:0:0:
270,86,180251,2,0,P|253:125|243:166,1,83.9999974365235,2|0,0:2|0:2,0:0:0:0:
188,251,180551,2,0,P|198:291|214:330,1,83.9999974365235,8|0,0:2|0:2,0:0:0:0:
305,375,180851,2,0,P|346:368|385:352,1,83.9999974365235,0|0,0:2|0:2,0:0:0:0:
455,279,181150,1,10,0:2:0:0:
406,203,181300,1,10,0:2:0:0:
406,203,181375,1,0,0:0:0:0:
406,203,181450,1,0,0:0:0:0:
