osu file format v14

[General]
AudioFilename: audio.mp3
AudioLeadIn: 0
PreviewTime: 51521
Countdown: 0
SampleSet: Soft
StackLeniency: 0.2
Mode: 0
LetterboxInBreaks: 0
WidescreenStoryboard: 0

[Editor]
DistanceSpacing: 1.7
BeatDivisor: 4
GridSize: 32
TimelineZoom: 2.3

[Metadata]
Title:Breaking The Habit
TitleUnicode:Breaking The Habit
Artist:Linkin Park
ArtistUnicode:Linkin Park
Creator:Mordred
Version:Expert
Source:
Tags:english alternative rock meteora chester bennington pw384 384059043 lmt
BeatmapID:2824039
BeatmapSetID:1365175

[Difficulty]
HPDrainRate:6
CircleSize:4
OverallDifficulty:9
ApproachRate:9.3
SliderMultiplier:1.7
SliderTickRate:1

[Events]
//Background and Video events
0,0,"1.jpg",0,0
Video,3272,"BadHabit.avi"
//Break Periods
2,76686,78932
//Storyboard Layer 0 (Background)
//Storyboard Layer 1 (Fail)
//Storyboard Layer 2 (Pass)
//Storyboard Layer 3 (Foreground)
//Storyboard Layer 4 (Overlay)
//Storyboard Sound Samples

[TimingPoints]
3913,299.895036737142,4,2,0,40,1,0
13434,-100,4,2,0,5,0,0
13509,-100,4,2,0,60,0,0
23106,-166.666666666667,4,2,0,40,0,0
42299,-125,4,2,0,50,0,0
51896,-76.9230769230769,4,1,0,70,0,1
52346,-100,4,1,0,70,0,1
61492,-76.9230769230769,4,1,0,70,0,1
61942,-100,4,1,0,70,0,1
75887,-100,4,1,0,70,0,0
76187,-100,4,1,0,60,0,0
79486,-100,4,1,0,40,0,0
80086,-100,4,1,0,50,0,0
80611,-100,4,1,0,5,0,0
80686,-76.9230769230769,4,1,0,70,0,0
80986,-100,4,2,0,60,0,0
108276,-142.857142857143,4,1,0,50,0,0
109176,-142.857142857143,4,1,0,70,0,0
109476,-71.4285714285714,4,1,0,70,0,1
109925,-100,4,1,0,70,0,1
119072,-71.4285714285714,4,1,0,70,0,1
119522,-100,4,1,0,70,0,1
133167,-100,4,1,0,70,0,0
133467,-71.4285714285714,4,1,0,70,0,1
134367,-83.3333333333333,4,1,0,70,0,1
152361,-83.3333333333333,4,1,0,70,0,0
152660,-58.8235294117647,4,1,0,70,0,1
153110,-83.3333333333333,4,1,0,70,0,1
162257,-58.8235294117647,4,1,0,70,0,1
162707,-83.3333333333333,4,1,0,70,0,1
176352,-83.3333333333333,4,1,0,70,0,0
176652,-71.4285714285714,4,1,0,80,0,1
181450,-100,4,1,0,70,0,0

[Colours]
Combo1 : 164,194,200
Combo2 : 215,157,158
Combo3 : 177,169,172
Combo4 : 115,115,115

[HitObjects]
256,192,12310,12,0,13434,2:2:0:0:
32,320,13509,6,0,B|-11:271|-11:271|22:171,1,170,6|10,1:2|0:2,0:2:0:0:
96,384,13959,1,2,0:2:0:0:
96,384,14259,1,2,1:2:0:0:
164,341,14409,2,0,L|252:330,1,85,10|0,0:2|0:2,0:2:0:0:
457,250,14709,38,0,P|377:232|320:290,1,170,2|10,1:2|0:2,0:2:0:0:
512,307,15159,1,2,0:2:0:0:
512,307,15458,1,2,1:2:0:0:
457,250,15608,2,0,L|446:165,1,85,10|0,0:2|0:2,0:2:0:0:
512,80,15908,6,0,B|458:132|458:132|368:100,1,170,2|10,1:2|0:2,0:2:0:0:
224,0,16358,1,2,0:2:0:0:
224,0,16658,1,2,1:2:0:0:
169,55,16808,2,0,L|158:139,1,85,8|0,0:2|0:2,0:2:0:0:
92,345,17108,38,0,P|137:276|100:201,1,170,2|10,1:2|0:2,0:2:0:0:
16,176,17558,1,2,0:2:0:0:
16,176,17708,1,0,1:2:0:0:
61,268,17858,1,2,1:2:0:0:
176,240,18008,1,8,0:2:0:0:
256,320,18158,1,0,1:2:0:0:
416,288,18307,6,0,B|465:245|465:245|429:146,1,170,6|10,1:2|0:2,0:2:0:0:
512,336,18757,2,0,P|429:317|345:303,1,170,2|2,0:2|1:2,0:2:0:0:
256,320,19207,2,0,P|272:272|280:224,1,85,10|0,0:2|0:2,0:2:0:0:
256,96,19507,1,2,1:2:0:0:
239,90,19582,1,0,0:2:0:0:
222,85,19657,1,0,0:2:0:0:
205,80,19732,1,0,0:2:0:0:
188,74,19807,1,8,0:2:0:0:
139,5,19957,2,0,L|166:172,1,170,2|2,0:2|1:2,0:2:0:0:
67,65,20407,2,0,L|80:148,1,85,10|0,0:2|0:2,0:2:0:0:
0,311,20707,38,0,P|45:268|107:269,1,127.5,2|0,1:2|0:2,0:2:0:0:
121,285,21007,1,10,0:2:0:0:
384,256,21156,1,10,0:2:0:0:
448,320,21456,1,2,1:2:0:0:
384,256,21606,2,0,L|288:238,1,85,10|0,0:2|0:2,0:2:0:0:
229,172,21906,1,2,1:2:0:0:
225,155,21981,1,0,0:2:0:0:
222,138,22056,1,0,0:2:0:0:
219,121,22131,1,0,0:2:0:0:
216,104,22206,2,0,L|224:62,1,42.5,8|0,0:2|0:2,0:2:0:0:
295,119,22356,2,0,L|303:160,1,42.5,0|0,0:2|0:2,0:2:0:0:
343,34,22506,2,0,L|301:42,1,42.5,0|0,1:2|0:2,0:2:0:0:
373,188,22656,2,0,L|414:179,1,42.5,0|0,1:2|0:2,0:2:0:0:
468,84,22806,2,0,L|426:92,1,42.5,8|0,0:2|0:2,0:2:0:0:
361,275,22956,2,0,L|319:283,1,42.5,0|0,1:2|0:2,0:2:0:0:
96,256,23106,21,0,1:2:0:0:
373,188,23406,1,8,0:2:0:0:
96,256,23706,2,0,L|76:356,1,101.999996887207,0|8,0:2|0:2,0:2:0:0:
339,384,24305,1,0,0:2:0:0:
334,358,24380,1,0,0:2:0:0:
329,333,24455,1,0,0:2:0:0:
324,308,24530,1,0,0:2:0:0:
319,283,24605,1,8,0:2:0:0:
512,160,24905,2,0,L|492:260,1,101.999996887207,0|8,0:2|0:2,0:2:0:0:
319,283,25355,1,0,1:2:0:0:
146,306,25505,6,0,P|95:301|45:288,1,101.999996887207,0|8,1:2|0:2,0:2:0:0:
244,384,25955,2,0,P|231:331|226:283,1,101.999996887207,0|0,0:2|0:2,0:2:0:0:
256,192,26405,1,8,0:2:0:0:
256,192,26705,1,0,0:2:0:0:
282,187,26780,1,0,0:2:0:0:
307,182,26855,1,0,0:2:0:0:
332,177,26930,1,0,0:2:0:0:
357,172,27004,1,8,0:2:0:0:
438,207,27154,2,0,P|451:154|455:106,1,101.999996887207,0|0,0:2|0:2,0:2:0:0:
432,28,27604,1,8,0:2:0:0:
512,47,27754,1,0,1:2:0:0:
288,0,27904,37,0,1:2:0:0:
288,0,28204,1,8,0:2:0:0:
322,78,28354,2,0,L|343:82,8,12.7499996109009,0|0|0|0|0|0|0|0|0,0:2|0:2|0:2|0:2|0:2|0:2|0:2|0:2|0:2,0:2:0:0:
254,129,28804,2,0,P|245:152|239:181,1,50.9999984436036,8|0,0:2|0:2,0:2:0:0:
276,255,29104,1,0,0:2:0:0:
301,260,29178,1,0,0:2:0:0:
326,265,29254,1,0,0:2:0:0:
351,270,29328,1,0,0:2:0:0:
376,275,29404,1,8,0:2:0:0:
396,356,29554,2,0,L|296:336,1,101.999996887207,0|0,0:2|0:2,0:2:0:0:
224,384,30003,1,8,0:2:0:0:
296,336,30153,1,0,1:2:0:0:
58,292,30303,6,0,P|42:244|35:194,1,101.999996887207,0|8,1:2|0:2,0:2:0:0:
48,117,30753,1,0,0:2:0:0:
48,117,31053,1,0,0:2:0:0:
124,134,31203,2,0,L|173:122,1,50.9999984436036,8|0,0:2|0:2,0:2:0:0:
221,60,31503,1,0,0:2:0:0:
246,55,31577,1,0,0:2:0:0:
271,49,31652,1,0,0:2:0:0:
296,43,31727,1,0,0:2:0:0:
321,37,31802,1,8,0:2:0:0:
397,56,31953,1,0,0:2:0:0:
397,56,32253,1,0,0:2:0:0:
321,37,32403,1,8,0:2:0:0:
473,75,32552,1,0,1:2:0:0:
434,227,32702,38,0,L|444:281,2,50.9999984436036,0|0|8,1:2|0:2|0:2,0:2:0:0:
434,227,33302,2,0,L|326:247,1,101.999996887207,0|8,0:2|0:2,0:2:0:0:
224,352,33902,1,0,0:2:0:0:
198,347,33976,1,0,0:2:0:0:
173,342,34051,1,0,0:2:0:0:
148,338,34126,1,0,0:2:0:0:
123,333,34201,1,8,0:2:0:0:
18,260,34502,2,0,L|0:160,1,101.999996887207,0|8,0:2|0:2,0:2:0:0:
32,96,34952,1,0,1:2:0:0:
224,192,35102,6,0,L|174:183,2,50.9999984436036,0|0|8,1:2|0:2|0:2,0:2:0:0:
288,256,35551,2,0,L|388:237,1,101.999996887207,0|0,0:2|0:2,0:2:0:0:
475,267,36001,2,0,L|479:288,4,12.7499996109009,8|0|0|0|0,0:2|0:2|0:2|0:2|0:2,0:2:0:0:
493,178,36301,1,0,0:2:0:0:
498,151,36375,1,0,0:2:0:0:
503,126,36450,1,0,0:2:0:0:
507,101,36525,1,0,0:2:0:0:
512,76,36600,1,8,0:2:0:0:
455,19,36751,2,0,L|354:37,1,101.999996887207,0|0,0:2|0:2,0:2:0:0:
302,99,37201,1,8,0:2:0:0:
354,37,37351,1,0,1:2:0:0:
416,256,37501,37,0,1:2:0:0:
416,256,37801,1,8,0:2:0:0:
352,320,37951,2,0,L|251:301,1,101.999996887207,0|0,0:2|0:2,0:2:0:0:
187,365,38400,1,8,0:2:0:0:
19,288,38700,1,0,0:2:0:0:
14,261,38774,1,0,0:2:0:0:
9,236,38849,1,0,0:2:0:0:
5,211,38924,1,0,0:2:0:0:
0,186,39000,1,8,0:2:0:0:
64,128,39150,2,0,L|164:146,1,101.999996887207,0|0,0:2|0:2,0:2:0:0:
238,112,39600,1,8,0:2:0:0:
164,147,39750,1,0,1:2:0:0:
386,42,39900,6,0,L|486:60,1,101.999996887207,0|8,1:2|0:2,0:2:0:0:
256,212,40350,2,0,L|238:112,1,101.999996887207,0|0,0:2|0:2,0:2:0:0:
302,25,40800,2,0,L|312:76,1,50.9999984436036,8|0,0:2|0:2,0:2:0:0:
379,128,41099,1,0,0:2:0:0:
384,153,41174,1,0,0:2:0:0:
388,178,41249,1,0,0:2:0:0:
393,203,41324,1,0,0:2:0:0:
398,230,41399,2,0,L|448:239,1,50.9999984436036,8|0,0:2|0:2,0:2:0:0:
512,338,41699,1,0,1:2:0:0:
487,333,41849,1,0,1:2:0:0:
462,329,41999,1,0,1:2:0:0:
436,325,42299,6,0,P|370:338|305:358,1,136,0|8,1:2|0:2,0:2:0:0:
486,259,42749,2,0,P|504:195|512:125,1,136,0|0,0:2|0:2,0:2:0:0:
480,32,43199,1,8,0:2:0:0:
320,192,43499,1,0,0:2:0:0:
286,196,43573,1,0,0:2:0:0:
252,201,43648,1,0,0:2:0:0:
219,206,43723,1,0,0:2:0:0:
185,211,43798,1,8,0:2:0:0:
334,261,43948,2,0,L|368:129,1,136,0|0,0:2|0:2,0:2:0:0:
448,96,44398,1,8,0:2:0:0:
448,96,44548,1,0,0:2:0:0:
224,0,44698,21,0,1:2:0:0:
224,0,44848,2,0,L|148:10,1,68,0|8,0:2|0:2,0:2:0:0:
291,113,45148,2,0,L|215:103,1,68,0|0,0:2|0:2,0:2:0:0:
224,209,45448,2,0,L|156:217,1,68,0|8,0:2|0:2,0:2:0:0:
291,322,45748,2,0,L|215:312,1,68,0|0,0:2|0:2,0:2:0:0:
191,326,45973,1,0,0:2:0:0:
159,339,46048,1,0,0:2:0:0:
127,352,46123,1,0,0:2:0:0:
95,365,46198,1,8,0:2:0:0:
0,32,46648,1,0,1:2:0:0:
64,96,46797,2,0,L|131:104,1,68,8|0,0:2|0:2,0:2:0:0:
330,50,47097,22,0,B|265:28|265:28|206:61,1,136,0|8,1:2|0:2,0:2:0:0:
401,253,47547,2,0,L|383:118,1,136,0|0,0:2|0:2,0:2:0:0:
340,317,47997,1,8,0:2:0:0:
340,317,48297,2,0,L|344:350,1,34,0|0,0:2|0:2,0:2:0:0:
416,384,48447,1,0,0:2:0:0:
416,384,48522,1,0,0:2:0:0:
416,384,48597,1,8,0:2:0:0:
477,346,48747,2,0,L|459:211,1,136,0|0,0:2|1:2,0:2:0:0:
512,160,49197,1,8,0:2:0:0:
512,160,49347,1,0,1:2:0:0:
385,208,49497,22,0,P|351:202|319:190,1,68,0|0,1:2|0:2,0:2:0:0:
224,96,49796,1,8,0:2:0:0:
97,145,49946,2,0,P|75:209|61:275,1,136,0|0,0:2|1:2,0:2:0:0:
0,55,50396,2,0,P|32:65|65:72,1,68,8|0,0:2|0:2,0:2:0:0:
191,32,50696,1,0,1:2:0:0:
191,32,50771,1,0,0:2:0:0:
191,32,50846,1,0,0:2:0:0:
191,32,50921,1,0,0:2:0:0:
191,32,50996,1,8,0:2:0:0:
224,96,51146,1,0,0:2:0:0:
476,29,51446,1,0,0:2:0:0:
476,29,51596,1,0,0:2:0:0:
476,29,51896,38,0,B|442:104|442:104|505:264,1,220.999989883423,6|10,1:2|0:2,0:2:0:0:
377,47,52346,2,0,L|293:31,1,85,2|0,0:2|0:2,0:2:0:0:
64,96,52645,1,2,1:2:0:0:
64,96,52795,2,0,L|147:111,1,85,8|0,0:2|0:2,0:2:0:0:
361,295,53095,1,2,1:2:0:0:
361,295,53245,2,0,L|277:279,1,85,2|8,0:2|0:2,0:2:0:0:
512,247,53545,2,0,L|344:215,1,170,2|0,0:2|1:2,0:2:0:0:
345,215,53920,1,0,1:2:0:0:
345,215,53995,1,8,0:2:0:0:
203,270,54145,1,2,1:2:0:0:
70,192,54295,38,0,L|40:12,1,170,2|8,1:2|0:2,0:2:0:0:
203,270,54745,2,0,L|188:180,1,85,2|0,0:2|0:2,0:2:0:0:
13,365,55045,2,0,L|-2:275,1,85,2|8,1:2|0:2,0:2:0:0:
256,384,55344,2,0,L|436:354,1,170,2|0,0:2|0:2,0:2:0:0:
466,276,55794,2,0,P|411:213|421:131,1,170,8|0,0:2|0:2,0:2:0:0:
465,51,56244,1,0,1:2:0:0:
512,352,56394,1,10,0:2:0:0:
132,74,56694,6,0,P|213:49|297:38,1,170,2|10,0:2|0:2,0:2:0:0:
3,0,57144,2,0,P|23:37|37:77,1,85,2|0,0:2|0:2,0:2:0:0:
237,132,57444,2,0,P|236:174|212:302,1,170,2|0,0:2|0:2,0:2:0:0:
0,224,57894,2,0,P|40:210|82:203,1,85,2|0,0:2|0:2,0:2:0:0:
306,307,58194,1,10,0:2:0:0:
306,307,58343,2,0,P|389:293|469:265,1,170,2|0,0:2|0:2,0:2:0:0:
469,265,58718,1,0,0:2:0:0:
469,265,58793,1,8,0:2:0:0:
512,352,58943,1,2,0:2:0:0:
428,174,59093,38,0,L|454:48,1,127.5,2|0,0:2|2:2,0:2:0:0:
471,38,59393,1,10,0:2:0:0:
320,224,59543,2,0,L|219:203,1,85,10|0,0:2|0:2,0:2:0:0:
511,191,59843,2,0,L|428:174,1,85,2|8,0:2|0:2,0:2:0:0:
126,376,60143,2,0,L|292:341,1,170,2|0,0:2|0:2,0:2:0:0:
384,384,60593,2,0,L|401:300,1,85,8|0,0:2|0:2,0:2:0:0:
512,224,60893,1,0,0:2:0:0:
401,300,61043,1,0,0:2:0:0:
320,32,61192,1,10,0:2:0:0:
320,32,61492,6,0,B|258:-4|258:-4|117:46,1,220.999989883423,6|10,0:2|0:2,0:2:0:0:
384,160,61942,2,0,P|392:118|407:78,1,85,2|0,0:2|0:2,0:2:0:0:
293,321,62242,2,0,P|275:237|246:158,1,170,2|0,0:2|0:2,0:2:0:0:
135,195,62692,2,0,P|93:186|54:172,1,85,2|0,0:2|0:2,0:2:0:0:
370,245,62992,2,0,P|412:236|451:222,1,85,10|0,0:2|0:2,0:2:0:0:
160,384,63292,2,0,L|180:289,1,85,2|0,0:2|0:2,0:2:0:0:
177,300,63517,1,0,0:2:0:0:
177,300,63592,1,8,0:2:0:0:
64,343,63742,1,2,0:2:0:0:
290,364,63892,38,0,P|370:338|454:322,1,170,2|8,0:2|0:2,0:2:0:0:
85,254,64341,2,0,P|43:246|2:233,1,85,2|0,0:2|0:2,0:2:0:0:
224,64,64641,2,0,P|211:104|203:146,1,85,2|8,0:2|0:2,0:2:0:0:
384,384,64941,2,0,P|368:300|342:219,1,170,2|0,0:2|0:2,0:2:0:0:
285,163,65391,2,0,P|243:158|203:146,1,85,8|0,0:2|0:2,0:2:0:0:
448,32,65691,2,0,L|467:114,1,85,2|0,0:2|0:2,0:2:0:0:
64,32,65991,2,0,L|44:114,1,85,10|0,0:2|0:2,0:2:0:0:
119,349,66291,5,6,0:2:0:0:
224,320,66441,1,0,0:2:0:0:
228,211,66591,1,8,0:2:0:0:
126,174,66741,1,0,0:2:0:0:
130,65,66890,1,0,0:2:0:0:
235,36,67040,1,0,0:2:0:0:
296,127,67190,1,8,0:2:0:0:
402,98,67340,1,0,0:2:0:0:
463,189,67490,38,0,L|477:272,1,85,2|0,0:2|0:2,0:2:0:0:
352,384,67790,2,0,L|337:300,1,85,8|0,0:2|0:2,0:2:0:0:
49,189,68090,2,0,L|34:272,1,85,2|0,0:2|0:2,0:2:0:0:
160,384,68390,2,0,L|174:300,1,85,8|0,0:2|0:2,0:2:0:0:
226,11,68690,5,2,0:2:0:0:
121,40,68840,1,0,0:2:0:0:
117,149,68990,1,8,0:2:0:0:
219,186,69140,1,8,0:2:0:0:
286,101,69290,1,0,0:2:0:0:
388,138,69440,1,0,0:2:0:0:
384,247,69590,1,8,0:2:0:0:
279,276,69739,1,0,0:2:0:0:
388,138,69889,38,0,L|471:121,1,85,2|0,0:2|0:2,0:2:0:0:
256,0,70189,2,0,L|289:166,1,170,8|0,0:2|0:2,0:2:0:0:
384,247,70639,1,0,0:2:0:0:
174,126,70789,2,0,L|90:142,1,85,10|0,0:2|0:2,0:2:0:0:
0,320,71089,5,6,0:2:0:0:
98,365,71239,1,0,0:2:0:0:
173,287,71389,1,8,0:2:0:0:
271,333,71539,1,0,0:2:0:0:
346,255,71689,1,0,0:2:0:0:
295,160,71839,1,0,0:2:0:0:
189,180,71989,1,8,0:2:0:0:
173,287,72139,1,0,0:2:0:0:
67,305,72289,38,0,L|-24:286,1,85,2|0,0:2|0:2,0:2:0:0:
106,162,72588,2,0,L|190:180,1,85,8|0,0:2|0:2,0:2:0:0:
445,305,72888,2,0,L|536:286,1,85,2|0,0:2|0:2,0:2:0:0:
406,162,73188,2,0,L|323:180,1,85,8|0,0:2|0:2,0:2:0:0:
139,382,73488,5,2,0:2:0:0:
34,353,73638,1,0,0:2:0:0:
30,244,73788,1,8,0:2:0:0:
132,207,73937,1,0,0:2:0:0:
199,292,74088,1,0,0:2:0:0:
301,255,74238,1,0,0:2:0:0:
298,147,74388,1,8,0:2:0:0:
193,118,74538,1,0,0:2:0:0:
301,255,74688,38,0,L|384:272,1,85,2|0,0:2|0:2,0:2:0:0:
225,384,74988,2,0,L|189:217,1,170,8|0,0:2|0:2,0:2:0:0:
298,147,75437,1,0,0:2:0:0:
34,353,75587,6,0,L|-2:362,8,21.25,8|0|0|0|0|0|0|0|0,2:2|2:2|2:2|2:2|2:2|2:2|2:2|2:2|2:2,2:2:0:0:
478,353,76187,2,0,L|514:362,8,21.25,0|0|0|0|0|0|0|0|0,3:2|3:2|3:2|3:2|3:2|3:2|3:2|3:2|3:2,3:2:0:0:
256,192,79486,12,0,80611,2:2:0:0:
31,325,80686,38,0,B|-1:267|-1:267|34:174,1,165.749992412568,6|0,1:2|2:2,0:2:0:0:
95,136,80986,2,0,L|181:128,1,85,8|0,0:2|0:2,0:2:0:0:
288,192,81285,1,2,0:2:0:0:
411,161,81435,1,0,1:2:0:0:
445,38,81585,1,8,0:2:0:0:
411,161,81735,1,0,0:2:0:0:
501,252,81885,2,0,L|512:336,1,85,2|0,1:2|0:2,0:2:0:0:
436,384,82185,2,0,L|425:300,1,85,8|0,0:2|0:2,0:2:0:0:
276,107,82485,2,0,L|288:192,1,85,2|0,0:2|1:2,0:2:0:0:
250,260,82785,2,0,L|165:271,1,85,8|0,0:2|0:2,0:2:0:0:
0,128,83085,22,0,P|64:145|95:224,1,127.5,2|0,1:2|0:2,0:2:0:0:
92,268,83385,2,0,L|82:307,8,21.25,8|0|0|0|0|0|0|0|0,0:2|0:2|0:2|0:2|0:2|0:2|0:2|0:2|0:2,0:2:0:0:
169,197,83835,1,0,1:2:0:0:
203,352,83984,2,0,L|287:363,1,85,10|0,0:2|0:2,0:2:0:0:
473,244,84284,2,0,P|392:250|360:325,1,170,2|10,1:2|0:2,0:2:0:0:
487,255,84734,2,0,P|502:178|512:83,1,170,2|0,0:2|1:2,0:2:0:0:
512,87,85109,1,0,1:2:0:0:
512,87,85184,1,10,0:2:0:0:
384,0,85334,21,2,1:2:0:0:
384,0,85484,2,0,P|374:84|358:167,1,170,0|8,1:2|0:2,0:2:0:0:
192,32,85934,2,0,P|208:115|218:199,1,170,0|0,0:2|1:2,0:2:0:0:
288,288,86384,2,0,P|330:292|371:301,1,85,10|0,0:2|0:2,0:2:0:0:
96,384,86684,2,0,B|66:335|66:335|107:230,1,170,2|10,1:2|0:2,0:2:0:0:
16,16,87133,2,0,B|-14:65|-14:65|27:169,1,170,2|0,0:2|1:2,0:2:0:0:
107,230,87583,2,0,L|198:216,1,85,10|0,0:2|0:2,0:2:0:0:
426,311,87883,22,0,P|346:324|299:259,1,170,2|10,1:2|0:2,0:2:0:0:
448,383,88333,2,0,P|465:300|484:218,1,170,2|0,0:2|1:2,0:2:0:0:
449,139,88783,2,0,P|407:130|366:120,1,85,8|0,0:2|0:2,0:2:0:0:
108,199,89083,2,0,P|149:207|190:217,1,85,0|0,1:2|0:2,0:2:0:0:
191,217,89308,1,0,0:2:0:0:
191,217,89383,1,8,0:2:0:0:
299,210,89533,1,0,1:2:0:0:
260,304,89682,1,0,1:2:0:0:
238,130,89832,1,0,1:2:0:0:
260,304,89982,2,0,L|269:327,6,21.25,8|0|0|0|0|0|0,0:2|0:2|0:2|0:2|0:2|0:2|0:2,0:2:0:0:
260,304,90282,22,0,P|197:315|89:335,1,170,0|10,1:2|0:2,0:2:0:0:
71,297,90657,1,10,0:2:0:0:
49,260,90732,1,10,0:2:0:0:
27,223,90807,1,10,0:2:0:0:
6,185,90882,1,10,0:2:0:0:
112,208,91032,1,0,1:2:0:0:
218,231,91182,2,0,L|301:215,1,85,8|0,0:2|0:2,0:2:0:0:
446,31,91482,2,0,B|409:71|409:71|432:140,1,127.5,2|0,1:2|0:2,0:2:0:0:
483,191,91782,2,0,L|467:274,1,85,8|0,0:2|0:2,0:2:0:0:
406,348,92082,1,2,1:2:0:0:
467,275,92232,1,0,1:2:0:0:
318,299,92382,2,0,L|302:215,1,85,8|0,0:2|0:2,0:2:0:0:
37,352,92681,22,0,P|117:324|200:305,1,170,2|8,1:2|0:2,0:2:0:0:
19,374,93131,2,0,P|41:292|55:208,1,170,0|0,0:2|1:2,0:2:0:0:
128,160,93581,2,0,P|168:171|211:178,1,85,10|0,0:2|0:2,0:2:0:0:
384,352,93881,2,0,P|311:314|300:233,1,170,2|8,1:2|0:2,0:2:0:0:
423,101,94331,2,0,P|403:183|379:265,1,170,2|0,0:2|1:2,0:2:0:0:
379,265,94706,1,0,1:2:0:0:
379,265,94781,1,10,0:2:0:0:
512,384,94931,21,2,1:2:0:0:
512,384,95081,2,0,P|488:302|468:219,1,170,0|8,1:2|0:2,0:2:0:0:
320,384,95530,2,0,P|296:302|276:219,1,170,0|0,0:2|1:2,0:2:0:0:
160,224,95980,2,0,P|118:214|77:202,1,85,10|0,0:2|0:2,0:2:0:0:
315,0,96280,2,0,B|345:49|345:49|304:154,1,170,2|10,1:2|0:2,0:2:0:0:
171,378,96730,2,0,B|201:329|201:329|160:225,1,170,2|0,0:2|1:2,0:2:0:0:
14,295,97180,2,0,P|54:306|96:316,1,85,10|0,0:2|0:2,0:2:0:0:
352,384,97480,22,0,P|414:369|475:352,1,127.5,2|0,1:2|0:2,0:2:0:0:
489,336,97780,1,10,0:2:0:0:
260,273,97930,2,0,P|178:295|96:316,1,170,10|0,0:2|1:2,0:2:0:0:
335,332,98379,2,0,P|344:290|355:249,1,85,8|0,0:2|0:2,0:2:0:0:
470,100,98679,1,0,1:2:0:0:
456,207,98829,1,0,1:2:0:0:
385,35,98979,2,0,P|343:46|302:55,1,85,8|0,0:2|0:2,0:2:0:0:
193,41,99279,1,0,1:2:0:0:
176,36,99429,1,0,1:2:0:0:
159,31,99579,1,0,1:2:0:0:
142,26,99729,1,0,1:2:0:0:
125,21,99879,22,0,L|158:187,1,170,2|10,1:2|0:2,0:2:0:0:
64,384,100329,2,0,L|31:218,1,170,2|0,0:2|1:2,0:2:0:0:
165,284,100779,2,0,L|248:267,1,85,10|0,0:2|0:2,0:2:0:0:
461,128,101078,2,0,P|379:118|327:181,1,170,2|10,1:2|0:2,0:2:0:0:
475,363,101528,2,0,P|491:279|511:197,1,170,2|0,0:2|1:2,0:2:0:0:
511,197,101903,1,0,1:2:0:0:
511,197,101978,1,8,0:2:0:0:
402,263,102128,1,2,1:2:0:0:
327,181,102278,21,2,1:2:0:0:
327,181,102428,2,0,L|309:83,1,85,2|8,0:2|0:2,0:2:0:0:
386,346,102728,2,0,L|402:263,1,85,2|0,0:2|0:2,0:2:0:0:
179,251,103028,2,0,L|197:153,1,85,2|8,1:2|0:2,0:2:0:0:
256,384,103328,2,0,P|175:356|92:338,1,170,2|0,0:2|0:2,0:2:0:0:
22,283,103778,2,0,P|12:241|0:201,1,85,8|0,0:2|0:2,0:2:0:0:
32,96,104077,1,0,1:2:0:0:
0,201,104227,1,0,1:2:0:0:
106,176,104377,2,0,P|147:185|187:198,1,85,10|0,0:2|0:2,0:2:0:0:
294,384,104677,22,0,B|246:335|246:335|273:237,1,170,2|8,1:2|0:2,0:2:0:0:
477,204,105127,2,0,B|525:253|525:253|497:350,1,170,2|2,0:2|1:2,0:2:0:0:
375,220,105577,2,0,L|392:136,1,85,10|0,0:2|0:2,0:2:0:0:
512,32,105877,1,2,1:2:0:0:
512,32,106027,2,0,L|428:49,1,85,2|8,0:2|0:2,0:2:0:0:
305,159,106327,2,0,L|138:123,1,170,2|0,0:2|1:2,0:2:0:0:
138,123,106702,1,0,1:2:0:0:
138,123,106776,1,8,0:2:0:0:
224,32,106926,1,2,1:2:0:0:
18,88,107076,22,0,P|45:168|64:251,1,170,2|8,1:2|0:2,0:2:0:0:
256,384,107526,2,0,P|275:301|302:220,1,170,2|0,0:2|1:2,0:2:0:0:
512,256,107976,2,0,P|471:269|430:279,1,85,10|0,0:2|0:2,0:2:0:0:
225,164,108276,6,0,P|281:144|338:130,3,118.999996368408,2|8|8|2,1:2|2:2|2:2|1:2,2:2:0:0:
351,113,109251,1,0,1:2:0:0:
363,96,109326,1,0,1:2:0:0:
375,79,109401,1,0,1:2:0:0:
388,62,109476,6,0,L|344:322,1,237.999992736817,6|10,0:2|0:2,0:2:0:0:
154,115,109925,2,0,L|71:129,1,85,2|0,0:2|0:2,0:2:0:0:
348,296,110225,2,0,L|180:324,1,170,2|0,0:2|0:2,0:2:0:0:
512,128,110675,1,2,0:2:0:0:
512,128,110825,2,0,L|498:211,1,85,2|8,0:2|0:2,0:2:0:0:
352,0,111125,2,0,L|381:174,1,170,2|0,0:2|0:2,0:2:0:0:
380,167,111500,1,0,0:2:0:0:
380,167,111575,1,8,0:2:0:0:
512,128,111725,1,2,0:2:0:0:
250,218,111875,6,0,P|167:198|83:181,1,170,2|10,0:2|0:2,0:2:0:0:
384,352,112325,2,0,P|392:310|402:268,1,85,2|0,0:2|0:2,0:2:0:0:
113,384,112624,2,0,P|104:342|94:300,1,85,2|8,0:2|0:2,0:2:0:0:
286,51,112924,2,0,P|266:134|250:218,1,170,2|0,0:2|0:2,0:2:0:0:
165,275,113374,2,0,P|247:255|331:238,1,170,8|0,0:2|0:2,0:2:0:0:
402,268,113824,1,0,0:2:0:0:
94,245,113974,1,10,0:2:0:0:
80,218,114049,1,0,0:2:0:0:
66,191,114124,1,0,0:2:0:0:
52,164,114199,1,0,0:2:0:0:
38,137,114274,38,0,L|204:173,1,170,2|10,0:2|0:2,0:2:0:0:
364,64,114724,2,0,L|280:82,1,85,2|0,0:2|0:2,0:2:0:0:
197,291,115024,2,0,L|363:255,1,170,2|0,0:2|0:2,0:2:0:0:
512,176,115473,2,0,P|472:162|430:155,1,85,2|0,0:2|0:2,0:2:0:0:
197,291,115773,1,10,0:2:0:0:
197,291,115923,2,0,P|114:277|34:249,1,170,2|0,0:2|0:2,0:2:0:0:
33,248,116298,1,0,0:2:0:0:
33,248,116373,1,8,0:2:0:0:
96,368,116523,1,2,0:2:0:0:
298,214,116673,6,0,P|318:156|344:61,1,127.5,2|0,0:2|2:2,0:2:0:0:
331,71,116973,1,10,0:2:0:0:
415,288,117123,2,0,P|457:278|499:270,1,85,10|0,0:2|0:2,0:2:0:0:
214,230,117423,2,0,P|256:221|298:214,1,85,2|8,0:2|0:2,0:2:0:0:
96,384,117723,2,0,P|76:301|51:220,1,170,2|0,0:2|0:2,0:2:0:0:
0,160,118173,2,0,P|9:118|22:78,1,85,8|0,0:2|0:2,0:2:0:0:
160,32,118472,1,0,0:2:0:0:
22,78,118622,1,0,0:2:0:0:
305,54,118772,1,10,0:2:0:0:
318,80,118847,1,0,0:2:0:0:
331,106,118922,1,0,0:2:0:0:
345,132,118997,1,0,0:2:0:0:
358,158,119072,38,0,B|283:140|283:140|223:161|223:161|106:133,1,237.999992736817,6|10,0:2|0:2,0:2:0:0:
256,384,119522,2,0,P|270:343|287:305,1,85,2|0,0:2|0:2,0:2:0:0:
62,244,119822,2,0,P|34:164|0:87,1,170,2|0,0:2|0:2,0:2:0:0:
64,0,120272,2,0,L|147:17,1,85,2|0,0:2|0:2,0:2:0:0:
448,160,120572,2,0,L|364:142,1,85,10|0,0:2|0:2,0:2:0:0:
129,341,120872,2,0,L|146:257,1,85,2|0,0:2|0:2,0:2:0:0:
146,257,121096,1,0,0:2:0:0:
146,257,121171,1,8,0:2:0:0:
32,384,121321,1,2,0:2:0:0:
255,316,121471,6,0,P|338:333|419:358,1,170,2|10,0:2|0:2,0:2:0:0:
152,264,121921,2,0,L|135:180,1,85,2|0,0:2|0:2,0:2:0:0:
416,64,122221,2,0,L|399:147,1,85,2|8,0:2|0:2,0:2:0:0:
28,102,122521,2,0,P|109:76|192:59,1,170,2|0,0:2|0:2,0:2:0:0:
266,110,122971,2,0,P|274:151|287:192,1,85,8|0,0:2|0:2,0:2:0:0:
448,384,123271,2,0,L|464:300,1,85,2|0,0:2|0:2,0:2:0:0:
64,384,123571,2,0,L|47:300,1,85,10|0,0:2|0:2,0:2:0:0:
55,60,123871,37,6,0:2:0:0:
204,3,124020,1,0,0:2:0:0:
327,103,124170,1,8,0:2:0:0:
178,160,124320,1,0,0:2:0:0:
152,317,124470,1,0,0:2:0:0:
301,260,124620,1,0,0:2:0:0:
178,160,124770,1,8,0:2:0:0:
204,3,124920,1,0,0:2:0:0:
327,103,125070,6,0,L|421:117,1,85,2|0,0:2|0:2,0:2:0:0:
512,0,125370,2,0,L|427:12,1,85,8|0,0:2|0:2,0:2:0:0:
185,103,125670,2,0,L|91:117,1,85,2|0,0:2|0:2,0:2:0:0:
0,0,125970,2,0,L|84:12,1,85,8|0,0:2|0:2,0:2:0:0:
457,60,126270,37,2,0:2:0:0:
308,3,126419,1,0,0:2:0:0:
185,103,126570,1,8,0:2:0:0:
334,160,126719,1,8,0:2:0:0:
360,317,126869,1,0,0:2:0:0:
211,260,127019,1,0,0:2:0:0:
334,160,127169,1,8,0:2:0:0:
308,3,127319,1,0,0:2:0:0:
334,160,127469,6,0,P|374:172|426:182,1,85,2|0,0:2|0:2,0:2:0:0:
211,260,127769,2,0,P|184:179|152:99,1,170,8|0,0:2|0:2,0:2:0:0:
187,20,128219,1,0,0:2:0:0:
116,235,128369,2,0,P|76:247|24:257,1,85,10|0,0:2|0:2,0:2:0:0:
267,354,128669,37,6,0:2:0:0:
367,231,128818,1,0,0:2:0:0:
310,82,128968,1,8,0:2:0:0:
210,205,129118,1,0,0:2:0:0:
110,328,129269,1,0,0:2:0:0:
53,179,129419,1,0,0:2:0:0:
153,56,129569,1,8,0:2:0:0:
210,205,129718,1,0,0:2:0:0:
266,353,129868,6,0,L|350:369,1,85,2|0,0:2|0:2,0:2:0:0:
512,288,130168,2,0,L|428:304,1,85,8|0,0:2|0:2,0:2:0:0:
266,31,130468,2,0,L|350:15,1,85,2|0,0:2|0:2,0:2:0:0:
512,96,130768,2,0,L|428:80,1,85,8|0,0:2|0:2,0:2:0:0:
116,166,131068,37,2,0:2:0:0:
231,101,131218,1,0,0:2:0:0:
116,166,131368,1,8,0:2:0:0:
51,50,131518,1,0,0:2:0:0:
116,166,131668,1,0,0:2:0:0:
0,230,131818,1,0,0:2:0:0:
116,166,131968,1,8,0:2:0:0:
180,281,132118,1,8,0:2:0:0:
364,186,132268,6,0,L|447:172,1,85,6|0,0:2|0:2,0:2:0:0:
134,63,132567,2,0,L|51:50,1,85,12|0,0:2|0:2,0:2:0:0:
166,364,132867,2,0,L|180:281,1,85,12|0,0:2|0:2,0:2:0:0:
256,96,133167,1,8,0:2:0:0:
35,288,133317,1,8,0:2:0:0:
414,255,133467,38,0,P|298:216|180:181,2,237.999992736817,6|8|0,0:2|0:2|0:2,0:2:0:0:
512,224,134217,1,0,0:2:0:0:
247,288,134367,2,0,P|227:346|209:404,1,101.999996887207,10|0,0:2|0:2,0:2:0:0:
414,255,134667,2,0,P|429:206|445:158,1,101.999996887207,2|0,0:2|0:2,0:2:0:0:
160,0,134967,1,10,0:2:0:0:
160,0,135117,2,0,P|176:48|191:96,1,101.999996887207,2|0,0:2|0:2,0:2:0:0:
14,296,135416,1,2,0:2:0:0:
14,296,135566,2,0,P|29:247|45:199,1,101.999996887207,8|0,0:2|0:2,0:2:0:0:
265,69,135866,5,2,0:2:0:0:
311,49,135941,1,0,0:2:0:0:
361,54,136016,1,0,0:2:0:0:
402,84,136091,1,0,0:2:0:0:
422,131,136166,1,8,0:2:0:0:
415,181,136241,1,0,0:2:0:0:
385,221,136316,1,0,0:2:0:0:
356,257,136391,1,0,0:2:0:0:
341,306,136466,1,0,0:2:0:0:
356,355,136541,1,0,0:2:0:0:
398,384,136616,1,0,0:2:0:0:
449,384,136691,1,0,0:2:0:0:
490,355,136766,1,8,0:2:0:0:
506,306,136841,1,8,0:2:0:0:
490,257,136916,1,8,0:2:0:0:
449,228,136991,1,8,0:2:0:0:
398,228,137066,1,0,0:2:0:0:
356,257,137141,1,0,0:2:0:0:
341,306,137216,1,0,0:2:0:0:
301,337,137290,1,0,0:2:0:0:
251,341,137366,1,8,0:2:0:0:
207,316,137440,1,0,0:2:0:0:
185,271,137515,1,0,0:2:0:0:
192,221,137590,1,0,0:2:0:0:
225,184,137665,1,0,0:2:0:0:
274,172,137741,1,0,0:2:0:0:
323,160,137816,1,0,0:2:0:0:
356,123,137891,1,0,0:2:0:0:
363,73,137966,1,8,0:2:0:0:
341,28,138041,1,0,0:2:0:0:
297,3,138116,1,0,0:2:0:0:
247,7,138191,1,0,0:2:0:0:
206,38,138265,38,0,P|131:48|55:54,1,152.999995330811,6|0,0:2|2:2,0:2:0:0:
0,141,138565,2,0,P|105:125|212:117,1,203.999993774414,8|0,0:2|0:2,0:2:0:0:
323,160,139015,1,0,0:2:0:0:
453,17,139165,2,0,P|435:65|422:115,1,101.999996887207,10|0,0:2|0:2,0:2:0:0:
512,320,139465,2,0,P|464:302|414:289,1,101.999996887207,2|0,0:2|0:2,0:2:0:0:
102,344,139765,1,10,0:2:0:0:
102,344,139915,2,0,P|150:362|200:375,1,101.999996887207,2|0,0:2|0:2,0:2:0:0:
377,198,140215,1,2,0:2:0:0:
377,198,140365,2,0,P|329:180|279:167,1,101.999996887207,8|0,0:2|0:2,0:2:0:0:
0,146,140665,5,2,0:2:0:0:
2,196,140739,1,0,0:2:0:0:
31,237,140814,1,0,0:2:0:0:
78,256,140889,1,0,0:2:0:0:
127,246,140965,1,8,0:2:0:0:
164,212,141039,1,0,0:2:0:0:
177,163,141114,1,8,0:2:0:0:
215,129,141189,1,0,0:2:0:0:
266,125,141264,1,0,0:2:0:0:
308,152,141339,1,0,0:2:0:0:
328,199,141414,1,0,0:2:0:0:
316,249,141489,1,0,0:2:0:0:
278,282,141564,1,8,0:2:0:0:
227,286,141639,1,0,0:2:0:0:
182,257,141714,1,0,0:2:0:0:
164,212,141789,1,0,0:2:0:0:
177,163,141864,1,0,0:2:0:0:
227,170,141939,1,0,0:2:0:0:
277,177,142014,1,0,0:2:0:0:
327,184,142089,1,0,0:2:0:0:
377,191,142164,1,8,0:2:0:0:
368,140,142238,1,0,0:2:0:0:
344,96,142313,1,0,0:2:0:0:
308,60,142388,1,0,0:2:0:0:
262,38,142463,1,0,0:2:0:0:
212,31,142538,1,0,0:2:0:0:
162,40,142613,1,0,0:2:0:0:
117,64,142688,1,0,0:2:0:0:
82,101,142764,1,8,0:2:0:0:
60,147,142838,1,0,0:2:0:0:
54,197,142913,1,0,0:2:0:0:
64,247,142988,1,0,0:2:0:0:
88,292,143064,38,0,P|163:306|240:313,1,152.999995330811,6|0,0:2|2:2,0:2:0:0:
292,368,143364,2,0,P|398:358|503:337,1,203.999993774414,8|0,0:2|0:2,0:2:0:0:
512,256,143814,1,0,0:2:0:0:
256,192,143963,2,0,P|246:141|241:91,1,101.999996887207,10|0,0:2|0:2,0:2:0:0:
464,0,144263,2,0,P|459:50|449:100,1,101.999996887207,2|0,0:2|0:2,0:2:0:0:
321,285,144563,1,10,0:2:0:0:
321,285,144713,2,0,P|270:294|220:299,1,101.999996887207,2|0,0:2|0:2,0:2:0:0:
170,18,145013,1,2,0:2:0:0:
170,18,145163,2,0,P|220:8|270:3,1,101.999996887207,8|0,0:2|0:2,0:2:0:0:
462,62,145463,5,2,0:2:0:0:
497,97,145537,1,0,0:2:0:0:
512,145,145612,1,0,0:2:0:0:
504,195,145687,1,0,0:2:0:0:
473,235,145762,1,8,0:2:0:0:
428,257,145837,1,0,0:2:0:0:
377,255,145912,1,0,0:2:0:0:
333,230,145988,1,0,0:2:0:0:
304,190,146064,1,0,0:2:0:0:
260,165,146139,1,0,0:2:0:0:
209,163,146214,1,0,0:2:0:0:
164,185,146289,1,0,0:2:0:0:
133,225,146364,1,8,0:2:0:0:
125,275,146439,1,0,0:2:0:0:
140,323,146514,1,0,0:2:0:0:
175,358,146588,1,0,0:2:0:0:
225,368,146663,1,0,0:2:0:0:
273,353,146737,1,0,0:2:0:0:
309,318,146812,1,0,0:2:0:0:
322,269,146887,1,0,0:2:0:0:
311,220,146962,1,8,0:2:0:0:
277,182,147037,1,0,0:2:0:0:
230,166,147112,1,0,0:2:0:0:
180,174,147187,1,0,0:2:0:0:
140,205,147262,1,0,0:2:0:0:
90,214,147337,1,0,0:2:0:0:
43,197,147412,1,0,0:2:0:0:
9,159,147487,1,0,0:2:0:0:
0,110,147562,1,8,0:2:0:0:
12,62,147637,1,0,0:2:0:0:
50,28,147712,1,0,0:2:0:0:
99,16,147786,1,0,0:2:0:0:
149,24,147862,38,0,P|168:98|180:174,1,152.999995330811,6|0,0:2|2:2,0:2:0:0:
192,288,148162,2,0,P|216:188|250:92,1,203.999993774414,8|0,0:2|0:2,0:2:0:0:
320,32,148612,1,0,0:2:0:0:
512,160,148762,2,0,P|463:142|414:130,1,101.999996887207,10|0,0:2|0:2,0:2:0:0:
94,317,149062,2,0,P|142:300|192:288,1,101.999996887207,2|0,0:2|0:2,0:2:0:0:
416,384,149362,1,10,0:2:0:0:
416,384,149512,2,0,P|398:335|386:286,1,101.999996887207,2|0,0:2|0:2,0:2:0:0:
205,15,149811,1,2,0:2:0:0:
205,15,149961,2,0,P|192:64|175:112,1,101.999996887207,8|0,0:2|0:2,0:2:0:0:
19,352,150261,5,2,0:2:0:0:
4,303,150335,1,0,0:2:0:0:
11,253,150410,1,0,0:2:0:0:
37,209,150485,1,0,0:2:0:0:
79,181,150560,1,8,0:2:0:0:
129,171,150635,1,0,0:2:0:0:
178,182,150710,1,8,0:2:0:0:
218,212,150785,1,0,0:2:0:0:
243,257,150861,1,0,0:2:0:0:
250,307,150936,1,0,0:2:0:0:
277,349,151011,1,0,0:2:0:0:
320,376,151086,1,0,0:2:0:0:
370,384,151161,1,8,0:2:0:0:
419,372,151236,1,0,0:2:0:0:
458,339,151311,1,8,0:2:0:0:
483,295,151386,1,0,0:2:0:0:
485,243,151461,1,0,0:2:0:0:
460,237,151535,1,0,0:2:0:0:
435,231,151610,1,0,0:2:0:0:
410,225,151685,1,0,0:2:0:0:
385,220,151761,1,8,0:2:0:0:
360,214,151835,1,0,0:2:0:0:
335,208,151910,1,0,0:2:0:0:
311,202,151985,1,0,0:2:0:0:
286,197,152061,2,0,L|266:96,1,101.999996887207,4|0,0:2|0:2,0:2:0:0:
480,0,152361,2,0,L|460:100,1,101.999996887207,14|0,0:2|0:2,0:2:0:0:
224,352,152660,38,0,B|160:317|160:317|373:286,1,289.000005512238,6|10,0:2|0:2,0:2:0:0:
84,249,153110,2,0,P|62:202|38:157,1,101.999996887207,2|0,0:2|0:2,0:2:0:0:
260,1,153410,2,0,P|229:98|202:196,1,203.999993774414,2|0,0:2|0:2,0:2:0:0:
512,192,153860,1,2,0:2:0:0:
512,192,154010,2,0,P|463:176|414:163,1,101.999996887207,2|8,0:2|0:2,0:2:0:0:
252,383,154310,2,0,P|283:286|310:188,1,203.999993774414,2|0,0:2|0:2,0:2:0:0:
310,187,154685,1,0,0:2:0:0:
310,187,154760,1,8,0:2:0:0:
448,352,154910,1,2,0:2:0:0:
96,288,155060,6,0,P|65:191|38:93,1,203.999993774414,2|8,0:2|0:2,0:2:0:0:
320,0,155509,2,0,P|271:16|222:29,1,101.999996887207,2|0,0:2|0:2,0:2:0:0:
512,192,155809,2,0,P|463:176|414:163,1,101.999996887207,2|8,0:2|0:2,0:2:0:0:
224,352,156109,2,0,P|309:304|310:207,1,203.999993774414,2|0,0:2|0:2,0:2:0:0:
224,128,156559,1,8,0:2:0:0:
480,320,156709,1,0,0:2:0:0:
480,320,156784,1,0,0:2:0:0:
480,320,156859,1,0,0:2:0:0:
231,258,157009,1,0,0:2:0:0:
293,10,157159,1,10,0:2:0:0:
304,33,157234,1,0,0:2:0:0:
315,56,157309,1,0,0:2:0:0:
326,79,157384,1,0,0:2:0:0:
337,101,157459,38,0,L|137:63,1,203.999993774414,2|8,0:2|0:2,0:2:0:0:
480,320,157909,2,0,L|461:219,1,101.999996887207,2|0,0:2|0:2,0:2:0:0:
288,384,158208,2,0,L|250:183,1,203.999993774414,2|0,0:2|0:2,0:2:0:0:
0,160,158658,2,0,L|100:179,1,101.999996887207,2|0,0:2|0:2,0:2:0:0:
224,352,158958,1,10,0:2:0:0:
224,352,159108,2,0,L|424:314,1,203.999993774414,2|0,0:2|0:2,0:2:0:0:
424,313,159483,1,0,0:2:0:0:
424,313,159558,1,8,0:2:0:0:
512,384,159708,1,2,0:2:0:0:
340,235,159858,6,0,P|321:160|312:84,1,152.999995330811,2|0,0:2|2:2,0:2:0:0:
327,63,160158,1,10,0:2:0:0:
197,294,160308,2,0,P|147:281|97:274,1,101.999996887207,10|0,0:2|0:2,0:2:0:0:
434,356,160608,2,0,P|384:368|334:375,1,101.999996887207,2|8,0:2|0:2,0:2:0:0:
59,74,160908,2,0,L|97:274,1,203.999993774414,2|0,0:2|0:2,0:2:0:0:
32,384,161357,1,8,0:2:0:0:
177,164,161507,1,0,0:2:0:0:
197,294,161657,1,0,0:2:0:0:
12,254,161807,1,0,0:2:0:0:
300,212,161957,1,10,0:2:0:0:
308,172,162031,1,0,0:2:0:0:
316,132,162106,1,0,0:2:0:0:
325,92,162181,1,0,0:2:0:0:
333,52,162257,38,0,B|262:94|262:94|463:137,1,289.000005512238,6|10,0:2|0:2,0:2:0:0:
177,164,162707,2,0,P|164:114|148:66,1,101.999996887207,2|0,0:2|0:2,0:2:0:0:
319,384,163007,2,0,P|344:285|376:188,1,203.999993774414,2|0,0:2|0:2,0:2:0:0:
512,32,163457,2,0,L|412:56,1,101.999996887207,2|0,0:2|0:2,0:2:0:0:
77,188,163757,2,0,L|177:164,1,101.999996887207,10|0,0:2|0:2,0:2:0:0:
448,384,164056,2,0,L|423:284,1,101.999996887207,2|0,0:2|0:2,0:2:0:0:
423,284,164281,1,0,0:2:0:0:
423,284,164356,1,8,0:2:0:0:
512,192,164506,1,2,0:2:0:0:
304,368,164656,6,0,L|105:318,1,203.999993774414,2|10,0:2|0:2,0:2:0:0:
0,94,165106,2,0,L|25:194,1,101.999996887207,2|0,0:2|0:2,0:2:0:0:
210,0,165406,2,0,L|185:99,1,101.999996887207,2|8,0:2|0:2,0:2:0:0:
304,368,165706,2,0,L|353:169,1,203.999993774414,2|0,0:2|0:2,0:2:0:0:
353,169,166081,1,0,0:2:0:0:
353,169,166156,1,8,0:2:0:0:
229,235,166306,1,0,0:2:0:0:
476,102,166456,1,2,0:2:0:0:
420,292,166606,1,0,0:2:0:0:
286,47,166756,2,0,L|186:71,1,101.999996887207,10|0,0:2|0:2,0:2:0:0:
7,197,167055,37,6,0:2:0:0:
160,224,167205,1,0,0:2:0:0:
107,78,167355,1,8,0:2:0:0:
7,197,167505,1,0,0:2:0:0:
60,343,167655,1,0,0:2:0:0:
213,370,167805,1,0,0:2:0:0:
313,251,167955,1,8,0:2:0:0:
260,105,168105,1,0,0:2:0:0:
160,224,168255,6,0,L|141:324,1,101.999996887207,2|0,0:2|0:2,0:2:0:0:
16,384,168555,2,0,L|34:283,1,101.999996887207,8|0,0:2|0:2,0:2:0:0:
352,224,168855,2,0,L|370:324,1,101.999996887207,2|0,0:2|0:2,0:2:0:0:
496,384,169155,2,0,L|477:283,1,101.999996887207,8|0,0:2|0:2,0:2:0:0:
491,173,169455,37,2,0:2:0:0:
338,146,169605,1,0,0:2:0:0:
391,292,169755,1,8,0:2:0:0:
491,173,169905,1,0,0:2:0:0:
438,27,170055,1,0,0:2:0:0:
285,0,170205,1,0,0:2:0:0:
185,119,170354,1,8,0:2:0:0:
238,265,170505,1,0,0:2:0:0:
185,119,170654,6,0,L|79:134,1,101.999996887207,2|0,0:2|0:2,0:2:0:0:
238,265,170954,2,0,L|306:72,1,203.999993774414,8|0,0:2|0:2,0:2:0:0:
256,0,171404,1,0,0:2:0:0:
360,231,171554,2,0,L|460:216,1,101.999996887207,10|0,0:2|0:2,0:2:0:0:
224,384,171854,38,0,L|123:369,1,101.999996887207,6|0,0:2|0:2,0:2:0:0:
32,256,172154,1,8,0:2:0:0:
236,278,172304,1,0,0:2:0:0:
123,369,172453,1,0,0:2:0:0:
145,165,172603,1,0,0:2:0:0:
349,187,172753,1,8,0:2:0:0:
32,256,172903,1,8,0:2:0:0:
349,187,173053,6,0,L|372:87,1,101.999996887207,2|0,0:2|0:2,0:2:0:0:
480,32,173353,1,8,0:2:0:0:
246,113,173503,1,0,0:2:0:0:
434,276,173653,1,2,0:2:0:0:
246,113,173803,1,0,0:2:0:0:
12,194,173953,2,0,L|-11:293,1,101.999996887207,8|0,0:2|0:2,0:2:0:0:
192,368,174253,37,2,0:2:0:0:
320,256,174403,1,0,0:2:0:0:
160,160,174553,1,8,0:2:0:0:
256,0,174703,1,0,0:2:0:0:
256,0,174778,1,0,0:2:0:0:
256,0,174853,1,0,0:2:0:0:
128,160,175003,1,0,0:2:0:0:
352,256,175153,1,8,0:2:0:0:
160,384,175303,1,0,0:2:0:0:
301,131,175452,5,2,0:2:0:0:
337,118,175527,1,0,0:2:0:0:
373,106,175602,1,0,0:2:0:0:
409,94,175677,1,0,0:2:0:0:
445,84,175752,1,8,0:2:0:0:
512,0,175902,1,0,0:2:0:0:
429,188,176052,1,0,0:2:0:0:
308,23,176202,1,0,0:2:0:0:
225,211,176352,2,0,L|126:238,1,101.999996887207,10|0,0:2|0:2,0:2:0:0:
0,192,176652,37,6,0:2:0:0:
81,365,176802,1,0,0:2:0:0:
173,111,176952,1,8,0:2:0:0:
81,365,177102,1,0,0:2:0:0:
346,317,177252,1,0,0:2:0:0:
127,238,177402,1,0,0:2:0:0:
346,317,177552,1,8,0:2:0:0:
429,102,177702,1,0,0:2:0:0:
429,102,177777,1,0,0:2:0:0:
429,102,177852,1,2,0:2:0:0:
210,346,178002,5,0,0:2:0:0:
512,192,178152,1,8,0:2:0:0:
228,8,178301,1,0,0:2:0:0:
228,8,178376,1,0,0:2:0:0:
228,8,178451,1,2,0:2:0:0:
405,356,178601,37,0,0:2:0:0:
121,171,178750,1,8,0:2:0:0:
423,18,178900,1,0,0:2:0:0:
423,18,178976,1,0,0:2:0:0:
423,18,179051,2,0,L|378:251,1,237.999992736817,2|8,0:2|0:2,0:2:0:0:
256,384,179501,5,0,0:2:0:0:
256,384,179576,1,0,0:2:0:0:
256,384,179651,1,0,0:2:0:0:
256,32,179801,1,0,0:2:0:0:
480,192,179951,1,8,0:2:0:0:
32,192,180101,1,0,0:2:0:0:
384,128,180251,38,0,L|419:4,1,118.999996368408,2|0,0:2|0:2,0:2:0:0:
128,128,180551,6,0,L|93:4,1,118.999996368408,8|0,0:2|0:2,0:2:0:0:
256,384,180851,38,0,L|256:256,1,118.999996368408,0|0,0:2|0:2,0:2:0:0:
480,96,181150,5,10,0:2:0:0:
32,288,181300,1,10,0:2:0:0:
32,288,181375,1,0,0:0:0:0:
32,288,181450,1,0,0:0:0:0:
