osu file format v14

[General]
AudioFilename: audio.mp3
AudioLeadIn: 0
PreviewTime: 51521
Countdown: 0
SampleSet: Soft
StackLeniency: 0.4
Mode: 0
LetterboxInBreaks: 0
WidescreenStoryboard: 1

[Editor]
DistanceSpacing: 1
BeatDivisor: 4
GridSize: 32
TimelineZoom: 1.6

[Metadata]
Title:Breaking The Habit
TitleUnicode:Breaking The Habit
Artist:Linkin Park
ArtistUnicode:Linkin Park
Creator:Mordred
Version:384's Insane
Source:
Tags:english alternative rock meteora chester bennington pw384 384059043 lmt
BeatmapID:2825230
BeatmapSetID:1365175

[Difficulty]
HPDrainRate:5.5
CircleSize:4
OverallDifficulty:7.5
ApproachRate:8.8
SliderMultiplier:1.6
SliderTickRate:1

[Events]
//Background and Video events
0,0,"1.jpg",0,0
Video,3272,"BadHabit.avi"
//Break Periods
2,23306,31923
2,76086,78857
//Storyboard Layer 0 (Background)
//Storyboard Layer 1 (Fail)
//Storyboard Layer 2 (Pass)
//Storyboard Layer 3 (Foreground)
//Storyboard Layer 4 (Overlay)
//Storyboard Sound Samples

[TimingPoints]
3913,299.895036737142,4,2,0,40,1,0
13434,-100,4,2,0,5,0,0
13509,-100,4,2,0,60,0,0
13959,-100,4,2,0,60,0,0
23106,-133.333333333333,4,2,0,40,0,0
42299,-117.647058823529,4,2,0,50,0,0
51896,-83.3333333333333,4,1,0,70,0,1
52346,-100,4,1,0,70,0,1
56694,-83.3333333333333,4,1,0,70,0,1
57144,-100,4,1,0,70,0,1
61492,-83.3333333333333,4,1,0,70,0,1
61942,-100,4,1,0,70,0,1
75887,-100,4,1,0,70,0,0
79486,-100,4,1,0,40,0,0
80086,-100,4,1,0,50,0,0
80611,-100,4,1,0,5,0,0
80686,-100,4,1,0,70,0,0
80986,-100,4,2,0,60,0,0
108276,-100,4,1,0,50,0,0
109176,-100,4,1,0,70,0,0
109476,-83.3333333333333,4,1,0,70,0,1
109925,-100,4,1,0,70,0,1
111125,-83.3333333333333,4,1,0,70,0,1
112325,-100,4,1,0,70,0,1
114274,-83.3333333333333,4,1,0,70,0,1
114724,-100,4,1,0,70,0,1
115923,-83.3333333333333,4,1,0,70,0,1
117123,-100,4,1,0,70,0,1
119072,-83.3333333333333,4,1,0,70,0,1
119522,-100,4,1,0,70,0,1
120272,-83.3333333333333,4,1,0,70,0,1
121921,-100,4,1,0,70,0,1
123871,-83.3333333333333,4,1,0,70,0,1
133167,-100,4,1,0,70,0,0
133467,-81.9672131147541,4,1,0,70,0,1
134067,-100,4,1,0,70,0,1
134367,-100,4,1,0,70,0,1
134667,-83.3333333333333,4,1,0,70,0,1
139165,-100,4,1,0,70,0,1
139465,-83.3333333333333,4,1,0,70,0,1
142764,-100,4,1,0,70,0,1
143064,-83.3333333333333,4,1,0,70,0,1
143963,-100,4,1,0,70,0,1
144263,-83.3333333333333,4,1,0,70,0,1
148762,-100,4,1,0,70,0,1
149062,-83.3333333333333,4,1,0,70,0,1
152361,-100,4,1,0,70,0,0
152660,-83.3333333333333,4,1,0,70,0,1
153110,-100,4,1,0,70,0,1
154310,-83.3333333333333,4,1,0,70,0,1
155509,-100,4,1,0,70,0,1
157459,-83.3333333333333,4,1,0,70,0,1
157909,-100,4,1,0,70,0,1
159108,-83.3333333333333,4,1,0,70,0,1
160308,-100,4,1,0,70,0,1
162257,-83.3333333333333,4,1,0,70,0,1
162707,-100,4,1,0,70,0,1
163457,-74.0740740740741,4,1,0,70,0,1
164206,-83.3333333333333,4,1,0,70,0,1
165106,-100,4,1,0,70,0,1
167055,-83.3333333333333,4,1,0,70,0,1
176352,-83.3333333333333,4,1,0,70,0,0
176652,-83.3333333333333,4,1,0,80,0,1
181450,-83.3333333333333,4,1,0,70,0,0

[Colours]
Combo1 : 164,194,200
Combo2 : 215,157,158
Combo3 : 177,169,172
Combo4 : 115,115,115

[HitObjects]
330,169,13509,6,0,P|409:159|489:153,1,160,6|10,1:2|0:2,0:2:0:0:
481,73,13959,2,0,P|401:82|321:88,1,160,2|2,0:2|1:2,0:0:0:0:
256,135,14409,1,10,0:2:0:0:
256,135,14709,6,0,P|319:177|317:254,1,160,2|10,1:2|0:2,0:2:0:0:
311,333,15159,2,0,P|248:291|250:214,1,160,2|2,0:2|1:2,0:0:0:0:
263,55,15608,2,0,P|262:95|256:134,1,80,10|0,0:2|0:2,0:2:0:0:
182,169,15908,6,0,P|102:159|22:153,1,160,2|10,1:2|0:2,0:2:0:0:
31,73,16358,2,0,P|110:82|190:88,1,160,2|2,0:2|1:2,0:0:0:0:
256,135,16808,1,8,0:2:0:0:
96,352,17108,5,2,1:2:0:0:
256,288,17408,1,10,0:2:0:0:
264,296,17558,1,2,0:2:0:0:
408,360,17858,1,2,1:2:0:0:
416,352,18008,1,8,0:2:0:0:
416,352,18307,6,0,P|336:343|256:337,1,160,6|10,1:2|0:2,0:2:0:0:
260,256,18757,2,0,P|339:266|419:272,1,160,2|2,0:2|1:2,0:2:0:0:
485,317,19207,1,10,0:2:0:0:
485,316,19507,6,0,P|489:240|429:192,1,160,2|8,1:2|0:2,0:0:0:0:
407,114,19957,2,0,P|330:109|282:169,1,160,2|2,0:2|1:2,0:2:0:0:
338,314,20407,2,0,P|338:274|327:236,1,80,10|0,0:2|0:2,0:2:0:0:
246,244,20707,6,0,P|206:241|166:238,1,80,2|0,1:2|0:0,0:2:0:0:
92,205,21007,1,10,0:2:0:0:
70,333,21156,1,10,0:2:0:0:
70,333,21456,1,2,1:2:0:0:
5,285,21606,2,0,P|7:245|10:205,1,80,10|0,0:2|0:2,0:2:0:0:
36,42,21906,6,0,P|55:72|52:124,1,80,2|0,1:2|0:2,0:0:0:0:
154,124,22206,2,0,P|146:158|107:193,1,80,8|0,0:2|0:2,0:2:0:0:
179,265,22506,2,0,P|149:284|97:281,1,80,0|0,1:2|1:2,0:2:0:0:
97,383,22806,2,0,P|62:375|27:336,1,80,8|0,0:2|1:2,0:2:0:0:
33,231,23106,5,0,1:2:0:0:
90,204,32552,6,0,L|97:264,1,60.0000022888184,0|0,1:2|1:2,0:0:0:0:
97,264,33302,6,0,P|173:271|336:290,2,240.000009155274,2|0|2,0:2|0:2|0:2,0:2:0:0:
97,264,34952,1,0,1:2:0:0:
141,196,35102,1,0,1:2:0:0:
141,195,35401,6,0,P|247:229|246:341,1,240.000009155274,8|8,0:2|0:2,0:0:0:0:
246,342,36301,2,0,P|292:336|366:327,1,120.000004577637,2|8,0:2|0:2,0:0:0:0:
475,384,36751,2,0,P|400:342|400:256,1,180.000006866455,0|8,3:2|0:2,0:2:0:0:
435,163,37351,5,0,1:2:0:0:
479,231,37501,1,0,1:2:0:0:
479,231,37801,6,0,P|403:238|240:257,1,240.000009155274,8|8,0:2|0:2,0:0:0:0:
240,256,38700,2,0,P|231:198|230:133,1,120.000004577637,2|8,0:2|0:2,0:0:0:0:
310,127,39150,2,0,P|318:65|221:17,1,180.000006866455,0|8,3:2|0:2,0:2:0:0:
76,42,39750,5,0,1:2:0:0:
156,56,39900,1,0,1:2:0:0:
156,56,40200,5,8,0:2:0:0:
104,117,40350,2,0,P|101:187|101:242,1,120.000004577637,0|0,3:2|0:2,0:2:0:0:
149,301,40800,1,8,0:2:0:0:
149,301,41099,6,0,L|336:294,1,180.000006866455,2|0,0:2|0:2,0:0:0:0:
458,328,41699,5,4,1:3:0:0:
458,328,41849,1,4,1:3:0:0:
458,328,41999,1,4,1:3:0:0:
422,40,42299,5,0,1:2:0:0:
210,72,42599,1,8,0:2:0:0:
210,72,43199,1,8,0:2:0:0:
210,72,43799,1,8,0:2:0:0:
210,72,44398,1,8,0:2:0:0:
237,147,44548,1,0,0:2:0:0:
162,174,44698,5,0,1:2:0:0:
374,206,44998,1,8,0:2:0:0:
374,206,45598,1,8,0:2:0:0:
374,206,46198,1,8,0:2:0:0:
422,308,46498,5,2,0:2:0:0:
347,281,46648,1,0,1:2:0:0:
374,206,46797,1,8,0:2:0:0:
374,206,47097,6,0,P|377:126|379:61,1,136.000002593994,0|8,1:2|0:2,0:2:0:0:
328,9,47547,2,0,P|234:29|225:124,1,204.000003890991,0|8,3:2|0:2,0:2:0:0:
225,123,48297,2,0,L|152:132,1,68.0000012969971,2|0,0:2|0:2,0:2:0:0:
82,109,48597,2,0,L|73:182,1,68.0000012969971,8|0,0:2|0:2,0:0:0:0:
73,176,49047,5,0,1:2:0:0:
29,56,49197,1,8,0:2:0:0:
154,77,49347,1,0,1:2:0:0:
141,168,49497,6,0,L|68:177,1,68.0000012969971,0|0,1:2|0:2,0:2:0:0:
19,232,49796,1,8,0:2:0:0:
93,256,49946,2,0,L|227:239,1,136.000002593994,0|0,3:2|1:2,0:2:0:0:
297,346,50396,2,0,P|300:312|295:279,1,68.0000012969971,8|0,0:2|0:2,0:2:0:0:
254,165,50696,6,0,L|262:29,1,136.000002593994,0|8,1:2|0:2,0:0:0:0:
353,121,51896,6,0,P|267:148|255:238,1,191.999994140625,6|10,1:2|0:2,0:2:0:0:
223,330,52346,2,0,P|305:322|387:317,1,160,2|2,0:2|1:2,0:2:0:0:
469,357,52795,1,8,0:2:0:0:
469,357,53095,6,0,P|471:317|477:277,1,80,2|2,1:2|0:2,0:0:0:0:
500,183,53395,1,8,0:2:0:0:
500,183,53545,2,0,P|418:191|336:196,1,160,2|0,0:2|1:2,0:2:0:0:
256,146,53995,1,8,0:2:0:0:
256,146,54145,1,2,1:2:0:0:
171,195,54295,6,0,P|91:190|12:183,1,160,2|8,1:2|0:2,0:2:0:0:
34,277,54745,2,0,P|40:317|43:357,1,80,2|0,0:2|0:2,0:2:0:0:
139,357,55045,2,0,P|178:359|218:365,2,80,2|8|2,1:2|0:2|0:2,0:2:0:0:
43,357,55494,5,0,0:0:0:0:
43,357,55794,1,8,0:2:0:0:
139,357,55944,2,0,L|129:184,1,160,0|0,0:0|1:2,0:0:0:0:
159,121,56394,1,10,0:2:0:0:
159,121,56694,6,0,P|245:148|257:238,1,191.999994140625,2|10,0:2|0:2,0:2:0:0:
289,330,57144,2,0,P|207:322|125:317,1,160,2|2,0:2|0:2,0:2:0:0:
43,357,57594,1,8,0:2:0:0:
43,357,57894,6,0,P|40:317|34:277,1,80,2|0,0:2|0:2,0:2:0:0:
12,183,58194,1,10,0:2:0:0:
12,183,58343,2,0,P|94:191|176:196,1,160,2|0,0:2|0:2,0:2:0:0:
256,146,58793,1,8,0:2:0:0:
256,146,58943,1,2,0:2:0:0:
340,195,59093,6,0,P|420:190|500:183,1,160,2|10,0:2|0:2,0:2:0:0:
477,277,59543,2,0,P|471:317|469:357,1,80,10|0,0:2|0:2,0:2:0:0:
373,357,59843,2,0,P|333:359|293:365,2,80,2|8|2,0:2|0:2|0:2,0:2:0:0:
469,357,60293,5,0,0:0:0:0:
469,357,60593,1,8,0:2:0:0:
349,282,60743,1,0,0:2:0:0:
403,130,60893,2,0,P|408:169|411:209,2,80,0|0|10,0:2|0:2|0:2,0:0:0:0:
403,130,61492,6,0,P|309:118|207:106,1,191.999994140625,6|10,0:2|0:2,0:2:0:0:
183,14,61942,2,0,P|124:64|122:142,1,160,2|2,0:2|0:2,0:2:0:0:
196,203,62392,2,0,P|203:242|209:281,1,80,8|0,0:2|0:2,0:0:0:0:
166,368,62692,6,0,P|84:356|7:348,2,160,2|10|2,0:2|0:2|0:2,0:2:0:0:
121,282,63442,1,0,0:2:0:0:
196,203,63592,2,0,P|203:242|209:281,1,80,8|2,0:2|0:2,0:0:0:0:
297,322,63892,6,0,P|358:324|402:235,1,160,2|8,0:2|0:2,0:2:0:0:
321,197,64341,2,0,P|326:122|328:38,1,160,2|2,0:2|0:2,0:2:0:0:
241,80,64791,2,0,L|141:71,1,80,8|2,0:2|0:2,0:0:0:0:
78,123,65091,6,0,P|73:198|71:282,1,160,0|8,0:0|0:2,0:0:0:0:
120,365,65541,1,0,0:2:0:0:
212,254,65691,5,2,0:2:0:0:
212,254,65841,1,0,0:2:0:0:
212,254,65991,1,10,0:2:0:0:
212,254,66291,6,0,L|378:265,1,160,6|8,0:2|0:2,0:0:0:0:
439,333,66741,1,0,0:2:0:0:
307,374,66890,2,0,B|291:337|291:337|304:296,1,80,0|0,0:2|0:2,0:0:0:0:
397,179,67190,1,8,0:2:0:0:
397,179,67490,6,0,L|231:190,1,160,2|8,0:2|0:2,0:2:0:0:
170,258,67940,1,0,0:2:0:0:
302,299,68090,2,0,B|318:262|318:262|305:221,1,80,2|0,0:2|0:2,0:2:0:0:
212,104,68390,1,8,0:2:0:0:
212,104,68690,6,0,L|378:115,1,160,2|8,0:2|0:2,0:0:0:0:
439,183,69140,1,8,0:2:0:0:
307,224,69290,2,0,B|291:187|291:187|304:146,1,80,0|0,0:2|0:2,0:0:0:0:
397,29,69590,1,8,0:2:0:0:
397,29,69889,6,0,L|231:40,1,160,2|8,0:2|0:2,0:2:0:0:
186,122,70339,1,0,0:0:0:0:
351,171,70489,5,0,0:2:0:0:
351,171,70639,1,0,0:2:0:0:
300,254,70789,1,8,0:2:0:0:
300,254,71089,6,0,L|134:265,1,160,6|8,0:2|0:2,0:0:0:0:
73,333,71539,1,0,0:2:0:0:
205,374,71689,2,0,B|221:337|221:337|208:296,1,80,0|0,0:2|0:2,0:0:0:0:
115,179,71989,1,8,0:2:0:0:
115,179,72289,6,0,L|281:190,1,160,2|8,0:2|0:2,0:2:0:0:
342,258,72738,1,0,0:2:0:0:
210,299,72888,2,0,B|194:262|194:262|207:221,1,80,2|0,0:2|0:2,0:2:0:0:
300,104,73188,1,8,0:2:0:0:
300,104,73488,6,0,L|134:115,1,160,2|8,0:2|0:2,0:0:0:0:
73,183,73938,1,0,0:2:0:0:
205,224,74088,2,0,B|221:187|221:187|208:146,1,80,0|0,0:2|0:2,0:0:0:0:
115,29,74388,1,8,0:2:0:0:
115,29,74688,6,0,L|281:40,1,160,2|8,0:2|0:2,0:2:0:0:
326,122,75138,1,0,0:0:0:0:
160,171,75288,5,0,0:2:0:0:
160,171,75437,1,0,0:2:0:0:
212,254,75587,5,8,3:2:0:0:
84,330,75737,2,0,L|164:336,1,80,0|0,3:2|3:2,0:0:0:0:
256,192,79486,12,6,80686,1:2:0:0:
80,128,81285,5,2,0:2:0:0:
64,236,81885,1,2,1:2:0:0:
172,252,82485,1,2,0:2:0:0:
188,144,83085,1,2,1:2:0:0:
64,236,83385,6,2,B|67:236|67:236|72:240|72:240|75:235|75:235|79:235|79:235|84:239|84:239|87:234|87:234|91:234|91:234|96:238|96:238|99:233|99:233|103:233|103:233|108:237|108:237|111:232|111:232|115:232|115:232|120:236|120:236|123:231|123:231|127:231|127:231|132:235|132:235|135:230|135:230|139:230|139:230|144:234|144:234|147:229|147:229|151:229|151:229|155:232|155:232|159:228|159:228|163:228|163:228|167:231|167:231|171:227|171:227|175:227|175:227|179:230|179:230|183:226|183:226|187:226|187:226|191:229|191:229|195:225|195:225|199:225|199:225|203:228|203:228|207:224|207:224|211:224|211:224|215:227|215:227|219:223|219:223|223:223|223:223|227:226|227:226|231:222|231:222|235:222|235:222|239:225|239:225|243:221|243:221|254:220,1,240,8|0,0:2|1:2,0:1:0:0:
331,276,83984,2,0,B|343:314|343:314|325:360,1,80,10|0,0:2|0:2,0:2:0:0:
168,311,84284,6,0,L|184:151,1,160,2|10,1:2|0:2,0:2:0:0:
144,68,84734,1,2,0:2:0:0:
144,68,85034,1,0,1:2:0:0:
76,130,85184,2,0,L|168:148,1,80,10|2,0:2|1:2,0:0:0:0:
259,254,85484,1,0,1:2:0:0:
259,254,85784,6,0,P|236:212|371:140,1,240,8|0,0:2|1:2,0:0:0:0:
508,161,86384,2,0,P|469:172|430:178,1,80,10|0,0:2|0:2,0:2:0:0:
316,195,86684,6,0,P|233:185|149:179,1,160,2|10,1:2|0:2,0:2:0:0:
44,215,87133,1,2,0:2:0:0:
44,215,87433,1,0,1:2:0:0:
83,131,87583,2,0,P|144:146|152:243,2,160,10|2|10,0:2|1:2|0:2,0:2:0:0:
44,215,88333,6,0,P|68:286|81:376,1,160,2|0,0:2|1:2,0:2:0:0:
160,322,88783,2,0,P|215:308|262:305,1,80,8|0,0:2|0:2,0:2:0:0:
410,342,89083,5,0,1:2:0:0:
295,224,89383,1,8,0:2:0:0:
160,322,89682,2,0,P|215:308|262:305,1,80,0|0,1:2|1:2,0:0:0:0:
410,342,89982,6,2,B|410:339|410:339|406:334|406:334|411:331|411:331|411:327|411:327|407:322|407:322|412:319|412:319|412:315|412:315|408:310|408:310|413:307|413:307|413:303|413:303|409:298|409:298|414:295|414:295|414:291|414:291|410:286|410:286|415:283|415:283|415:279|415:279|411:274|411:274|416:271|416:271|416:267|416:267|412:262|412:262|417:259|417:259|417:255|417:255|414:251|414:251|418:247|418:247|418:243|418:243|415:239|415:239|419:235|419:235|419:231|419:231|416:227|416:227|420:223|420:223|420:219,1,160,8|0,0:2|1:2,0:1:0:0:
420,219,90582,5,10,0:2:0:0:
424,223,90657,1,10,0:2:0:0:
428,227,90732,1,10,0:2:0:0:
432,231,90807,1,10,0:2:0:0:
436,235,90882,6,0,P|437:187|428:152,1,80,10|0,0:2|1:2,0:0:0:0:
354,125,91182,1,8,0:2:0:0:
354,125,91482,6,0,L|173:137,1,160,2|8,1:2|0:2,0:2:0:0:
118,103,91932,1,0,0:2:0:0:
267,73,92082,2,0,P|276:111|277:151,1,80,2|0,1:2|1:2,0:0:0:0:
367,293,92382,2,0,P|416:234|493:240,1,160,8|2,0:2|1:2,0:2:0:0:
494,240,92981,6,0,L|255:220,1,240,8|0,0:2|1:2,0:0:0:0:
177,276,93581,2,0,B|165:314|165:314|183:360,1,80,10|0,0:2|0:2,0:2:0:0:
340,311,93881,6,0,L|323:151,1,160,2|8,1:2|0:2,0:2:0:0:
364,68,94331,1,2,0:2:0:0:
364,68,94631,1,0,1:2:0:0:
432,130,94781,2,0,L|340:148,1,80,10|2,0:2|1:2,0:0:0:0:
249,254,95081,1,0,1:2:0:0:
249,254,95380,6,0,P|272:212|137:140,1,240,8|0,0:2|1:2,0:0:0:0:
0,161,95980,2,0,P|38:172|77:178,1,80,10|0,0:2|0:2,0:2:0:0:
192,195,96280,6,0,P|275:185|359:179,1,160,2|10,1:2|0:2,0:2:0:0:
464,223,96730,1,2,0:2:0:0:
464,223,97030,1,0,1:2:0:0:
433,131,97180,2,0,P|372:146|364:243,2,160,10|2|10,0:2|1:2|0:2,0:2:0:0:
464,223,97930,6,0,P|440:294|427:384,1,160,10|0,0:2|1:2,0:2:0:0:
349,331,98379,1,8,0:2:0:0:
349,331,98679,6,0,P|294:317|247:314,1,80,0|0,1:2|1:2,0:0:0:0:
386,240,98979,2,0,P|424:228|464:223,1,80,8|0,0:2|0:2,0:2:0:0:
327,152,99279,5,4,1:3:0:0:
327,152,99429,1,4,1:3:0:0:
364,58,99579,1,4,1:3:0:0:
152,90,99879,5,2,1:2:0:0:
364,58,100179,1,10,0:2:0:0:
428,105,100329,1,2,0:2:0:0:
428,105,100629,1,0,1:2:0:0:
364,58,100779,1,10,0:2:0:0:
152,90,101078,5,2,1:2:0:0:
179,165,101228,1,0,0:0:0:0:
104,192,101378,1,10,0:2:0:0:
152,90,101528,5,2,0:2:0:0:
152,90,101828,1,0,1:2:0:0:
77,117,101978,1,8,0:2:0:0:
104,192,102128,1,2,1:2:0:0:
179,165,102278,6,0,P|183:199|181:249,1,80,2|2,1:2|0:2,0:0:0:0:
125,302,102578,1,8,0:2:0:0:
49,276,102728,1,2,0:2:0:0:
49,276,103028,1,2,1:2:0:0:
125,302,103178,1,8,0:2:0:0:
316,224,103478,5,2,1:2:0:0:
125,302,103778,1,8,0:2:0:0:
364,326,104077,5,0,1:2:0:0:
289,299,104227,1,0,1:2:0:0:
316,224,104377,1,10,0:2:0:0:
316,224,104677,6,0,P|318:144|321:64,1,160,2|8,1:2|0:2,0:2:0:0:
258,12,105127,2,0,P|184:33|158:106,1,160,2|2,0:2|1:2,0:2:0:0:
207,170,105577,2,0,P|215:211|217:251,1,80,10|0,0:2|0:2,0:2:0:0:
169,314,105877,6,0,P|128:322|88:324,1,80,2|2,1:2|1:2,0:0:0:0:
17,288,106177,1,8,0:2:0:0:
73,176,106327,1,2,0:2:0:0:
73,176,106627,5,0,1:2:0:0:
29,56,106776,1,8,0:2:0:0:
154,77,106926,1,2,1:2:0:0:
152,166,107076,6,0,L|73:176,1,80,2|0,1:2|0:0,0:2:0:0:
8,216,107376,1,8,0:2:0:0:
118,249,107526,2,0,L|276:229,1,160,2|0,0:2|1:2,0:2:0:0:
419,244,107976,2,0,P|428:282|423:322,1,80,10|0,0:2|0:2,0:2:0:0:
344,280,108276,6,0,L|352:120,3,160,2|8|8|2,1:2|2:2|2:2|1:2,2:2:0:0:
352,121,109476,6,0,P|266:148|254:238,1,191.999994140625,6|10,0:2|0:2,0:2:0:0:
324,279,109925,1,2,0:2:0:0:
324,279,110225,1,2,0:2:0:0:
178,251,110375,2,0,P|184:293|186:346,1,80,8|0,0:2|0:2,0:0:0:0:
332,358,110675,6,0,P|326:316|324:263,1,80,2|2,0:2|0:2,0:0:0:0:
338,118,110975,1,8,0:2:0:0:
455,191,111125,2,0,L|252:207,1,191.999994140625,2|0,0:2|0:2,0:2:0:0:
62,162,111575,1,8,0:2:0:0:
62,162,111725,1,2,0:2:0:0:
182,264,111875,6,0,P|209:193|134:120,1,191.999994140625,2|10,0:2|0:2,0:2:0:0:
12,240,112325,2,0,P|51:243|91:249,1,80,2|0,0:2|0:2,0:2:0:0:
239,327,112624,2,0,P|278:320|318:317,2,80,2|8|2,0:2|0:2|0:2,0:2:0:0:
172,372,113074,5,0,0:0:0:0:
172,372,113374,1,8,0:2:0:0:
28,314,113524,1,0,0:0:0:0:
100,346,113674,6,0,P|105:306|92:269,1,80,0|0,0:2|0:2,0:0:0:0:
25,141,113974,2,0,L|150:134,1,120,10|0,0:2|2:2,0:0:0:0:
158,121,114274,6,0,P|244:148|256:238,1,191.999994140625,2|10,0:2|0:2,0:2:0:0:
188,279,114724,1,2,0:2:0:0:
188,279,115024,1,2,0:2:0:0:
334,251,115174,2,0,P|328:293|326:346,1,80,8|0,0:2|0:2,0:0:0:0:
180,358,115473,6,0,P|186:316|188:263,1,80,2|0,0:2|0:2,0:2:0:0:
174,118,115773,1,10,0:2:0:0:
57,191,115923,2,0,L|260:207,1,191.999994140625,2|0,0:2|0:2,0:2:0:0:
450,162,116373,1,8,0:2:0:0:
450,162,116523,1,2,0:2:0:0:
330,264,116673,6,0,P|303:193|378:120,1,191.999994140625,2|10,0:2|0:2,0:2:0:0:
500,240,117123,2,0,P|460:243|420:249,1,80,10|0,0:2|0:2,0:2:0:0:
273,327,117423,2,0,P|233:320|193:317,2,80,2|8|2,0:2|0:2|0:2,0:2:0:0:
340,372,117873,5,0,0:0:0:0:
340,372,118173,1,8,0:2:0:0:
484,314,118322,1,0,0:2:0:0:
401,246,118472,5,0,0:2:0:0:
401,246,118622,1,0,0:2:0:0:
472,66,118772,2,0,L|465:191,1,120,10|0,0:2|2:2,0:0:0:0:
452,199,119072,6,0,P|373:205|334:109,1,191.999994140625,6|10,0:2|0:2,0:2:0:0:
390,56,119522,1,2,0:2:0:0:
390,56,119822,1,2,0:2:0:0:
253,26,119972,2,0,P|257:70|256:121,1,80,8|0,0:2|0:2,0:0:0:0:
194,187,120272,6,0,L|2:202,2,191.999994140625,2|10|2,0:2|0:2|0:2,0:2:0:0:
401,256,121022,1,0,0:2:0:0:
401,256,121096,1,0,0:2:0:0:
401,256,121171,1,8,0:2:0:0:
330,293,121321,1,2,0:2:0:0:
272,237,121471,6,0,P|273:175|275:90,1,143.999995605469,2|0,0:2|2:0,0:2:0:0:
288,79,121771,1,10,0:2:0:0:
434,140,121921,2,0,P|395:143|355:149,1,80,2|0,0:2|0:2,0:2:0:0:
194,188,122221,2,0,P|155:181|115:178,2,80,2|8|2,0:2|0:2|0:2,0:2:0:0:
330,293,122671,5,0,0:0:0:0:
401,256,122821,1,0,0:2:0:0:
401,256,122896,1,0,0:0:0:0:
401,256,122971,1,8,0:2:0:0:
458,312,123121,1,0,0:2:0:0:
423,384,123271,5,2,0:2:0:0:
343,372,123421,1,0,0:2:0:0:
330,293,123571,1,10,0:2:0:0:
350,312,123871,6,0,L|205:328,1,143.999995605469,6|0,0:2|2:0,0:0:0:0:
191,318,124170,1,8,0:2:0:0:
244,169,124320,1,0,0:2:0:0:
244,169,124470,2,0,B|283:198|283:198|270:253,1,95.9999970703126,0|0,0:2|0:2,0:0:0:0:
142,384,124770,2,0,B|103:355|103:355|116:300,1,95.9999970703126,8|0,0:2|0:2,0:0:0:0:
129,228,125070,6,0,L|274:244,1,143.999995605469,2|0,0:2|2:0,0:2:0:0:
288,234,125370,1,8,0:2:0:0:
235,85,125520,1,0,0:2:0:0:
235,85,125670,2,0,B|196:114|196:114|209:169,1,95.9999970703126,2|0,0:2|0:2,0:2:0:0:
337,300,125970,2,0,B|376:271|376:271|363:216,1,95.9999970703126,8|0,0:2|0:2,0:2:0:0:
350,144,126270,6,0,L|205:160,1,143.999995605469,2|0,0:2|2:0,0:0:0:0:
191,150,126570,1,8,0:2:0:0:
244,1,126720,1,8,0:2:0:0:
244,1,126869,2,0,B|283:30|283:30|270:85,1,95.9999970703126,0|0,0:2|0:2,0:0:0:0:
142,216,127169,2,0,B|103:187|103:187|116:132,1,95.9999970703126,8|0,0:2|0:2,0:0:0:0:
128,60,127469,5,2,0:2:0:0:
196,64,127619,1,0,0:2:0:0:
200,68,127694,1,0,0:0:0:0:
204,72,127769,1,8,0:2:0:0:
272,76,127919,1,0,0:0:0:0:
344,66,128069,5,0,0:2:0:0:
417,74,128219,1,0,0:2:0:0:
488,82,128369,1,10,0:2:0:0:
488,82,128669,6,0,L|343:98,1,143.999995605469,6|0,0:2|2:0,0:0:0:0:
329,88,128969,1,8,0:2:0:0:
395,242,129119,1,0,0:2:0:0:
395,242,129269,2,0,B|434:213|434:213|421:158,1,95.9999970703126,0|0,0:2|0:2,0:0:0:0:
284,2,129569,2,0,B|245:31|245:31|258:86,1,95.9999970703126,8|0,0:2|0:2,0:0:0:0:
280,152,129868,6,0,L|425:168,1,143.999995605469,2|0,0:2|2:0,0:2:0:0:
439,158,130168,1,8,0:2:0:0:
373,312,130318,1,0,0:2:0:0:
373,312,130468,2,0,B|334:283|334:283|347:228,1,95.9999970703126,2|0,0:2|0:2,0:2:0:0:
484,72,130768,2,0,B|523:101|523:101|510:156,1,95.9999970703126,8|0,0:2|0:2,0:2:0:0:
488,221,131068,6,0,L|343:237,1,143.999995605469,2|0,0:2|2:0,0:0:0:0:
329,227,131368,1,8,0:2:0:0:
395,381,131518,1,0,0:2:0:0:
395,381,131668,2,0,B|434:352|434:352|421:297,1,95.9999970703126,0|0,0:2|0:2,0:0:0:0:
284,141,131968,2,0,B|245:170|245:170|258:225,1,95.9999970703126,8|8,0:2|0:2,0:0:0:0:
316,377,132268,5,6,0:2:0:0:
256,32,132567,1,12,0:2:0:0:
196,377,132867,5,12,0:2:0:0:
256,192,133017,1,0,0:2:0:0:
316,377,133167,1,12,0:2:0:0:
159,262,133317,1,8,0:2:0:0:
352,262,133467,6,0,P|262:273|158:262,1,195.199991958008,6|8,0:2|0:2,0:2:0:0:
111,196,133917,1,0,0:0:0:0:
111,196,134217,1,0,0:2:0:0:
92,384,134367,2,0,P|57:337|70:280,1,120,10|0,0:2|2:0,0:2:0:0:
87,270,134667,6,0,P|84:198|80:126,1,143.999995605469,2|0,0:2|2:0,0:2:0:0:
64,116,134967,1,10,0:2:0:0:
176,20,135117,6,0,P|178:91|182:163,1,143.999995605469,2|0,0:2|2:0,0:2:0:0:
199,174,135416,1,2,0:2:0:0:
272,71,135566,6,0,P|340:59|398:117,1,143.999995605469,8|0,0:2|2:0,0:2:0:0:
398,126,135866,1,2,0:2:0:0:
398,126,136166,6,0,P|264:146|100:175,1,287.999991210938,8|0,0:2|0:2,0:0:0:0:
29,42,136766,1,8,0:2:0:0:
27,61,136841,1,8,0:2:0:0:
25,80,136916,1,8,0:2:0:0:
23,99,136991,1,8,0:2:0:0:
21,118,137066,1,0,0:2:0:0:
21,118,137366,6,0,P|155:138|319:167,1,287.999991210938,8|0,0:2|0:2,0:0:0:0:
441,280,137966,2,0,P|441:196|485:137,1,143.999995605469,8|0,0:2|2:0,0:0:0:0:
500,124,138265,6,0,P|458:70|342:87,1,191.999994140625,6|8,0:2|0:2,0:0:0:0:
401,196,138715,1,0,0:0:0:0:
401,196,139015,1,0,0:2:0:0:
420,384,139165,2,0,P|454:337|441:280,1,120,10|0,0:2|2:0,0:2:0:0:
425,270,139465,6,0,P|427:198|431:126,1,143.999995605469,2|0,0:2|2:0,0:2:0:0:
448,116,139765,1,10,0:2:0:0:
336,20,139915,6,0,P|333:91|329:163,1,143.999995605469,2|0,0:2|2:0,0:2:0:0:
313,174,140215,1,2,0:2:0:0:
255,358,140365,6,0,P|209:305|221:236,1,143.999995605469,8|0,0:2|2:0,0:2:0:0:
236,223,140665,1,2,0:2:0:0:
236,223,140965,5,8,0:2:0:0:
132,344,141114,2,0,P|227:331|322:324,1,191.999994140625,8|0,0:2|0:2,0:0:0:0:
456,346,141564,1,8,0:2:0:0:
383,377,141714,1,0,0:2:0:0:
323,325,141864,1,0,0:2:0:0:
323,325,142164,5,8,0:2:0:0:
434,176,142314,1,0,0:2:0:0:
376,121,142464,5,0,0:2:0:0:
376,121,142539,1,0,0:2:0:0:
376,121,142614,1,0,0:2:0:0:
303,247,142764,2,0,P|343:241|383:238,1,80,8|0,0:2|0:2,0:0:0:0:
455,134,143064,6,0,B|474:264|474:264|434:309,1,191.999994140625,6|8,0:2|0:2,0:2:0:0:
383,238,143514,1,0,0:0:0:0:
383,238,143814,1,0,0:2:0:0:
373,364,143963,2,0,B|354:331|354:331|292:313|292:313|268:328,1,120,10|0,0:2|2:0,0:2:0:0:
254,341,144263,6,0,L|100:353,1,143.999995605469,2|0,0:2|2:0,0:2:0:0:
94,341,144563,1,10,0:2:0:0:
0,256,144713,6,0,L|154:244,1,143.999995605469,2|0,0:2|2:0,0:2:0:0:
160,256,145013,1,2,0:2:0:0:
196,161,145163,6,0,B|221:129|221:129|216:66|216:66|182:43,1,143.999995605469,8|0,0:2|2:0,0:2:0:0:
164,38,145463,1,2,0:2:0:0:
164,38,145763,6,0,B|167:38|167:38|172:34|172:34|175:39|175:39|179:39|179:39|184:35|184:35|187:40|187:40|191:40|191:40|196:36|196:36|199:41|199:41|203:41|203:41|208:37|208:37|211:42|211:42|215:42|215:42|220:38|220:38|223:43|223:43|227:43|227:43|232:39|232:39|235:44|235:44|239:44|239:44|244:40|244:40|247:45|247:45|251:45|251:45|255:42|255:42|259:46|259:46|263:46|263:46|267:43|267:43|271:47|271:47|275:47|275:47|279:44|279:44|283:48|283:48|287:48|287:48|291:45|291:45|295:49|295:49|299:49|299:49|303:46|303:46|307:50|307:50|311:50|311:50|315:47|315:47|319:51|319:51|323:51|323:51|327:48|327:48|331:52|331:52|335:52|335:52|339:49|339:49|343:53|343:53|347:54|347:54|351:50|351:50|355:54|355:54|359:55|359:55|363:51|363:51|367:55|367:55|371:56|371:56|375:52|375:52|379:56|379:56|383:57|383:57|387:53|387:53|395:54,1,287.999991210938,8|0,0:2|0:2,0:0:0:0:
484,96,146363,2,0,B|502:66|502:66|490:6,1,95.9999970703126,8|0,0:2|0:2,0:0:0:0:
407,132,146663,6,0,B|264:120,1,143.999995605469,0|0,0:2|2:2,0:0:0:0:
244,128,146962,1,8,0:2:0:0:
301,204,147112,1,0,0:2:0:0:
199,307,147262,6,0,B|189:257|189:257|205:214,1,95.9999970703126,0|0,0:2|0:2,0:0:0:0:
31,194,147562,2,0,B|58:151|58:151|40:53,1,143.999995605469,8|0,0:2|2:0,0:0:0:0:
5,34,147862,6,0,B|196:51,1,191.999994140625,6|8,0:2|0:2,0:0:0:0:
369,120,148312,1,0,0:0:0:0:
369,120,148612,1,0,0:2:0:0:
309,174,148762,2,0,B|282:141|282:141|300:65,1,120,10|0,0:2|2:0,0:2:0:0:
316,51,149062,6,0,B|459:38,1,143.999995605469,2|0,0:2|2:0,0:2:0:0:
479,45,149362,1,10,0:2:0:0:
387,196,149512,6,0,B|374:339,1,143.999995605469,2|0,0:2|2:0,0:2:0:0:
381,359,149811,1,2,0:2:0:0:
509,234,149961,6,0,B|485:200|485:200|428:183|428:183|381:197,1,143.999995605469,8|0,0:2|2:0,0:2:0:0:
372,210,150261,6,0,L|174:229,1,191.999994140625,2|8,0:2|0:2,0:0:0:0:
232,61,150711,1,8,0:2:0:0:
232,61,150861,2,0,B|253:103|253:103|243:153,1,95.9999970703126,0|0,0:2|0:2,0:0:0:0:
110,285,151161,2,0,B|89:243|89:243|99:193,1,95.9999970703126,8|8,0:2|0:2,0:0:0:0:
41,79,151461,6,0,L|239:60,3,191.999994140625,0|8|4|14,0:2|0:2|0:2|0:2,0:0:0:0:
314,203,152510,1,0,0:2:0:0:
391,175,152660,6,0,P|343:125|270:132,1,143.999995605469,6|0,0:2|2:0,0:2:0:0:
258,145,152960,1,10,0:2:0:0:
236,320,153110,1,2,0:2:0:0:
236,320,153410,1,2,0:2:0:0:
83,270,153560,2,0,P|122:265|162:264,1,80,8|0,0:2|0:2,0:0:0:0:
324,279,153860,5,2,0:2:0:0:
338,118,154010,1,2,0:2:0:0:
338,118,154085,1,0,0:0:0:0:
338,118,154160,1,8,0:2:0:0:
439,190,154310,2,0,L|295:200,1,143.999995605469,2|0,0:2|2:0,0:2:0:0:
259,204,154610,1,0,0:2:0:0:
192,45,154760,1,8,0:2:0:0:
62,162,154910,1,2,0:2:0:0:
182,263,155060,6,0,P|209:200|177:138,1,143.999995605469,2|0,0:2|2:0,0:2:0:0:
146,121,155359,1,8,0:2:0:0:
12,240,155509,2,0,P|51:243|91:249,1,80,2|0,0:2|0:2,0:2:0:0:
237,320,155809,1,2,0:2:0:0:
285,177,155959,2,0,P|292:216|295:256,1,80,8|2,0:2|0:2,0:0:0:0:
179,384,156259,5,0,0:0:0:0:
35,326,156409,1,0,0:2:0:0:
35,326,156484,1,0,0:0:0:0:
35,326,156559,1,8,0:2:0:0:
93,170,156709,1,0,0:2:0:0:
107,358,156859,6,0,P|112:318|99:281,1,80,0|0,0:2|0:2,0:0:0:0:
37,126,157159,2,0,P|91:132|165:141,1,120,10|0,0:2|2:2,0:0:0:0:
172,155,157459,6,0,P|220:105|293:112,1,143.999995605469,2|0,0:2|2:0,0:2:0:0:
305,125,157759,1,8,0:2:0:0:
276,320,157909,1,2,0:2:0:0:
276,320,158208,1,2,0:2:0:0:
429,270,158358,2,0,P|390:265|350:264,1,80,8|0,0:2|0:2,0:0:0:0:
188,279,158658,5,2,0:2:0:0:
174,118,158808,1,0,0:2:0:0:
174,118,158883,1,0,0:0:0:0:
174,118,158958,1,10,0:2:0:0:
73,190,159108,2,0,L|217:200,1,143.999995605469,2|0,0:2|2:0,0:2:0:0:
253,204,159408,1,0,0:2:0:0:
320,45,159558,1,8,0:2:0:0:
450,162,159708,1,2,0:2:0:0:
330,263,159858,6,0,P|303:200|335:138,1,143.999995605469,2|0,0:2|2:2,0:2:0:0:
366,121,160158,1,10,0:2:0:0:
500,240,160308,2,0,P|461:243|421:249,1,80,10|0,0:2|0:2,0:2:0:0:
275,320,160608,1,2,0:2:0:0:
227,177,160758,2,0,P|219:216|216:256,1,80,8|2,0:2|0:2,0:0:0:0:
333,384,161057,5,0,0:0:0:0:
477,326,161207,1,0,0:2:0:0:
477,326,161282,1,0,0:0:0:0:
477,326,161357,1,8,0:2:0:0:
391,207,161507,1,0,0:2:0:0:
247,265,161657,5,0,0:2:0:0:
167,258,161807,1,0,0:2:0:0:
87,251,161957,1,10,0:2:0:0:
7,244,162107,1,2,0:2:0:0:
118,329,162257,6,0,P|124:266|137:181,1,143.999995605469,6|0,0:2|2:0,0:2:0:0:
121,161,162557,1,10,0:2:0:0:
212,55,162707,2,0,P|174:62|125:65,1,80,2|0,0:2|0:2,0:2:0:0:
59,30,163007,1,2,0:2:0:0:
7,244,163157,2,0,P|45:237|94:234,1,80,8|0,0:2|0:2,0:0:0:0:
245,337,163457,6,0,P|337:355|377:253,2,216.000000823975,2|10|2,0:2|0:2|0:2,0:2:0:0:
269,138,164206,1,0,0:2:0:0:
269,138,164281,1,0,0:2:0:0:
269,138,164356,1,8,0:2:0:0:
305,282,164506,1,2,0:2:0:0:
198,178,164656,6,0,P|265:181|341:187,1,143.999995605469,2|0,0:2|2:0,0:2:0:0:
365,176,164956,1,10,0:2:0:0:
486,110,165106,2,0,P|491:149|495:189,1,80,2|0,0:2|0:2,0:2:0:0:
446,253,165406,1,2,0:2:0:0:
512,360,165556,2,0,P|474:356|433:350,1,80,8|2,0:2|0:2,0:0:0:0:
242,230,165856,5,0,0:0:0:0:
300,346,166006,1,0,0:2:0:0:
300,346,166081,1,0,0:2:0:0:
300,346,166156,1,8,0:2:0:0:
185,286,166306,1,0,0:2:0:0:
313,267,166456,5,2,0:2:0:0:
220,358,166606,1,0,0:2:0:0:
242,230,166756,1,10,0:2:0:0:
242,230,167055,6,0,L|92:241,1,143.999995605469,6|0,0:2|2:0,0:0:0:0:
75,259,167355,1,8,0:2:0:0:
182,322,167505,1,0,0:2:0:0:
182,322,167580,1,0,0:0:0:0:
182,322,167655,1,0,0:2:0:0:
4,384,167805,2,0,B|-12:339|-12:339|5:294,1,95.9999970703126,0|8,0:2|0:2,0:0:0:0:
38,148,168105,1,8,0:2:0:0:
38,148,168255,6,0,L|188:159,1,143.999995605469,2|0,0:2|2:0,0:2:0:0:
205,177,168555,1,8,0:2:0:0:
98,240,168705,1,0,0:2:0:0:
98,240,168780,1,0,0:0:0:0:
98,240,168855,1,2,0:2:0:0:
276,302,169005,2,0,B|292:257|292:257|275:212,1,95.9999970703126,0|8,0:2|0:2,0:0:0:0:
241,66,169305,1,0,0:2:0:0:
241,66,169455,6,0,L|91:77,1,143.999995605469,2|0,0:2|2:0,0:0:0:0:
74,95,169754,1,8,0:2:0:0:
181,158,169904,1,0,0:2:0:0:
181,158,169979,1,0,0:0:0:0:
181,158,170054,1,0,0:2:0:0:
3,220,170204,2,0,B|-13:175|-13:175|4:130,1,95.9999970703126,0|8,0:2|0:2,0:0:0:0:
47,0,170504,1,8,0:2:0:0:
195,54,170654,5,2,0:2:0:0:
262,55,170804,1,0,0:2:0:0:
266,59,170879,1,0,0:0:0:0:
270,63,170954,1,8,0:2:0:0:
338,64,171104,1,0,0:0:0:0:
413,240,171254,5,0,0:2:0:0:
341,235,171404,1,0,0:2:0:0:
270,230,171554,1,10,0:2:0:0:
270,230,171854,6,0,L|420:241,1,143.999995605469,6|0,0:2|2:0,0:2:0:0:
437,259,172154,1,8,0:2:0:0:
330,322,172304,1,0,0:2:0:0:
330,322,172379,1,0,0:0:0:0:
330,322,172454,1,0,0:2:0:0:
508,384,172603,2,0,B|524:339|524:339|507:294,1,95.9999970703126,0|8,0:2|0:2,0:0:0:0:
474,148,172903,1,8,0:2:0:0:
474,148,173053,6,0,L|324:159,1,143.999995605469,2|0,0:2|2:0,0:2:0:0:
307,177,173353,1,8,0:2:0:0:
414,240,173503,1,0,0:2:0:0:
414,240,173578,1,0,0:0:0:0:
414,240,173653,1,2,0:2:0:0:
236,302,173803,2,0,B|220:257|220:257|237:212,1,95.9999970703126,0|8,0:2|0:2,0:0:0:0:
271,66,174103,1,0,0:2:0:0:
271,66,174253,6,0,L|421:77,1,143.999995605469,2|0,0:2|2:0,0:0:0:0:
438,95,174553,1,8,0:2:0:0:
331,158,174703,1,0,0:2:0:0:
331,158,174778,1,0,0:2:0:0:
331,158,174853,1,0,0:2:0:0:
509,220,175003,2,0,B|525:175|525:175|508:130,1,95.9999970703126,0|8,0:2|0:2,0:0:0:0:
465,0,175303,1,8,0:2:0:0:
317,54,175452,5,2,0:2:0:0:
242,55,175602,1,0,0:2:0:0:
246,59,175677,1,0,0:2:0:0:
250,63,175752,1,8,0:2:0:0:
174,64,175902,1,0,0:2:0:0:
99,240,176052,5,0,0:2:0:0:
171,235,176202,1,0,0:2:0:0:
242,230,176352,1,10,0:2:0:0:
242,230,176652,6,0,P|238:178|246:83,1,143.999995605469,6|0,0:2|2:0,0:0:0:0:
254,58,176952,1,8,0:2:0:0:
425,128,177102,1,0,0:2:0:0:
425,128,177177,1,0,0:0:0:0:
425,128,177252,1,0,0:2:0:0:
306,281,177402,2,0,L|401:289,1,95.9999970703126,0|8,0:2|0:2,0:0:0:0:
471,336,177702,1,8,0:2:0:0:
263,382,177852,5,2,0:2:0:0:
187,373,178002,1,0,0:2:0:0:
191,377,178077,1,0,0:0:0:0:
195,381,178152,1,8,0:2:0:0:
120,372,178301,1,0,0:2:0:0:
4,251,178451,5,2,0:2:0:0:
72,252,178601,1,0,0:2:0:0:
76,256,178676,1,0,0:0:0:0:
80,260,178751,1,8,0:2:0:0:
147,261,178901,1,0,0:2:0:0:
272,227,179051,6,0,P|276:175|268:80,1,143.999995605469,2|0,0:2|2:0,0:2:0:0:
260,55,179351,1,8,0:2:0:0:
89,125,179501,1,0,0:2:0:0:
89,125,179576,1,0,0:2:0:0:
89,125,179651,1,0,0:2:0:0:
208,278,179801,2,0,L|113:286,1,95.9999970703126,0|8,0:2|0:2,0:0:0:0:
43,333,180101,1,8,0:2:0:0:
89,125,180251,6,0,L|184:133,1,95.9999970703126,2|0,0:2|0:2,0:2:0:0:
423,125,180551,2,0,L|328:133,1,95.9999970703126,8|0,0:2|0:2,0:2:0:0:
208,278,180851,2,0,P|256:270|304:278,1,95.9999970703126,0|0,0:2|0:2,0:2:0:0:
256,367,181150,5,10,0:2:0:0:
256,172,181300,2,0,L|256:76,1,95.9999970703126,10|4,0:2|2:1,0:0:0:0:
