osu file format v14

[General]
AudioFilename: audio.mp3
AudioLeadIn: 0
PreviewTime: 154456
Countdown: 0
SampleSet: Soft
StackLeniency: 0.6
Mode: 0
LetterboxInBreaks: 0
WidescreenStoryboard: 0

[Editor]
Bookmarks: 112456,117256,158056,160456,162856,165256,167656,170056,177256,179656,182056,184456,213856,214006,214606,226456,228856,236056,238456,240856,242056,246856,248056,251656,252856,262456,280456,284056,293656,296056,298456,300856,303256,305656,308056,310456,312856,322456,332056,351256,354856
DistanceSpacing: 0.2
BeatDivisor: 4
GridSize: 16
TimelineZoom: 1

[Metadata]
Title:A Line In The Sand
TitleUnicode:A Line In The Sand
Artist:Linkin Park
ArtistUnicode:Linkin Park
Creator:Slert
Version:War
Source:
Tags:the hunting party linkin park a line in the sand alternative metal
BeatmapID:1492158
BeatmapSetID:705510

[Difficulty]
HPDrainRate:5
CircleSize:4.5
OverallDifficulty:9.5
ApproachRate:9.7
SliderMultiplier:1.8
SliderTickRate:1

[Events]
//Background and Video events
0,0,"Linkin-Park-The-Hunting-Party-e1418837820636-1600x976.jpg",0,0
//Break Periods
2,185856,194056
2,283806,285256
//Storyboard Layer 0 (Background)
//Storyboard Layer 1 (Fail)
//Storyboard Layer 2 (Pass)
//Storyboard Layer 3 (Foreground)
//Storyboard Sound Samples

[TimingPoints]
74056,300,4,2,0,70,1,0
79456,-83.3333333333333,4,2,0,70,0,0
82456,-66.6666666666667,4,2,0,70,0,0
87781,-66.6666666666667,4,1,0,75,0,0
88156,-133.333333333333,4,1,0,75,0,0
88456,-66.6666666666667,4,2,0,70,0,0
89656,-66.6666666666667,4,2,0,75,0,0
90856,-66.6666666666667,4,2,0,85,0,0
93256,-66.6666666666667,4,2,0,75,0,0
95656,-66.6666666666667,4,2,0,85,0,0
98056,-66.6666666666667,4,2,0,75,0,0
99556,-133.333333333333,4,2,0,75,0,0
99706,-66.6666666666667,4,2,0,75,0,0
100456,-66.6666666666667,4,2,0,85,0,0
107656,-133.333333333333,4,2,0,75,0,0
111256,-66.6666666666667,4,2,0,75,0,0
117256,600,4,2,0,40,1,0
122056,-200,4,2,0,40,0,0
125656,-100,4,2,0,40,0,0
131656,-200,4,2,0,40,0,0
135256,-100,4,2,0,40,0,0
135856,2000,4,2,0,40,1,0
136456,300,4,2,0,60,1,0
141256,-83.3333333333333,4,2,0,60,0,0
146056,-76.9230769230769,4,2,0,60,0,0
148456,-71.4285714285714,4,2,0,60,0,0
150856,-66.6666666666667,4,2,0,60,0,0
153256,-58.8235294117647,4,2,0,60,0,0
154456,-50,4,2,0,60,0,0
154756,-133.333333333333,4,2,0,60,0,0
155656,-50,4,2,0,75,0,1
159256,-50,4,1,0,75,0,1
160456,-50,4,2,0,75,0,1
164056,-133.333333333333,4,1,0,75,0,1
165256,-50,4,2,0,75,0,1
165256,-50,4,2,0,75,0,1
168856,-50,4,1,0,75,0,1
170056,-50,4,2,0,75,0,1
173206,-133.333333333333,4,2,0,75,0,1
173656,-133.333333333333,4,2,0,60,0,0
174856,-50,4,2,0,75,0,1
178456,-50,4,1,0,75,0,1
180256,-50,4,2,0,75,0,1
183256,-50,4,1,0,75,0,1
184456,-66.6666666666667,4,2,0,60,0,0
195256,600,4,2,0,40,1,0
197656,-200,4,2,0,40,0,0
205156,-200,4,2,0,40,0,0
213856,300,4,2,0,40,1,0
214456,600,4,2,0,40,1,0
214756,-200,4,2,0,40,0,0
222856,-100,4,2,0,40,0,0
224056,300,4,2,0,75,1,0
224056,-50,4,2,0,85,0,1
227656,-50,4,1,0,100,0,1
228856,-50,4,2,0,85,0,1
232456,-50,4,1,0,100,0,1
233656,-50,4,2,0,85,0,1
237256,-50,4,1,0,100,0,1
238456,-50,4,2,0,85,0,1
240856,-50,4,2,0,75,0,0
242056,-50,4,1,0,80,0,0
243256,-133.333333333333,4,2,0,75,0,0
262456,-66.6666666666667,4,2,0,75,0,0
292456,-100,4,2,0,75,0,0
293656,-50,4,2,0,85,0,1
297256,-50,4,1,0,100,0,1
298456,-50,4,2,0,85,0,1
302056,-50,4,1,0,100,0,1
303256,-50,4,2,0,85,0,1
306856,-50,4,1,0,100,0,1
308056,-50,4,2,0,85,0,1
311656,-50,4,1,0,100,0,1
312856,-66.6666666666667,4,1,0,80,0,0
321256,-66.6666666666667,4,1,0,80,0,0
332056,-66.6666666666667,4,2,0,75,0,0
341656,-83.3333333333333,4,1,0,80,0,0
348856,-83.3333333333333,4,1,0,85,0,0

[HitObjects]
176,96,74056,5,0,0:0:0:0:
256,240,74206,1,0,0:0:0:0:
144,144,74356,1,0,0:0:0:0:
256,256,74506,1,0,0:0:0:0:
112,192,74656,1,0,0:0:0:0:
256,272,74806,1,0,0:0:0:0:
80,240,74956,1,0,0:0:0:0:
256,288,75106,1,0,0:0:0:0:
48,288,75256,5,4,0:0:0:0:
112,160,75406,1,0,0:0:0:0:
48,288,75556,1,0,0:0:0:0:
224,160,75706,1,0,0:0:0:0:
160,272,75856,1,0,0:0:0:0:
96,80,76006,1,0,0:0:0:0:
96,240,76156,1,0,0:0:0:0:
208,64,76306,1,0,0:0:0:0:
96,128,76456,5,4,0:0:0:0:
208,304,76606,1,0,0:0:0:0:
256,160,76756,1,0,0:0:0:0:
112,304,76906,1,0,0:0:0:0:
224,272,77056,1,0,0:0:0:0:
160,96,77206,1,0,0:0:0:0:
144,240,77356,1,0,0:0:0:0:
336,96,77506,1,0,0:0:0:0:
192,192,77656,5,4,0:0:0:0:
320,192,77806,1,0,0:0:0:0:
256,128,77956,1,0,0:0:0:0:
256,256,78106,1,0,0:0:0:0:
160,160,78256,5,0,0:0:0:0:
160,160,78331,1,0,0:0:0:0:
160,160,78406,2,0,B|176:96|176:96|224:96,1,90
296,56,78631,1,0,0:0:0:0:
288,64,78706,1,0,0:0:0:0:
280,72,78781,1,8,0:0:0:0:
344,136,78856,6,0,B|280:184|280:184|280:232,1,90
192,240,79156,1,0,0:0:0:0:
96,80,79306,1,0,0:0:0:0:
96,224,79456,2,0,B|160:176|160:176|224:192,1,107.999996704102
320,208,79756,1,0,0:0:0:0:
240,80,79906,1,0,0:0:0:0:
160,128,80056,2,4,B|112:176|112:176|144:224,1,107.999996704102
112,48,80356,5,0,0:0:0:0:
112,48,80431,1,0,0:0:0:0:
112,48,80506,2,0,B|48:80|48:80|64:144|48:160,1,107.999996704102
80,192,80806,1,0,0:0:0:0:
304,144,80956,1,0,0:0:0:0:
160,288,81106,1,0,0:0:0:0:
144,112,81256,6,4,B|208:80|208:80|256:112,1,107.999996704102
176,272,81556,1,0,0:0:0:0:
352,176,81706,1,0,0:0:0:0:
192,128,81856,2,0,B|112:128|112:128|80:96,1,107.999996704102
256,48,82156,2,0,B|336:48|336:48|384:80,1,107.999996704102
80,128,82456,5,0,0:0:0:0:
96,144,82531,1,0,0:0:0:0:
112,160,82606,1,0,0:0:0:0:
128,176,82681,1,0,0:0:0:0:
144,192,82756,2,0,B|224:208|224:208|288:192,1,135.000005149842
288,96,82981,5,0,0:0:0:0:
263,72,83056,1,0,0:0:0:0:
230,62,83131,1,0,0:0:0:0:
197,72,83206,1,0,0:0:0:0:
174,97,83281,1,8,0:0:0:0:
163,129,83356,1,0,0:0:0:0:
158,162,83431,1,0,0:0:0:0:
161,195,83506,1,0,0:0:0:0:
163,228,83581,1,0,0:0:0:0:
170,261,83656,6,0,B|242:261|242:261|306:189|346:253,1,135.000005149842
240,80,83956,1,0,0:0:0:0:
160,240,84106,1,0,0:0:0:0:
96,48,84256,2,0,B|64:128|64:128|80:176,1,135.000005149842
112,288,84556,1,0,0:0:0:0:
192,192,84706,1,0,0:0:0:0:
192,192,84781,1,0,0:0:0:0:
192,192,84856,6,4,B|240:144|240:144|208:48,1,135.000005149842
64,112,85156,1,0,0:0:0:0:
144,320,85306,1,0,0:0:0:0:
48,208,85456,1,0,0:0:0:0:
256,256,85606,1,0,0:0:0:0:
176,96,85756,1,0,0:0:0:0:
96,224,85906,1,0,0:0:0:0:
96,224,85981,1,0,0:0:0:0:
96,224,86056,6,4,B|112:320|112:320|192:336,1,135.000005149842
224,208,86356,1,0,0:0:0:0:
336,64,86506,1,0,0:0:0:0:
128,176,86656,2,0,B|128:256|128:256|192:304,1,135.000005149842
336,160,86956,2,0,B|272:96|272:96|192:64,1,135.000005149842
112,192,87256,5,6,0:0:0:0:
124,216,87331,1,0,0:0:0:0:
144,232,87406,1,0,0:0:0:0:
167,244,87481,1,0,0:0:0:0:
195,246,87556,2,6,B|275:230|275:230|291:158,1,135.000005149842
265,46,87781,5,0,0:0:0:0:
240,56,87856,1,6,0:0:0:0:
217,73,87931,1,0,0:0:0:0:
202,92,88006,1,0,0:0:0:0:
190,114,88081,1,8,0:0:0:0:
176,128,88156,2,0,L|128:160,1,33.7500012874604
176,224,88306,2,0,L|224:192,1,33.7500012874604
192,304,88456,6,6,B|272:304|272:304|328:320|352:256,1,135.000005149842
416,224,88756,1,0,0:0:0:0:
240,192,88906,1,0,0:0:0:0:
288,80,89056,2,0,B|208:80|208:80|112:104,1,135.000005149842
128,96,89356,1,0,0:0:0:0:
272,272,89506,1,0,0:0:0:0:
296,80,89656,6,4,B|192:88|192:88|120:128,1,135.000005149842
184,304,89956,1,0,0:0:0:0:
264,112,90106,1,0,0:0:0:0:
304,256,90256,2,0,B|224:288|224:288|144:280,1,135.000005149842
248,48,90556,1,0,0:0:0:0:
208,208,90706,1,0,0:0:0:0:
64,64,90856,6,0,B|72:168|72:168|48:232,1,135.000005149842
192,96,91156,1,0,0:0:0:0:
320,288,91306,1,0,0:0:0:0:
224,112,91456,1,0,0:0:0:0:
288,272,91606,1,0,0:0:0:0:
256,128,91756,1,0,0:0:0:0:
256,256,91906,1,0,0:0:0:0:
256,96,92056,1,0,0:0:0:0:
256,288,92206,1,0,0:0:0:0:
240,80,92356,1,0,0:0:0:0:
272,304,92506,1,0,0:0:0:0:
208,48,92656,1,0,0:0:0:0:
304,336,92806,1,0,0:0:0:0:
176,16,92956,1,0,0:0:0:0:
336,368,93106,1,0,0:0:0:0:
400,256,93256,5,0,0:0:0:0:
248,184,93406,1,0,0:0:0:0:
416,240,93556,1,0,0:0:0:0:
232,200,93706,1,0,0:0:0:0:
424,224,93856,2,0,B|392:160|392:160|328:136,1,135.000005149842
272,224,94156,1,0,0:0:0:0:
144,112,94306,1,0,0:0:0:0:
96,248,94456,6,0,B|160:296|160:296|240:304,1,135.000005149842
216,192,94756,1,0,0:0:0:0:
272,88,94906,1,0,0:0:0:0:
360,216,95056,2,0,B|304:256|304:256|256:312,1,135.000005149842
112,160,95356,1,0,0:0:0:0:
160,304,95506,1,0,0:0:0:0:
208,80,95656,6,0,B|272:128|272:128|280:192,1,135.000005149842
176,192,95956,1,0,0:0:0:0:
336,192,96106,1,0,0:0:0:0:
144,176,96256,1,0,0:0:0:0:
368,208,96406,1,0,0:0:0:0:
112,160,96556,1,0,0:0:0:0:
400,224,96706,1,0,0:0:0:0:
80,144,96856,5,4,0:0:0:0:
256,304,97006,1,0,0:0:0:0:
64,128,97156,1,0,0:0:0:0:
320,192,97306,1,0,0:0:0:0:
48,112,97456,1,0,0:0:0:0:
240,288,97606,1,0,0:0:0:0:
32,96,97756,1,0,0:0:0:0:
288,176,97906,1,0,0:0:0:0:
64,160,98056,5,4,0:0:0:0:
64,160,98131,1,0,0:0:0:0:
64,160,98206,2,0,B|64:240|64:240|112:272,1,135.000005149842
176,320,98431,1,0,0:0:0:0:
192,304,98506,1,0,0:0:0:0:
208,288,98581,1,0,0:0:0:0:
208,208,98656,6,0,B|288:224|288:224|352:192,1,135.000005149842
224,64,98956,1,0,0:0:0:0:
224,64,99031,1,0,0:0:0:0:
224,64,99106,1,0,0:0:0:0:
128,160,99256,2,4,B|176:208|176:208|272:224,1,135.000005149842
304,224,99481,1,0,0:0:0:0:
320,224,99556,2,0,L|352:240,1,33.7500012874604
288,64,99706,1,0,0:0:0:0:
288,64,99856,6,0,B|192:64|192:64|176:128,1,135.000005149842
336,160,100156,2,0,P|432:264|464:152,1,270.000010299683
304,64,100606,5,0,0:0:0:0:
112,160,100756,1,0,0:0:0:0:
320,256,100906,1,0,0:0:0:0:
192,80,101056,1,0,0:0:0:0:
248,320,101206,1,0,0:0:0:0:
320,128,101356,1,0,0:0:0:0:
112,224,101506,1,0,0:0:0:0:
208,48,101656,5,4,0:0:0:0:
400,192,101806,1,0,0:0:0:0:
128,192,101956,1,0,0:0:0:0:
368,176,102106,1,0,0:0:0:0:
160,224,102256,1,0,0:0:0:0:
336,160,102406,1,0,0:0:0:0:
176,48,102556,5,0,0:0:0:0:
424,312,102706,1,0,0:0:0:0:
176,288,102856,1,0,0:0:0:0:
272,192,103006,1,0,0:0:0:0:
160,304,103156,1,0,0:0:0:0:
288,176,103306,1,0,0:0:0:0:
80,80,103456,5,0,0:0:0:0:
80,80,103531,1,0,0:0:0:0:
80,80,103606,2,0,B|96:160|96:160|160:176,1,135.000005149842
304,128,103906,1,0,0:0:0:0:
224,288,104056,1,4,0:0:0:0:
144,96,104206,1,0,0:0:0:0:
144,96,104281,1,0,0:0:0:0:
144,96,104356,2,0,B|80:144|80:144|80:224,1,135.000005149842
208,192,104656,2,0,B|304:176|304:176|352:128,1,135.000005149842
208,96,104956,2,0,B|128:112|128:112|80:176,1,135.000005149842
192,208,105256,5,0,0:0:0:0:
320,176,105406,1,0,0:0:0:0:
176,240,105556,1,0,0:0:0:0:
336,144,105706,1,0,0:0:0:0:
160,272,105856,1,0,0:0:0:0:
352,112,106006,1,0,0:0:0:0:
144,304,106156,1,0,0:0:0:0:
368,80,106306,1,0,0:0:0:0:
160,96,106456,5,4,0:0:0:0:
272,288,106606,1,0,0:0:0:0:
320,96,106756,1,0,0:0:0:0:
160,208,106906,1,0,0:0:0:0:
368,320,107056,1,0,0:0:0:0:
208,64,107206,1,0,0:0:0:0:
176,288,107356,1,0,0:0:0:0:
384,80,107506,1,0,0:0:0:0:
160,160,107656,5,0,0:0:0:0:
160,160,107731,1,0,0:0:0:0:
160,160,107806,2,0,P|160:224|176:240,1,67.5000025749208
368,64,108106,1,0,0:0:0:0:
240,240,108256,2,0,P|304:240|320:176,1,135.000005149842
368,64,108706,1,0,0:0:0:0:
224,64,108856,2,0,P|144:96|128:160,1,135.000005149842
256,224,109306,5,0,0:0:0:0:
128,144,109456,1,0,0:0:0:0:
256,224,109606,1,0,0:0:0:0:
128,144,109756,2,0,P|144:96|240:64,1,135.000005149842
336,160,110206,5,0,0:0:0:0:
224,64,110356,1,0,0:0:0:0:
336,160,110506,1,0,0:0:0:0:
224,64,110656,2,0,P|160:80|128:144,1,135.000005149842
256,192,111106,1,0,0:0:0:0:
128,80,111256,1,0,0:0:0:0:
144,224,111406,1,0,0:0:0:0:
368,128,111556,1,0,0:0:0:0:
256,64,111706,1,0,0:0:0:0:
256,240,111856,5,4,0:0:0:0:
384,160,112006,1,0,0:0:0:0:
176,96,112156,1,0,0:0:0:0:
160,320,112306,1,0,0:0:0:0:
256,192,112456,1,4,0:0:0:0:
256,192,112606,12,0,116056,0:0:0:0:
144,128,117256,6,0,L|144:176,4,45
256,192,118156,1,0,0:0:0:0:
360,256,118456,2,0,L|360:304,4,45
224,224,119356,1,0,0:0:0:0:
152,144,119656,2,0,B|196:120|196:120|264:124,1,90
224,224,120256,1,0,0:0:0:0:
336,224,120556,2,0,B|368:272|368:272|360:324,1,90
228,220,121156,2,0,P|204:164|156:148,2,90
260,212,122056,2,0,B|224:248|180:224|120:244|120:244|87:223|68:128|68:128|124:76|200:112,1,405
232,96,125656,6,0,P|280:112|312:144,2,90
120,164,126556,1,0,0:0:0:0:
152,240,126856,2,0,B|192:216|192:216|224:260|328:240,1,180
288,72,127756,1,0,0:0:0:0:
284,76,128056,2,0,P|228:92|196:136,2,90
384,128,128956,1,0,0:0:0:0:
304,192,129256,2,0,B|252:172|252:172|212:220|212:220|152:228|124:188,1,180
168,112,130156,1,0,0:0:0:0:
176,108,130456,2,0,P|232:128|260:164,1,90
184,208,131056,2,0,P|224:240|276:252,1,90
324,160,131656,2,0,B|300:152|300:152|308:124|308:124|268:108|216:76|144:88|84:264|216:312|256:268|308:308,1,450
144,120,135556,5,0,0:0:0:0:
144,128,135856,2,0,P|168:140|216:152,1,45
316,216,136456,6,8,B|280:256|280:256|236:280,1,90
140,132,136756,1,0,0:0:0:0:
264,240,136906,1,0,0:0:0:0:
264,240,137056,2,0,B|304:292|304:292|288:340,1,90
188,72,137356,1,0,0:0:0:0:
364,148,137506,1,0,0:0:0:0:
364,148,137581,1,0,0:0:0:0:
364,148,137656,6,4,B|336:212|336:212|360:256,1,90
120,256,137956,1,0,0:0:0:0:
268,216,138106,1,0,0:0:0:0:
268,216,138256,2,0,B|324:224|324:224|384:200,1,90
336,72,138556,1,0,0:0:0:0:
352,212,138706,1,0,0:0:0:0:
336,72,138856,2,4,B|280:92|280:92|144:76,1,180
80,172,139306,1,0,0:0:0:0:
80,172,139381,1,0,0:0:0:0:
80,172,139456,2,0,B|120:244|120:244|164:248,1,90
168,108,139756,2,0,B|220:68|220:68|260:72,1,90
292,200,140056,6,4,B|236:252|236:252|240:292,1,90
128,216,140356,1,0,0:0:0:0:
192,76,140506,1,0,0:0:0:0:
272,240,140656,1,0,0:0:0:0:
272,240,140731,1,0,0:0:0:0:
272,240,140806,2,0,B|316:184|316:184|368:176,1,90
244,80,141106,1,0,0:0:0:0:
76,132,141256,6,4,B|88:196|88:196|132:228,1,107.999996704102
224,116,141556,1,0,0:0:0:0:
296,300,141706,1,0,0:0:0:0:
360,168,141856,2,0,B|420:152|420:152|384:104,1,107.999996704102
272,72,142156,1,0,0:0:0:0:
176,232,142306,1,0,0:0:0:0:
104,64,142456,6,4,B|60:116|60:116|64:184,1,107.999996704102
208,156,142756,1,0,0:0:0:0:
60,152,142906,1,0,0:0:0:0:
208,160,143056,2,0,B|280:136|280:136|316:92,1,107.999996704102
312,260,143356,1,0,0:0:0:0:
124,204,143506,1,0,0:0:0:0:
124,204,143581,1,0,0:0:0:0:
124,204,143656,6,4,B|152:128|152:128|208:116,1,107.999996704102
252,200,143956,1,0,0:0:0:0:
380,132,144106,1,0,0:0:0:0:
344,264,144256,1,0,0:0:0:0:
156,136,144406,1,0,0:0:0:0:
156,136,144556,2,0,B|144:208|144:208|172:244,1,107.999996704102
172,244,144781,1,0,0:0:0:0:
180,256,144856,5,4,0:0:0:0:
312,188,145006,1,0,0:0:0:0:
192,152,145156,2,0,B|236:112|236:112|192:56,1,107.999996704102
88,112,145456,2,0,B|84:192|84:192|212:280,1,215.999993408203
288,184,145906,1,0,0:0:0:0:
212,64,146056,6,4,B|144:88|96:168|160:264,1,233.999989288331
312,136,146506,1,0,0:0:0:0:
312,136,146656,2,0,B|280:68|280:68|220:68,1,116.999994644165
172,168,146956,2,0,B|128:216|128:216|160:272,1,116.999994644165
284,216,147256,6,4,B|320:144|416:120|424:32,1,233.999989288331
452,160,147706,1,0,0:0:0:0:
304,84,147856,1,0,0:0:0:0:
364,244,148006,1,0,0:0:0:0:
420,72,148156,2,0,B|352:60|352:60|304:96,1,116.999994644165
156,152,148456,6,4,B|204:216|204:216|268:220|328:200|384:256,1,251.999992309571
152,304,148906,1,0,0:0:0:0:
120,156,149056,2,0,B|200:208|200:208|248:188,1,125.999996154785
240,192,149281,1,0,0:0:0:0:
252,188,149356,1,0,0:0:0:0:
280,76,149506,1,0,0:0:0:0:
280,76,149581,1,0,0:0:0:0:
280,76,149656,6,4,B|208:76|208:76|152:104,1,125.999996154785
164,212,149956,2,0,P|248:224|312:204,2,125.999996154785
148,112,150406,2,0,B|188:168|188:168|124:212|168:268,2,125.999996154785
192,272,150856,5,0,0:0:0:0:
384,192,151006,1,0,0:0:0:0:
176,64,151156,1,0,0:0:0:0:
208,288,151306,1,0,0:0:0:0:
272,120,151456,1,0,0:0:0:0:
368,272,151606,1,0,0:0:0:0:
176,176,151756,1,0,0:0:0:0:
288,256,151906,1,0,0:0:0:0:
400,112,152056,6,4,B|312:88|312:88|232:96,1,135.000005149842
112,80,152356,1,0,0:0:0:0:
152,304,152506,1,0,0:0:0:0:
368,248,152656,1,0,0:0:0:0:
136,136,152806,1,0,0:0:0:0:
336,64,152956,1,0,0:0:0:0:
400,216,153106,1,0,0:0:0:0:
172,208,153256,6,4,B|256:256|256:256|348:244,1,153.000002918243
256,132,153556,2,0,B|184:68|184:68|108:68,1,153.000002918243
160,284,153856,1,0,0:0:0:0:
288,160,154006,1,0,0:0:0:0:
160,80,154156,1,0,0:0:0:0:
160,320,154306,1,0,0:0:0:0:
384,224,154456,1,4,0:0:0:0:
304,108,154756,6,8,P|324:156|284:244,2,135.000005149842
120,120,155656,6,0,B|76:132|76:132|116:292,1,180
224,232,155956,1,0,0:0:0:0:
332,88,156106,1,0,0:0:0:0:
332,256,156256,1,0,0:0:0:0:
244,104,156406,1,0,0:0:0:0:
244,104,156481,1,0,0:0:0:0:
244,104,156556,2,0,B|168:184|168:184|204:268,1,180
276,208,156856,6,4,L|432:116,1,180
264,72,157156,1,0,0:0:0:0:
112,220,157306,1,0,0:0:0:0:
300,200,157456,2,0,B|256:292|256:292|348:312,1,180
144,120,157756,2,0,B|64:0|32:152,1,180
368,288,158056,1,0,0:0:0:0:
176,192,158206,1,0,0:0:0:0:
384,304,158356,1,0,0:0:0:0:
304,96,158506,1,0,0:0:0:0:
400,320,158656,1,0,0:0:0:0:
192,208,158806,1,0,0:0:0:0:
416,336,158956,1,0,0:0:0:0:
336,128,159106,1,0,0:0:0:0:
128,192,159256,1,0,0:0:0:0:
352,352,159406,1,0,0:0:0:0:
160,96,159556,1,0,0:0:0:0:
240,320,159706,1,0,0:0:0:0:
256,32,159856,1,0,0:0:0:0:
160,240,160006,1,0,0:0:0:0:
352,0,160156,1,0,0:0:0:0:
80,128,160306,1,0,0:0:0:0:
304,208,160456,6,4,B|352:128|352:128|256:96,1,180
192,192,160756,1,0,0:0:0:0:
320,128,160906,1,0,0:0:0:0:
320,128,160981,1,0,0:0:0:0:
320,128,161056,2,0,B|224:64|224:64|128:112|192:208|176:144,1,180
288,256,161356,1,0,0:0:0:0:
336,64,161506,1,0,0:0:0:0:
176,272,161656,5,4,0:0:0:0:
352,160,161806,1,0,0:0:0:0:
176,64,161956,2,0,B|224:144|224:144|160:224,1,180
272,80,162256,1,0,0:0:0:0:
336,256,162406,1,0,0:0:0:0:
160,208,162556,2,0,B|240:160|240:160|352:176,1,180
128,160,162856,5,0,0:0:0:0:
400,192,163006,1,0,0:0:0:0:
144,176,163156,1,0,0:0:0:0:
384,176,163306,1,0,0:0:0:0:
160,192,163456,1,0,0:0:0:0:
368,160,163606,1,0,0:0:0:0:
176,208,163756,1,0,0:0:0:0:
352,144,163906,1,0,0:0:0:0:
80,64,164056,1,0,0:0:0:0:
176,256,164206,1,0,0:0:0:0:
176,256,164281,1,0,0:0:0:0:
176,256,164356,2,0,L|240:272,1,33.7500012874604
320,112,164506,1,0,0:0:0:0:
320,112,164581,1,0,0:0:0:0:
320,112,164656,2,0,L|320:160,1,33.7500012874604
288,288,164806,1,0,0:0:0:0:
304,48,164956,1,0,0:0:0:0:
112,288,165106,1,0,0:0:0:0:
208,160,165256,6,0,B|256:240|256:240|352:272,1,180,0|4,0:0|0:0,0:0:0:0:
368,96,165556,1,0,0:0:0:0:
208,240,165706,1,0,0:0:0:0:
128,80,165856,1,0,0:0:0:0:
192,240,166006,1,0,0:0:0:0:
192,240,166081,1,0,0:0:0:0:
192,240,166156,2,0,B|288:208|288:208|320:128,1,180
224,144,166456,6,4,B|128:112|128:112|176:32,1,180
336,64,166756,1,0,0:0:0:0:
112,192,166906,1,0,0:0:0:0:
288,176,167056,1,0,0:0:0:0:
288,176,167131,1,0,0:0:0:0:
288,176,167206,2,0,B|288:272|288:272|192:304,1,180
128,144,167506,1,0,0:0:0:0:
320,240,167656,5,0,0:0:0:0:
192,48,167806,1,0,0:0:0:0:
336,256,167956,1,0,0:0:0:0:
144,96,168106,1,0,0:0:0:0:
352,272,168256,1,0,0:0:0:0:
112,160,168406,1,0,0:0:0:0:
368,288,168556,1,0,0:0:0:0:
96,240,168706,1,0,0:0:0:0:
288,64,168856,5,6,0:0:0:0:
368,336,169006,1,2,0:0:0:0:
160,32,169156,1,2,0:0:0:0:
160,288,169306,1,2,0:0:0:0:
416,128,169456,1,2,0:0:0:0:
80,112,169606,1,2,0:0:0:0:
352,288,169756,1,2,0:0:0:0:
224,32,169906,1,2,0:0:0:0:
112,288,170056,6,4,B|224:240|224:240|144:160,1,180
304,64,170356,1,0,0:0:0:0:
336,256,170506,1,0,0:0:0:0:
128,112,170656,2,0,B|128:208|128:208|192:272,1,180
208,288,170881,1,0,0:0:0:0:
224,304,170956,1,0,0:0:0:0:
320,192,171106,1,0,0:0:0:0:
144,288,171256,5,4,0:0:0:0:
320,80,171406,1,0,0:0:0:0:
304,256,171556,1,0,0:0:0:0:
96,96,171706,1,0,0:0:0:0:
304,176,171856,1,0,0:0:0:0:
96,192,172006,1,0,0:0:0:0:
288,80,172156,1,0,0:0:0:0:
160,256,172306,1,0,0:0:0:0:
384,128,172456,6,4,B|400:224|400:224|320:272,1,180
128,128,172756,1,0,0:0:0:0:
144,112,172831,1,0,0:0:0:0:
160,96,172906,1,0,0:0:0:0:
176,80,172981,1,0,0:0:0:0:
192,64,173056,2,8,B|288:64|288:64|336:144,1,180
368,240,173281,2,0,L|384:176,1,33.7500012874604
272,304,173431,2,0,L|272:240,1,33.7500012874604
144,256,173656,6,0,P|128:128|128:96,2,135.000005149842
272,176,174556,1,0,0:0:0:0:
112,272,174856,5,0,0:0:0:0:
112,272,174931,1,0,0:0:0:0:
112,272,175006,2,0,B|128:176|128:176|208:128,1,180
272,256,175306,1,0,0:0:0:0:
352,96,175456,1,0,0:0:0:0:
144,144,175606,1,0,0:0:0:0:
144,144,175681,1,0,0:0:0:0:
144,144,175756,2,0,B|208:240|208:240|288:224,1,180
304,80,176056,6,4,L|64:48,1,180
176,256,176356,1,0,0:0:0:0:
352,144,176506,1,0,0:0:0:0:
144,80,176656,2,0,B|224:128|224:128|192:208,1,180
320,272,176956,2,0,B|368:208|416:224|432:128,1,180
96,128,177256,5,0,0:0:0:0:
352,192,177406,1,0,0:0:0:0:
112,144,177556,1,0,0:0:0:0:
368,208,177706,1,0,0:0:0:0:
128,160,177856,1,0,0:0:0:0:
384,224,178006,1,0,0:0:0:0:
144,176,178156,1,0,0:0:0:0:
400,240,178306,1,0,0:0:0:0:
160,192,178456,5,6,0:0:0:0:
368,80,178606,1,2,0:0:0:0:
288,304,178756,1,2,0:0:0:0:
144,64,178906,1,2,0:0:0:0:
64,240,179056,1,2,0:0:0:0:
448,128,179206,1,2,0:0:0:0:
224,48,179356,1,2,0:0:0:0:
336,320,179506,1,2,0:0:0:0:
144,224,179656,5,8,0:0:0:0:
352,336,179806,1,8,0:0:0:0:
128,208,179956,1,8,0:0:0:0:
336,320,180106,1,8,0:0:0:0:
112,192,180256,2,0,B|176:112|176:112|128:32,1,180
352,48,180556,1,0,0:0:0:0:
224,208,180706,1,0,0:0:0:0:
416,224,180856,6,4,B|320:288|320:288|384:352,1,180
144,272,181156,1,0,0:0:0:0:
336,176,181306,1,0,0:0:0:0:
144,96,181456,2,0,B|192:176|192:176|160:256,1,180
304,224,181756,2,0,B|352:144|352:144|272:96,1,180
256,272,182056,5,4,0:0:0:0:
224,96,182206,1,0,0:0:0:0:
272,288,182356,1,0,0:0:0:0:
128,160,182506,1,0,0:0:0:0:
288,304,182656,1,0,0:0:0:0:
80,256,182806,1,0,0:0:0:0:
304,320,182956,1,0,0:0:0:0:
64,320,183106,1,0,0:0:0:0:
320,336,183256,5,6,0:0:0:0:
368,80,183406,1,2,0:0:0:0:
112,192,183556,1,2,0:0:0:0:
400,320,183706,1,2,0:0:0:0:
272,32,183856,1,2,0:0:0:0:
144,272,184006,1,2,0:0:0:0:
384,160,184156,1,2,0:0:0:0:
224,96,184306,1,2,0:0:0:0:
288,288,184456,6,4,B|352:224|352:224|352:144,1,135.000005149842
96,160,184756,1,0,0:0:0:0:
368,128,184906,1,0,0:0:0:0:
112,160,185056,1,0,0:0:0:0:
384,128,185206,1,0,0:0:0:0:
160,224,185356,2,0,B|272:240|272:240|320:208,1,135.000005149842
208,80,185656,1,4,0:0:0:0:
96,112,195256,6,0,L|96:160,4,45
224,160,196156,1,0,0:0:0:0:
320,96,196456,2,0,L|384:96,4,45
288,224,197356,1,0,0:0:0:0:
128,240,197656,2,0,P|128:176|320:176,1,315
376,216,200056,2,0,B|336:240|304:208|272:224|224:208|208:272|168:248|152:184|208:96|112:128,1,315
96,160,202456,2,0,B|112:192|112:192|80:224|128:256|208:240|256:304|352:240,1,315
264,288,204856,2,0,L|232:264,1,22.5
136,240,205156,6,0,B|188:52|268:36|296:52,1,270
320,176,207256,2,0,B|352:160|352:112|288:80|336:32|224:96|208:96|160:48|112:96,1,292.5
112,112,209656,2,0,B|128:160|176:176|160:256|160:256|240:288|288:240|336:256,1,315
336,240,212056,2,0,B|352:208|352:208|320:176|384:144|320:80|320:80|256:80,1,225
80,144,213856,5,2,0:0:0:0:
240,256,214006,1,2,0:0:0:0:
96,160,214156,1,2,0:0:0:0:
224,240,214306,1,2,0:0:0:0:
112,176,214456,2,4,B|160:144|160:144,1,45
272,96,214756,6,0,B|304:64|304:64|336:96|416:112|352:272,1,270
272,304,216856,2,0,B|224:272|224:272|240:240|160:208|272:32|160:48,1,315
128,80,219256,2,0,B|112:112|128:144|96:240|288:320,1,315
320,240,221656,2,0,P|336:208|336:192,1,45
256,176,222256,2,0,P|224:160|208:144,1,45
112,96,222856,6,8,P|160:80|224:80,2,90
128,224,223756,1,0,0:0:0:0:
144,80,224056,6,0,B|96:128|96:128|160:224,1,180
336,96,224356,1,0,0:0:0:0:
320,304,224506,1,0,0:0:0:0:
192,128,224656,2,0,B|96:176|96:176|144:256,1,180
144,256,224881,1,0,0:0:0:0:
156,272,224956,1,0,0:0:0:0:
304,208,225106,2,4,B|288:112|288:112|192:96,1,180
112,208,225406,5,0,0:0:0:0:
112,208,225481,1,0,0:0:0:0:
112,208,225556,1,0,0:0:0:0:
320,176,225706,2,0,B|288:80|288:80|192:64,1,180
64,80,226006,1,0,0:0:0:0:
176,176,226156,2,0,B|96:240|96:240|0:208,1,180
256,320,226456,5,0,0:0:0:0:
256,48,226606,1,0,0:0:0:0:
272,304,226756,1,0,0:0:0:0:
240,64,226906,1,0,0:0:0:0:
288,288,227056,1,0,0:0:0:0:
224,80,227206,1,0,0:0:0:0:
304,288,227356,1,0,0:0:0:0:
208,96,227506,1,0,0:0:0:0:
320,288,227656,5,2,0:0:0:0:
192,96,227806,1,6,0:0:0:0:
336,288,227956,1,2,0:0:0:0:
160,96,228106,1,2,0:0:0:0:
368,288,228256,1,2,0:0:0:0:
128,80,228406,1,2,0:0:0:0:
400,288,228556,1,2,0:0:0:0:
96,64,228706,1,2,0:0:0:0:
272,256,228856,6,4,B|208:336|208:336|112:312,1,180
224,80,229156,1,0,0:0:0:0:
472,224,229306,1,0,0:0:0:0:
112,192,229456,2,0,B|176:272|176:272|256:272,1,180
272,272,229681,1,0,0:0:0:0:
288,272,229756,1,0,0:0:0:0:
256,128,229906,1,0,0:0:0:0:
96,144,230056,6,4,B|128:256|128:256|64:304,1,180
304,272,230356,1,0,0:0:0:0:
192,112,230506,1,0,0:0:0:0:
144,240,230656,2,0,B|8:184|64:336,1,180
192,320,230956,2,0,L|384:240,1,180
144,32,231256,5,4,0:0:0:0:
256,288,231406,1,0,0:0:0:0:
112,80,231556,1,0,0:0:0:0:
256,304,231706,1,0,0:0:0:0:
80,128,231856,1,0,0:0:0:0:
256,320,232006,1,0,0:0:0:0:
48,176,232156,1,0,0:0:0:0:
256,336,232306,1,0,0:0:0:0:
16,224,232456,5,6,0:0:0:0:
272,64,232606,1,2,0:0:0:0:
144,296,232756,1,2,0:0:0:0:
96,80,232906,1,2,0:0:0:0:
352,224,233056,1,2,0:0:0:0:
344,64,233206,1,2,0:0:0:0:
64,144,233356,1,2,0:0:0:0:
368,336,233506,1,2,0:0:0:0:
160,80,233656,6,4,B|96:144|96:144|128:256,1,180
368,160,233956,1,0,0:0:0:0:
256,320,234106,1,0,0:0:0:0:
384,176,234256,1,0,0:0:0:0:
208,96,234406,1,0,0:0:0:0:
208,96,234481,1,0,0:0:0:0:
208,96,234556,2,0,B|128:144|128:144|144:240,1,180
288,256,234856,6,4,B|384:208|384:208|416:288,1,180
128,304,235156,1,0,0:0:0:0:
320,144,235306,1,0,0:0:0:0:
240,320,235456,2,0,B|208:192|208:192|128:144,1,180
336,48,235756,2,0,B|304:192|304:192|352:240,1,180
144,128,236056,5,4,0:0:0:0:
368,256,236206,1,0,0:0:0:0:
144,256,236356,1,0,0:0:0:0:
384,112,236506,1,0,0:0:0:0:
128,112,236656,1,0,0:0:0:0:
384,272,236806,1,0,0:0:0:0:
136,272,236956,1,0,0:0:0:0:
376,120,237106,1,0,0:0:0:0:
288,304,237256,5,6,0:0:0:0:
176,128,237406,1,2,0:0:0:0:
128,288,237556,1,2,0:0:0:0:
448,104,237706,1,2,0:0:0:0:
176,48,237856,1,2,0:0:0:0:
416,352,238006,1,2,0:0:0:0:
56,208,238156,1,2,0:0:0:0:
352,120,238306,1,2,0:0:0:0:
128,48,238456,6,4,B|96:144|96:144|176:240,1,180
160,224,238681,1,0,0:0:0:0:
176,240,238756,1,0,0:0:0:0:
320,208,238906,1,0,0:0:0:0:
320,192,238981,1,0,0:0:0:0:
320,176,239056,2,0,B|256:112|256:112|160:144,1,180
192,240,239356,2,0,L|368:288,1,180
256,80,239656,6,4,B|176:128|176:128|80:96,1,180
128,224,239956,1,0,0:0:0:0:
128,224,240031,1,0,0:0:0:0:
128,224,240106,1,0,0:0:0:0:
256,144,240256,2,0,B|320:208|320:208|224:256,1,180
80,112,240556,2,0,L|256:48,1,180
144,192,240856,6,4,B|176:288|176:288|272:320,1,180
336,240,241156,1,0,0:0:0:0:
336,224,241231,1,0,0:0:0:0:
336,208,241306,1,0,0:0:0:0:
336,192,241381,1,0,0:0:0:0:
336,176,241456,2,8,B|240:128|240:128|144:160,1,180
160,160,241681,5,0,0:0:0:0:
144,176,241756,1,0,0:0:0:0:
130,190,241831,1,0,0:0:0:0:
115,205,241906,1,0,0:0:0:0:
208,64,242056,5,2,0:0:0:0:
304,320,242206,1,2,0:0:0:0:
176,64,242356,1,2,0:0:0:0:
336,320,242506,1,2,0:0:0:0:
144,64,242656,1,2,0:0:0:0:
368,320,242806,1,2,0:0:0:0:
112,64,242956,1,2,0:0:0:0:
400,320,243106,1,2,0:0:0:0:
80,64,243256,6,4,B|80:96|80:96|96:144,1,67.5000025749208
96,144,243481,1,0,0:0:0:0:
104,160,243556,1,0,0:0:0:0:
256,96,243706,1,0,0:0:0:0:
104,160,243856,1,0,0:0:0:0:
256,96,244006,1,0,0:0:0:0:
104,160,244156,2,0,P|136:192|136:240,1,67.5000025749208
304,128,244456,6,4,B|272:96|304:64|192:32,1,135.000005149842
96,128,244906,1,0,0:0:0:0:
208,32,245056,1,0,0:0:0:0:
96,128,245206,1,0,0:0:0:0:
208,32,245356,2,0,P|224:64|192:112,1,67.5000025749208
128,208,245656,6,4,B|192:224|240:192|288:208,1,135.000005149842
320,80,246106,1,0,0:0:0:0:
256,208,246256,1,0,0:0:0:0:
320,80,246406,1,0,0:0:0:0:
256,208,246556,2,0,L|192:272,1,67.5000025749208
176,96,246856,5,6,0:0:0:0:
320,240,247006,1,2,0:0:0:0:
336,96,247156,1,2,0:0:0:0:
144,240,247306,1,2,0:0:0:0:
416,320,247456,1,2,0:0:0:0:
336,112,247606,1,2,0:0:0:0:
256,336,247756,1,2,0:0:0:0:
368,256,247906,1,2,0:0:0:0:
128,64,248056,6,4,P|128:112|192:176,1,135.000005149842
304,80,248506,1,0,0:0:0:0:
176,160,248656,1,0,0:0:0:0:
304,80,248806,1,0,0:0:0:0:
176,160,248956,2,0,P|176:208|144:224,1,67.5000025749208
304,224,249256,2,4,B|320:192|288:176|352:80,1,135.000005149842
192,64,249706,1,0,0:0:0:0:
336,96,249856,1,0,0:0:0:0:
192,64,250006,1,0,0:0:0:0:
336,96,250156,2,0,P|352:144|368:160,1,67.5000025749208
288,224,250456,6,4,B|256:208|208:240|144:208,1,135.000005149842
192,96,250906,1,0,0:0:0:0:
144,208,251056,1,0,0:0:0:0:
192,96,251206,1,0,0:0:0:0:
144,208,251356,1,0,0:0:0:0:
192,96,251506,1,0,0:0:0:0:
320,288,251656,5,2,0:0:0:0:
160,224,251806,1,2,0:0:0:0:
384,112,251956,1,2,0:0:0:0:
384,256,252106,1,2,0:0:0:0:
160,128,252256,1,2,0:0:0:0:
240,256,252406,1,2,0:0:0:0:
416,96,252556,1,2,0:0:0:0:
400,224,252706,1,2,0:0:0:0:
160,128,252856,1,2,0:0:0:0:
256,192,253006,12,0,261256,0:0:0:0:
416,144,262456,6,0,B|368:208|368:208|160:272,1,270.000010299683
224,96,263056,1,0,0:0:0:0:
336,80,263506,1,0,0:0:0:0:
336,80,263656,2,8,B|304:144|304:144|352:208,1,135.000005149842
192,176,264256,2,0,B|149:105|149:105|216:76,1,135.000005149842
304,64,264706,1,0,0:0:0:0:
304,64,264856,2,8,L|144:64,1,135.000005149842
240,80,265456,2,0,P|128:112|64:256,1,270.000010299683
288,128,266056,2,0,B|352:176|352:176|272:240,1,135.000005149842
160,176,266656,2,0,P|128:112|144:48,2,135.000005149842
368,128,267256,6,0,B|304:176|304:176|96:224,1,270.000010299683
80,160,267856,2,0,B|128:224|128:224|192:208,2,135.000005149842
416,176,268456,2,0,B|336:208|336:208|144:144,1,270.000010299683
144,64,269056,1,0,0:0:0:0:
240,48,269506,1,0,0:0:0:0:
240,48,269656,2,8,B|288:128|288:128|336:320,1,270.000010299683
96,176,270256,1,0,0:0:0:0:
304,80,270706,5,0,0:0:0:0:
304,80,270856,2,8,B|352:176|352:176|224:320,1,270.000010299683
176,144,271456,2,0,B|176:240|176:240|112:272,1,135.000005149842
416,80,271906,1,0,0:0:0:0:
416,80,272056,2,8,B|224:96|224:96|128:160,1,270.000010299683
288,240,272656,1,0,0:0:0:0:
368,96,273256,2,0,B|288:80|288:80|320:160,1,135.000005149842
320,288,273856,2,0,P|256:256|256:192,1,135.000005149842
192,96,274456,6,0,P|128:128|224:256,1,270.000010299683
320,192,275056,2,0,B|400:144|400:144|320:96,1,135.000005149842
112,128,275656,2,0,B|176:176|176:176|128:256,1,135.000005149842
304,176,276106,1,0,0:0:0:0:
304,176,276256,1,0,0:0:0:0:
192,96,276706,1,0,0:0:0:0:
192,96,276856,2,8,B|96:128|96:128|64:48,1,135.000005149842
256,192,277456,6,0,B|176:224|176:224|256:288,1,135.000005149842
352,160,278056,2,0,B|304:96|304:96|352:48,1,135.000005149842
208,224,278656,2,0,B|256:272|256:272|352:256,1,135.000005149842
352,112,279256,2,0,B|272:64|272:64|96:112,1,270.000010299683
144,240,279856,1,0,0:0:0:0:
144,240,280006,1,0,0:0:0:0:
192,176,280456,5,2,0:0:0:0:
320,208,280606,1,2,0:0:0:0:
192,208,281056,5,2,0:0:0:0:
320,176,281206,1,2,0:0:0:0:
192,240,281656,5,2,0:0:0:0:
320,144,281806,1,2,0:0:0:0:
192,288,282256,5,2,0:0:0:0:
320,96,282406,1,2,0:0:0:0:
192,320,282856,5,2,0:0:0:0:
320,64,283006,1,2,0:0:0:0:
192,352,283456,5,2,0:0:0:0:
320,32,283606,1,2,0:0:0:0:
256,192,286456,5,0,0:0:0:0:
256,192,287656,1,0,0:0:0:0:
256,192,288256,1,0,0:0:0:0:
256,192,288856,1,0,0:0:0:0:
256,192,290056,1,0,0:0:0:0:
256,192,291256,1,0,0:0:0:0:
256,176,291556,1,0,0:0:0:0:
256,160,291856,1,0,0:0:0:0:
256,144,292156,1,0,0:0:0:0:
336,112,292456,6,8,P|368:160|320:272,2,180
240,128,293356,1,0,0:0:0:0:
96,80,293656,5,0,0:0:0:0:
96,80,293731,1,0,0:0:0:0:
96,80,293806,2,0,B|64:192|64:192|144:240,1,180
256,128,294106,1,0,0:0:0:0:
208,272,294256,1,0,0:0:0:0:
368,160,294406,2,0,B|288:64|288:64|208:64,1,180
144,192,294706,1,0,0:0:0:0:
352,112,294856,5,4,0:0:0:0:
336,96,294931,1,0,0:0:0:0:
320,80,295006,2,0,B|208:64|208:64|176:80|128:128,1,180
304,272,295306,1,0,0:0:0:0:
288,64,295456,2,0,B|192:112|192:112|256:176,1,180
96,256,295756,1,0,0:0:0:0:
96,256,295831,1,0,0:0:0:0:
96,256,295906,1,0,0:0:0:0:
352,256,296056,5,0,0:0:0:0:
112,160,296206,1,0,0:0:0:0:
368,272,296356,5,0,0:0:0:0:
248,48,296506,1,0,0:0:0:0:
384,288,296656,5,0,0:0:0:0:
128,168,296806,1,0,0:0:0:0:
400,304,296956,5,0,0:0:0:0:
256,64,297106,1,0,0:0:0:0:
416,320,297256,5,2,0:0:0:0:
344,64,297406,1,2,0:0:0:0:
456,272,297556,1,2,0:0:0:0:
136,176,297706,1,2,0:0:0:0:
480,216,297856,1,2,0:0:0:0:
224,32,298006,1,2,0:0:0:0:
512,160,298156,1,2,0:0:0:0:
176,272,298306,1,2,0:0:0:0:
176,96,298456,6,6,B|112:160|112:160|160:272,1,180
336,192,298756,1,0,0:0:0:0:
336,176,298831,1,0,0:0:0:0:
336,160,298906,2,0,B|256:112|256:112|144:112,1,180
392,240,299206,1,0,0:0:0:0:
192,244,299356,1,0,0:0:0:0:
120,144,299506,1,0,0:0:0:0:
120,144,299656,6,4,B|88:48|88:48|184:48,1,180
64,288,299956,2,0,B|160:304|160:304|304:304,1,180
352,144,300256,1,0,0:0:0:0:
352,144,300331,1,0,0:0:0:0:
352,144,300406,1,0,0:0:0:0:
192,224,300556,2,0,B|272:272|272:272|176:320,1,180
160,32,300856,5,4,0:0:0:0:
256,240,301006,1,0,0:0:0:0:
128,64,301156,1,0,0:0:0:0:
256,256,301306,1,0,0:0:0:0:
96,96,301456,1,0,0:0:0:0:
256,272,301606,1,0,0:0:0:0:
64,128,301756,1,0,0:0:0:0:
256,288,301906,1,0,0:0:0:0:
416,32,302056,5,2,0:0:0:0:
64,224,302206,1,2,0:0:0:0:
384,256,302356,1,2,0:0:0:0:
208,32,302506,1,2,0:0:0:0:
208,288,302656,1,2,0:0:0:0:
432,80,302806,1,2,0:0:0:0:
176,96,302956,1,2,0:0:0:0:
432,320,303106,1,2,0:0:0:0:
96,240,303256,6,6,B|192:208|192:208|224:128,1,180
352,64,303556,1,0,0:0:0:0:
352,64,303631,1,0,0:0:0:0:
352,64,303706,2,0,B|352:160|352:160|272:240,1,180
192,96,304006,1,0,0:0:0:0:
192,96,304081,1,0,0:0:0:0:
192,96,304156,1,0,0:0:0:0:
272,256,304306,1,0,0:0:0:0:
336,80,304456,6,4,B|240:32|240:32|176:112,1,180
128,176,304756,1,0,0:0:0:0:
128,176,304906,2,0,B|32:160|32:160|96:272,1,180
112,288,305206,1,0,0:0:0:0:
112,288,305281,1,0,0:0:0:0:
112,288,305356,2,0,B|240:272|240:272|352:240,1,180
176,192,305656,5,4,0:0:0:0:
336,192,305806,1,0,0:0:0:0:
160,176,305956,1,0,0:0:0:0:
352,208,306106,1,0,0:0:0:0:
144,160,306256,1,0,0:0:0:0:
368,224,306406,1,0,0:0:0:0:
128,144,306556,1,0,0:0:0:0:
384,240,306706,1,0,0:0:0:0:
112,128,306856,5,2,0:0:0:0:
392,224,307006,1,2,0:0:0:0:
104,144,307156,1,2,0:0:0:0:
400,208,307306,1,2,0:0:0:0:
96,160,307456,1,2,0:0:0:0:
408,192,307606,1,2,0:0:0:0:
88,176,307756,1,2,0:0:0:0:
416,176,307906,1,2,0:0:0:0:
73,192,308056,6,2,B|153:144|153:144|281:144,1,180,2|6,0:0|0:0,0:0:0:0:
256,144,308281,1,0,0:0:0:0:
267,144,308356,1,0,0:0:0:0:
336,248,308506,1,0,0:0:0:0:
336,248,308581,1,0,0:0:0:0:
336,248,308656,2,0,B|224:248|224:248|176:312,1,180
112,112,308956,2,0,B|224:80|224:80|304:128,1,180
128,288,309256,6,4,B|208:256|224:240|224:240|288:272,1,180
352,64,309556,1,0,0:0:0:0:
352,64,309631,1,0,0:0:0:0:
352,64,309706,1,0,0:0:0:0:
192,80,309856,2,0,B|160:192|160:192|256:256,1,180
320,208,310156,2,0,B|432:224|432:224|400:304,1,180
112,32,310456,5,4,0:0:0:0:
256,272,310606,1,0,0:0:0:0:
80,64,310756,1,0,0:0:0:0:
256,288,310906,1,0,0:0:0:0:
48,96,311056,1,0,0:0:0:0:
256,304,311206,1,0,0:0:0:0:
16,128,311356,1,0,0:0:0:0:
256,320,311506,1,0,0:0:0:0:
416,64,311656,5,2,0:0:0:0:
88,168,311806,1,2,0:0:0:0:
240,328,311956,1,2,0:0:0:0:
256,40,312106,1,2,0:0:0:0:
32,192,312256,1,2,0:0:0:0:
432,304,312406,1,2,0:0:0:0:
160,32,312556,1,2,0:0:0:0:
144,288,312706,1,2,0:0:0:0:
319,178,312856,5,4,0:0:0:0:
300,161,312931,1,0,0:0:0:0:
286,135,313006,1,0,0:0:0:0:
282,111,313081,1,0,0:0:0:0:
279,83,313156,1,0,0:0:0:0:
268,60,313231,1,0,0:0:0:0:
247,43,313306,1,0,0:0:0:0:
223,35,313381,1,0,0:0:0:0:
194,31,313456,2,0,P|154:131|198:163,1,135.000005149842
320,168,313756,5,2,0:0:0:0:
200,284,313906,1,2,0:0:0:0:
175,86,314056,5,0,0:0:0:0:
161,82,314131,1,0,0:0:0:0:
147,83,314206,1,0,0:0:0:0:
135,90,314281,1,0,0:0:0:0:
125,99,314356,1,8,0:0:0:0:
117,110,314431,1,0,0:0:0:0:
110,121,314506,1,0,0:0:0:0:
105,133,314581,1,0,0:0:0:0:
102,146,314656,5,8,0:0:0:0:
101,159,314731,1,0,0:0:0:0:
101,172,314806,1,0,0:0:0:0:
102,185,314881,1,0,0:0:0:0:
104,198,314956,2,0,B|184:226|184:226|272:210,1,135.000005149842
188,136,315256,5,2,0:0:0:0:
408,60,315406,1,2,0:0:0:0:
344,280,315556,1,2,0:0:0:0:
124,172,315706,5,2,0:0:0:0:
384,96,315856,1,2,0:0:0:0:
320,304,316006,1,2,0:0:0:0:
88,216,316156,5,2,0:0:0:0:
356,128,316306,1,2,0:0:0:0:
300,348,316456,1,0,0:0:0:0:
295,327,316531,1,0,0:0:0:0:
285,310,316606,1,0,0:0:0:0:
267,293,316681,1,0,0:0:0:0:
257,274,316756,1,8,0:0:0:0:
256,253,316831,1,0,0:0:0:0:
268,237,316906,1,0,0:0:0:0:
281,223,316981,1,0,0:0:0:0:
295,211,317056,6,0,B|263:135|263:135|307:71,1,135.000005149842,0|2,0:0|0:0,0:0:0:0:
376,140,317356,2,0,B|396:64|396:64|344:36,1,135.000005149842
136,276,317656,1,0,0:0:0:0:
356,160,317806,1,0,0:0:0:0:
140,88,317956,1,0,0:0:0:0:
284,320,318106,1,0,0:0:0:0:
404,76,318256,1,0,0:0:0:0:
96,232,318406,1,0,0:0:0:0:
356,292,318556,1,0,0:0:0:0:
192,64,318706,1,0,0:0:0:0:
184,216,318856,5,0,0:0:0:0:
204,220,318931,1,0,0:0:0:0:
224,224,319006,1,0,0:0:0:0:
244,227,319081,1,0,0:0:0:0:
264,228,319156,1,8,0:0:0:0:
287,228,319231,1,0,0:0:0:0:
306,225,319306,1,0,0:0:0:0:
327,219,319381,1,0,0:0:0:0:
344,212,319456,6,0,B|368:124|368:124|280:116,1,135.000005149842
240,168,319756,2,0,B|260:240|260:240|200:264,1,135.000005149842
72,108,320056,1,4,0:0:0:0:
256,264,320206,1,0,0:0:0:0:
48,152,320356,1,0,0:0:0:0:
256,276,320506,1,0,0:0:0:0:
32,204,320656,1,0,0:0:0:0:
256,288,320806,1,0,0:0:0:0:
24,260,320956,1,0,0:0:0:0:
256,304,321106,1,0,0:0:0:0:
392,80,321256,5,4,0:0:0:0:
96,164,321406,1,0,0:0:0:0:
328,336,321556,1,0,0:0:0:0:
300,64,321706,1,0,0:0:0:0:
100,260,321856,1,0,0:0:0:0:
432,184,322006,1,0,0:0:0:0:
192,48,322156,1,0,0:0:0:0:
348,336,322306,1,0,0:0:0:0:
152,192,322456,5,12,0:0:0:0:
164,160,322531,1,0,0:0:0:0:
184,132,322606,1,0,0:0:0:0:
208,108,322681,1,0,0:0:0:0:
236,92,322756,1,12,0:0:0:0:
268,80,322831,1,0,0:0:0:0:
300,72,322906,1,0,0:0:0:0:
332,68,322981,1,0,0:0:0:0:
364,76,323056,6,0,P|384:144|352:184,1,67.5000025749208
328,224,323206,2,0,P|304:156|276:132,1,67.5000025749208
288,128,323356,1,0,0:0:0:0:
264,112,323431,1,0,0:0:0:0:
236,108,323506,1,0,0:0:0:0:
208,112,323581,1,0,0:0:0:0:
188,128,323656,5,12,0:0:0:0:
176,152,323731,1,0,0:0:0:0:
176,180,323806,1,0,0:0:0:0:
188,204,323881,1,0,0:0:0:0:
208,220,323956,1,12,0:0:0:0:
220,244,324031,1,0,0:0:0:0:
304,264,324106,1,0,0:0:0:0:
320,244,324181,1,0,0:0:0:0:
332,220,324256,5,12,0:0:0:0:
328,192,324331,1,0,0:0:0:0:
316,168,324406,1,0,0:0:0:0:
320,140,324481,1,0,0:0:0:0:
336,120,324556,1,12,0:0:0:0:
348,96,324631,1,0,0:0:0:0:
344,68,324706,2,0,P|300:12|272:16,1,67.5000025749208
136,96,324856,1,12,0:0:0:0:
392,224,325006,5,2,0:0:0:0:
360,44,325156,1,2,0:0:0:0:
196,296,325306,1,2,0:0:0:0:
168,68,325456,1,2,0:0:0:0:
316,316,325606,1,2,0:0:0:0:
444,64,325756,1,2,0:0:0:0:
144,280,325906,1,2,0:0:0:0:
188,72,326056,1,2,0:0:0:0:
292,332,326206,1,2,0:0:0:0:
340,48,326356,1,2,0:0:0:0:
180,336,326506,1,2,0:0:0:0:
212,48,326656,1,2,0:0:0:0:
320,312,326806,1,2,0:0:0:0:
296,48,326956,1,2,0:0:0:0:
132,304,327106,1,2,0:0:0:0:
332,88,327256,6,0,B|388:136|388:136|368:216,1,135.000005149842
204,172,327556,1,0,0:0:0:0:
372,192,327706,1,0,0:0:0:0:
200,172,327856,2,0,B|124:236|124:236|168:276|132:308,1,135.000005149842
336,116,328156,1,0,0:0:0:0:
304,308,328306,1,0,0:0:0:0:
180,232,328456,5,0,0:0:0:0:
168,208,328531,1,0,0:0:0:0:
160,184,328606,1,0,0:0:0:0:
156,156,328681,1,0,0:0:0:0:
162,131,328756,1,8,0:0:0:0:
180,112,328831,1,0,0:0:0:0:
208,108,328906,1,0,0:0:0:0:
229,126,328981,1,0,0:0:0:0:
255,143,329056,1,8,0:0:0:0:
280,144,329131,6,0,B|360:116|360:116|440:224,1,202.500007724762
432,236,329431,1,0,0:0:0:0:
428,264,329506,1,0,0:0:0:0:
412,288,329581,1,0,0:0:0:0:
392,308,329656,1,12,0:0:0:0:
312,288,329731,5,0,0:0:0:0:
296,268,329806,1,0,0:0:0:0:
280,247,329881,1,0,0:0:0:0:
271,222,329956,1,12,0:0:0:0:
272,196,330031,1,0,0:0:0:0:
280,172,330106,1,0,0:0:0:0:
296,148,330181,1,0,0:0:0:0:
308,124,330256,1,12,0:0:0:0:
308,96,330331,1,0,0:0:0:0:
288,76,330406,1,0,0:0:0:0:
264,62,330481,1,0,0:0:0:0:
235,71,330556,5,12,0:0:0:0:
206,90,330631,1,0,0:0:0:0:
173,60,330706,1,0,0:0:0:0:
135,63,330781,1,0,0:0:0:0:
93,79,330856,1,12,0:0:0:0:
71,121,330931,1,0,0:0:0:0:
58,172,331006,1,0,0:0:0:0:
73,218,331081,1,0,0:0:0:0:
104,260,331156,5,12,0:0:0:0:
136,299,331231,1,0,0:0:0:0:
175,324,331306,1,0,0:0:0:0:
224,328,331381,1,0,0:0:0:0:
272,304,331456,1,12,0:0:0:0:
304,260,331531,1,0,0:0:0:0:
280,212,331606,1,0,0:0:0:0:
240,176,331681,1,0,0:0:0:0:
240,124,331756,1,12,0:0:0:0:
264,76,331831,1,0,0:0:0:0:
316,56,331906,1,0,0:0:0:0:
368,72,331981,1,0,0:0:0:0:
396,104,332056,6,12,B|328:184|328:184|240:188,1,135.000005149842
152,72,332356,1,0,0:0:0:0:
184,264,332506,1,0,0:0:0:0:
344,120,332656,1,0,0:0:0:0:
88,200,332806,2,0,B|152:252|152:252|248:232,1,135.000005149842
220,64,333106,1,0,0:0:0:0:
256,268,333256,1,4,0:0:0:0:
64,188,333406,1,0,0:0:0:0:
288,144,333556,2,0,B|344:92|344:92|392:140,1,135.000005149842
192,288,333856,5,0,0:0:0:0:
248,84,334006,1,0,0:0:0:0:
128,104,334156,2,0,B|160:188|160:188|104:244,1,135.000005149842
260,148,334456,2,4,B|300:84|300:84|360:128,1,135.000005149842
144,192,334756,1,0,0:0:0:0:
332,256,334906,1,0,0:0:0:0:
244,276,335056,2,0,L|392:200,1,135.000005149842
268,104,335356,1,0,0:0:0:0:
346,305,335506,1,0,0:0:0:0:
156,200,335656,6,4,B|152:108|152:108|216:92,1,135.000005149842
272,176,335956,1,0,0:0:0:0:
128,288,336106,1,0,0:0:0:0:
320,256,336256,2,0,B|368:192|368:192|304:128,1,135.000005149842
176,272,336556,1,0,0:0:0:0:
272,96,336706,1,0,0:0:0:0:
304,272,336856,6,4,B|368:240|368:240|320:192|384:128|384:32,1,270.000010299683
288,64,337306,1,0,0:0:0:0:
288,64,337456,2,0,B|320:160|320:160|256:224,1,135.000005149842
256,320,337756,1,0,0:0:0:0:
128,160,337906,1,0,0:0:0:0:
112,304,338056,6,4,B|176:272|176:272|256:304|320:208|336:128,1,270.000010299683
128,96,338506,1,0,0:0:0:0:
324,63,338656,1,0,0:0:0:0:
144,208,338806,1,0,0:0:0:0:
144,208,338956,2,0,L|288:208,1,135.000005149842
288,112,339256,6,4,B|240:64|240:64|160:96|80:48|16:144,1,270.000010299683
128,304,339706,1,0,0:0:0:0:
256,64,339856,1,0,0:0:0:0:
320,272,340006,1,0,0:0:0:0:
112,176,340156,1,0,0:0:0:0:
352,96,340306,1,0,0:0:0:0:
224,256,340456,6,6,B|288:224|288:224|352:256|368:224,1,135.000005149842
288,128,340756,2,2,B|224:64|224:64|160:48,1,135.000005149842
160,192,341056,2,2,B|192:256|192:256|160:320|208:336,1,135.000005149842
304,208,341356,2,0,B|336:144|336:144|288:96,1,135.000005149842
144,64,341656,1,0,0:0:0:0:
144,64,341731,1,0,0:0:0:0:
144,64,341806,1,0,0:0:0:0:
128,192,341956,2,0,B|176:240|176:240|224:208,1,107.999996704102
336,80,342256,1,0,0:0:0:0:
176,128,342406,1,0,0:0:0:0:
320,208,342556,2,0,B|272:272|224:272|224:272|224:240,1,107.999996704102
208,176,342856,6,4,B|192:96|192:96|256:96|320:48,1,215.999993408203
352,224,343306,1,0,0:0:0:0:
224,128,343456,2,0,B|160:128|128:176|128:176|128:192,1,107.999996704102
192,304,343756,1,0,0:0:0:0:
288,176,343906,1,0,0:0:0:0:
160,48,344056,6,4,B|112:80|112:80|160:128|96:208|96:272,1,215.999993408203
368,96,344506,1,0,0:0:0:0:
304,288,344656,1,0,0:0:0:0:
176,112,344806,1,0,0:0:0:0:
416,224,344956,1,0,0:0:0:0:
192,288,345106,1,0,0:0:0:0:
192,144,345256,6,4,B|160:96|160:96|192:32,1,107.999996704102
304,112,345556,2,0,B|320:176|288:208|352:256,1,107.999996704102
176,240,345856,2,0,B|128:192|128:192|48:192,1,107.999996704102
336,112,346156,2,0,P|304:64|224:64,1,107.999996704102
163,124,346456,5,4,0:0:0:0:
163,124,346531,1,0,0:0:0:0:
163,124,346606,2,0,B|176:204|176:204|229:238,1,107.999996704102
317,104,346906,1,0,0:0:0:0:
131,142,347056,1,0,0:0:0:0:
131,142,347206,2,0,B|150:79|150:79|206:62,1,107.999996704102
227,231,347506,1,0,0:0:0:0:
352,199,347656,6,4,B|315:133|359:93|221:39,1,215.999993408203
146,157,348106,1,0,0:0:0:0:
330,59,348256,1,0,0:0:0:0:
271,213,348406,1,0,0:0:0:0:
271,213,348556,2,0,B|233:263|233:263|152:272,1,107.999996704102
112,128,348856,5,12,0:0:0:0:
123,116,348931,1,0,0:0:0:0:
132,102,349006,1,0,0:0:0:0:
142,90,349081,1,0,0:0:0:0:
154,79,349156,1,12,0:0:0:0:
167,71,349231,1,0,0:0:0:0:
182,67,349306,1,0,0:0:0:0:
198,67,349381,1,0,0:0:0:0:
223,73,349456,1,12,0:0:0:0:
246,86,349531,1,0,0:0:0:0:
262,107,349606,1,0,0:0:0:0:
267,133,349681,1,0,0:0:0:0:
264,159,349756,5,12,0:0:0:0:
251,183,349831,1,0,0:0:0:0:
238,206,349906,1,0,0:0:0:0:
225,232,349981,1,0,0:0:0:0:
227,267,350056,1,12,0:0:0:0:
240,294,350131,1,0,0:0:0:0:
272,312,350206,1,0,0:0:0:0:
308,320,350281,1,0,0:0:0:0:
345,316,350356,5,12,0:0:0:0:
378,298,350431,1,0,0:0:0:0:
407,274,350506,1,0,0:0:0:0:
427,242,350581,1,0,0:0:0:0:
440,195,350656,1,12,0:0:0:0:
432,146,350731,1,0,0:0:0:0:
399,110,350806,1,0,0:0:0:0:
355,88,350881,1,0,0:0:0:0:
296,75,350956,1,12,0:0:0:0:
238,90,351031,1,0,0:0:0:0:
213,143,351106,1,0,0:0:0:0:
232,198,351181,1,0,0:0:0:0:
286,220,351256,1,14,0:0:0:0:
256,192,351406,12,0,354856,0:0:0:0:
