osu file format v14

[General]
AudioFilename: audio.mp3
AudioLeadIn: 0
PreviewTime: 47646
Countdown: 1
SampleSet: Soft
StackLeniency: 0.7
Mode: 0
LetterboxInBreaks: 0
WidescreenStoryboard: 0

[Editor]
Bookmarks: 13517,30539,89191
DistanceSpacing: 1.5
BeatDivisor: 4
GridSize: 16
TimelineZoom: 3.419999

[Metadata]
Title:Shoukei to Shikabane no Michi (TV Size)
TitleUnicode:憧憬と屍の道 (TV Size)
Artist:Linked Horizon
ArtistUnicode:Linked Horizon
Creator:nimfa109
Version:Requiem
Source:進撃の巨人
Tags:shingeki no kyojin attack on titan season 3 part 2 three two eren yeager mikasa armin arlert levi ackerman opening revo
BeatmapID:2022158
BeatmapSetID:966044

[Difficulty]
HPDrainRate:6
CircleSize:4
OverallDifficulty:9
ApproachRate:9.8
SliderMultiplier:3.4
SliderTickRate:1

[Events]
//Background and Video events
0,0,"Konachan.com - 245265 sample.jpg",0,0
//Break Periods
//Storyboard Layer 0 (Background)
//Storyboard Layer 1 (Fail)
//Storyboard Layer 2 (Pass)
//Storyboard Layer 3 (Foreground)
//Storyboard Sound Samples

[TimingPoints]
557,337.078651685393,4,2,0,75,1,0
3253,-200,4,2,0,75,0,0
8646,-166.666666666667,4,2,0,75,0,0
24826,-133.333333333333,4,2,0,75,0,0
29545,-100,4,2,0,75,0,0
29882,-125,4,2,0,75,0,0
30219,-166.666666666667,4,2,0,75,0,0
30388,-100,4,2,0,75,0,0
38309,-200,4,2,0,75,0,0
41006,-125,4,2,0,75,0,0
47410,-133.333333333333,4,2,0,75,0,0
47579,-76.9230769230769,4,2,0,75,0,0
47748,-100,4,2,0,75,0,1
57186,-200,4,2,0,75,0,0
58534,-100,4,2,0,75,0,1
62495,-83.3333333333333,4,2,0,75,0,1
63927,-100,4,2,0,75,0,1
82804,-200,4,2,0,75,0,0
84152,-285.714285714286,4,2,0,75,0,0
84995,-285.714285714286,4,2,0,5,0,0
85163,-285.714285714286,4,2,0,50,0,0
89208,-285.714285714286,4,2,0,5,0,0

[HitObjects]
215,129,557,6,0,P|256:114|305:115,1,85
408,102,725,2,0,P|367:117|318:116,1,85
238,29,894,1,0,0:0:0:0:
368,210,1062,2,0,B|381:268|381:268|355:377,1,170
159,210,1399,2,0,B|146:268|146:268|172:377,1,170
215,129,1736,6,0,L|129:121,1,85
19,129,1905,2,0,L|105:121,1,85
167,17,2073,1,0,0:0:0:0:
300,153,2242,2,0,P|281:194|248:212,1,85
338,81,2410,6,0,P|419:55|505:88,1,170
443,265,2663,1,0,0:0:0:0:
443,265,2748,2,0,P|433:220|445:175,1,85
479,149,2916,1,0,0:0:0:0:
457,194,3000,1,0,0:0:0:0:
418,225,3084,1,0,0:0:0:0:
368,235,3168,1,0,0:0:0:0:
320,220,3253,6,0,P|279:214|232:224,1,85
177,337,3590,2,0,P|218:343|265:333,1,85
128,273,3927,5,0,0:0:0:0:
108,384,4096,1,0,0:0:0:0:
25,206,4264,1,0,0:0:0:0:
45,317,4433,1,0,0:0:0:0:
118,142,4601,5,0,0:0:0:0:
118,142,4686,1,0,0:0:0:0:
118,142,4770,2,0,L|205:132,1,85
303,118,5107,1,0,0:0:0:0:
175,48,5276,1,0,0:0:0:0:
205,225,5444,2,0,L|215:312,1,85
114,162,5781,5,0,0:0:0:0:
114,162,5865,1,0,0:0:0:0:
114,162,5950,2,0,L|104:249,1,85
3,98,6287,2,0,L|13:183,1,85
119,74,6624,5,0,0:0:0:0:
195,118,6792,1,0,0:0:0:0:
188,206,6961,1,0,0:0:0:0:
181,294,7130,1,0,0:0:0:0:
248,351,7298,2,0,P|287:361|330:348,1,85
405,243,7635,5,0,0:0:0:0:
405,243,7719,1,0,0:0:0:0:
405,243,7804,1,0,0:0:0:0:
447,355,7972,1,0,0:0:0:0:
503,124,8141,5,0,0:0:0:0:
482,243,8309,1,0,0:0:0:0:
328,195,8478,1,0,0:0:0:0:
349,314,8646,6,0,L|245:327,1,101.999996887207
200,213,8983,2,0,L|301:200,1,101.999996887207
118,155,9321,1,0,0:0:0:0:
118,272,9489,1,0,0:0:0:0:
200,96,9658,2,0,L|301:83,1,101.999996887207
394,8,9995,5,0,0:0:0:0:
394,8,10079,1,0,0:0:0:0:
394,8,10163,2,0,P|424:53|421:101,1,101.999996887207
355,186,10500,1,0,0:0:0:0:
508,146,10669,1,0,0:0:0:0:
468,292,10837,2,0,P|466:342|495:383,1,101.999996887207
275,322,11174,5,0,0:0:0:0:
275,322,11259,1,0,0:0:0:0:
275,322,11343,2,0,L|171:326,1,101.999996887207
312,244,11680,2,0,P|350:279|361:328,1,101.999996887207
219,193,12017,2,0,P|254:155|303:144,1,101.999996887207
102,265,12354,2,0,P|82:217|93:168,1,101.999996887207
190,31,12691,5,0,0:0:0:0:
97,75,12860,1,0,0:0:0:0:
181,133,13028,1,0,0:0:0:0:
189,234,13197,1,0,0:0:0:0:
266,299,13365,1,0,0:0:0:0:
366,290,13534,5,0,0:0:0:0:
379,240,13618,1,0,0:0:0:0:
393,191,13703,1,0,0:0:0:0:
368,146,13787,1,0,0:0:0:0:
343,102,13871,1,0,0:0:0:0:
368,57,13956,1,0,0:0:0:0:
393,13,14040,5,0,0:0:0:0:
267,103,14208,1,0,0:0:0:0:
295,255,14377,1,0,0:0:0:0:
422,343,14545,1,0,0:0:0:0:
320,180,14714,2,0,P|267:181|227:212,1,101.999996887207
200,333,15051,1,0,0:0:0:0:
91,265,15219,1,0,0:0:0:0:
216,86,15388,5,0,0:0:0:0:
111,118,15556,2,0,L|12:146,1,101.999996887207
321,54,15894,1,0,0:0:0:0:
321,54,15978,1,0,0:0:0:0:
321,54,16062,2,0,L|420:82,2,101.999996887207
385,179,16568,1,0,0:0:0:0:
303,364,16736,2,0,P|286:317|302:270,1,101.999996887207
393,279,17073,5,0,0:0:0:0:
368,190,17242,1,0,0:0:0:0:
277,180,17410,1,0,0:0:0:0:
208,241,17579,1,0,0:0:0:0:
233,330,17748,1,0,0:0:0:0:
147,170,17916,1,0,0:0:0:0:
294,184,18085,6,0,P|344:168|373:125,1,101.999996887207
191,104,18422,2,0,L|177:209,1,101.999996887207
280,86,18759,1,0,0:0:0:0:
297,212,18927,2,0,L|311:317,1,101.999996887207
158,189,19264,1,0,0:0:0:0:
158,189,19349,1,0,0:0:0:0:
158,189,19433,2,0,P|67:195|16:291,1,203.999993774414
219,248,19939,2,0,P|242:193|231:150,1,101.999996887207
150,355,20276,2,0,L|256:345,1,101.999996887207
335,381,20613,5,0,0:0:0:0:
404,211,20781,1,0,0:0:0:0:
431,298,20950,1,0,0:0:0:0:
339,289,21118,1,0,0:0:0:0:
312,202,21287,1,0,0:0:0:0:
377,124,21455,2,0,P|438:127|470:154,1,101.999996887207
285,115,21792,2,0,P|228:91|188:102,1,101.999996887207
0,172,22130,6,0,P|98:211|120:301,1,203.999993774414
47,372,22635,1,0,0:0:0:0:
262,294,22804,1,0,0:0:0:0:
262,294,22888,1,0,0:0:0:0:
262,294,22972,1,0,0:0:0:0:
477,372,23141,2,0,L|375:385,1,101.999996887207
477,212,23478,2,0,L|375:199,1,101.999996887207
229,129,23815,5,0,0:0:0:0:
228,69,23899,1,0,0:0:0:0:
266,22,23983,1,0,0:0:0:0:
325,12,24067,1,0,0:0:0:0:
377,42,24152,2,0,L|388:99,1,50.9999984436036
303,163,24321,2,0,L|292:219,1,50.9999984436036
377,283,24489,2,0,L|387:339,1,50.9999984436036
289,141,24658,2,0,L|278:197,1,50.9999984436036
387,253,24826,6,0,P|449:267|504:236,1,127.500004863739
428,149,25163,1,0,0:0:0:0:
362,243,25332,1,0,0:0:0:0:
314,139,25500,1,0,0:0:0:0:
380,45,25669,1,0,0:0:0:0:
248,45,25837,1,0,0:0:0:0:
181,158,26006,1,0,0:0:0:0:
229,262,26174,6,0,P|244:327|225:385,1,127.500004863739
29,312,26512,2,0,P|94:297|152:316,1,127.500004863739
452,363,26849,2,0,P|387:378|329:359,1,127.500004863739
396,158,27186,2,0,P|411:223|392:281,1,127.500004863739
289,131,27523,5,0,0:0:0:0:
507,167,27691,1,0,0:0:0:0:
222,46,27860,5,0,0:0:0:0:
440,10,28028,1,0,0:0:0:0:
266,156,28197,5,0,0:0:0:0:
474,229,28365,1,0,0:0:0:0:
345,45,28534,2,0,L|351:175,1,127.500004863739
187,267,28871,2,0,L|181:137,1,127.500004863739
273,12,29208,1,0,0:0:0:0:
177,49,29377,1,0,0:0:0:0:
463,106,29545,6,0,P|428:180|350:175,1,170
391,113,29882,6,0,L|391:324,1,204
313,259,30219,6,0,L|279:297,1,50.9999984436036
197,344,30388,2,0,L|112:350,1,85
38,251,30556,2,0,L|123:258,1,85
196,159,30725,2,0,L|111:165,1,85
298,59,30894,2,0,L|214:66,1,85
356,146,31062,2,0,L|271:152,1,85
413,232,31231,2,0,L|329:239,1,85
183,234,31399,5,0,0:0:0:0:
102,186,31483,1,0,0:0:0:0:
99,91,31568,2,0,P|116:51|148:23,1,85
298,59,31736,2,0,P|265:88|224:99,1,85
425,66,31905,2,0,P|426:109|409:148,1,85
255,258,32073,1,0,0:0:0:0:
344,234,32157,1,0,0:0:0:0:
430,267,32242,2,0,L|446:357,1,85
259,234,32410,2,0,L|273:150,1,85
205,22,32579,5,0,0:0:0:0:
120,57,32663,1,0,0:0:0:0:
72,136,32747,1,0,0:0:0:0:
79,228,32831,1,0,0:0:0:0:
126,310,32916,2,0,L|218:323,1,85
367,186,33085,5,0,0:0:0:0:
292,195,33169,1,0,0:0:0:0:
240,249,33253,1,0,0:0:0:0:
234,324,33337,1,0,0:0:0:0:
288,380,33422,2,0,P|349:389|394:371,1,85
457,142,33590,2,0,P|397:159|364:194,1,85
481,335,33759,2,0,P|463:275|428:242,1,85
243,166,33927,2,0,P|234:227|252:272,1,85
322,84,34096,5,0,0:0:0:0:
252,55,34180,1,0,0:0:0:0:
180,75,34264,2,0,P|109:77|30:19,1,170
142,184,34517,1,0,0:0:0:0:
142,184,34601,2,0,L|137:274,1,85
338,167,34770,2,0,L|347:336,1,170
372,78,35023,1,0,0:0:0:0:
372,78,35107,2,0,P|420:77|466:109,1,85
308,250,35276,2,0,P|268:234|242:201,1,85
249,48,35444,2,0,L|162:64,1,85
94,262,35613,6,0,P|116:166|85:95,1,170
33,346,35865,1,0,0:0:0:0:
33,346,35950,2,0,L|204:342,1,170
365,200,36203,1,0,0:0:0:0:
365,200,36288,2,0,L|198:240,1,170
327,114,36624,5,0,0:0:0:0:
423,124,36708,1,0,0:0:0:0:
458,214,36792,1,0,0:0:0:0:
395,288,36876,1,0,0:0:0:0:
298,251,36961,5,0,0:0:0:0:
321,367,37130,1,0,0:0:0:0:
205,251,37298,1,0,0:0:0:0:
182,367,37467,1,0,0:0:0:0:
324,251,37635,5,0,0:0:0:0:
347,367,37804,1,0,0:0:0:0:
179,251,37972,1,0,0:0:0:0:
156,367,38141,1,0,0:0:0:0:
252,206,38309,6,0,L|252:120,1,85
112,44,38646,1,0,0:0:0:0:
54,130,38814,1,0,0:0:0:0:
113,216,38983,2,0,P|121:261|107:305,1,85
43,106,39321,2,0,P|32:65|39:23,1,85
158,130,39658,5,0,0:0:0:0:
251,136,39826,1,0,0:0:0:0:
344,143,39995,1,0,0:0:0:0:
437,149,40163,1,0,0:0:0:0:
309,304,40332,5,0,0:0:0:0:
277,216,40500,1,0,0:0:0:0:
310,110,40669,1,0,0:0:0:0:
429,65,40837,1,0,0:0:0:0:
272,190,41006,5,0,0:0:0:0:
357,191,41090,1,0,0:0:0:0:
200,147,41174,2,0,P|160:137|126:140,1,68
196,311,41343,2,0,L|331:306,1,136
343,55,41596,1,0,0:0:0:0:
343,55,41680,2,0,L|138:47,1,204
423,191,42017,2,0,P|430:146|422:119,1,68
291,186,42186,5,0,0:0:0:0:
203,196,42270,1,0,0:0:0:0:
123,234,42354,2,0,P|116:277|124:306,1,68
180,125,42523,2,0,P|168:83|148:60,1,68
242,275,42691,1,0,0:0:0:0:
242,275,42776,2,0,L|379:269,1,136
356,103,43028,6,0,L|348:175,1,68
470,295,43197,2,0,L|462:227,1,68
343,77,43365,2,0,L|322:146,1,68
284,344,43534,2,0,P|226:306|158:310,1,136
172,209,43787,1,0,0:0:0:0:
172,209,43871,2,0,P|177:175|171:131,1,68
156,12,44040,6,0,L|228:9,1,68
93,119,44208,2,0,L|165:116,1,68
140,2,44377,2,0,L|212:-1,1,68
77,109,44545,2,0,L|149:106,1,68
323,77,44714,2,0,P|332:171|255:245,1,204
108,189,45051,6,0,P|149:187|181:194,1,68
280,260,45219,2,0,P|310:287|328:315,1,68
191,339,45388,2,0,P|188:297|195:264,1,68
261,166,45556,2,0,P|288:135|315:117,1,68
420,78,45725,6,0,L|412:146,1,68
402,236,45894,2,0,L|394:304,1,68
318,52,46062,2,0,L|310:120,1,68
300,210,46231,2,0,L|292:278,1,68
225,106,46399,2,0,P|170:133|146:204,1,136
210,300,46736,5,0,0:0:0:0:
168,343,46820,1,0,0:0:0:0:
108,352,46904,1,0,0:0:0:0:
56,324,46988,1,0,0:0:0:0:
31,269,47073,1,0,0:0:0:0:
44,209,47158,1,0,0:0:0:0:
72,155,47242,1,0,0:0:0:0:
92,97,47326,1,0,0:0:0:0:
69,40,47410,6,0,P|102:60|141:64,1,63.7500024318696
307,69,47579,2,0,P|253:84|197:75,1,110.499994941712
388,33,47748,6,0,P|394:75|381:120,1,85
282,231,47916,1,0,0:0:0:0:
363,216,48000,1,0,0:0:0:0:
431,263,48085,2,0,L|432:352,1,85
263,208,48253,5,0,0:0:0:0:
186,174,48337,1,0,0:0:0:0:
104,191,48422,2,0,P|47:249|50:339,1,170
135,112,48674,1,0,0:0:0:0:
135,112,48759,2,0,P|146:63|127:18,1,85
0,176,48927,2,0,L|85:188,1,85
270,162,49096,6,0,L|185:174,1,85
321,240,49264,1,0,0:0:0:0:
362,169,49348,1,0,0:0:0:0:
329,94,49433,2,0,P|326:44|347:3,1,85
473,187,49601,2,0,P|440:224|396:238,1,85
238,333,49770,2,0,B|324:325|324:325|409:345,1,170
132,213,50023,1,0,0:0:0:0:
132,213,50107,2,0,L|148:382,1,170
214,62,50444,6,0,P|244:43|295:34,1,85
118,123,50613,2,0,P|98:93|56:63,1,85
238,78,50781,2,0,P|271:67|323:71,1,85
90,128,50950,2,0,P|63:104|15:86,1,85
41,384,51118,2,0,L|58:209,1,170
205,307,51371,1,0,0:0:0:0:
205,307,51455,2,0,L|188:132,1,170
443,103,51708,5,0,0:0:0:0:
365,151,51792,2,0,L|348:320,1,170
188,136,52045,5,0,0:0:0:0:
236,59,52129,2,0,L|405:42,1,170
247,202,52383,5,0,0:0:0:0:
168,226,52467,1,0,0:0:0:0:
105,175,52551,1,0,0:0:0:0:
111,93,52635,2,0,P|111:45|89:10,1,85
18,223,52804,5,0,0:0:0:0:
105,175,52888,1,0,0:0:0:0:
204,192,52972,1,0,0:0:0:0:
273,265,53056,1,0,0:0:0:0:
284,365,53141,6,0,P|378:380|445:351,1,170
366,152,53394,1,0,0:0:0:0:
366,152,53478,2,0,P|447:171|505:232,1,170,0|0,2:0|2:0,2:0:0:0:
272,264,53731,1,0,0:0:0:0:
272,264,53815,2,0,P|211:206|192:125,1,170,0|0,2:0|2:0,2:0:0:0:
226,8,54152,1,0,0:0:0:0:
104,297,54321,6,0,B|191:290|166:369|266:354,1,170
404,321,54658,2,0,L|388:236,1,85
388,136,54826,1,0,0:0:0:0:
388,136,54911,2,0,P|417:59|500:33,1,170
308,70,55163,2,0,L|137:91,1,170
206,328,55500,1,0,0:0:0:0:
230,274,55584,1,0,0:0:0:0:
233,215,55668,1,0,0:0:0:0:
215,159,55752,1,0,0:0:0:0:
177,113,55837,6,0,P|170:155|172:209,1,85
396,113,56006,2,0,P|403:154|401:208,1,85
149,106,56174,2,0,P|141:147|143:201,1,85
424,105,56343,2,0,P|431:146|429:200,1,85
326,251,56512,6,0,L|241:251,1,85
241,43,56680,2,0,L|328:43,1,85
326,272,56849,2,0,L|246:301,1,85
241,24,57017,2,0,L|326:8,1,85
118,17,57186,6,0,B|57:170|205:170|102:370,1,340
47,243,58028,5,0,0:0:0:0:
60,215,58113,1,0,0:0:0:0:
88,189,58197,1,0,0:0:0:0:
132,176,58281,1,0,0:0:0:0:
186,183,58365,1,0,0:0:0:0:
226,233,58450,1,0,0:0:0:0:
240,303,58534,6,0,P|326:318|392:270,1,170
474,156,58787,1,0,0:0:0:0:
474,156,58871,2,0,L|480:243,1,85
342,109,59040,1,0,0:0:0:0:
342,109,59124,2,0,L|336:196,1,85
206,83,59292,1,0,0:0:0:0:
206,83,59377,2,0,P|166:77|113:86,1,85
172,210,59545,1,0,0:0:0:0:
209,284,59629,1,0,0:0:0:0:
190,365,59714,2,0,L|106:382,1,85
69,191,59882,6,0,L|153:207,1,85
329,281,60051,2,0,P|356:316|364:370,1,85
416,193,60219,2,0,P|432:152|475:118,1,85
276,366,60388,2,0,L|105:381,1,170
208,271,60641,1,0,0:0:0:0:
208,271,60725,2,0,P|231:226|229:179,1,85
70,220,60894,1,0,0:0:0:0:
70,220,60978,2,0,P|49:256|46:298,1,85
193,82,61146,5,0,0:0:0:0:
193,82,61231,2,0,L|21:102,1,170
389,129,61483,1,0,0:0:0:0:
389,129,61568,2,0,L|228:192,1,170
464,202,61821,1,0,0:0:0:0:
464,202,61905,2,0,P|492:131|452:39,1,170
375,384,62158,1,0,0:0:0:0:
375,384,62242,2,0,P|346:312|386:220,1,170
269,354,62495,5,0,0:0:0:0:
269,354,62579,2,0,P|225:370|169:362,1,101.999996887207
210,204,62748,1,0,0:0:0:0:
137,135,62832,1,0,0:0:0:0:
38,139,62916,2,0,L|28:242,1,101.999996887207
229,199,63085,6,0,P|285:204|328:235,1,101.999996887207
452,72,63253,2,0,P|399:91|365:132,1,101.999996887207
369,308,63422,5,0,0:0:0:0:
365,226,63506,1,0,0:0:0:0:
310,139,63590,1,0,0:0:0:0:
201,83,63674,1,0,0:0:0:0:
77,156,63759,1,0,0:0:0:0:
75,318,63843,1,0,0:0:0:0:
252,362,63927,6,0,L|269:193,1,170
379,41,64180,1,0,0:0:0:0:
379,41,64264,2,0,L|396:210,1,170
417,358,64517,1,0,0:0:0:0:
417,358,64601,2,0,P|380:370|322:368,1,85
170,271,64770,2,0,P|212:270|252:283,1,85
65,319,64939,2,0,L|61:230,1,85
238,80,65107,2,0,L|234:164,1,85
265,37,65276,6,0,L|257:207,1,170
367,117,65528,1,0,0:0:0:0:
367,117,65613,2,0,P|403:83|440:63,1,85
324,281,65781,2,0,P|288:247|251:227,1,85
412,366,65950,2,0,P|435:290|418:181,1,170
266,344,66287,1,0,0:0:0:0:
183,342,66371,1,0,0:0:0:0:
127,281,66455,1,0,0:0:0:0:
134,199,66539,1,0,0:0:0:0:
198,147,66624,6,0,L|376:141,1,170
218,17,66877,1,0,0:0:0:0:
218,17,66961,2,0,L|48:10,1,170
134,218,67214,1,0,0:0:0:0:
134,218,67298,2,0,P|115:309|60:361,1,170
219,98,67635,6,0,P|263:86|306:88,1,85
406,193,67804,2,0,P|362:181|319:183,1,85
228,359,67972,2,0,L|228:186,1,170
440,274,68225,1,0,0:0:0:0:
440,274,68309,2,0,L|440:187,1,85
443,23,68478,2,0,L|443:109,1,85
344,273,68646,5,0,0:0:0:0:
259,279,68730,1,0,0:0:0:0:
174,286,68815,1,0,0:0:0:0:
95,263,68899,1,0,0:0:0:0:
57,189,68983,1,0,0:0:0:0:
86,112,69067,1,0,0:0:0:0:
162,80,69152,1,0,0:0:0:0:
237,114,69236,1,0,0:0:0:0:
313,153,69321,6,0,P|439:135|481:26,1,255
237,114,69658,1,0,0:0:0:0:
203,189,69742,1,0,0:0:0:0:
238,264,69826,2,0,P|214:342|130:376,1,170
410,40,70163,6,0,L|495:35,1,85
313,153,70332,2,0,L|402:159,1,85
199,249,70500,2,0,L|286:267,1,85
449,376,70669,5,0,0:0:0:0:
449,376,71680,1,0,0:0:0:0:
406,372,71764,1,0,0:0:0:0:
364,368,71849,1,0,0:0:0:0:
302,324,71933,1,0,0:0:0:0:
316,231,72017,2,0,P|282:157|199:134,1,170
76,235,72270,5,0,0:0:0:0:
76,235,72354,2,0,P|119:250|165:247,1,85
229,51,72523,2,0,P|183:55|143:77,1,85
346,56,72691,1,0,0:0:0:0:
428,69,72775,1,0,0:0:0:0:
512,82,72860,2,0,P|513:124|493:174,1,85
420,318,73028,1,0,0:0:0:0:
381,243,73112,1,0,0:0:0:0:
405,160,73197,2,0,L|320:128,1,85
83,305,73365,6,0,P|172:237|236:236,1,170
249,63,73618,1,0,0:0:0:0:
249,63,73703,2,0,L|236:160,1,85
239,359,73871,2,0,P|318:333|369:266,1,170
353,34,74124,1,0,0:0:0:0:
353,34,74208,6,0,L|366:131,1,85
225,231,74377,2,0,L|237:147,1,85
121,34,74545,2,0,L|109:118,1,85
79,337,74714,2,0,B|139:305|139:305|324:330,1,255
346,162,75051,2,0,L|258:150,1,85
403,248,75219,2,0,P|447:182|277:77,1,340
130,205,75725,5,0,0:0:0:0:
178,138,75809,1,0,0:0:0:0:
167,55,75894,2,0,L|77:37,1,85
130,227,76062,2,0,L|220:209,1,85
41,165,76231,2,0,P|20:264|68:317,1,170
224,81,76483,1,0,0:0:0:0:
224,81,76568,2,0,B|399:77|361:247|519:227,1,340
293,128,76989,5,0,0:0:0:0:
293,128,77073,1,0,0:0:0:0:
252,200,77157,1,0,0:0:0:0:
267,282,77241,1,0,0:0:0:0:
331,335,77325,1,0,0:0:0:0:
416,348,77410,2,0,L|247:371,1,170
83,263,77663,5,0,0:0:0:0:
83,263,77748,2,0,P|78:223|87:168,1,85
214,44,77916,2,0,P|219:84|210:139,1,85
45,89,78085,2,0,L|129:82,1,85
255,236,78253,2,0,L|171:229,1,85
305,160,78422,1,0,0:0:0:0:
385,140,78506,1,0,0:0:0:0:
460,177,78590,1,0,0:0:0:0:
491,254,78674,1,0,0:0:0:0:
465,333,78759,6,0,P|435:262|462:175,1,170
395,31,79012,1,0,0:0:0:0:
395,31,79096,2,0,L|388:121,1,85
320,351,79264,2,0,L|306:180,1,170
253,59,79517,1,0,0:0:0:0:
253,59,79601,2,0,P|209:56|160:72,1,85
120,250,79770,1,0,0:0:0:0:
120,250,79854,2,0,P|161:234|198:198,1,85
83,357,80023,5,0,0:0:0:0:
83,357,80107,2,0,L|167:362,1,85
0,182,80276,1,0,0:0:0:0:
0,182,80360,2,0,L|84:177,1,85
353,234,80528,1,0,0:0:0:0:
353,234,80612,2,0,L|269:229,1,85
463,159,80781,2,0,P|490:239|458:318,1,170
334,98,81034,1,0,0:0:0:0:
334,98,81118,2,0,P|323:54|337:5,1,85
228,116,81287,5,0,0:0:0:0:
155,157,81371,1,0,0:0:0:0:
82,200,81455,2,0,P|61:238|68:294,1,85
301,376,81624,5,0,0:0:0:0:
311,283,81708,1,0,0:0:0:0:
324,182,81792,2,0,L|333:97,1,85
178,351,81961,5,0,0:0:0:0:
163,233,82045,1,0,0:0:0:0:
144,114,82130,2,0,L|134:29,1,85
311,283,82298,5,0,0:0:0:0:
428,214,82382,1,0,0:0:0:0:
436,77,82467,2,0,P|454:32|489:5,1,85
130,125,82635,5,0,0:0:0:0:
178,269,82719,1,0,0:0:0:0:
317,335,82804,6,0,P|442:324|453:208,1,255
414,85,83478,2,0,L|323:99,1,85
213,97,83815,2,0,L|128:84,1,85
303,187,84152,2,0,P|275:326|138:289,1,297.499990921021
162,198,85163,5,0,0:0:0:0:
130,130,85500,1,0,0:0:0:0:
256,192,85585,12,0,89208,0:0:0:0:
