osu file format v14

[General]
AudioFilename: audio.mp3
AudioLeadIn: 0
PreviewTime: 134450
Countdown: 0
SampleSet: Soft
StackLeniency: 0.2
Mode: 0
LetterboxInBreaks: 0
WidescreenStoryboard: 1

[Editor]
DistanceSpacing: 1
BeatDivisor: 4
GridSize: 16
TimelineZoom: 1.299999

[Metadata]
Title:Shoukei to Shikabane no Michi
TitleUnicode:憧憬と屍の道
Artist:Linked Horizon
ArtistUnicode:Linked Horizon
Creator:Cheri
Version:Insane
Source:進撃の巨人
Tags:Hailie DJ Lucky Full version shingeki no kyojin attack on titan season 3 part 2 Opening OP Japanese Anime attack on titan
BeatmapID:2208521
BeatmapSetID:1053162

[Difficulty]
HPDrainRate:5
CircleSize:3.5
OverallDifficulty:8
ApproachRate:9
SliderMultiplier:1.45
SliderTickRate:1

[Events]
//Background and Video events
0,0,"realbg.jpg",0,0
//Break Periods
//Storyboard Layer 0 (Background)
//Storyboard Layer 1 (Fail)
//Storyboard Layer 2 (Pass)
//Storyboard Layer 3 (Foreground)
//Storyboard Layer 4 (Overlay)
//Storyboard Sound Samples

[TimingPoints]
9097,337.078651685393,4,2,0,30,1,0
9097,-200,4,2,0,30,0,0
9773,324.324324324324,4,2,0,30,1,0
9773,-200,4,2,0,30,0,0
11070,337.078651685393,4,2,0,30,1,0
11070,-200,4,2,0,30,0,0
12418,327.868852459016,4,2,0,30,1,0
12418,-200,4,2,0,30,0,0
13073,342.857142857143,4,2,0,30,1,0
14444,340.909090909091,4,2,0,30,1,0
14444,-200,4,2,0,30,0,0
16489,329.67032967033,4,2,0,30,1,0
17807,337.078651685393,4,2,0,30,1,0
17807,-200,4,2,0,30,0,0
18481,344.827586206897,4,2,0,30,1,0
19170,333.333333333333,4,2,0,30,1,0
19170,-200,4,2,0,30,0,0
21170,344.332855093257,4,2,0,30,1,0
22530,337.078651685393,4,2,1,70,1,0
22530,-71.4285714285714,4,2,1,70,0,0
25226,-125,4,2,1,40,0,0
30619,-111.111111111111,4,2,1,50,0,0
36013,-95.2380952380952,4,2,1,60,0,0
52192,-68.9655172413793,4,2,1,70,0,0
57586,-57.1428571428571,4,2,1,80,0,0
58934,-133.333333333333,4,2,1,40,0,0
62979,-64.5161290322581,4,2,1,70,0,0
64327,-60.6060606060606,4,2,1,60,0,0
68372,-54.054054054054,4,2,1,70,0,0
69721,-44.4444444444445,4,2,1,80,0,0
79159,-400,4,2,1,30,0,0
80507,-133.333333333333,4,2,1,40,0,0
85732,-100,4,2,1,50,0,0
112867,-133.333333333333,4,2,1,40,0,0
116912,-60.6060606060606,4,2,1,70,0,0
118260,-57.1428571428571,4,2,1,60,0,0
123653,-51.2820512820513,4,2,1,80,0,0
133091,-666.666666666667,4,2,1,30,0,0
134440,337.078651685393,3,2,0,40,1,0
134440,-153.846153846154,4,2,0,40,0,0
150619,-117.64705882353,4,2,0,50,0,0
166799,-105.263157894737,4,2,1,55,0,0
182979,510.63829787234,4,2,1,55,1,0
182979,-76.9230769230769,4,2,1,55,0,0
185021,495.867768595041,4,2,1,55,1,0
186012,505.616557256862,4,2,1,55,1,0
187024,-64.5161290322581,3,2,1,60,0,0
198653,-57.1428571428571,3,2,1,50,0,0
199159,337.078651685393,4,2,1,80,1,1
199159,-44.4444444444445,4,2,1,80,0,1
203203,-44.4444444444445,4,2,1,80,0,0
204552,-44.4444444444445,4,2,1,80,0,1
208597,-42.5531914893617,4,2,1,80,0,1
210114,-40.8163265306122,4,2,1,50,0,0
211968,-37.7358490566038,4,2,1,80,0,0
212632,-666.666666666667,4,2,1,50,0,0
213990,-100,4,2,1,50,0,0
218035,-52.6315789473684,4,2,1,70,0,0
219383,-47.6190476190476,4,2,1,60,0,0
224777,-50,4,2,1,80,0,0
234215,-1000,4,2,1,50,0,0
235058,-200,4,2,1,60,0,0
235226,-66.6666666666667,4,2,1,70,0,0
235563,-47.6190476190476,4,2,1,70,0,0
238260,-45.4545454545455,4,2,1,90,0,1
240956,-43.4782608695652,4,2,1,85,0,0
243653,-41.6666666666667,4,2,1,90,0,1
246350,-66.6666666666667,4,2,1,80,0,0
247192,-38.4615384615386,4,2,1,90,0,0
247698,-1000,4,2,1,50,0,0
248372,-66.6666666666667,4,2,1,70,0,0
249046,-41.6666666666667,4,2,1,90,0,1
258485,-38.4615384615385,4,2,1,90,0,1
259157,-35.7142857142857,4,2,1,95,0,1
259496,-33.3333333333333,4,2,1,100,0,1
259833,-100,4,2,1,50,0,0
260507,-100,4,2,0,20,0,0
262614,-100,4,2,0,5,0,0

[Colours]
Combo1 : 128,128,0
Combo2 : 128,64,64
Combo3 : 255,128,64
Combo4 : 255,0,0

[HitObjects]
26,32,9097,6,0,P|44:126|47:154,1,108.75,2|0,0:0|0:0,0:0:0:0:
140,156,9773,2,0,L|147:235,2,72.5,2|0|0,0:0|0:0|0:0,0:0:0:0:
242,71,11070,2,0,L|319:68,1,72.5,2|0,0:0|0:0,0:0:0:0:
426,76,11744,2,0,L|435:147,1,72.5,2|0,0:0|0:0,0:0:0:0:
470,265,12418,2,0,P|384:258|322:282,1,145,2|2,0:0|0:0,0:0:0:0:
181,255,13757,1,2,0:0:0:0:
181,255,14444,6,0,P|177:171|175:106,1,145,2|0,0:0|0:0,0:0:0:0:
233,0,15466,1,2,0:0:0:0:
357,132,15807,2,0,P|404:117|496:139,1,145,2|0,0:0|0:0,0:0:0:0:
435,269,16818,1,2,0:0:0:0:
357,132,17148,1,2,0:0:0:0:
242,245,17807,2,0,L|166:248,2,72.5,2|0|0,0:0|0:0|0:0,0:0:0:0:
321,189,19170,6,0,L|400:191,2,72.5,2|2|0,0:0|0:0|0:0,0:0:0:0:
170,114,20503,2,0,L|93:118,2,72.5,2|2|2,0:0|0:0|0:0,0:0:0:0:
378,48,21858,1,2,0:0:0:0:
289,318,22530,6,0,L|415:329,2,101.499996902466,2|0|2,0:0|0:0|0:0,0:0:0:0:
263,204,23035,2,0,P|261:141|276:76,1,101.499996902466,10|0,0:0|0:0,0:0:0:0:
357,36,23372,2,0,P|371:98|372:154,1,101.499996902466,2|0,0:0|0:0,0:0:0:0:
431,322,23709,5,10,0:0:0:0:
431,322,23878,1,0,0:0:0:0:
431,322,24046,1,8,0:0:0:0:
364,199,24215,1,2,0:0:0:0:
364,199,24383,2,0,L|227:205,1,101.499996902466,10|0,0:0|0:0,0:0:0:0:
131,86,24721,2,0,L|240:79,1,101.499996902466,8|0,0:0|0:0,0:0:0:0:
394,82,25058,1,8,0:0:0:0:
394,82,25142,1,8,0:0:0:0:
394,82,25226,6,0,L|410:151,1,58,2|0,0:0|0:0,0:0:0:0:
392,256,25563,1,2,0:0:0:0:
392,256,25732,2,0,L|406:332,1,58,0|2,0:0|0:0,0:0:0:0:
261,310,26069,1,0,0:0:0:0:
261,310,26237,2,0,L|187:312,1,58,2|0,0:0|0:0,0:0:0:0:
91,273,26574,2,0,P|83:297|76:339,2,58,2|0|2,0:0|0:0|0:0,0:0:0:0:
168,228,27080,1,0,0:0:0:0:
168,228,27249,2,0,P|168:198|166:162,2,58,2|0|2,0:0|0:0|0:0,0:0:0:0:
244,293,27754,5,2,0:0:0:0:
244,293,27923,2,0,L|326:285,2,58,2|0|2,0:0|0:0|0:0,0:0:0:0:
292,197,28428,1,0,0:0:0:0:
292,197,28597,2,0,L|372:194,1,58,2|0,0:0|0:0,0:0:0:0:
459,125,28934,1,2,0:0:0:0:
459,125,29103,2,0,L|472:48,1,58,0|0,0:0|0:0,0:0:0:0:
362,134,29440,1,0,0:0:0:0:
362,134,29608,2,0,L|344:218,2,58,0|0|2,0:0|0:0|0:0,0:0:0:0:
264,68,30114,5,2,0:0:0:0:
264,68,30282,2,0,L|246:141,1,58,2|0,0:0|0:0,0:0:0:0:
117,234,30619,6,0,L|201:234,1,65.2499980087281,4|0,0:0|0:0,0:0:0:0:
180,334,30956,2,0,L|100:334,2,65.2499980087281,2|0|2,0:0|0:0|0:0,0:0:0:0:
278,255,31462,2,0,L|365:255,1,65.2499980087281,0|2,0:0|0:0,0:0:0:0:
427,165,31799,1,0,0:0:0:0:
427,165,31968,2,0,L|434:86,2,65.2499980087281,2|0|2,0:0|0:0|0:0,0:0:0:0:
302,114,32473,1,0,0:0:0:0:
302,114,32642,2,0,L|308:35,2,65.2499980087281,2|0|2,0:0|0:0|0:0,0:0:0:0:
342,242,33147,5,0,0:0:0:0:
342,242,33316,2,0,P|281:244|189:251,1,130.499996017456,6|2,0:0|0:0,0:0:0:0:
95,328,33822,1,0,0:0:0:0:
95,328,33990,2,0,P|96:266|91:172,1,130.499996017456,2|0,0:0|0:0,0:0:0:0:
185,77,34496,5,0,3:0:0:0:
185,77,34664,2,0,L|189:146,1,65.2499980087281,2|0,0:0|3:0,0:0:0:0:
274,185,35001,2,0,L|287:273,1,65.2499980087281,2|0,0:0|3:0,0:0:0:0:
200,350,35338,2,0,L|196:299,3,32.624999004364,10|10|10|10,0:0|0:0|0:0|0:0,0:0:0:0:
241,353,35676,2,0,L|322:346,1,65.2499980087281,2|2,0:0|0:0,0:0:0:0:
465,271,36013,6,0,P|462:224|481:121,1,152.249995353699,6|8,0:0|0:0,0:0:0:0:
366,48,36518,1,0,0:0:0:0:
366,48,36687,2,0,L|272:35,1,76.1249976768494,2|0,0:0|0:0,0:0:0:0:
186,97,37024,1,8,0:0:0:0:
86,208,37192,1,0,0:0:0:0:
86,208,37361,2,0,P|91:242|94:292,2,76.1249976768494,2|0|8,0:0|0:0|0:0,0:0:0:0:
198,160,37867,1,0,0:0:0:0:
198,160,38035,2,0,P|200:123|207:70,2,76.1249976768494,2|0|8,0:0|0:0|0:0,0:0:0:0:
299,292,38541,1,0,0:0:0:0:
299,292,38709,6,0,L|388:293,2,76.1249976768494,2|0|8,0:0|0:0|0:0,0:0:0:0:
247,181,39215,1,0,0:0:0:0:
247,181,39383,2,0,L|261:82,1,76.1249976768494,2|0,0:0|0:0,0:0:0:0:
371,117,39721,1,8,0:0:0:0:
217,32,39889,1,0,0:0:0:0:
247,181,40058,5,2,0:0:0:0:
247,181,40226,2,0,L|164:176,1,76.1249976768494,0|8,0:0|0:0,0:0:0:0:
166,317,40563,5,0,0:0:0:0:
166,317,40732,2,0,L|263:317,1,76.1249976768494,2|0,0:0|0:0,0:0:0:0:
374,327,41069,1,8,0:0:0:0:
449,205,41237,5,0,0:0:0:0:
449,205,41406,2,0,P|466:107|496:47,1,152.249995353699,6|8,0:0|0:0,0:0:0:0:
332,102,41912,1,0,0:0:0:0:
171,39,42080,5,2,0:0:0:0:
171,39,42249,2,0,L|338:36,1,152.249995353699,0|0,0:0|0:0,0:0:0:0:
254,157,42754,2,0,L|156:146,1,76.1249976768494,2|0,0:0|0:0,0:0:0:0:
46,77,43091,1,8,0:0:0:0:
48,293,43260,2,0,P|114:286|220:307,1,152.249995353699,0|0,0:0|0:0,0:0:0:0:
304,223,43765,5,8,0:0:0:0:
304,223,43934,2,0,L|300:51,1,152.249995353699,0|0,0:0|0:0,0:0:0:0:
434,79,44440,2,0,L|422:166,1,76.1249976768494,8|0,0:0|0:0,0:0:0:0:
395,273,44777,2,0,L|489:279,2,76.1249976768494,2|0|8,0:0|0:0|0:0,0:0:0:0:
298,337,45282,1,8,0:0:0:0:
298,337,45451,2,0,L|190:336,2,76.1249976768494,2|0|2,0:0|0:0|0:0,0:0:0:0:
214,195,45956,5,2,0:0:0:0:
214,195,46125,2,0,L|207:101,1,76.1249976768494,2|2,0:0|0:0,0:0:0:0:
351,118,46462,5,8,0:0:0:0:
265,16,46631,1,8,0:0:0:0:
265,16,46799,6,0,L|179:35,1,76.1249976768494,4|0,0:0|0:0,0:0:0:0:
214,195,47136,1,8,0:0:0:0:
424,174,47305,1,0,0:0:0:0:
424,174,47473,2,0,L|436:76,1,76.1249976768494,2|0,0:0|0:0,0:0:0:0:
416,290,47810,1,8,0:0:0:0:
416,290,47979,1,0,0:0:0:0:
416,290,48147,2,0,P|350:292|247:316,1,152.249995353699,2|8,0:0|0:0,0:0:0:0:
94,251,48653,1,0,0:0:0:0:
94,251,48822,2,0,L|75:84,1,152.249995353699,2|8,0:0|0:0,0:0:0:0:
218,98,49327,5,0,0:0:0:0:
218,98,49496,2,0,P|286:37|362:62,1,152.249995353699,4|8,0:0|0:0,0:0:0:0:
462,141,50001,2,0,L|291:132,1,152.249995353699,0|0,0:0|0:0,0:0:0:0:
247,236,50507,2,0,P|203:205|189:162,1,76.1249976768494,8|0,0:0|0:0,0:0:0:0:
90,31,50844,1,2,0:0:0:0:
90,31,51013,2,0,P|81:123|74:210,1,152.249995353699,0|0,0:0|0:0,0:0:0:0:
92,332,51518,2,0,L|191:322,1,76.1249976768494,8|0,0:0|0:0,0:0:0:0:
268,183,51855,6,0,P|270:138|283:77,1,76.1249976768494,6|0,1:0|0:0,0:0:0:0:
440,26,52192,6,0,L|438:138,1,105.125003208161,2|2,1:0|0:0,0:0:0:0:
367,300,52530,2,0,L|370:184,1,105.125003208161,8|2,0:0|0:0,0:0:0:0:
208,79,52867,1,8,0:0:0:0:
218,261,53035,1,2,0:0:0:0:
369,194,53204,6,0,P|268:162|231:163,1,105.125003208161,6|0,1:0|0:0,0:0:0:0:
112,260,53541,6,0,L|230:261,1,105.125003208161,4|2,0:0|0:0,0:0:0:0:
212,76,53878,2,0,L|73:65,1,105.125003208161,8|0,0:0|0:0,0:0:0:0:
112,260,54215,1,8,0:0:0:0:
212,76,54383,1,8,0:0:0:0:
338,235,54552,6,0,P|284:245|247:313,1,105.125003208161,6|0,1:0|0:0,0:0:0:0:
358,350,54889,5,10,0:0:0:0:
468,217,55058,2,0,P|455:161|449:0,1,210.250006416321,2|0,0:0|0:0,0:0:0:0:
281,53,55563,2,0,P|300:142|307:182,1,105.125003208161,8|2,0:0|0:0,0:0:0:0:
135,222,55900,1,10,0:0:0:0:
306,304,56069,1,2,0:0:0:0:
306,304,56237,6,0,P|228:294|174:317,1,105.125003208161,2|0,0:0|0:0,0:0:0:0:
72,199,56574,1,8,0:0:0:0:
138,32,56743,2,0,P|169:87|211:115,1,105.125003208161,2|0,0:0|0:0,0:0:0:0:
385,145,57080,1,0,0:0:0:0:
202,293,57249,6,0,L|231:175,1,105.125003208161,6|0,0:0|0:0,0:0:0:0:
176,41,57586,6,0,P|234:114|419:134,1,253.750002419949,4|0,1:0|0:0,0:0:0:0:
509,264,58091,2,0,P|384:249|248:271,1,253.750002419949,4|0,1:0|0:0,0:0:0:0:
151,268,58597,2,0,L|123:201,3,63.4375006049872,8|8|8|8,0:0|0:0|0:0|0:0,0:0:0:0:
86,189,58934,6,0,L|84:118,2,54.3750020742417,2|0|2,0:0|0:0|0:0,0:0:0:0:
184,186,59440,2,0,L|181:125,2,54.3750020742417,0|2|0,0:0|0:0|0:0,0:0:0:0:
223,272,59945,1,2,0:0:0:0:
223,272,60114,2,0,P|283:262|340:260,1,108.750004148483,0|0,0:0|0:0,0:0:0:0:
436,232,60619,1,2,0:0:0:0:
436,232,60788,1,0,0:0:0:0:
436,232,60956,2,0,L|436:110,1,108.750004148483,2|2,0:0|0:0,0:0:0:0:
314,34,61631,6,0,L|255:28,2,54.3750020742417,2|0|2,0:0|0:0|0:0,0:0:0:0:
316,133,62136,2,0,L|371:139,2,54.3750020742417,0|2|0,0:0|0:0|0:0,0:0:0:0:
263,217,62642,2,0,L|207:210,1,54.3750020742417,2|2,0:0|0:0,0:0:0:0:
78,117,62979,6,0,P|64:173|79:242,1,112.375000857353,4|0,1:0|0:0,0:0:0:0:
209,210,63232,2,0,P|210:169|175:91,1,112.375000857353,4|0,1:0|0:0,0:0:0:0:
311,53,63485,2,0,P|348:68|454:56,1,112.375000857353,4|2,1:0|0:0,0:0:0:0:
501,210,63822,1,0,0:0:0:0:
376,318,63990,2,0,P|309:322|225:328,1,112.375000857353,6|0,0:0|0:0,0:0:0:0:
151,170,64327,6,0,P|123:117|122:43,1,119.625001140833,2|0,0:0|0:0,0:0:0:0:
278,139,64664,1,8,0:0:0:0:
140,296,64833,1,2,0:0:0:0:
140,296,65001,6,0,P|204:285|274:305,1,119.625001140833,2|0,0:0|0:0,0:0:0:0:
414,185,65338,1,8,0:0:0:0:
240,106,65507,1,2,0:0:0:0:
240,106,65676,6,0,L|263:234,1,119.625001140833,2|0,0:0|0:0,0:0:0:0:
374,355,66013,1,8,0:0:0:0:
190,279,66181,1,2,0:0:0:0:
190,279,66350,6,0,P|131:266|82:302,1,119.625001140833,4|0,0:0|0:0,0:0:0:0:
307,173,66687,6,0,P|347:226|419:221,1,119.625001140833,2|0,1:0|0:0,0:0:0:0:
505,61,67024,6,0,L|495:186,1,119.625001140833,4|0,0:0|0:0,0:0:0:0:
418,348,67361,2,0,P|409:293|389:208,1,119.625001140833,2|0,0:0|0:0,0:0:0:0:
224,134,67698,2,0,L|74:145,1,119.625001140833,2|2,0:0|0:0,0:0:0:0:
210,257,68035,1,2,0:0:0:0:
324,67,68204,1,2,0:0:0:0:
87,91,68372,5,14,0:0:0:0:
210,257,68541,2,0,L|294:264,4,67.0624997441769,2|2|2|8|8,0:0|0:0|0:0|0:0|0:0,0:0:0:0:
103,76,69046,2,0,L|176:81,3,67.0624997441769,8|8|8|8,0:0|0:0|0:0|0:0,0:0:0:0:
211,101,69383,2,0,P|203:176|196:276,1,134.124999488354,2|2,0:0|0:0,0:0:0:0:
329,370,69721,6,0,P|407:343|511:344,1,163.125006222725,2|8,0:0|0:0,0:0:0:0:
492,117,70058,1,2,0:0:0:0:
293,206,70226,1,10,0:0:0:0:
293,206,70395,2,0,P|288:94|260:-8,1,163.125006222725,2|8,0:0|0:0,0:0:0:0:
45,153,70732,1,2,0:0:0:0:
75,334,70900,2,0,L|271:321,1,163.125006222725,8|2,0:0|0:0,0:0:0:0:
446,238,71237,5,8,0:0:0:0:
339,92,71406,1,2,0:0:0:0:
263,218,71574,2,0,L|367:212,1,81.5625031113626,8|0,0:0|0:0,0:0:0:0:
495,150,71743,6,0,P|492:43|459:1,1,163.125006222725,6|0,0:0|0:0,0:0:0:0:
349,92,72080,6,0,P|274:161|267:249,1,163.125006222725,6|0,1:0|0:0,0:0:0:0:
76,322,72417,6,0,P|159:329|237:353,1,163.125006222725,8|2,0:0|0:0,0:0:0:0:
453,116,72754,1,8,0:0:0:0:
427,326,72923,1,2,0:0:0:0:
453,116,73091,2,0,P|411:163|306:169,1,163.125006222725,8|0,0:0|0:0,0:0:0:0:
136,61,73428,1,8,0:0:0:0:
188,202,73597,2,0,L|184:313,1,81.5625031113626,2|0,0:0|0:0,0:0:0:0:
124,365,73765,6,0,P|159:331|281:320,1,163.125006222725,6|0,0:0|0:0,0:0:0:0:
388,333,74018,2,0,P|399:260|442:160,1,163.125006222725,6|0,0:0|0:0,0:0:0:0:
489,35,74271,1,2,0:0:0:0:
303,77,74440,6,0,L|127:50,1,163.125006222725,14|0,0:0|0:0,0:0:0:0:
126,256,74777,6,0,L|305:252,1,163.125006222725,6|0,1:0|0:0,0:0:0:0:
481,177,75114,6,0,P|499:118|449:19,1,163.125006222725,14|0,0:0|0:0,0:0:0:0:
277,132,75451,1,8,0:0:0:0:
363,287,75619,1,2,0:0:0:0:
139,229,75788,1,8,0:0:0:0:
280,305,75956,2,0,P|294:267|316:233,1,81.5625031113626,0|0,0:0|0:0,0:0:0:0:
409,162,76125,1,8,0:0:0:0:
409,162,76294,6,0,P|325:154|242:141,1,163.125006222725,2|8,0:0|0:0,0:0:0:0:
17,245,76631,1,2,0:0:0:0:
54,26,76799,1,8,0:0:0:0:
135,176,76968,2,0,L|120:295,1,81.5625031113626,2|0,0:0|0:0,0:0:0:0:
222,353,77136,6,0,P|316:317|415:317,1,163.125006222725,14|0,0:0|0:0,0:0:0:0:
496,188,77473,6,0,P|400:186|284:204,1,163.125006222725,6|0,1:0|0:0,0:0:0:0:
88,145,77810,6,0,P|61:52|-8:39,1,163.125006222725,14|2,0:0|0:0,0:0:0:0:
236,241,78147,1,8,0:0:0:0:
309,54,78316,1,2,0:0:0:0:
309,54,78485,2,0,L|399:47,3,81.5625031113626,8|8|8|8,0:0|0:0|0:0|0:0,0:0:0:0:
441,81,78822,5,8,0:0:0:0:
444,117,78906,1,8,0:0:0:0:
449,154,78990,1,8,0:0:0:0:
451,203,79074,1,8,0:0:0:0:
450,251,79159,6,0,L|316:249,1,126.875,4|0,0:0|0:0,0:0:0:0:
214,246,80507,6,0,L|219:180,1,54.3750020742417,2|0,0:0|0:0,0:0:0:0:
113,194,80844,2,0,L|109:265,1,54.3750020742417,0|0,0:0|0:0,0:0:0:0:
176,338,81181,2,0,L|302:346,1,108.750004148483,2|0,0:0|0:0,0:0:0:0:
415,306,81687,6,0,P|423:251|442:189,1,108.750004148483,2|0,0:0|0:0,0:0:0:0:
335,99,82192,1,0,0:0:0:0:
335,99,82361,2,0,L|212:88,1,108.750004148483,2|0,0:0|0:0,0:0:0:0:
108,130,82867,5,0,0:0:0:0:
108,130,83035,2,0,P|104:80|131:14,1,108.750004148483,0|0,0:0|0:0,0:0:0:0:
246,39,83541,1,0,0:0:0:0:
246,39,83709,2,0,L|311:35,1,54.3750020742417,2|0,0:0|0:0,0:0:0:0:
311,137,84046,2,0,L|237:139,1,54.3750020742417,2|0,0:0|0:0,0:0:0:0:
112,138,84383,1,2,0:0:0:0:
112,138,84552,2,0,P|89:216|90:263,1,108.750004148483,2|10,0:0|0:0,0:0:0:0:
112,332,85058,1,0,0:0:0:0:
112,332,85226,2,0,L|147:338,4,27.1875010371209,8|8|8|8|8,0:0|0:0|0:0|0:0|0:0,0:0:0:0:
159,252,85732,6,0,P|220:248|319:266,1,145,6|0,0:0|0:0,0:0:0:0:
365,175,86237,2,0,L|369:97,1,72.5,8|0,0:0|0:0,0:0:0:0:
470,19,86574,2,0,P|475:61|469:115,1,72.5,2|0,0:0|0:0,0:0:0:0:
368,102,86912,5,8,0:0:0:0:
368,102,87080,2,0,L|209:100,1,145,6|0,0:0|0:0,0:0:0:0:
76,115,87586,1,8,0:0:0:0:
76,115,87754,2,0,P|84:165|83:197,1,72.5,0|0,0:0|0:0,0:0:0:0:
88,328,88091,2,0,P|123:328|177:328,1,72.5,2|8,0:0|0:0,0:0:0:0:
270,239,88428,6,0,P|273:166|280:94,1,145,6|0,0:0|0:0,0:0:0:0:
389,33,88934,2,0,L|484:26,1,72.5,8|0,0:0|0:0,0:0:0:0:
470,152,89271,2,0,L|389:148,1,72.5,2|0,0:0|0:0,0:0:0:0:
280,94,89608,1,8,0:0:0:0:
155,184,89777,1,8,0:0:0:0:
155,184,89945,6,0,L|164:85,1,72.5,8|0,0:0|0:0,0:0:0:0:
46,219,90282,2,0,L|44:307,1,72.5,8|0,0:0|0:0,0:0:0:0:
178,345,90619,6,0,L|349:334,1,145,2|6,0:0|0:0,0:0:0:0:
486,237,91294,6,0,L|497:317,1,72.5,6|0,0:0|0:0,0:0:0:0:
374,212,91631,1,8,0:0:0:0:
374,212,91799,2,0,P|387:123|417:68,1,145,0|0,0:0|0:0,0:0:0:0:
281,26,92305,2,0,L|198:25,1,72.5,8|0,0:0|0:0,0:0:0:0:
91,116,92642,2,0,P|133:111|250:168,1,145,2|8,0:0|0:0,0:0:0:0:
330,239,93147,2,0,P|290:256|178:243,1,145,0|0,0:0|0:0,0:0:0:0:
77,192,93653,2,0,L|88:99,1,72.5,8|0,0:0|0:0,0:0:0:0:
190,249,93990,6,0,L|183:329,2,72.5,2|0|8,0:0|0:0|0:0,0:0:0:0:
265,160,94496,2,0,P|324:183|417:178,1,145,0|0,0:0|0:0,0:0:0:0:
449,24,95001,2,0,L|468:116,1,72.5,8|0,0:0|0:0,0:0:0:0:
462,253,95338,2,0,L|461:342,1,72.5,2|2,0:0|0:0,0:0:0:0:
340,191,95676,1,2,0:0:0:0:
340,191,95844,2,0,P|246:188|172:192,1,145,6|0,0:0|0:0,0:0:0:0:
82,271,96350,6,0,L|74:179,1,72.5,8|0,0:0|0:0,0:0:0:0:
72,46,96687,1,4,0:0:0:0:
244,37,96855,1,0,0:0:0:0:
244,37,97024,2,0,P|306:34|408:32,1,145,8|2,0:0|0:0,0:0:0:0:
477,141,97529,1,0,0:0:0:0:
477,141,97698,2,0,L|482:232,1,72.5,8|0,0:0|0:0,0:0:0:0:
391,348,98035,5,2,0:0:0:0:
391,348,98204,2,0,L|396:246,1,72.5,0|8,0:0|0:0,0:0:0:0:
299,152,98541,2,0,P|268:150|206:144,1,72.5,0|0,0:0|0:0,0:0:0:0:
101,89,98878,2,0,P|95:146|96:175,1,72.5,0|8,0:0|0:0,0:0:0:0:
39,322,99215,6,0,P|69:295|187:292,1,145,0|0,0:0|0:0,0:0:0:0:
262,143,99721,2,0,L|249:55,1,72.5,8|0,0:0|0:0,0:0:0:0:
353,7,100058,6,0,P|369:31|381:80,1,72.5,2|0,0:0|0:0,0:0:0:0:
466,197,100395,2,0,P|429:198|390:192,1,72.5,8|8,0:0|0:0,0:0:0:0:
298,262,100732,6,0,L|299:358,1,72.5,2|0,0:0|0:0,0:0:0:0:
232,168,101069,2,0,L|236:75,1,72.5,2|2,0:0|0:0,0:0:0:0:
96,239,101406,2,0,L|148:236,3,36.25,2|8|2|2,0:0|0:0|0:0|0:0,0:0:0:0:
223,273,101743,2,0,L|262:242,3,36.25,8|8|8|8,0:0|0:0|0:0|0:0,0:0:0:0:
284,166,102080,6,0,L|286:73,1,72.5,6|0,0:0|0:0,0:0:0:0:
501,115,102417,1,8,0:0:0:0:
392,225,102586,2,0,P|395:154|413:58,1,145,0|0,0:0|0:0,0:0:0:0:
204,82,103091,2,0,L|281:73,1,72.5,8|0,0:0|0:0,0:0:0:0:
281,220,103428,2,0,L|204:213,1,72.5,2|0,0:0|0:0,0:0:0:0:
72,121,103765,1,8,0:0:0:0:
72,121,103934,2,0,P|93:181|101:268,1,145,0|0,0:0|0:0,0:0:0:0:
220,374,104440,2,0,L|208:278,1,72.5,8|0,0:0|0:0,0:0:0:0:
313,200,104777,6,0,L|313:304,2,72.5,2|0|8,0:0|0:0|0:0,0:0:0:0:
427,100,105282,2,0,P|349:100|279:41,1,145,0|0,0:0|0:0,0:0:0:0:
128,22,105788,2,0,L|160:114,1,72.5,8|0,0:0|0:0,0:0:0:0:
108,246,106125,5,2,0:0:0:0:
108,246,106294,2,0,L|159:178,1,72.5,0|0,0:0|0:0,0:0:0:0:
320,147,106631,2,0,L|228:144,1,72.5,6|2,0:0|0:0,0:0:0:0:
304,295,106968,2,0,L|301:342,4,36.25,8|8|8|8|8,0:0|0:0|0:0|0:0|0:0,0:0:0:0:
457,133,107642,5,14,0:0:0:0:
321,55,107810,2,0,P|318:118|315:219,1,145,8|2,0:0|0:0,0:0:0:0:
124,343,108316,1,0,0:0:0:0:
124,343,108485,2,0,L|223:316,1,72.5,8|0,0:0|0:0,0:0:0:0:
193,188,108822,2,0,L|123:165,1,72.5,2|2,0:0|0:0,0:0:0:0:
270,101,109159,1,8,0:0:0:0:
318,234,109327,2,0,P|373:266|458:218,1,145,2|0,0:0|0:0,0:0:0:0:
356,153,109833,5,8,0:0:0:0:
196,259,110001,1,0,0:0:0:0:
196,259,110170,2,0,L|189:339,1,72.5,0|0,0:0|0:0,0:0:0:0:
116,141,110507,2,0,L|121:50,1,72.5,8|0,0:0|0:0,0:0:0:0:
243,178,110844,1,2,0:0:0:0:
366,87,111013,1,0,0:0:0:0:
366,87,111181,2,0,L|464:73,1,72.5,8|0,0:0|0:0,0:0:0:0:
486,266,111518,6,0,L|324:256,1,145,2|10,0:0|0:0,0:0:0:0:
437,76,112024,1,2,0:0:0:0:
237,115,112192,2,0,L|279:168,3,36.25,2|8|2|0,0:0|0:0|0:0|0:0,0:0:0:0:
270,202,112529,1,2,0:0:0:0:
229,204,112614,1,0,0:0:0:0:
188,197,112698,1,8,0:0:0:0:
164,154,112782,1,8,0:0:0:0:
128,114,112867,6,0,P|123:199|120:237,1,108.750004148483,2|2,0:0|0:0,0:0:0:0:
260,252,113372,2,0,L|186:245,1,54.3750020742417,0|2,0:0|0:0,0:0:0:0:
199,341,113709,2,0,L|253:346,1,54.3750020742417,0|2,0:0|0:0,0:0:0:0:
372,280,114046,2,0,P|377:213|358:155,1,108.750004148483,0|0,0:0|0:0,0:0:0:0:
269,116,114552,1,2,0:0:0:0:
269,116,114721,1,0,0:0:0:0:
269,116,114889,2,0,L|153:116,1,108.750004148483,2|0,0:0|0:0,0:0:0:0:
134,97,115563,6,0,L|133:162,1,54.3750020742417,2|0,0:0|0:0,0:0:0:0:
62,256,115900,2,0,L|60:176,1,54.3750020742417,2|0,0:0|0:0,0:0:0:0:
250,196,116237,2,0,L|310:194,1,54.3750020742417,2|0,0:0|0:0,0:0:0:0:
348,94,116574,2,0,L|271:98,1,54.3750020742417,2|2,0:0|0:0,0:0:0:0:
197,107,116912,6,0,P|194:52|234:-12,1,119.625001140833,4|0,1:0|0:0,0:0:0:0:
293,96,117164,6,0,P|289:158|218:205,1,119.625001140833,4|0,1:0|0:0,0:0:0:0:
129,291,117417,6,0,P|155:281|186:284,1,59.8125005704165,4|0,1:0|0:0,0:0:0:0:
250,196,117586,6,0,L|251:25,1,119.625001140833,2|0,0:0|0:0,0:0:0:0:
381,253,117923,6,0,L|412:137,1,119.625001140833,6|0,0:0|0:0,0:0:0:0:
250,76,118260,6,0,P|179:78|82:84,1,126.875001209974,2|0,0:0|0:0,0:0:0:0:
23,237,118597,2,0,P|87:234|174:226,1,126.875001209974,8|2,0:0|0:0,0:0:0:0:
279,289,118934,6,0,P|289:186|226:154,1,126.875001209974,2|0,0:0|0:0,0:0:0:0:
431,174,119271,1,8,0:0:0:0:
365,330,119440,1,2,0:0:0:0:
365,330,119608,6,0,L|513:346,1,126.875001209974,2|0,0:0|0:0,0:0:0:0:
356,152,119945,1,8,0:0:0:0:
186,276,120114,1,2,0:0:0:0:
186,276,120282,6,0,P|174:212|192:130,1,126.875001209974,4|0,0:0|0:0,0:0:0:0:
236,0,120619,6,0,P|283:67|281:113,1,126.875001209974,2|0,1:0|0:0,0:0:0:0:
186,276,120956,6,0,L|312:271,1,126.875001209974,4|0,0:0|0:0,0:0:0:0:
407,89,121294,2,0,L|274:110,1,126.875001209974,2|0,0:0|0:0,0:0:0:0:
78,123,121631,2,0,P|86:62|128:-4,1,126.875001209974,2|2,0:0|0:0,0:0:0:0:
207,129,121968,1,2,0:0:0:0:
135,333,122136,1,2,0:0:0:0:
319,286,122305,6,0,L|385:324,4,63.4375006049872,14|0|2|2|2,0:0|0:0|0:0|0:0|0:0,0:0:0:0:
355,82,122810,5,8,0:0:0:0:
159,222,122979,2,0,L|80:224,3,63.4375006049872,8|8|8|8,0:0|0:0|0:0|0:0,0:0:0:0:
92,185,123316,5,2,0:0:0:0:
101,148,123400,1,2,0:0:0:0:
126,130,123485,1,2,0:0:0:0:
175,126,123569,1,2,0:0:0:0:
224,131,123653,6,0,P|266:192|376:192,1,141.375000539303,2|8,0:0|0:0,0:0:0:0:
361,66,123990,1,2,0:0:0:0:
433,215,124159,2,0,L|422:337,1,70.6875002696514,8|0,0:0|0:0,0:0:0:0:
282,324,124327,2,0,P|222:307|135:305,1,141.375000539303,2|8,0:0|0:0,0:0:0:0:
211,143,124664,1,2,0:0:0:0:
402,45,124833,2,0,P|387:60|327:177,1,141.375000539303,8|0,0:0|0:0,0:0:0:0:
211,143,125170,1,8,0:0:0:0:
436,232,125338,1,2,0:0:0:0:
334,93,125507,2,0,L|326:212,1,70.6875002696514,8|0,0:0|0:0,0:0:0:0:
336,261,125676,6,0,P|271:230|177:231,1,141.375000539303,6|0,0:0|0:0,0:0:0:0:
65,178,126013,6,0,L|43:-18,1,141.375000539303,6|0,1:0|0:0,0:0:0:0:
210,39,126350,6,0,L|348:64,1,141.375000539303,6|8,0:0|0:0,0:0:0:0:
348,265,126687,2,0,L|179:274,1,141.375000539303,8|2,0:0|0:0,0:0:0:0:
114,109,127024,1,8,0:0:0:0:
275,176,127192,1,0,0:0:0:0:
109,262,127361,1,8,0:0:0:0:
212,61,127529,2,0,P|201:116|195:148,1,70.6875002696514,2|0,0:0|0:0,0:0:0:0:
275,268,127698,6,0,L|457:279,1,141.375000539303,6|0,0:0|0:0,0:0:0:0:
389,165,127951,2,0,P|437:111|459:27,1,141.375000539303,6|0,0:0|0:0,0:0:0:0:
298,5,128204,2,0,L|332:112,1,70.6875002696514,2|0,0:0|0:0,0:0:0:0:
239,165,128372,6,0,L|199:349,1,141.375000539303,14|0,0:0|0:0,0:0:0:0:
356,208,128709,6,0,L|313:52,1,141.375000539303,6|0,1:0|0:0,0:0:0:0:
64,85,129046,6,0,P|129:107|191:77,1,141.375000539303,14|0,0:0|0:0,0:0:0:0:
414,58,129383,1,8,0:0:0:0:
356,208,129552,2,0,L|198:156,1,141.375000539303,2|8,0:0|0:0,0:0:0:0:
298,294,129889,2,0,P|330:306|371:306,1,70.6875002696514,0|0,0:0|0:0,0:0:0:0:
483,216,130058,1,2,0:0:0:0:
365,66,130226,2,0,L|353:238,1,141.375000539303,10|2,0:0|0:0,0:0:0:0:
214,121,130563,1,8,0:0:0:0:
78,271,130732,1,8,0:0:0:0:
243,302,130900,2,0,P|293:335|338:339,1,70.6875002696514,2|0,0:0|0:0,0:0:0:0:
436,255,131069,6,0,P|460:174|482:118,1,141.375000539303,14|0,0:0|0:0,0:0:0:0:
288,182,131406,6,0,P|298:238|315:354,1,141.375000539303,6|0,1:0|0:0,0:0:0:0:
191,228,131743,5,14,0:0:0:0:
54,284,131912,2,0,L|23:195,5,70.6875002696514,2|2|10|2|2|2,0:0|0:0|0:0|0:0|0:0|0:0,0:0:0:0:
54,177,132417,5,8,0:0:0:0:
191,35,132586,1,8,0:0:0:0:
329,88,132754,1,8,0:0:0:0:
336,100,132838,1,8,0:0:0:0:
339,120,132923,1,8,0:0:0:0:
331,141,133007,1,8,0:0:0:0:
302,153,133091,6,0,L|222:157,1,76.1249976768494,14|0,0:0|0:0,0:0:0:0:
131,163,134440,6,0,P|166:52|194:39,1,141.374993528366,2|0,0:0|0:0,0:0:0:0:
296,28,135114,2,0,L|292:94,1,47.1249978427888,0|0,0:0|0:0,0:0:0:0:
270,181,135451,2,0,P|342:175|414:184,1,141.374993528366,2|0,0:0|0:0,0:0:0:0:
504,206,136125,6,0,L|507:317,1,94.2499956855776,2|2,0:0|0:0,0:0:0:0:
349,345,136799,2,0,P|301:339|254:344,1,94.2499956855776,2|0,0:0|0:0,0:0:0:0:
160,298,137305,1,2,0:0:0:0:
160,298,137473,1,0,0:0:0:0:
80,74,138147,6,0,L|136:47,1,47.1249978427888,2|0,0:0|0:0,0:0:0:0:
217,110,138485,2,0,P|208:166|203:211,1,94.2499956855776,2|0,0:0|0:0,0:0:0:0:
389,339,139159,6,0,L|445:340,1,47.1249978427888,2|0,0:0|0:0,0:0:0:0:
462,234,139496,2,0,L|353:240,1,94.2499956855776,2|0,0:0|0:0,0:0:0:0:
212,171,140170,2,0,L|157:166,1,47.1249978427888,2|0,0:0|0:0,0:0:0:0:
76,118,140507,2,0,L|77:11,1,94.2499956855776,2|0,0:0|0:0,0:0:0:0:
192,40,141181,1,2,0:0:0:0:
192,40,141518,1,0,0:0:0:0:
192,40,141855,2,0,L|299:24,1,94.2499956855776,2|0,0:0|0:0,0:0:0:0:
362,93,142529,6,0,L|458:99,1,94.2499956855776,2|0,0:0|0:0,0:0:0:0:
475,197,143035,2,0,L|471:251,1,47.1249978427888,0|0,0:0|0:0,0:0:0:0:
404,331,143372,1,0,0:0:0:0:
404,331,143541,2,0,P|353:338|307:323,1,94.2499956855776,2|0,0:0|0:0,0:0:0:0:
138,267,144215,5,2,0:0:0:0:
138,267,144552,2,0,L|129:203,1,47.1249978427888,0|0,0:0|0:0,0:0:0:0:
71,136,144889,2,0,P|110:118|165:127,1,94.2499956855776,2|0,0:0|0:0,0:0:0:0:
271,118,145395,1,0,0:0:0:0:
271,118,145563,2,0,L|279:15,1,94.2499956855776,2|0,0:0|0:0,0:0:0:0:
396,74,146237,1,0,0:0:0:0:
396,74,146574,6,0,L|461:70,1,47.1249978427888,2|0,0:0|0:0,0:0:0:0:
500,174,146912,2,0,P|483:224|470:272,1,94.2499956855776,2|0,0:0|0:0,0:0:0:0:
322,355,147417,1,0,0:0:0:0:
322,355,147586,2,0,L|273:359,1,47.1249978427888,2|0,0:0|0:0,0:0:0:0:
244,258,147923,2,0,L|348:254,1,94.2499956855776,2|0,0:0|0:0,0:0:0:0:
456,162,148428,5,0,0:0:0:0:
456,162,148597,2,0,P|448:118|423:73,1,94.2499956855776,0|0,0:0|0:0,0:0:0:0:
280,58,149103,1,0,0:0:0:0:
280,58,149187,1,0,0:0:0:0:
280,58,149271,2,0,L|172:56,1,94.2499956855776,2|2,0:0|0:0,0:0:0:0:
174,75,149945,6,0,P|128:81|99:117,1,94.2499956855776,6|0,0:0|0:0,0:0:0:0:
61,268,150619,6,0,P|109:266|195:261,1,123.250002350807,2|0,0:0|0:0,0:0:0:0:
338,354,151125,1,0,0:0:0:0:
338,354,151294,2,0,L|332:277,1,61.6250011754036,2|0,0:0|0:0,0:0:0:0:
387,208,151631,2,0,P|450:210|483:141,1,123.250002350807,2|2,0:0|0:0,0:0:0:0:
332,56,152305,1,2,0:0:0:0:
54,33,152642,2,0,L|50:95,1,61.6250011754036,0|0,0:0|0:0,0:0:0:0:
10,242,152979,2,0,P|53:227|134:222,1,123.250002350807,2|2,0:0|0:0,0:0:0:0:
381,236,153653,6,0,L|375:374,1,123.250002350807,2|2,0:0|0:0,0:0:0:0:
258,175,154327,5,2,0:0:0:0:
453,107,154496,1,0,0:0:0:0:
453,107,154664,2,0,L|320:96,1,123.250002350807,2|0,0:0|0:0,0:0:0:0:
124,237,155170,1,0,0:0:0:0:
124,237,155338,2,0,L|212:234,1,61.6250011754036,2|0,0:0|0:0,0:0:0:0:
320,219,155676,2,0,P|322:167|331:76,1,123.250002350807,2|0,0:0|0:0,0:0:0:0:
155,38,156350,6,0,P|161:90|164:124,1,61.6250011754036,2|0,0:0|0:0,0:0:0:0:
61,219,156687,2,0,P|115:236|186:215,1,123.250002350807,2|0,0:0|0:0,0:0:0:0:
322,140,157361,5,2,0:0:0:0:
322,140,157698,1,0,0:0:0:0:
322,140,158035,2,0,P|340:70|362:5,1,123.250002350807,6|0,0:0|0:0,0:0:0:0:
470,173,158541,1,0,0:0:0:0:
470,173,158709,6,0,L|478:255,2,61.6250011754036,2|0|2,0:0|0:0|0:0,0:0:0:0:
251,114,159215,2,0,L|187:116,1,61.6250011754036,0|2,0:0|0:0,0:0:0:0:
224,227,159552,1,0,0:0:0:0:
224,227,159721,2,0,P|269:274|350:276,1,123.250002350807,2|0,0:0|0:0,0:0:0:0:
351,288,160395,6,0,L|350:221,1,61.6250011754036,2|0,0:0|0:0,0:0:0:0:
444,92,160732,2,0,P|440:153|442:232,1,123.250002350807,2|2,0:0|0:0,0:0:0:0:
314,338,161406,2,0,L|239:328,1,61.6250011754036,2|0,0:0|0:0,0:0:0:0:
141,355,161743,2,0,P|154:265|179:236,1,123.250002350807,2|2,0:0|0:0,0:0:0:0:
30,137,162249,1,0,0:0:0:0:
27,131,162417,6,0,L|29:213,1,61.6250011754036,2|0,0:0|0:0,0:0:0:0:
107,70,162754,2,0,P|168:91|253:96,1,123.250002350807,2|2,0:0|0:0,0:0:0:0:
420,153,163428,1,2,0:0:0:0:
309,19,163765,2,0,L|312:154,1,123.250002350807,2|0,0:0|0:0,0:0:0:0:
479,345,164271,5,0,0:0:0:0:
479,345,164440,2,0,P|434:344|394:344,1,61.6250011754036,2|0,0:0|0:0,0:0:0:0:
416,229,164777,2,0,L|498:233,2,61.6250011754036,2|2|2,0:0|0:0|0:0,0:0:0:0:
214,163,165451,5,2,0:0:0:0:
214,163,165788,2,0,P|224:129|238:93,1,61.6250011754036,0|0,1:0|0:0,0:0:0:0:
323,17,166125,2,0,L|337:113,1,92.4375017631054,0|0,1:0|0:0,0:0:0:0:
390,241,166462,2,0,P|331:228|278:237,1,92.4375017631054,0|0,1:0|0:0,0:0:0:0:
224,164,166799,6,0,P|155:165|78:173,1,137.749996321678,4|0,0:0|0:0,0:0:0:0:
30,319,167305,1,0,0:0:0:0:
30,319,167473,2,0,P|27:284|35:252,1,68.8749981608391,2|0,0:0|0:0,0:0:0:0:
190,275,167810,2,0,L|336:280,1,137.749996321678,2|0,0:0|0:0,0:0:0:0:
456,159,168485,6,0,L|359:155,1,68.8749981608391,8|0,0:0|0:0,0:0:0:0:
282,40,168822,2,0,P|274:125|265:201,1,137.749996321678,2|0,0:0|0:0,0:0:0:0:
147,259,169496,2,0,L|78:255,1,68.8749981608391,0|0,0:0|0:0,0:0:0:0:
61,359,169833,2,0,P|124:356|213:367,1,137.749996321678,8|0,0:0|0:0,0:0:0:0:
349,185,170507,2,0,L|342:98,1,68.8749981608391,2|0,0:0|0:0,0:0:0:0:
471,196,170844,6,0,P|460:229|447:349,1,137.749996321678,2|0,0:0|0:0,0:0:0:0:
301,272,171518,2,0,L|223:279,1,68.8749981608391,2|0,0:0|0:0,0:0:0:0:
180,169,171855,2,0,P|238:182|317:163,1,137.749996321678,2|0,0:0|0:0,0:0:0:0:
460,101,172361,6,0,L|474:30,1,68.8749981608391,0|2,0:0|0:0,0:0:0:0:
403,165,172698,1,0,0:0:0:0:
403,165,172867,2,0,P|428:229|414:322,1,137.749996321678,2|0,0:0|0:0,0:0:0:0:
175,340,173541,2,0,L|173:245,1,68.8749981608391,2|0,0:0|0:0,0:0:0:0:
253,131,173878,6,0,L|253:215,1,68.8749981608391,8|0,0:0|0:0,0:0:0:0:
366,321,174215,2,0,L|451:317,1,68.8749981608391,8|8,0:0|0:0,0:0:0:0:
486,212,174552,1,8,0:0:0:0:
397,120,174721,1,8,0:0:0:0:
397,120,174889,6,0,L|311:116,1,68.8749981608391,4|0,0:0|0:0,0:0:0:0:
239,29,175226,2,0,L|326:19,1,68.8749981608391,2|0,0:0|0:0,0:0:0:0:
232,202,175563,2,0,L|313:201,1,68.8749981608391,2|0,0:0|0:0,0:0:0:0:
446,287,175900,1,2,0:0:0:0:
446,287,176069,1,2,0:0:0:0:
446,287,176237,2,0,L|294:278,1,137.749996321678,4|0,0:0|0:0,0:0:0:0:
103,274,176912,6,0,L|91:342,2,68.8749981608391,0|0|2,0:0|0:0|0:0,0:0:0:0:
172,160,177417,1,0,0:0:0:0:
172,160,177586,2,0,L|258:164,1,68.8749981608391,8|2,0:0|0:0,0:0:0:0:
386,72,177923,1,2,0:0:0:0:
291,15,178091,1,0,0:0:0:0:
291,15,178260,2,0,P|276:58|272:97,1,68.8749981608391,8|0,0:0|0:0,0:0:0:0:
400,197,178597,2,0,P|406:158|401:105,1,68.8749981608391,0|0,0:0|0:0,0:0:0:0:
272,80,178934,6,0,L|194:82,1,68.8749981608391,4|0,0:0|0:0,0:0:0:0:
103,171,179271,2,0,L|182:179,1,68.8749981608391,0|0,0:0|0:0,0:0:0:0:
387,161,179608,1,8,0:0:0:0:
269,227,179777,1,2,0:0:0:0:
269,227,179945,6,0,L|269:322,1,68.8749981608391,4|0,0:0|0:0,0:0:0:0:
387,161,180282,2,0,L|391:68,1,68.8749981608391,0|0,0:0|0:0,0:0:0:0:
231,0,180619,1,8,0:0:0:0:
262,114,180788,1,0,0:0:0:0:
262,114,180956,2,0,P|327:123|393:88,1,137.749996321678,2|0,0:0|0:0,0:0:0:0:
478,212,181462,5,8,0:0:0:0:
478,212,181631,2,0,L|480:313,1,68.8749981608391,8|8,0:0|0:0,0:0:0:0:
382,357,181968,2,0,L|379:265,1,68.8749981608391,8|8,0:0|0:0,0:0:0:0:
334,202,182305,1,8,0:0:0:0:
230,160,182473,1,8,0:0:0:0:
230,160,182642,2,0,L|229:76,1,68.8749981608391,10|0,0:0|0:0,0:0:0:0:
325,48,182979,6,0,P|231:41|179:278,1,376.99998274231,6|0,0:0|0:0,0:0:0:0:
183,305,184340,6,0,P|262:241|423:229,1,251.333321828207,2|0,0:0|0:0,0:0:0:0:
318,35,185516,6,0,L|205:46,1,96.6666666666667,8|0,0:0|0:0,0:0:0:0:
76,55,186013,6,0,P|114:96|123:147,1,96.6666666666667,8|8,0:0|0:0,0:0:0:0:
211,269,186518,2,0,P|277:248|322:243,1,96.6666666666667,8|8,0:0|0:0,0:0:0:0:
463,241,187024,6,0,P|474:178|490:78,1,149.833334476471,6|0,0:0|0:0,0:0:0:0:
320,81,187529,2,0,L|343:241,1,149.833334476471,8|0,0:0|0:0,0:0:0:0:
250,338,188035,2,0,L|157:344,2,74.9166672382355,2|0|2,0:0|0:0|0:0,0:0:0:0:
127,194,188541,6,0,P|171:221|294:208,1,149.833334476471,8|0,0:0|0:0,0:0:0:0:
407,244,189046,2,0,L|420:333,2,74.9166672382355,2|2|2,0:0|0:0|0:0,0:0:0:0:
322,77,189552,1,8,0:0:0:0:
322,77,189720,2,0,P|360:57|416:60,1,74.9166672382355,2|0,0:0|0:0,0:0:0:0:
491,149,190056,2,0,L|496:236,1,74.9166672382355,2|0,0:0|0:0,0:0:0:0:
350,319,190395,2,0,L|265:341,1,74.9166672382355,8|2,0:0|0:0,0:0:0:0:
112,286,190732,2,0,L|101:216,3,37.4583336191177,2|2|2|2,0:0|0:0|0:0|0:0,0:0:0:0:
129,203,191069,6,0,P|119:91|106:47,1,149.833334476471,4|0,0:0|0:0,0:0:0:0:
274,20,191574,2,0,L|256:107,1,74.9166672382355,8|0,0:0|0:0,0:0:0:0:
351,251,191910,1,0,0:0:0:0:
351,251,192080,2,0,L|345:147,1,74.9166672382355,2|0,0:0|0:0,0:0:0:0:
486,82,192417,5,0,0:0:0:0:
486,82,192586,2,0,P|409:92|314:67,1,149.833334476471,8|0,0:0|0:0,0:0:0:0:
122,24,193091,2,0,L|123:124,1,74.9166672382355,2|0,0:0|0:0,0:0:0:0:
101,259,193428,1,0,0:0:0:0:
101,259,193597,2,0,P|146:255|205:263,1,74.9166672382355,8|0,0:0|0:0,0:0:0:0:
324,352,193934,2,0,P|324:313|325:257,1,74.9166672382355,2|0,0:0|0:0,0:0:0:0:
438,177,194271,6,0,L|438:240,5,37.4583336191177,2|2|2|2|10|2,0:0|0:0|0:0|0:0|0:0|0:0,0:0:0:0:
357,109,194861,2,0,L|359:51,4,37.4583336191177,2|2|2|4|0,0:0|0:0|0:0|0:0|0:0,0:0:0:0:
310,41,195282,1,0,0:0:0:0:
169,81,195451,2,0,L|60:61,1,74.9166672382355,0|10,0:0|0:0,0:0:0:0:
53,229,195788,1,2,0:0:0:0:
198,149,195956,1,0,0:0:0:0:
198,149,196041,1,0,0:0:0:0:
198,149,196125,2,0,P|190:122|160:69,1,74.9166672382355,2|0,0:0|0:0,0:0:0:0:
309,207,196462,2,0,P|282:243|267:284,1,74.9166672382355,2|8,0:0|0:0,0:0:0:0:
444,218,196799,1,0,0:0:0:0:
388,55,196968,1,8,0:0:0:0:
388,55,197052,1,0,0:0:0:0:
388,55,197136,1,2,0:0:0:0:
193,74,197305,2,0,P|123:82|77:68,1,112.375000857353,2|0,0:0|0:0,0:0:0:0:
45,86,197642,1,8,0:0:0:0:
37,240,197810,5,2,0:0:0:0:
177,147,197979,1,0,0:0:0:0:
177,147,198147,2,0,P|182:114|199:57,1,74.9166672382355,6|0,0:0|0:0,0:0:0:0:
335,165,198483,1,8,0:0:0:0:
489,40,198653,6,0,L|495:268,1,211.458335349957,6|0,0:0|0:0,0:0:0:0:
296,322,199159,6,0,P|232:314|123:328,1,163.125006222725,6|8,0:0|0:0,0:0:0:0:
60,63,199496,2,0,P|75:99|141:142,1,81.5625031113626,2|0,0:0|0:0,0:0:0:0:
178,48,199664,2,0,L|363:39,1,163.125006222725,8|2,0:0|0:0,0:0:0:0:
465,57,200001,1,8,0:0:0:0:
371,234,200170,1,2,0:0:0:0:
371,234,200338,2,0,P|418:239|475:240,1,81.5625031113626,10|0,0:0|0:0,0:0:0:0:
376,147,200507,6,0,L|182:150,1,163.125006222725,0|10,0:0|0:0,0:0:0:0:
26,310,200844,1,2,0:0:0:0:
120,349,201013,2,0,P|135:288|85:205,1,163.125006222725,14|2,0:0|0:0,0:0:0:0:
258,156,201350,1,2,0:0:0:0:
258,156,201434,1,0,0:0:0:0:
258,156,201518,2,0,L|253:338,1,163.125006222725,2|2,1:0|0:0,0:0:0:0:
413,361,201855,2,0,P|356:325|352:222,1,163.125006222725,8|2,0:0|0:0,0:0:0:0:
487,251,202192,1,8,0:0:0:0:
320,88,202361,1,6,0:0:0:0:
112,171,202529,2,0,L|193:166,3,81.5625031113626,8|0|8|0,0:0|0:0|0:0|0:0,0:0:0:0:
170,203,202867,2,0,P|237:214|340:166,1,163.125006222725,2|8,0:0|0:0,0:0:0:0:
482,25,203204,6,0,L|465:213,1,163.125006222725,6|0,0:0|0:0,0:0:0:0:
362,99,203541,1,6,0:0:0:0:
347,292,203709,1,2,0:0:0:0:
225,161,203878,2,0,L|136:164,3,81.5625031113626,8|8|8|8,0:0|0:0|0:0|0:0,0:0:0:0:
113,207,204215,2,0,L|101:98,3,81.5625031113626,8|8|8|8,0:0|0:0|0:0|0:0,0:0:0:0:
85,46,204552,6,0,P|72:154|58:240,1,163.125006222725,14|0,0:0|0:0,0:0:0:0:
147,328,204889,1,8,0:0:0:0:
147,328,205058,2,0,P|251:317|308:360,1,163.125006222725,2|0,0:0|0:0,0:0:0:0:
417,217,205395,1,0,0:0:0:0:
290,183,205563,2,0,P|294:264|296:345,1,163.125006222725,8|0,0:0|0:0,0:0:0:0:
417,217,205900,6,0,P|422:155|355:76,1,163.125006222725,8|2,0:0|0:0,0:0:0:0:
189,217,206237,1,8,0:0:0:0:
111,80,206406,1,2,0:0:0:0:
282,95,206574,2,0,L|363:78,3,81.5625031113626,14|0|0|0,0:0|0:0|0:0|0:0,0:0:0:0:
399,74,206912,6,0,L|413:263,1,163.125006222725,6|0,1:0|0:0,0:0:0:0:
480,351,207249,2,0,P|416:316|333:346,1,163.125006222725,14|2,0:0|0:0,0:0:0:0:
283,183,207586,1,8,0:0:0:0:
283,183,207754,2,0,L|408:182,1,81.5625031113626,2|0,0:0|0:0,0:0:0:0:
461,128,207923,6,0,P|407:64|321:73,1,163.125006222725,8|0,0:0|0:0,0:0:0:0:
204,56,208176,2,0,P|214:126|306:187,1,163.125006222725,8|8,0:0|0:0,0:0:0:0:
461,128,208428,1,8,0:0:0:0:
512,272,208597,6,0,P|362:253|264:246,1,170.374997400284,14|0,0:0|0:0,0:0:0:0:
207,351,208934,6,0,P|199:231|177:141,1,170.374997400284,10|0,0:0|0:0,0:0:0:0:
331,43,209271,1,10,0:0:0:0:
188,182,209440,2,0,L|275:167,3,85.1874987001419,2|8|10|8,0:0|0:0|0:0|0:0,0:0:0:0:
280,178,209777,1,2,0:0:0:0:
280,178,209861,1,0,0:0:0:0:
280,178,209945,1,10,0:0:0:0:
394,61,210114,5,4,0:0:0:0:
394,61,210198,1,2,0:0:0:0:
394,61,210282,1,8,0:0:0:0:
456,216,210451,1,2,0:0:0:0:
456,216,210619,2,0,P|368:210|280:240,1,177.625001693964,2|0,0:0|0:0,0:0:0:0:
123,42,210956,2,0,P|123:116|121:229,1,177.625001693964,2|2,0:0|0:0,0:0:0:0:
173,347,211294,6,0,P|264:346|366:344,1,177.625001693964,4|2,0:0|0:0,0:0:0:0:
401,183,211631,1,4,0:0:0:0:
185,198,211799,1,6,0:0:0:0:
185,198,211968,6,0,L|144:5,1,192.125008061886,6|0,0:0|0:0,0:0:0:0:
349,11,212221,6,0,L|306:227,1,192.125008061886,14|0,0:0|0:0,0:0:0:0:
253,322,212473,6,0,L|129:307,1,96.0625040309431,8|0,0:0|0:0,0:0:0:0:
185,198,212642,6,0,L|263:207,1,76.1249976768494,2|0,0:0|0:0,0:0:0:0:
420,217,213990,6,0,P|431:152|422:115,1,72.5,2|0,0:0|0:0,0:0:0:0:
301,77,214327,2,0,L|209:77,1,72.5
44,175,214664,1,2,0:0:0:0:
44,175,214833,2,0,P|59:117|69:79,1,72.5
211,30,215170,2,0,L|379:42,1,145,2|0,0:0|0:0,0:0:0:0:
449,162,215676,2,0,L|352:170,1,72.5
379,286,216013,2,0,L|466:287,1,72.5,2|0,0:0|0:0,0:0:0:0:
369,371,216350,1,0,0:0:0:0:
219,298,216687,6,0,P|246:209|249:199,1,72.5,2|0,0:0|0:0,0:0:0:0:
81,122,217024,2,0,P|112:157|135:200,1,72.5
120,316,217361,2,0,L|216:308,1,72.5,6|0,0:0|0:0,0:0:0:0:
368,186,217698,1,8,0:0:0:0:
487,328,217867,1,0,0:0:0:0:
487,328,218035,6,0,P|494:265|510:168,1,137.749996321678,4|0,1:0|0:0,0:0:0:0:
368,186,218288,2,0,P|385:260|399:350,1,137.749996321678,4|0,1:0|0:0,0:0:0:0:
277,322,218541,1,4,1:0:0:0:
157,201,218709,1,0,0:0:0:0:
368,186,218878,1,0,0:0:0:0:
157,201,219046,6,0,P|233:190|305:202,1,137.749996321678,6|0,0:0|0:0,0:0:0:0:
440,179,219383,6,0,P|423:255|413:336,1,152.249995353699,2|0,0:0|0:0,0:0:0:0:
276,358,219721,1,8,0:0:0:0:
159,250,219889,1,2,0:0:0:0:
159,250,220058,6,0,P|217:187|287:186,1,152.249995353699,2|0,0:0|0:0,0:0:0:0:
315,7,220395,1,8,0:0:0:0:
458,109,220563,1,2,0:0:0:0:
458,109,220732,6,0,L|278:98,1,152.249995353699,2|0,0:0|0:0,0:0:0:0:
81,110,221069,1,8,0:0:0:0:
167,231,221237,1,2,0:0:0:0:
167,231,221406,6,0,P|179:154|222:93,1,152.249995353699,4|0,0:0|0:0,0:0:0:0:
414,25,221743,6,0,P|416:142|417:240,1,152.249995353699,2|0,1:0|0:0,0:0:0:0:
279,342,222080,6,0,B|198:323|194:372|79:347,1,152.249995353699,4|2,0:0|0:0,0:0:0:0:
143,193,222417,1,2,0:0:0:0:
337,126,222586,2,0,P|320:171|370:258,1,152.249995353699,2|2,0:0|0:0,0:0:0:0:
468,163,222923,1,2,0:0:0:0:
310,30,223091,1,2,0:0:0:0:
280,237,223260,1,2,0:0:0:0:
468,197,223428,6,0,L|411:288,3,76.1249976768494,14|0|2|2,0:0|0:0|0:0|0:0,0:0:0:0:
416,306,223765,2,0,L|304:299,3,76.1249976768494,2|8|8|0,0:0|0:0|0:0|0:0,0:0:0:0:
304,348,224103,6,0,L|252:287,3,76.1249976768494,8|8|8|8,0:0|0:0|0:0|0:0,0:0:0:0:
226,250,224440,1,10,0:0:0:0:
194,228,224524,1,8,0:0:0:0:
160,234,224608,1,10,0:0:0:0:
130,259,224692,1,8,0:0:0:0:
119,311,224777,6,0,P|107:245|91:158,1,145,2|8,0:0|0:0,0:0:0:0:
204,59,225114,1,2,0:0:0:0:
269,194,225282,2,0,L|174:195,1,72.5,8|0,0:0|0:0,0:0:0:0:
119,311,225451,2,0,P|167:333|264:317,1,145,2|0,0:0|0:0,0:0:0:0:
470,255,225788,1,2,0:0:0:0:
483,88,225956,2,0,P|382:52|302:68,1,145,8|0,0:0|0:0,0:0:0:0:
181,157,226294,1,8,0:0:0:0:
411,247,226462,1,2,0:0:0:0:
290,114,226631,2,0,P|289:149|292:190,1,72.5,8|0,0:0|0:0,0:0:0:0:
263,310,226799,6,0,P|192:298|88:311,1,145,6|0,0:0|0:0,0:0:0:0:
50,164,227136,6,0,P|55:107|46:12,1,145,6|0,1:0|0:0,0:0:0:0:
214,17,227473,6,0,P|210:89|215:162,1,145,8|2,0:0|0:0,0:0:0:0:
412,100,227810,1,8,0:0:0:0:
214,161,227979,1,2,0:0:0:0:
351,280,228147,2,0,P|297:280|199:323,1,145,8|0,0:0|0:0,0:0:0:0:
52,273,228485,1,8,0:0:0:0:
170,121,228653,2,0,P|178:84|191:51,1,72.5,2|0,0:0|0:0,0:0:0:0:
334,111,228822,6,0,L|509:89,1,145,6|0,0:0|0:0,0:0:0:0:
488,237,229074,2,0,L|299:215,1,145,6|0,0:0|0:0,0:0:0:0:
240,159,229327,1,2,0:0:0:0:
54,200,229496,6,0,L|38:44,1,145,14|0,0:0|0:0,0:0:0:0:
155,200,229833,6,0,L|132:362,1,145,6|0,1:0|0:0,0:0:0:0:
306,322,230170,6,0,P|345:322|424:240,1,145,14|0,0:0|0:0,0:0:0:0:
430,113,230507,1,8,0:0:0:0:
333,18,230676,2,0,P|318:62|298:207,1,145,2|8,0:0|0:0,0:0:0:0:
229,291,231013,2,0,L|116:277,1,72.5,0|0,0:0|0:0,0:0:0:0:
29,172,231181,1,8,0:0:0:0:
153,54,231350,2,0,P|144:125|144:199,1,145,2|0,0:0|0:0,0:0:0:0:
309,114,231687,1,2,0:0:0:0:
373,296,231855,1,8,0:0:0:0:
216,201,232024,2,0,L|97:195,1,72.5,2|0,0:0|0:0,0:0:0:0:
40,274,232192,6,0,P|47:202|70:133,1,145,14|0,0:0|0:0,0:0:0:0:
227,44,232529,6,0,P|236:133|221:243,1,145,6|0,1:0|0:0,0:0:0:0:
326,318,232867,6,0,B|428:316|390:360|494:353,1,145,14|2,0:0|0:0,0:0:0:0:
480,181,233204,1,8,0:0:0:0:
290,182,233372,1,2,0:0:0:0:
480,181,233541,6,0,L|453:280,1,72.5,8|8,0:0|0:0,0:0:0:0:
376,126,233709,2,0,L|377:10,1,72.5,8|8,0:0|0:0,0:0:0:0:
205,108,233878,1,12,0:0:0:0:
231,231,234046,2,0,L|338:227,1,72.5,8|8,0:0|0:0,0:0:0:0:
305,331,234215,6,0,L|274:333,1,29,4|0,0:0|0:0,0:0:0:0:
152,337,235058,1,2,0:0:0:0:
152,337,235226,2,0,P|168:262|227:178,1,163.125006222725,10|0,0:0|0:0,0:0:0:0:
330,186,235563,6,0,P|395:181|506:192,1,152.249995353699,6|2,0:0|0:0,0:0:0:0:
366,67,235900,1,2,0:0:0:0:
227,38,236069,2,0,P|219:111|213:201,1,152.249995353699,6|2,0:0|0:0,0:0:0:0:
361,208,236406,1,2,0:0:0:0:
306,63,236574,1,2,0:0:0:0:
477,122,236743,2,0,P|472:204|482:303,1,152.249995353699,4|0,0:0|0:0,0:0:0:0:
307,306,237080,1,2,0:0:0:0:
279,141,237249,2,0,P|296:81|310:51,1,76.1249976768494,2|0,0:0|0:0,0:0:0:0:
195,28,237417,2,0,P|164:98|76:65,1,152.249995353699,6|0,0:0|0:0,0:0:0:0:
79,257,237754,1,0,0:0:0:0:
79,257,237923,2,0,L|268:244,1,152.249995353699,2|0,0:0|0:0,0:0:0:0:
460,136,238260,6,0,P|405:147|234:61,1,239.250007301331,6|2,1:0|0:0,0:0:0:0:
120,22,238597,6,0,P|96:115|77:291,1,239.250007301331,6|2,1:0|0:0,0:0:0:0:
210,372,238934,6,0,P|234:310|138:108,1,239.250007301331,6|2,1:0|0:0,0:0:0:0:
284,43,239271,1,8,0:0:0:0:
411,111,239440,2,0,B|408:206,1,79.7500024337769,2|0,0:0|0:0,0:0:0:0:
500,292,239608,6,0,P|401:267|234:289,1,239.250007301331,6|0,1:0|0:0,0:0:0:0:
136,353,239945,1,8,0:0:0:0:
113,161,240114,5,2,0:0:0:0:
255,77,240282,1,14,0:0:0:0:
413,127,240451,2,0,L|440:221,3,79.7500024337769,8|8|8|8,0:0|0:0|0:0|0:0,0:0:0:0:
425,238,240788,1,8,0:0:0:0:
411,276,240872,1,8,0:0:0:0:
362,292,240956,6,0,B|260:232|193:278|180:377|13:275,1,333.500006361008,10|2,0:0|0:0,0:0:0:0:
35,180,241462,1,8,0:0:0:0:
149,38,241631,2,0,L|144:213,1,166.750003180504,2|8,0:0|0:0,0:0:0:0:
267,152,241968,1,2,0:0:0:0:
149,38,242136,2,0,P|89:31|62:39,1,83.375001590252,8|0,0:0|0:0,0:0:0:0:
35,180,242305,6,0,L|39:428,1,166.750003180504,14|0,0:0|0:0,0:0:0:0:
160,373,242558,2,0,P|232:313|302:319,1,166.750003180504,14|0,0:0|0:0,0:0:0:0:
290,209,242810,2,0,L|395:213,1,83.375001590252,14|0,0:0|0:0,0:0:0:0:
433,118,242979,6,0,P|344:92|238:103,1,166.750003180504,6|0,0:0|0:0,0:0:0:0:
88,24,243316,2,0,P|93:93|93:203,1,166.750003180504,2|0,1:0|0:0,0:0:0:0:
116,348,243653,5,6,0:0:0:0:
116,348,243822,2,0,P|223:343|343:363,1,173.999994689942,2|8,0:0|0:0,0:0:0:0:
483,247,244159,2,0,L|364:242,1,86.9999973449708,2|0,0:0|0:0,0:0:0:0:
268,242,244327,2,0,P|266:152|292:1,1,173.999994689942,14|0,0:0|0:0,0:0:0:0:
122,162,244664,1,8,0:0:0:0:
109,6,244833,1,2,0:0:0:0:
275,68,245001,6,0,B|339:86|368:29|406:26|513:45,1,173.999994689942,8|2,0:0|0:0,0:0:0:0:
512,193,245338,1,12,0:0:0:0:
352,247,245507,2,0,L|357:109,1,86.9999973449708,8|2,0:0|0:0,0:0:0:0:
243,47,245676,2,0,L|138:68,3,86.9999973449708,14|8|8|8,0:0|0:0|0:0|0:0,0:0:0:0:
185,103,246013,5,8,0:0:0:0:
180,130,246097,1,8,0:0:0:0:
180,166,246181,1,8,0:0:0:0:
193,195,246266,1,8,0:0:0:0:
208,240,246350,6,0,P|133:170|140:50,1,217.500008296967,14|2,0:0|0:0,0:0:0:0:
369,82,246855,2,0,L|240:94,1,108.750004148483,14|2,0:0|0:0,0:0:0:0:
108,202,247192,1,2,0:0:0:0:
275,302,247361,1,8,0:0:0:0:
275,302,247445,1,8,0:0:0:0:
275,302,247529,1,8,0:0:0:0:
281,298,247614,1,8,0:0:0:0:
313,290,247698,6,0,L|311:283,3,7.25,2|0|2|0,0:0|0:0|0:0|0:0,0:0:0:0:
356,181,248372,2,0,L|341:108,3,54.3750020742417,2|2|2|2,0:0|0:0|0:0|0:0,0:0:0:0:
331,89,248709,6,0,P|304:179|280:224,1,108.750004148483,8|0,0:0|0:0,0:0:0:0:
93,311,249046,6,0,P|106:215|80:104,1,173.999994689942,6|8,1:0|0:0,0:0:0:0:
283,15,249383,1,2,0:0:0:0:
283,15,249552,2,0,P|347:93|427:80,1,173.999994689942,8|2,0:0|0:0,0:0:0:0:
510,123,249889,1,8,0:0:0:0:
379,218,250058,1,2,0:0:0:0:
249,115,250226,2,0,L|266:-5,1,86.9999973449708,8|0,0:0|0:0,0:0:0:0:
127,41,250395,6,0,P|151:119|129:227,1,173.999994689942,6|8,0:0|0:0,0:0:0:0:
195,339,250732,1,2,0:0:0:0:
195,339,250900,2,0,P|290:326|384:334,1,173.999994689942,8|2,0:0|0:0,0:0:0:0:
478,184,251237,1,8,0:0:0:0:
362,74,251406,1,2,0:0:0:0:
182,162,251574,2,0,P|216:174|307:166,1,86.9999973449708,10|0,0:0|0:0,0:0:0:0:
351,247,251743,6,0,P|354:152|368:31,1,173.999994689942,6|8,1:0|0:0,0:0:0:0:
469,76,252080,1,2,0:0:0:0:
253,45,252249,2,0,P|214:91|280:178,1,173.999994689942,12|0,0:0|0:0,0:0:0:0:
76,244,252586,1,8,0:0:0:0:
206,355,252754,2,0,P|300:337|430:339,1,173.999994689942,2|0,1:0|0:0,0:0:0:0:
478,212,253091,6,0,L|489:26,1,173.999994689942,6|8,0:0|0:0,0:0:0:0:
336,42,253428,1,2,0:0:0:0:
336,42,253597,2,0,P|290:107|327:200,1,173.999994689942,12|2,0:0|0:0,0:0:0:0:
191,345,253934,1,8,0:0:0:0:
116,166,254103,2,0,L|206:163,3,86.9999973449708,8|8|8|8,0:0|0:0|0:0|0:0,0:0:0:0:
247,168,254440,6,0,P|264:43|358:2,1,173.999994689942,14|8,0:0|0:0,0:0:0:0:
456,24,254777,2,0,L|452:145,1,86.9999973449708
512,229,254945,2,0,P|412:224|306:248,1,173.999994689942,8|0,0:0|0:0,0:0:0:0:
173,310,255282,5,8,0:0:0:0:
269,112,255451,1,2,0:0:0:0:
55,70,255619,2,0,P|80:107|91:150,1,86.9999973449708,8|0,0:0|0:0,0:0:0:0:
22,227,255788,2,0,P|95:218|228:220,1,173.999994689942,2|8,1:0|0:0,0:0:0:0:
359,250,256125,1,2,0:0:0:0:
450,142,256294,2,0,L|232:109,1,173.999994689942,14|2,0:0|0:0,0:0:0:0:
182,15,256631,1,8,0:0:0:0:
7,102,256799,1,2,0:0:0:0:
133,189,256968,2,0,P|149:242|156:287,1,86.9999973449708,8|0,0:0|0:0,0:0:0:0:
276,329,257136,6,0,P|375:320|467:342,1,173.999994689942,6|0,0:0|0:0,0:0:0:0:
494,202,257473,2,0,L|354:194,1,86.9999973449708,2|0,0:0|0:0,0:0:0:0:
326,51,257642,2,0,P|325:152|266:210,1,173.999994689942,14|0,0:0|0:0,0:0:0:0:
150,67,257979,1,8,0:0:0:0:
43,150,258147,2,0,P|131:148|250:153,1,173.999994689942,2|0,0:0|0:0,0:0:0:0:
407,75,258485,5,6,0:0:0:0:
314,260,258653,1,10,0:0:0:0:
282,104,258822,1,8,0:0:0:0:
460,209,258990,1,8,0:0:0:0:
314,260,259159,2,0,L|174:255,1,101.499996902466,14|2,0:0|0:0,0:0:0:0:
282,104,259327,2,0,L|413:101,1,101.499996902466,8|2,0:0|0:0,0:0:0:0:
370,208,259496,2,0,P|370:152|386:93,1,108.750004148483,8|2,0:0|0:0,0:0:0:0:
478,0,259664,2,0,P|497:52|503:106,1,108.750004148483,10|2,0:0|0:0,0:0:0:0:
370,208,259833,5,4,1:0:0:0:
256,192,259917,12,0,262529,0:0:0:0:
256,192,262614,12,0,265226,0:0:0:0:
