osu file format v14

[General]
AudioFilename: audio.mp3
AudioLeadIn: 0
PreviewTime: 134450
Countdown: 0
SampleSet: Soft
StackLeniency: 0.2
Mode: 0
LetterboxInBreaks: 0
WidescreenStoryboard: 0

[Editor]
Bookmarks: 160405
DistanceSpacing: 1
BeatDivisor: 4
GridSize: 16
TimelineZoom: 1.299999

[Metadata]
Title:Shoukei to Shikabane no Michi
TitleUnicode:憧憬と屍の道
Artist:Linked Horizon
ArtistUnicode:Linked Horizon
Creator:Cheri
Version:Extra
Source:進撃の巨人
Tags:Hailie DJ Lucky Full version shingeki no kyojin attack on titan season 3 part 2 Opening OP Japanese Anime attack on titan
BeatmapID:2208520
BeatmapSetID:1053162

[Difficulty]
HPDrainRate:5
CircleSize:4
OverallDifficulty:8.7
ApproachRate:9.4
SliderMultiplier:1.75
SliderTickRate:1

[Events]
//Background and Video events
0,0,"realbg.jpg",0,0
//Break Periods
//Storyboard Layer 0 (Background)
//Storyboard Layer 1 (Fail)
//Storyboard Layer 2 (Pass)
//Storyboard Layer 3 (Foreground)
//Storyboard Layer 4 (Overlay)
//Storyboard Sound Samples

[TimingPoints]
9097,337.078651685393,4,2,0,30,1,0
9097,-200,4,2,0,30,0,0
9773,324.324324324324,4,2,0,30,1,0
9773,-200,4,2,0,30,0,0
11070,337.078651685393,4,2,0,30,1,0
11070,-200,4,2,0,30,0,0
12418,327.868852459016,4,2,0,30,1,0
12418,-200,4,2,0,30,0,0
13073,342.857142857143,4,2,0,30,1,0
14444,340.909090909091,4,2,0,30,1,0
14444,-200,4,2,0,30,0,0
16489,329.67032967033,4,2,0,30,1,0
17807,337.078651685393,4,2,0,30,1,0
17807,-200,4,2,0,30,0,0
18481,344.827586206897,4,2,0,30,1,0
19170,333.333333333333,4,2,0,30,1,0
21170,344.332855093257,4,2,0,30,1,0
22530,337.078651685393,4,2,1,70,1,0
22530,-66.6666666666667,4,2,1,70,0,0
25226,-125,4,2,1,40,0,0
30619,-111.111111111111,4,2,1,50,0,0
36013,-95.2380952380952,4,2,1,60,0,0
52192,-64.5161290322581,4,2,1,70,0,0
57586,-57.1428571428571,4,2,1,80,0,0
58934,-133.333333333333,4,2,1,40,0,0
62979,-54.054054054054,4,2,1,70,0,0
64327,-51.2820512820513,4,2,1,60,0,0
68372,-39.2156862745098,4,2,1,70,0,0
69721,-44.4444444444445,4,2,1,80,0,0
79159,-400,4,2,1,30,0,0
80507,-133.333333333333,4,2,1,40,0,0
85732,-100,4,2,1,50,0,0
112867,-133.333333333333,4,2,1,40,0,0
116912,-54.054054054054,4,2,1,70,0,0
118260,-51.2820512820513,4,2,1,60,0,0
123653,-42.5531914893617,4,2,1,80,0,0
133091,-666.666666666667,4,2,1,30,0,0
134440,337.078651685393,3,2,0,40,1,0
134440,-153.846153846154,4,2,0,40,0,0
150619,-117.64705882353,4,2,0,50,0,0
166799,-105.263157894737,4,2,1,55,0,0
182979,510.63829787234,4,2,1,55,1,0
182979,-76.9230769230769,4,2,1,55,0,0
185021,495.867768595041,4,2,1,55,1,0
186012,505.616557256862,4,2,1,55,1,0
187024,-64.5161290322581,4,2,1,60,0,0
198653,-57.1428571428571,4,2,1,50,0,0
199159,337.078651685393,4,2,1,80,1,1
199159,-40.8163265306122,4,2,1,80,0,1
203203,-39.2156862745098,4,2,1,80,0,0
204552,-36.3636363636364,4,2,1,80,0,1
208597,-33.8983050847458,4,2,1,80,0,1
210114,-36.3636363636364,4,2,1,50,0,0
211967,-28.169014084507,4,2,1,80,0,0
212632,-666.666666666667,4,2,1,50,0,0
213990,-100,4,2,1,50,0,0
218035,-52.6315789473684,4,2,1,70,0,0
219383,-47.6190476190476,4,2,1,60,0,0
224776,-40,4,2,1,80,0,0
234215,-1000,4,2,1,50,0,0
235058,-200,4,2,1,60,0,0
235226,-66.6666666666667,4,2,1,70,0,0
235563,-40,4,2,1,70,0,0
238260,-33.3333333333333,4,2,1,90,0,1
240956,-31.25,4,2,1,85,0,0
243653,-31.25,4,2,1,90,0,1
246350,-66.6666666666667,4,2,1,80,0,0
247192,-29.4117647058824,4,2,1,90,0,0
247698,-1000,4,2,1,50,0,0
248372,-66.6666666666667,4,2,1,70,0,0
249046,-33.3333333333333,4,2,1,90,0,1
258484,-28.5714285714286,4,2,1,90,0,1
259157,-26.3157894736842,4,2,1,95,0,1
259496,-25,4,2,1,100,0,1
259833,-100,4,2,1,50,0,0
260507,-100,4,2,0,20,0,0
262614,-100,4,2,0,5,0,0

[Colours]
Combo1 : 128,128,0
Combo2 : 128,64,64
Combo3 : 255,128,64
Combo4 : 255,0,0

[HitObjects]
445,361,9097,6,0,P|460:264|447:229,1,131.25,2|2,0:0|0:0,0:0:0:0:
262,88,9773,2,0,L|162:98,2,87.5,2|0|0,0:0|0:0|0:0,0:0:0:0:
325,173,11070,2,0,L|422:167,1,87.5,2|0,0:0|0:0,0:0:0:0:
422,312,11744,2,0,L|327:314,1,87.5,2|0,0:0|0:0,0:0:0:0:
274,180,12418,2,0,P|240:144|291:39,1,175,2|2,0:0|0:0,0:0:0:0:
477,103,13758,1,2,0:0:0:0:
477,103,14444,6,0,P|392:111|301:129,1,175,2|0,0:0|0:0,0:0:0:0:
103,66,15466,1,2,0:0:0:0:
103,66,15807,2,0,P|110:133|101:256,1,175,2|2,0:0|0:0,0:0:0:0:
106,343,16818,1,2,0:0:0:0:
106,343,17148,1,2,0:0:0:0:
244,328,17807,2,0,L|339:359,2,87.5,2|0|0,0:0|0:0|0:0,0:0:0:0:
203,140,19170,1,2,0:0:0:0:
107,105,19503,1,2,0:0:0:0:
12,138,19836,1,2,0:0:0:0:
326,73,20503,1,2,0:0:0:0:
401,111,20836,1,2,0:0:0:0:
468,65,21169,1,2,0:0:0:0:
141,57,21858,1,2,0:0:0:0:
352,73,22530,6,0,L|500:28,2,131.25000500679,4|0|2,0:0|0:0|0:0,0:0:0:0:
471,231,23035,2,0,P|464:305|376:350,1,131.25000500679,10|0,0:0|0:0,0:0:0:0:
331,191,23372,2,0,L|338:41,1,131.25000500679,2|0,0:0|0:0,0:0:0:0:
131,330,23709,5,10,0:0:0:0:
83,84,23878,1,0,0:0:0:0:
296,198,24046,1,8,0:0:0:0:
296,198,24215,2,0,P|229:201|204:211,1,65.6250025033952,2|0,0:0|0:0,0:0:0:0:
444,220,24383,2,0,P|441:290|447:369,1,131.25000500679,10|0,0:0|0:0,0:0:0:0:
467,105,24636,1,8,0:0:0:0:
467,105,24721,2,0,P|392:89|328:48,1,131.25000500679,8|0,0:0|0:0,0:0:0:0:
260,60,24973,1,8,0:0:0:0:
185,123,25058,1,8,0:0:0:0:
180,223,25142,1,8,0:0:0:0:
289,292,25226,6,0,L|301:213,1,70,2|0,0:0|0:0,0:0:0:0:
437,180,25563,1,2,0:0:0:0:
437,180,25732,2,0,L|464:92,1,70,0|2,0:0|0:0,0:0:0:0:
385,52,26069,1,0,0:0:0:0:
385,52,26237,2,0,L|300:42,1,70,2|0,0:0|0:0,0:0:0:0:
128,82,26574,2,0,P|81:59|54:33,2,70,2|0|2,0:0|0:0|0:0,0:0:0:0:
222,170,27080,1,0,0:0:0:0:
222,170,27249,2,0,P|268:173|314:169,2,70,2|0|2,0:0|0:0|0:0,0:0:0:0:
90,218,27754,5,2,0:0:0:0:
90,218,27838,1,2,0:0:0:0:
90,218,27923,2,0,P|89:291|92:301,1,70,2|0,0:0|0:0,0:0:0:0:
201,310,28260,2,0,L|298:312,1,70,2|0,0:0|0:0,0:0:0:0:
367,361,28597,2,0,L|463:363,1,70,2|0,0:0|0:0,0:0:0:0:
477,255,28934,1,2,0:0:0:0:
477,255,29103,2,0,L|474:157,1,70,0|2,0:0|0:0,0:0:0:0:
371,68,29440,1,0,0:0:0:0:
371,68,29608,2,0,L|373:162,1,70,2|0,0:0|0:0,0:0:0:0:
107,145,29945,5,2,0:0:0:0:
127,261,30114,1,2,0:0:0:0:
38,345,30282,2,0,P|46:294|52:252,1,70,2|0,0:0|0:0,0:0:0:0:
337,339,30619,6,0,P|397:353|418:352,1,78.7499975967408,4|0,0:0|0:0,0:0:0:0:
346,231,30956,2,0,P|308:225|241:231,2,78.7499975967408,2|0|2,0:0|0:0|0:0,0:0:0:0:
197,292,31462,1,0,0:0:0:0:
108,278,31631,1,2,0:0:0:0:
77,168,31799,1,0,0:0:0:0:
77,168,31968,2,0,L|90:79,2,78.7499975967408,2|0|2,0:0|0:0|0:0,0:0:0:0:
181,290,32473,1,0,0:0:0:0:
181,290,32642,2,0,L|174:381,2,78.7499975967408,2|0|2,0:0|0:0|0:0,0:0:0:0:
338,262,33147,5,0,0:0:0:0:
338,262,33316,2,0,P|388:239|414:241,1,78.7499975967408,6|0,0:0|0:0,0:0:0:0:
330,69,33653,2,0,P|303:71|248:66,1,78.7499975967408,2|0,0:0|0:0,0:0:0:0:
387,137,33990,2,0,P|434:134|482:154,1,78.7499975967408,2|0,0:0|0:0,0:0:0:0:
415,233,34327,1,0,0:0:0:0:
211,321,34496,5,0,3:0:0:0:
211,321,34664,1,2,0:0:0:0:
211,321,34833,1,0,3:0:0:0:
190,166,35001,1,2,0:0:0:0:
33,172,35170,1,0,3:0:0:0:
252,45,35338,1,10,0:0:0:0:
252,45,35423,1,10,0:0:0:0:
252,45,35507,1,10,0:0:0:0:
252,45,35591,1,10,0:0:0:0:
252,45,35676,2,0,P|283:71|338:78,1,78.7499975967408,2|2,0:0|0:0,0:0:0:0:
452,101,36013,6,0,P|450:32|447:-14,1,91.8749971961976,6|0,0:0|0:0,0:0:0:0:
350,81,36350,1,8,0:0:0:0:
290,196,36518,1,0,0:0:0:0:
290,196,36687,2,0,L|301:300,1,91.8749971961976,2|0,0:0|0:0,0:0:0:0:
105,177,37024,1,8,0:0:0:0:
77,51,37192,1,0,0:0:0:0:
77,51,37361,2,0,P|124:52|190:82,2,91.8749971961976,2|0|8,0:0|0:0|0:0,0:0:0:0:
312,156,37867,1,0,0:0:0:0:
312,156,38035,2,0,P|250:174|203:164,2,91.8749971961976,2|0|8,0:0|0:0|0:0,0:0:0:0:
512,124,38541,1,0,0:0:0:0:
334,66,38709,6,0,L|309:165,1,91.8749971961976,2|0,0:0|0:0,0:0:0:0:
192,54,39046,1,8,0:0:0:0:
122,184,39215,1,0,0:0:0:0:
122,184,39383,2,0,L|212:156,1,91.8749971961976,2|0,0:0|0:0,0:0:0:0:
383,232,39721,1,8,0:0:0:0:
352,349,39889,1,0,0:0:0:0:
422,133,40058,5,2,0:0:0:0:
421,132,40226,2,0,L|388:220,1,91.8749971961976,0|8,0:0|0:0,0:0:0:0:
192,359,40563,5,0,0:0:0:0:
192,359,40732,2,0,L|182:236,1,91.8749971961976,2|0,0:0|0:0,0:0:0:0:
105,155,41069,1,8,0:0:0:0:
142,20,41237,5,0,0:0:0:0:
142,20,41406,2,0,P|230:26|300:94,1,183.749994392395,6|8,0:0|0:0,0:0:0:0:
510,36,41912,1,0,0:0:0:0:
439,96,42080,5,2,0:0:0:0:
439,96,42249,2,0,P|434:167|427:291,1,183.749994392395,0|0,0:0|0:0,0:0:0:0:
300,315,42754,2,0,L|195:315,1,91.8749971961976,2|0,0:0|0:0,0:0:0:0:
152,199,43091,1,8,0:0:0:0:
152,199,43260,2,0,P|269:202|356:205,1,183.749994392395,0|0,0:0|0:0,0:0:0:0:
456,58,43765,5,8,0:0:0:0:
456,58,43934,2,0,P|326:101|292:76,1,183.749994392395,0|0,0:0|0:0,0:0:0:0:
50,100,44440,2,0,L|157:86,1,91.8749971961976,8|0,0:0|0:0,0:0:0:0:
243,259,44777,2,0,P|248:205|234:151,2,91.8749971961976,2|0|8,0:0|0:0|0:0,0:0:0:0:
243,259,45282,1,8,0:0:0:0:
129,208,45451,5,2,0:0:0:0:
129,208,45619,1,0,0:0:0:0:
129,208,45788,1,2,0:0:0:0:
345,155,45956,5,2,0:0:0:0:
345,155,46125,1,2,0:0:0:0:
345,155,46294,1,2,0:0:0:0:
270,290,46462,5,8,0:0:0:0:
105,332,46631,1,8,0:0:0:0:
85,181,46799,6,0,L|90:70,1,91.8749971961976,4|0,0:0|0:0,0:0:0:0:
222,25,47136,1,8,0:0:0:0:
345,103,47305,1,0,0:0:0:0:
345,103,47473,2,0,L|349:203,1,91.8749971961976,2|0,0:0|0:0,0:0:0:0:
440,359,47810,1,8,0:0:0:0:
345,305,47979,1,0,0:0:0:0:
218,357,48147,2,0,P|235:285|225:164,1,183.749994392395,2|8,0:0|0:0,0:0:0:0:
322,49,48653,1,0,0:0:0:0:
322,49,48822,2,0,L|134:50,1,183.749994392395,2|8,0:0|0:0,0:0:0:0:
59,142,49327,5,0,0:0:0:0:
59,142,49496,2,0,P|100:238|191:250,1,183.749994392395,4|8,0:0|0:0,0:0:0:0:
377,132,50001,2,0,L|277:133,1,91.8749971961976,0|2,0:0|0:0,0:0:0:0:
344,275,50338,1,0,0:0:0:0:
344,275,50507,2,0,B|450:273,1,91.8749971961976,8|0,0:0|0:0,0:0:0:0:
256,350,50844,1,2,0:0:0:0:
62,222,51013,2,0,P|163:130|218:128,1,183.749994392395,0|0,0:0|0:0,0:0:0:0:
367,47,51518,2,0,L|250:41,1,91.8749971961976,8|0,0:0|0:0,0:0:0:0:
492,45,51855,6,0,P|445:107|433:169,1,137.812495794296,6|0,1:0|0:0,0:0:0:0:
493,226,52192,6,0,L|340:190,1,135.625001034737,2|2,1:0|0:0,0:0:0:0:
197,30,52529,1,8,0:0:0:0:
56,194,52698,1,2,0:0:0:0:
213,324,52867,2,0,L|205:243,1,67.8125005173683,8|0,0:0|0:0,0:0:0:0:
295,35,53035,1,2,0:0:0:0:
510,134,53204,6,0,P|390:119|305:173,1,203.437501552105,6|0,1:0|0:0,0:0:0:0:
76,65,53541,6,0,L|228:47,1,135.625001034737,4|2,0:0|0:0,0:0:0:0:
510,134,53878,2,0,P|387:114|332:116,1,135.625001034737,8|0,0:0|0:0,0:0:0:0:
202,260,54215,2,0,P|178:319|177:353,1,67.8125005173683,8|0,0:0|0:0,0:0:0:0:
279,92,54383,1,8,0:0:0:0:
502,106,54552,6,0,P|417:170|312:174,1,203.437501552105,6|0,1:0|0:0,0:0:0:0:
53,322,54889,6,0,L|129:343,1,67.8125005173683,10|0,0:0|0:0,0:0:0:0:
371,334,55058,2,0,P|376:269|380:149,1,135.625001034737,2|8,0:0|0:0,0:0:0:0:
284,41,55395,1,0,0:0:0:0:
170,118,55563,2,0,P|144:65|145:22,1,67.8125005173683,8|0,0:0|0:0,0:0:0:0:
284,41,55732,1,2,0:0:0:0:
479,199,55900,1,10,0:0:0:0:
142,323,56069,2,0,P|97:287|96:257,1,67.8125005173683,2|0,0:0|0:0,0:0:0:0:
5,104,56237,6,0,P|93:137|196:67,1,203.437501552105,2|0,0:0|0:0,0:0:0:0:
125,15,56574,1,8,0:0:0:0:
302,234,56743,2,0,P|369:185|385:115,1,135.625001034737,2|0,0:0|0:0,0:0:0:0:
301,117,57080,1,0,0:0:0:0:
158,274,57249,6,0,L|109:55,1,203.437501552105,6|0,0:0|0:0,0:0:0:0:
343,189,57586,6,0,P|399:135|249:72,1,306.250002920628,4|0,1:0|0:0,0:0:0:0:
158,274,58091,6,0,B|207:252|326:252|308:338|424:338|460:310,1,306.250002920628,4|0,1:0|0:0,0:0:0:0:
507,106,58597,5,8,0:0:0:0:
451,45,58681,1,8,0:0:0:0:
373,43,58765,1,8,0:0:0:0:
312,95,58850,1,8,0:0:0:0:
270,168,58934,6,0,L|190:170,1,65.6250025033952,2|0,0:0|0:0,0:0:0:0:
287,268,59271,2,0,L|372:268,1,65.6250025033952,2|0,0:0|0:0,0:0:0:0:
455,176,59608,2,0,L|381:178,1,65.6250025033952,2|0,0:0|0:0,0:0:0:0:
281,140,59945,1,2,0:0:0:0:
281,140,60114,2,0,P|252:205|243:283,1,131.25000500679,0|0,0:0|0:0,0:0:0:0:
156,320,60619,1,2,0:0:0:0:
156,320,60788,1,0,0:0:0:0:
156,320,60956,2,0,P|217:355|289:324,1,131.25000500679,2|2,0:0|0:0,0:0:0:0:
307,320,61631,6,0,L|321:391,2,65.6250025033952,2|0|2,0:0|0:0|0:0,0:0:0:0:
404,279,62136,1,0,0:0:0:0:
404,279,62305,2,0,L|401:196,1,65.6250025033952,2|0,0:0|0:0,0:0:0:0:
306,25,62642,2,0,L|282:113,1,65.6250025033952,2|2,0:0|0:0,0:0:0:0:
121,248,62979,6,0,P|146:152|211:108,1,161.874999382496,4|0,1:0|0:0,0:0:0:0:
468,151,63232,2,0,L|272:165,1,161.874999382496,4|0,1:0|0:0,0:0:0:0:
100,356,63485,2,0,L|314:309,1,161.874999382496,4|2,1:0|0:0,0:0:0:0:
468,151,63822,1,0,0:0:0:0:
403,255,63990,2,0,P|360:164|412:110,1,161.874999382496,6|0,0:0|0:0,0:0:0:0:
25,89,64327,6,0,P|94:67|196:91,1,170.625000650883,2|0,0:0|0:0,0:0:0:0:
387,193,64664,1,8,0:0:0:0:
288,33,64833,1,2,0:0:0:0:
48,208,65001,6,0,P|140:225|205:159,1,170.625000650883,2|0,0:0|0:0,0:0:0:0:
411,254,65338,1,8,0:0:0:0:
288,33,65507,1,2,0:0:0:0:
102,332,65676,6,0,P|175:331|255:246,1,170.625000650883,2|0,0:0|0:0,0:0:0:0:
469,81,66013,1,8,0:0:0:0:
229,70,66181,1,2,0:0:0:0:
229,70,66350,6,0,P|147:76|174:221,1,255.937500976324,4|0,0:0|0:0,0:0:0:0:
440,379,66687,6,0,P|481:305|374:191,1,255.937500976324,2|0,1:0|0:0,0:0:0:0:
290,1,67024,6,0,L|287:222,1,170.625000650883,4|0,0:0|0:0,0:0:0:0:
82,363,67361,2,0,P|144:291|118:198,1,170.625000650883,2|0,0:0|0:0,0:0:0:0:
21,37,67698,2,0,L|204:33,1,170.625000650883,2|2,0:0|0:0,0:0:0:0:
271,326,68035,1,2,0:0:0:0:
414,283,68204,1,2,0:0:0:0:
473,36,68372,6,0,P|396:49|324:60,1,111.56249851048,14|0,0:0|0:0,0:0:0:0:
114,119,68541,1,2,0:0:0:0:
99,147,68625,1,2,0:0:0:0:
104,181,68709,1,2,0:0:0:0:
126,209,68794,1,8,0:0:0:0:
161,222,68878,1,8,0:0:0:0:
508,177,69046,5,8,0:0:0:0:
420,172,69131,1,8,0:0:0:0:
329,168,69215,1,8,0:0:0:0:
240,164,69299,1,8,0:0:0:0:
161,222,69383,6,0,L|153:342,1,111.56249851048,2|0,0:0|0:0,0:0:0:0:
57,132,69552,2,0,L|65:9,1,111.56249851048,2|0,0:0|0:0,0:0:0:0:
223,16,69721,6,0,P|177:92|253:165,1,196.875007510186,2|8,0:0|0:0,0:0:0:0:
374,242,70058,2,0,P|379:320|373:386,1,98.4375037550928,2|0,0:0|0:0,0:0:0:0:
239,163,70226,2,0,P|238:125|256:52,1,98.4375037550928,10|0,0:0|0:0,0:0:0:0:
512,126,70395,2,0,P|420:123|280:122,1,196.875007510186,2|8,0:0|0:0,0:0:0:0:
353,351,70732,2,0,P|323:306|333:248,1,98.4375037550928,2|0,0:0|0:0,0:0:0:0:
418,8,70900,2,0,P|436:113|414:211,1,196.875007510186,8|2,0:0|0:0,0:0:0:0:
104,286,71237,5,8,0:0:0:0:
104,286,71406,2,0,L|-2:284,1,98.4375037550928,2|0,0:0|0:0,0:0:0:0:
68,134,71574,2,0,P|134:138|206:135,1,98.4375037550928,8|0,0:0|0:0,0:0:0:0:
389,11,71743,2,0,P|360:157|362:254,1,196.875007510186,6|0,0:0|0:0,0:0:0:0:
502,322,72080,6,0,P|439:371|296:251,1,295.312511265278,6|0,1:0|0:0,0:0:0:0:
64,153,72417,6,0,B|161:112|147:204|294:157,1,196.875007510186,8|2,0:0|0:0,0:0:0:0:
209,34,72754,1,8,0:0:0:0:
464,58,72923,1,2,0:0:0:0:
407,297,73091,2,0,L|209:281,1,196.875007510186,8|0,0:0|0:0,0:0:0:0:
464,58,73428,2,0,P|425:106|400:166,1,98.4375037550928,8|0,0:0|0:0,0:0:0:0:
455,380,73597,2,0,P|409:306|403:264,1,98.4375037550928,2|0,0:0|0:0,0:0:0:0:
210,44,73765,6,0,P|145:20|64:117,1,196.875007510186,6|0,0:0|0:0,0:0:0:0:
18,347,74018,2,0,P|95:269|187:277,1,196.875007510186,6|0,0:0|0:0,0:0:0:0:
339,168,74271,2,0,L|228:169,1,98.4375037550928,2|0,0:0|0:0,0:0:0:0:
457,37,74440,6,0,L|457:251,1,196.875007510186,14|0,0:0|0:0,0:0:0:0:
35,194,74777,6,0,L|318:43,1,295.312511265278,6|0,1:0|0:0,0:0:0:0:
449,69,75114,6,0,P|454:211|322:194,1,295.312511265278,14|0,0:0|0:0,0:0:0:0:
369,25,75451,1,8,0:0:0:0:
111,154,75619,2,0,P|116:89|111:37,1,98.4375037550928,2|0,0:0|0:0,0:0:0:0:
293,196,75788,2,0,P|361:196|412:195,1,98.4375037550928,8|0,0:0|0:0,0:0:0:0:
155,299,75956,1,0,0:0:0:0:
265,60,76125,1,8,0:0:0:0:
434,337,76294,6,0,P|405:215|449:114,1,196.875007510186,2|8,0:0|0:0,0:0:0:0:
111,123,76631,1,2,0:0:0:0:
256,12,76799,2,0,L|261:154,1,98.4375037550928,8|0,0:0|0:0,0:0:0:0:
455,231,76968,2,0,L|342:227,1,98.4375037550928,2|0,0:0|0:0,0:0:0:0:
4,290,77136,2,0,P|133:302|138:167,1,295.312511265278,14|0,0:0|0:0,0:0:0:0:
92,8,77473,6,0,L|-2:307,1,295.312511265278,6|0,1:0|0:0,0:0:0:0:
259,114,77810,6,0,P|160:208|119:151,1,196.875007510186,14|2,0:0|0:0,0:0:0:0:
410,249,78147,2,0,L|453:421,1,98.4375037550928,8|0,0:0|0:0,0:0:0:0:
376,117,78316,2,0,L|383:8,1,98.4375037550928,2|0,0:0|0:0,0:0:0:0:
200,31,78485,5,8,0:0:0:0:
150,60,78569,1,8,0:0:0:0:
136,113,78653,1,8,0:0:0:0:
165,171,78737,1,8,0:0:0:0:
221,175,78822,5,8,0:0:0:0:
296,185,78906,1,8,0:0:0:0:
333,246,78990,1,8,0:0:0:0:
330,327,79074,1,8,0:0:0:0:
274,380,79159,6,0,L|429:342,1,153.125,4|0,0:0|0:0,0:0:0:0:
106,252,80507,5,2,0:0:0:0:
106,252,80676,1,0,0:0:0:0:
106,252,80844,1,0,0:0:0:0:
106,252,81013,1,0,0:0:0:0:
106,252,81181,2,0,L|96:97,1,131.25000500679,2|0,0:0|0:0,0:0:0:0:
244,42,81687,6,0,P|300:57|376:43,1,131.25000500679,2|0,0:0|0:0,0:0:0:0:
371,151,82192,1,0,0:0:0:0:
371,151,82361,2,0,L|219:148,1,131.25000500679,2|0,0:0|0:0,0:0:0:0:
150,252,82867,5,0,0:0:0:0:
150,252,83035,2,0,P|218:268|259:327,1,131.25000500679,0|0,0:0|0:0,0:0:0:0:
388,337,83541,1,0,0:0:0:0:
388,337,83709,2,0,L|460:337,1,65.6250025033952,2|0,0:0|0:0,0:0:0:0:
456,233,84046,2,0,L|373:229,1,65.6250025033952,2|0,0:0|0:0,0:0:0:0:
302,191,84383,1,2,0:0:0:0:
302,191,84468,1,2,0:0:0:0:
302,191,84552,2,0,P|306:93|295:32,1,131.25000500679,2|10,0:0|0:0,0:0:0:0:
194,22,85058,1,0,0:0:0:0:
91,112,85226,1,8,0:0:0:0:
91,112,85310,1,8,0:0:0:0:
91,112,85395,1,8,0:0:0:0:
91,112,85479,1,8,0:0:0:0:
91,112,85563,1,8,0:0:0:0:
108,248,85732,6,0,P|181:195|280:216,1,175,6|0,0:0|0:0,0:0:0:0:
408,359,86237,1,8,0:0:0:0:
385,133,86406,1,0,0:0:0:0:
408,359,86574,2,0,P|403:322|425:255,1,87.5,2|0,0:0|0:0,0:0:0:0:
410,109,86912,5,8,0:0:0:0:
410,109,87080,2,0,L|236:106,1,175,6|0,0:0|0:0,0:0:0:0:
147,186,87586,1,8,0:0:0:0:
147,186,87754,2,0,L|256:186,1,87.5,0|0,0:0|0:0,0:0:0:0:
358,310,88091,2,0,L|267:310,1,87.5,2|8,0:0|0:0,0:0:0:0:
484,333,88428,6,0,P|458:229|481:128,1,175,6|0,0:0|0:0,0:0:0:0:
391,51,88934,1,8,0:0:0:0:
208,129,89103,1,0,0:0:0:0:
147,354,89271,2,0,P|160:301|136:240,1,87.5,2|0,0:0|0:0,0:0:0:0:
49,169,89608,1,8,0:0:0:0:
49,169,89777,1,8,0:0:0:0:
281,53,89945,6,0,L|388:52,1,87.5,8|0,0:0|0:0,0:0:0:0:
279,144,90282,2,0,L|185:143,1,87.5,8|0,0:0|0:0,0:0:0:0:
508,346,90619,6,0,L|317:314,1,175,2|6,0:0|0:0,0:0:0:0:
185,78,91294,6,0,L|272:72,1,87.5,6|0,0:0|0:0,0:0:0:0:
104,6,91631,1,8,0:0:0:0:
104,6,91799,2,0,P|66:78|109:160,1,175,0|0,0:0|0:0,0:0:0:0:
234,153,92305,2,0,L|348:153,1,87.5,8|0,0:0|0:0,0:0:0:0:
357,287,92642,2,0,P|280:260|176:283,1,175,2|8,0:0|0:0,0:0:0:0:
27,82,93147,2,0,P|69:25|164:60,1,175,0|0,0:0|0:0,0:0:0:0:
55,194,93653,2,0,L|56:300,1,87.5,8|0,0:0|0:0,0:0:0:0:
265,182,93990,6,0,L|158:181,1,87.5,2|0,0:0|0:0,0:0:0:0:
258,312,94327,1,8,0:0:0:0:
258,312,94496,2,0,P|328:255|436:238,1,175,0|0,0:0|0:0,0:0:0:0:
225,110,95001,2,0,P|191:104|137:76,1,87.5,8|0,0:0|0:0,0:0:0:0:
109,262,95338,1,2,0:0:0:0:
278,10,95507,1,2,0:0:0:0:
278,10,95676,2,0,L|273:76,1,43.75,2|0,0:0|0:0,0:0:0:0:
404,40,95844,6,0,P|387:85|458:178,1,175,6|0,0:0|0:0,0:0:0:0:
411,294,96350,1,8,0:0:0:0:
249,192,96518,1,0,0:0:0:0:
107,304,96687,2,0,P|53:309|-13:329,1,87.5,6|0,0:0|0:0,0:0:0:0:
40,112,97024,2,0,P|41:159|36:222,1,87.5,8|0,0:0|0:0,0:0:0:0:
228,351,97361,1,2,0:0:0:0:
344,247,97529,1,0,0:0:0:0:
165,200,97698,2,0,L|76:200,1,87.5,8|0,0:0|0:0,0:0:0:0:
409,43,98035,5,2,0:0:0:0:
420,197,98204,1,0,0:0:0:0:
243,322,98372,1,8,0:0:0:0:
243,322,98541,2,0,P|211:309|127:324,1,87.5,0|0,0:0|0:0,0:0:0:0:
161,99,98878,2,0,P|202:55|210:29,1,87.5,0|8,0:0|0:0,0:0:0:0:
224,206,99215,6,0,P|126:187|45:228,1,175,0|0,0:0|0:0,0:0:0:0:
257,294,99721,2,0,L|269:387,1,87.5,8|0,0:0|0:0,0:0:0:0:
389,103,100058,6,0,P|306:93|285:74,1,87.5,2|0,0:0|0:0,0:0:0:0:
174,282,100395,2,0,P|222:278|263:299,1,87.5,8|8,0:0|0:0,0:0:0:0:
332,173,100732,6,0,P|328:134|286:76,1,87.5,2|0,0:0|0:0,0:0:0:0:
93,235,101069,2,0,P|83:277|82:339,1,87.5,2|2,0:0|0:0,0:0:0:0:
220,301,101406,1,2,0:0:0:0:
233,257,101490,1,8,0:0:0:0:
220,215,101574,1,2,0:0:0:0:
184,193,101659,1,2,0:0:0:0:
150,155,101743,1,8,0:0:0:0:
140,110,101827,1,8,0:0:0:0:
153,62,101912,1,8,0:0:0:0:
195,39,101996,1,8,0:0:0:0:
231,35,102080,6,0,L|339:29,1,87.5,6|0,0:0|0:0,0:0:0:0:
430,148,102417,1,8,0:0:0:0:
429,147,102586,2,0,P|414:248|408:347,1,175,0|0,0:0|0:0,0:0:0:0:
252,349,103091,1,8,0:0:0:0:
274,161,103260,1,0,0:0:0:0:
274,161,103428,2,0,P|228:148|185:164,1,87.5,2|0,0:0|0:0,0:0:0:0:
422,342,103765,1,8,0:0:0:0:
456,240,103934,2,0,P|355:244|248:252,1,175,0|0,0:0|0:0,0:0:0:0:
54,350,104440,2,0,L|55:254,1,87.5,8|0,0:0|0:0,0:0:0:0:
87,47,104777,6,0,P|124:99|132:135,1,87.5,2|0,0:0|0:0,0:0:0:0:
175,304,105114,1,8,0:0:0:0:
351,225,105282,2,0,P|345:154|422:88,1,175,0|0,0:0|0:0,0:0:0:0:
488,291,105788,2,0,P|451:303|401:288,1,87.5,8|0,0:0|0:0,0:0:0:0:
417,88,106125,5,2,0:0:0:0:
207,171,106294,2,0,L|332:166,1,87.5,0|0,0:0|0:0,0:0:0:0:
52,0,106631,2,0,P|37:65|32:107,1,87.5,6|2,0:0|0:0,0:0:0:0:
83,277,106968,1,8,0:0:0:0:
161,262,107052,1,8,0:0:0:0:
243,246,107136,1,8,0:0:0:0:
323,225,107221,1,8,0:0:0:0:
402,206,107305,1,8,0:0:0:0:
411,181,107642,6,0,L|409:119,1,43.75,14|0,0:0|0:0,0:0:0:0:
481,283,107810,2,0,P|362:257|292:268,1,175,8|2,0:0|0:0,0:0:0:0:
259,90,108316,1,0,0:0:0:0:
259,90,108485,2,0,P|227:123|189:194,1,87.5,8|0,0:0|0:0,0:0:0:0:
36,65,108822,1,2,0:0:0:0:
58,298,108990,1,2,0:0:0:0:
232,144,109159,2,0,L|235:83,1,43.75,8|0,0:0|0:0,0:0:0:0:
173,64,109327,2,0,P|234:102|342:81,1,175,2|0,0:0|0:0,0:0:0:0:
489,165,109833,5,8,0:0:0:0:
271,18,110001,1,0,0:0:0:0:
60,229,110170,2,0,L|59:133,1,87.5,2|0,0:0|0:0,0:0:0:0:
222,256,110507,2,0,L|224:370,1,87.5,8|0,0:0|0:0,0:0:0:0:
333,127,110844,2,0,L|336:64,1,43.75,2|8,0:0|0:0,0:0:0:0:
263,257,111013,2,0,L|265:313,1,43.75,0|0,0:0|0:0,0:0:0:0:
94,299,111181,2,0,P|138:221|192:180,1,131.25,8|0,0:0|0:0,0:0:0:0:
355,111,111518,6,0,P|291:98|243:88,1,87.5,2|0,0:0|0:0,0:0:0:0:
262,258,111855,2,0,P|205:256|165:255,1,87.5,10|2,0:0|0:0,0:0:0:0:
33,21,112192,1,2,0:0:0:0:
58,45,112277,1,8,0:0:0:0:
64,79,112361,1,2,0:0:0:0:
53,116,112445,1,8,0:0:0:0:
27,158,112529,1,2,0:0:0:0:
16,198,112614,1,8,0:0:0:0:
37,240,112698,1,8,0:0:0:0:
72,262,112782,1,8,0:0:0:0:
156,265,112867,6,0,L|153:341,1,65.6250025033952,2|0,0:0|0:0,0:0:0:0:
252,245,113204,2,0,L|255:164,1,65.6250025033952,2|0,0:0|0:0,0:0:0:0:
311,89,113541,1,2,0:0:0:0:
311,89,113709,2,0,L|389:89,1,65.6250025033952,0|2,0:0|0:0,0:0:0:0:
464,72,114046,2,0,P|466:166|469:223,1,131.25000500679,0|0,0:0|0:0,0:0:0:0:
362,264,114552,1,2,0:0:0:0:
362,264,114721,1,0,0:0:0:0:
362,264,114889,2,0,P|351:211|375:65,1,196.875007510186,2|0,0:0|0:0,0:0:0:0:
250,48,115563,6,0,L|176:43,1,65.6250025033952,2|0,0:0|0:0,0:0:0:0:
144,153,115900,2,0,L|214:153,1,65.6250025033952,2|0,0:0|0:0,0:0:0:0:
377,265,116237,5,2,0:0:0:0:
437,214,116406,1,0,0:0:0:0:
448,134,116574,1,2,0:0:0:0:
397,71,116743,1,2,0:0:0:0:
394,11,116912,6,0,P|314:67|257:37,1,161.874999382496,4|0,1:0|0:0,0:0:0:0:
38,129,117164,6,0,P|124:125|216:130,1,161.874999382496,4|0,1:0|0:0,0:0:0:0:
317,231,117417,6,0,P|285:220|221:277,1,80.937499691248,4|0,1:0|0:0,0:0:0:0:
38,129,117586,6,0,L|13:358,1,161.874999382496,2|0,0:0|0:0,0:0:0:0:
317,231,117923,6,0,L|276:13,1,161.874999382496,6|0,0:0|0:0,0:0:0:0:
2,139,118260,6,0,P|77:173|174:138,1,170.625000650883,2|0,0:0|0:0,0:0:0:0:
29,252,118597,1,8,0:0:0:0:
162,51,118765,1,2,0:0:0:0:
304,168,118934,6,0,P|265:281|183:284,1,170.625000650883,2|0,0:0|0:0,0:0:0:0:
162,51,119271,1,8,0:0:0:0:
392,222,119440,1,2,0:0:0:0:
465,36,119608,6,0,P|456:106|442:166,1,85.3125003254414,2|0,0:0|0:0,0:0:0:0:
306,209,119777,2,0,P|250:280|222:303,1,85.3125003254414,0|0,0:0|0:0,0:0:0:0:
287,109,119945,1,8,0:0:0:0:
359,342,120114,1,2,0:0:0:0:
20,220,120282,6,0,P|129:216|247:224,1,170.625000650883,4|0,0:0|0:0,0:0:0:0:
474,118,120619,6,0,P|426:138|291:104,1,170.625000650883,2|0,1:0|0:0,0:0:0:0:
20,220,120956,6,0,L|16:23,1,170.625000650883,4|0,0:0|0:0,0:0:0:0:
172,236,121294,2,0,P|157:295|153:359,1,85.3125003254414,2|0,0:0|0:0,0:0:0:0:
245,172,121462,2,0,P|238:134|218:74,1,85.3125003254414,0|0,0:0|0:0,0:0:0:0:
467,77,121631,2,0,P|379:83|298:68,1,170.625000650883,2|2,0:0|0:0,0:0:0:0:
486,287,121968,1,2,0:0:0:0:
344,26,122136,1,2,0:0:0:0:
182,58,122305,5,14,0:0:0:0:
189,113,122389,1,0,0:0:0:0:
214,147,122473,1,2,0:0:0:0:
257,157,122558,1,2,0:0:0:0:
312,141,122642,1,2,0:0:0:0:
450,39,122810,5,8,0:0:0:0:
153,17,122979,5,8,0:0:0:0:
150,67,123063,1,8,0:0:0:0:
149,124,123147,1,8,0:0:0:0:
150,171,123232,1,8,0:0:0:0:
204,201,123316,5,2,0:0:0:0:
259,200,123400,1,2,0:0:0:0:
313,215,123485,1,2,0:0:0:0:
360,254,123569,1,2,0:0:0:0:
407,320,123653,6,0,P|402:214|313:136,1,205.624996862412,2|8,0:0|0:0,0:0:0:0:
57,246,123990,1,2,0:0:0:0:
184,0,124159,2,0,P|200:90|237:125,1,102.812498431206,8|0,0:0|0:0,0:0:0:0:
423,224,124327,2,0,L|149:214,1,205.624996862412,2|8,0:0|0:0,0:0:0:0:
409,27,124664,1,2,0:0:0:0:
124,253,124833,2,0,P|122:322|123:372,1,102.812498431206,8|0,0:0|0:0,0:0:0:0:
210,127,125001,2,0,P|211:64|219:0,1,102.812498431206,0|0,0:0|0:0,0:0:0:0:
437,163,125170,1,8,0:0:0:0:
437,163,125338,2,0,L|281:160,1,102.812498431206,2|0,0:0|0:0,0:0:0:0:
179,262,125507,2,0,L|310:263,1,102.812498431206,8|0,0:0|0:0,0:0:0:0:
19,167,125676,6,0,P|63:246|68:363,1,205.624996862412,6|0,0:0|0:0,0:0:0:0:
217,20,126013,6,0,P|139:124|267:149,1,308.437495293617,6|0,1:0|0:0,0:0:0:0:
484,153,126350,6,0,B|412:143|376:190|402:226|337:267|238:286,1,205.624996862412,6|8,0:0|0:0,0:0:0:0:
156,55,126687,1,8,0:0:0:0:
95,169,126855,2,0,P|191:189|251:103,1,205.624996862412,2|8,0:0|0:0,0:0:0:0:
389,160,127192,1,0,0:0:0:0:
430,281,127361,2,0,P|425:346|429:383,1,102.812498431206,8|0,0:0|0:0,0:0:0:0:
489,198,127529,2,0,P|481:127|463:84,1,102.812498431206,2|0,0:0|0:0,0:0:0:0:
265,65,127698,6,0,L|47:43,1,205.624996862412,6|0,0:0|0:0,0:0:0:0:
233,162,127951,2,0,P|308:163|342:45,1,205.624996862412,6|0,0:0|0:0,0:0:0:0:
258,254,128204,2,0,P|208:265|177:305,1,102.812498431206,2|0,0:0|0:0,0:0:0:0:
50,370,128372,6,0,L|284:318,1,205.624996862412,14|0,0:0|0:0,0:0:0:0:
487,138,128709,6,0,L|146:92,1,308.437495293617,6|0,1:0|0:0,0:0:0:0:
53,30,129046,6,0,P|29:79|131:190,1,205.624996862412,14|0,0:0|0:0,0:0:0:0:
393,325,129383,1,8,0:0:0:0:
451,59,129552,2,0,L|320:60,1,102.812498431206,2|0,0:0|0:0,0:0:0:0:
192,168,129721,2,0,P|262:165|310:181,1,102.812498431206,8|0,0:0|0:0,0:0:0:0:
170,285,129889,2,0,P|110:284|47:266,1,102.812498431206,0|0,0:0|0:0,0:0:0:0:
127,82,130058,1,2,0:0:0:0:
418,50,130226,2,0,L|436:315,1,205.624996862412,10|2,0:0|0:0,0:0:0:0:
275,61,130563,1,8,0:0:0:0:
337,298,130732,2,0,P|258:285|207:293,1,102.812498431206,8|0,0:0|0:0,0:0:0:0:
138,129,130900,2,0,P|193:143|246:136,1,102.812498431206,2|0,0:0|0:0,0:0:0:0:
486,40,131069,6,0,P|409:121|408:217,1,205.624996862412,14|0,0:0|0:0,0:0:0:0:
315,27,131406,6,0,L|1:39,1,308.437495293617,6|0,1:0|0:0,0:0:0:0:
252,55,131743,1,14,0:0:0:0:
50,214,131912,1,2,0:0:0:0:
83,236,131996,1,2,0:0:0:0:
134,225,132080,1,10,0:0:0:0:
155,178,132164,1,2,0:0:0:0:
130,131,132249,1,2,0:0:0:0:
77,124,132333,1,2,0:0:0:0:
41,158,132417,5,8,0:0:0:0:
148,366,132586,1,8,0:0:0:0:
302,267,132754,1,8,0:0:0:0:
358,256,132838,1,8,0:0:0:0:
385,188,132923,1,8,0:0:0:0:
346,122,133007,1,8,0:0:0:0:
260,115,133091,6,0,L|359:102,1,98.437496995926,14|0,0:0|0:0,0:0:0:0:
427,50,134440,6,0,P|445:107|371:181,1,170.624992189408,2|0,0:0|0:0,0:0:0:0:
242,231,135114,1,0,0:0:0:0:
242,231,135282,1,0,0:0:0:0:
242,231,135451,2,0,L|249:56,1,170.624992189408,2|0,0:0|0:0,0:0:0:0:
94,15,136125,6,0,L|98:99,1,56.8749973964692,2|0,0:0|0:0,0:0:0:0:
77,191,136462,2,0,L|138:189,1,56.8749973964692,2|0,0:0|0:0,0:0:0:0:
248,119,136799,2,0,P|251:151|336:188,1,113.749994792938,2|0,0:0|0:0,0:0:0:0:
389,126,137305,1,2,0:0:0:0:
389,126,137473,1,0,0:0:0:0:
389,126,138147,6,0,L|406:195,1,56.8749973964692,2|0,0:0|0:0,0:0:0:0:
442,278,138484,2,0,P|375:272|319:303,1,113.749994792938,2|0,0:0|0:0,0:0:0:0:
69,341,139159,5,2,0:0:0:0:
69,341,139327,1,0,0:0:0:0:
69,341,139496,2,0,L|68:223,1,113.749994792938,2|0,0:0|0:0,0:0:0:0:
62,88,140170,5,2,0:0:0:0:
62,88,140338,1,0,0:0:0:0:
33,10,140507,2,0,P|90:10|143:44,1,113.749994792938,2|0,0:0|0:0,0:0:0:0:
335,29,141181,1,2,0:0:0:0:
335,29,141518,1,0,0:0:0:0:
359,123,141855,2,0,P|397:113|427:45,1,113.749994792938,2|0,0:0|0:0,0:0:0:0:
469,234,142529,6,0,L|484:356,1,113.749994792938,2|0,0:0|0:0,0:0:0:0:
378,312,143035,2,0,L|376:243,2,56.8749973964692,0|0|0,0:0|0:0|0:0,0:0:0:0:
369,317,143456,1,0,3:0:0:0:
346,326,143541,2,0,P|298:322|215:330,1,113.749994792938,2|0,0:0|0:0,0:0:0:0:
66,233,144215,5,2,0:0:0:0:
66,233,144552,2,0,L|69:163,1,56.8749973964692,0|0,0:0|0:0,0:0:0:0:
21,56,144889,2,0,P|117:71|150:63,1,113.749994792938,2|0,0:0|0:0,0:0:0:0:
252,62,145395,1,0,0:0:0:0:
252,62,145563,2,0,L|257:197,1,113.749994792938,2|0,0:0|0:0,0:0:0:0:
259,265,146237,1,0,0:0:0:0:
259,265,146574,6,0,L|335:261,1,56.8749973964692,2|0,0:0|0:0,0:0:0:0:
435,225,146911,2,0,P|449:171|404:106,1,113.749994792938,2|0,0:0|0:0,0:0:0:0:
309,154,147417,1,0,0:0:0:0:
309,154,147586,2,0,L|244:150,1,56.8749973964692,2|0,0:0|0:0,0:0:0:0:
151,255,147923,2,0,L|268:251,1,113.749994792938,2|0,0:0|0:0,0:0:0:0:
417,206,148428,5,0,0:0:0:0:
417,206,148597,2,0,P|399:173|428:103,1,113.749994792938,2|0,0:0|0:0,0:0:0:0:
287,99,149102,1,0,0:0:0:0:
287,99,149187,1,0,3:0:0:0:
287,99,149271,2,0,P|228:106|189:61,1,113.749994792938,2|2,0:0|0:0,0:0:0:0:
138,75,149945,6,0,L|266:45,1,113.749994792938,6|0,0:0|0:0,0:0:0:0:
74,296,150619,6,0,P|136:289|198:357,1,148.750002837181,2|0,0:0|0:0,0:0:0:0:
353,348,151125,1,0,0:0:0:0:
409,257,151293,1,2,0:0:0:0:
353,348,151462,1,0,0:0:0:0:
314,186,151631,2,0,P|322:121|261:60,1,148.750002837181,2|2,0:0|0:0,0:0:0:0:
49,90,152305,1,2,0:0:0:0:
49,90,152642,2,0,P|77:121|110:157,1,74.3750014185906,0|0,0:0|0:0,0:0:0:0:
200,221,152979,2,0,P|121:231|54:266,1,148.750002837181,2|2,0:0|0:0,0:0:0:0:
350,320,153653,6,0,P|424:350|485:302,1,148.750002837181,2|2,0:0|0:0,0:0:0:0:
475,192,154327,5,2,0:0:0:0:
475,192,154496,1,0,0:0:0:0:
475,192,154664,2,0,L|478:35,1,148.750002837181,2|0,0:0|0:0,0:0:0:0:
346,50,155170,1,0,0:0:0:0:
346,50,155338,6,0,P|293:57|257:63,1,74.3750014185906,2|0,0:0|0:0,0:0:0:0:
141,32,155675,2,0,P|168:62|142:172,1,148.750002837181,2|0,0:0|0:0,0:0:0:0:
66,376,156350,6,0,P|97:325|135:296,1,74.3750014185906,2|0,0:0|0:0,0:0:0:0:
257,272,156687,2,0,P|318:319|422:331,1,148.750002837181,2|0,0:0|0:0,0:0:0:0:
476,193,157361,5,2,0:0:0:0:
399,80,157698,1,0,0:0:0:0:
197,32,158035,2,0,P|95:65|37:31,1,148.750002837181,6|0,0:0|0:0,0:0:0:0:
134,168,158541,1,0,0:0:0:0:
311,40,158709,6,0,P|303:118|306:197,1,148.750002837181,2|2,0:0|0:0,0:0:0:0:
206,245,159215,1,0,0:0:0:0:
206,245,159383,1,2,0:0:0:0:
282,326,159552,1,0,0:0:0:0:
282,326,159720,2,0,P|351:299|433:307,1,148.750002837181,2|0,0:0|0:0,0:0:0:0:
452,103,160395,6,0,P|446:52|442:13,1,74.3750014185906,2|0,0:0|0:0,0:0:0:0:
314,26,160732,2,0,P|301:60|333:171,1,148.750002837181,2|2,0:0|0:0,0:0:0:0:
146,335,161406,2,0,L|71:355,1,74.3750014185906,2|0,0:0|0:0,0:0:0:0:
122,214,161743,2,0,L|205:229,1,74.3750014185906,2|0,0:0|0:0,0:0:0:0:
155,99,162080,2,0,L|70:104,1,74.3750014185906,2|0,0:0|0:0,0:0:0:0:
14,153,162417,5,2,0:0:0:0:
14,153,162586,1,0,0:0:0:0:
14,153,162754,2,0,P|93:138|174:184,1,148.750002837181,2|2,0:0|0:0,0:0:0:0:
449,87,163428,1,2,0:0:0:0:
449,87,163765,2,0,L|268:86,1,148.750002837181,2|0,0:0|0:0,0:0:0:0:
150,193,164271,5,0,0:0:0:0:
150,193,164439,2,0,P|133:160|133:115,1,74.3750014185906,2|0,0:0|0:0,0:0:0:0:
216,141,164777,2,0,L|307:126,2,74.3750014185906,2|2|2,0:0|0:0|0:0,0:0:0:0:
254,101,165451,6,0,P|300:93|356:119,1,74.3750014185906,2|0,0:0|0:0,0:0:0:0:
455,203,165788,6,0,P|387:219|354:252,1,111.562502127886,0|0,1:0|0:0,0:0:0:0:
225,333,166125,2,0,P|257:302|254:234,1,111.562502127886,0|0,1:0|0:0,0:0:0:0:
304,78,166462,2,0,P|239:121|203:118,1,111.562502127886,0|0,1:0|0:0,0:0:0:0:
66,213,166799,6,0,P|75:138|107:51,1,166.249995560646,4|0,0:0|0:0,0:0:0:0:
366,56,167305,1,0,0:0:0:0:
366,56,167473,2,0,P|310:67|264:47,1,83.1249977803231,2|0,0:0|0:0,0:0:0:0:
165,182,167810,2,0,L|343:175,1,166.249995560646,2|0,0:0|0:0,0:0:0:0:
470,319,168484,6,0,L|376:319,1,83.1249977803231,8|0,0:0|0:0,0:0:0:0:
318,199,168822,2,0,L|408:181,1,83.1249977803231,2|0,0:0|0:0,0:0:0:0:
440,3,169159,2,0,L|350:21,1,83.1249977803231
163,45,169496,1,0,0:0:0:0:
232,190,169664,1,0,0:0:0:0:
232,190,169833,2,0,P|282:141|375:184,1,166.249995560646,8|0,0:0|0:0,0:0:0:0:
85,346,170507,2,0,L|70:242,1,83.1249977803231,2|0,0:0|0:0,0:0:0:0:
168,235,170844,6,0,B|207:229|274:239|239:279|285:299|354:296,1,166.249995560646,2|0,0:0|0:0,0:0:0:0:
469,82,171518,2,0,L|456:-20,1,83.1249977803231,2|0,0:0|0:0,0:0:0:0:
357,15,171855,2,0,P|337:80|408:162,1,166.249995560646,2|0,0:0|0:0,0:0:0:0:
221,154,172361,6,0,L|110:156,1,83.1249977803231,0|2,0:0|0:0,0:0:0:0:
101,226,172698,1,0,0:0:0:0:
101,226,172866,2,0,P|59:278|75:394,1,166.249995560646,2|0,0:0|0:0,0:0:0:0:
337,318,173541,2,0,L|431:318,1,83.1249977803231,2|0,0:0|0:0,0:0:0:0:
430,164,173878,6,0,L|341:153,1,83.1249977803231,8|0,0:0|0:0,0:0:0:0:
467,41,174215,5,8,0:0:0:0:
374,41,174383,1,8,0:0:0:0:
296,101,174552,1,8,0:0:0:0:
265,193,174720,1,8,0:0:0:0:
258,267,174889,6,0,P|211:260|151:268,1,83.1249977803231,4|0,0:0|0:0,0:0:0:0:
57,49,175226,2,0,P|99:69|155:71,1,83.1249977803231,2|0,0:0|0:0,0:0:0:0:
329,82,175563,2,0,L|337:-4,1,83.1249977803231,2|0,0:0|0:0,0:0:0:0:
382,207,175900,1,2,0:0:0:0:
375,325,176069,1,2,0:0:0:0:
459,270,176237,2,0,L|286:264,1,166.249995560646,4|0,0:0|0:0,0:0:0:0:
50,380,176911,6,0,L|39:293,1,83.1249977803231,0|0,0:0|0:0,0:0:0:0:
92,128,177248,2,0,L|102:241,1,83.1249977803231,2|0,0:0|0:0,0:0:0:0:
254,171,177586,1,8,0:0:0:0:
254,170,177754,1,2,0:0:0:0:
332,341,177923,1,2,0:0:0:0:
98,356,178091,1,0,0:0:0:0:
98,356,178260,2,0,P|70:299|65:261,1,83.1249977803231,8|0,0:0|0:0,0:0:0:0:
55,54,178597,2,0,P|97:94|123:138,1,83.1249977803231,0|0,0:0|0:0,0:0:0:0:
324,157,178934,6,0,L|226:158,1,83.1249977803231,4|0,0:0|0:0,0:0:0:0:
236,288,179271,2,0,L|334:288,1,83.1249977803231,0|0,0:0|0:0,0:0:0:0:
183,381,179608,1,8,0:0:0:0:
104,171,179777,1,2,0:0:0:0:
104,171,179945,6,0,P|97:124|102:76,1,83.1249977803231,4|0,0:0|0:0,0:0:0:0:
236,214,180282,2,0,P|247:264|245:310,1,83.1249977803231,0|0,0:0|0:0,0:0:0:0:
440,153,180619,1,8,0:0:0:0:
229,40,180788,1,0,0:0:0:0:
229,40,180956,2,0,P|236:140|287:197,1,166.249995560646,2|0,0:0|0:0,0:0:0:0:
497,279,181462,5,8,0:0:0:0:
394,255,181631,1,8,0:0:0:0:
288,226,181799,1,8,0:0:0:0:
403,61,181968,5,8,0:0:0:0:
319,160,182136,1,8,0:0:0:0:
185,191,182305,1,8,0:0:0:0:
71,171,182473,1,8,0:0:0:0:
235,133,182642,2,0,L|258:241,1,83.1249977803231,10|0,0:0|0:0,0:0:0:0:
467,359,182979,6,0,P|366:320|502:99,1,454.999979171754,6|0,0:0|0:0,0:0:0:0:
507,111,184340,6,0,L|201:75,1,303.333319447836,2|0,0:0|0:0,0:0:0:0:
86,96,185516,6,0,L|212:98,1,116.666666666667,8|0,0:0|0:0,0:0:0:0:
207,94,186012,6,0,P|179:157|180:225,1,116.666666666667,8|8,0:0|0:0,0:0:0:0:
344,348,186518,2,0,P|351:277|333:215,1,116.666666666667,8|8,0:0|0:0,0:0:0:0:
460,50,187024,6,0,P|393:57|262:66,1,180.833334712982,6|0,0:0|0:0,0:0:0:0:
16,231,187529,2,0,P|101:193|93:104,1,180.833334712982,8|0,0:0|0:0,0:0:0:0:
143,296,188035,2,0,L|235:290,2,90.4166673564911,2|0|2,0:0|0:0|0:0,0:0:0:0:
230,364,188541,6,0,P|275:296|403:256,1,180.833334712982,8|0,0:0|0:0,0:0:0:0:
505,286,189045,1,8,0:0:0:0:
505,286,189214,2,0,L|504:195,1,90.4166673564911,2|0,0:0|0:0,0:0:0:0:
320,85,189551,2,0,L|203:85,1,90.4166673564911,8|0,0:0|0:0,0:0:0:0:
336,218,189888,1,2,0:0:0:0:
336,218,190057,2,0,L|442:216,1,90.4166673564911,2|0,0:0|0:0,0:0:0:0:
119,345,190395,2,0,L|118:235,1,90.4166673564911,8|2,0:0|0:0,0:0:0:0:
79,138,190732,1,2,0:0:0:0:
84,135,190816,1,2,0:0:0:0:
84,135,190900,1,2,0:0:0:0:
79,138,190984,1,2,0:0:0:0:
79,138,191069,6,0,P|143:155|262:113,1,180.833334712982,4|0,0:0|0:0,0:0:0:0:
479,28,191574,2,0,L|375:24,1,90.4166673564911,8|0,0:0|0:0,0:0:0:0:
377,221,191911,1,0,0:0:0:0:
269,301,192080,2,0,P|252:252|262:195,1,90.4166673564911,2|0,0:0|0:0,0:0:0:0:
371,77,192417,5,0,0:0:0:0:
445,204,192586,2,0,L|241:203,1,180.833334712982,8|0,0:0|0:0,0:0:0:0:
54,358,193091,2,0,L|55:254,1,90.4166673564911,2|0,0:0|0:0,0:0:0:0:
44,112,193428,1,0,0:0:0:0:
44,112,193597,2,0,P|110:125|164:109,1,90.4166673564911,8|0,0:0|0:0,0:0:0:0:
358,50,193934,2,0,P|306:41|266:46,1,90.4166673564911,2|0,0:0|0:0,0:0:0:0:
320,192,194271,5,2,0:0:0:0:
320,192,194355,1,2,0:0:0:0:
320,192,194439,1,2,0:0:0:0:
320,192,194524,1,2,0:0:0:0:
320,192,194608,1,10,0:0:0:0:
320,192,194692,1,2,0:0:0:0:
162,273,194861,1,2,0:0:0:0:
148,275,194945,1,2,0:0:0:0:
135,277,195029,1,2,0:0:0:0:
116,278,195114,1,4,0:0:0:0:
84,122,195282,2,0,L|77:62,1,45.2083336782455
15,35,195451,2,0,L|128:20,1,90.4166673564911,0|8,0:0|0:0,0:0:0:0:
278,28,195788,1,2,0:0:0:0:
451,79,195956,1,0,0:0:0:0:
451,79,196041,1,0,0:0:0:0:
451,79,196125,2,0,P|411:99|370:162,1,90.4166673564911,2|0,0:0|0:0,0:0:0:0:
462,359,196462,2,0,P|439:300|421:266,1,90.4166673564911,2|8,0:0|0:0,0:0:0:0:
419,268,196715,1,0,0:0:0:0:
419,268,196799,1,0,0:0:0:0:
261,244,196968,1,8,0:0:0:0:
261,244,197052,1,0,0:0:0:0:
265,240,197136,1,2,0:0:0:0:
284,79,197305,1,0,0:0:0:0:
284,79,197389,2,0,P|210:86|153:32,1,135.625001034737,2|8,0:0|0:0,0:0:0:0:
47,116,197810,5,2,0:0:0:0:
47,116,197979,1,0,0:0:0:0:
256,243,198146,2,0,P|180:292|148:300,1,90.4166673564911,6|0,0:0|0:0,0:0:0:0:
287,133,198484,1,8,0:0:0:0:
512,252,198653,6,0,P|449:172|524:32,1,255.20833576719,6|0,0:0|0:0,0:0:0:0:
503,42,199159,6,0,P|423:51|222:72,1,214.375002044439,6|8,0:0|0:0,0:0:0:0:
266,313,199496,2,0,P|237:265|168:261,1,107.18750102222,2|0,0:0|0:0,0:0:0:0:
76,96,199664,2,0,L|46:371,1,214.375002044439,8|2,0:0|0:0,0:0:0:0:
176,110,200001,1,8,0:0:0:0:
208,213,200170,2,0,P|277:221|339:186,1,107.18750102222,2|0,0:0|0:0,0:0:0:0:
460,117,200338,2,0,P|409:101|350:109,1,107.18750102222,10|0,0:0|0:0,0:0:0:0:
149,92,200507,6,0,P|245:82|354:6,1,214.375002044439,0|10,0:0|0:0,0:0:0:0:
459,111,200844,2,0,P|449:179|453:242,1,107.18750102222,2|0,0:0|0:0,0:0:0:0:
511,354,201012,2,0,P|404:339|278:346,1,214.375002044439,14|2,0:0|0:0,0:0:0:0:
63,252,201350,1,2,0:0:0:0:
63,252,201434,1,0,0:0:0:0:
63,252,201518,2,0,L|43:17,1,214.375002044439,2|2,1:0|0:0,0:0:0:0:
263,43,201855,6,0,B|321:34|386:45|378:114|415:135|529:95,1,214.375002044439,8|2,0:0|0:0,0:0:0:0:
487,360,202192,2,0,P|484:305|496:227,1,107.18750102222,8|0,0:0|0:0,0:0:0:0:
424,11,202361,2,0,P|451:73|456:124,1,107.18750102222,6|0,0:0|0:0,0:0:0:0:
307,169,202529,5,8,0:0:0:0:
261,152,202614,1,0,0:0:0:0:
232,152,202698,1,8,0:0:0:0:
183,156,202782,1,0,0:0:0:0:
107,136,202866,2,0,P|181:157|235:288,1,214.375002044439,2|8,0:0|0:0,0:0:0:0:
512,30,203203,6,0,L|277:25,1,223.12499702096,6|0,0:0|0:0,0:0:0:0:
472,157,203541,6,0,L|346:154,1,111.56249851048,6|0,0:0|0:0,0:0:0:0:
247,277,203709,2,0,L|385:281,1,111.56249851048,2|0,0:0|0:0,0:0:0:0:
167,104,203878,5,8,0:0:0:0:
147,153,203962,1,8,0:0:0:0:
151,217,204046,1,8,0:0:0:0:
198,267,204130,1,8,0:0:0:0:
292,301,204215,5,8,0:0:0:0:
265,232,204299,1,8,0:0:0:0:
204,185,204383,1,8,0:0:0:0:
112,179,204467,1,8,0:0:0:0:
32,203,204552,6,0,B|106:223|172:203|149:120|315:153,1,240.625002294779,14|0,0:0|0:0,0:0:0:0:
471,349,204889,1,8,0:0:0:0:
471,349,204973,1,0,0:0:0:0:
471,349,205057,2,0,P|477:229|538:42,1,240.625002294779,2|0,0:0|0:0,0:0:0:0:
215,32,205394,6,0,B|161:45|161:45|102:21,1,120.312501147389,0|0,0:0|0:0,0:0:0:0:
96,200,205563,2,0,P|16:299|105:376,1,240.625002294779,8|0,0:0|0:0,0:0:0:0:
208,152,205900,2,0,L|214:32,1,120.312501147389,8|0,0:0|0:0,0:0:0:0:
325,205,206069,2,0,L|317:325,1,120.312501147389,2|0,0:0|0:0,0:0:0:0:
400,122,206237,1,8,0:0:0:0:
189,341,206406,1,2,0:0:0:0:
492,225,206574,1,14,0:0:0:0:
438,202,206659,1,0,0:0:0:0:
416,157,206743,1,0,0:0:0:0:
433,102,206827,1,0,0:0:0:0:
449,85,206911,6,0,P|326:180|231:177,1,240.625002294779,6|0,1:0|0:0,0:0:0:0:
16,384,207248,2,0,P|130:304|254:340,1,240.625002294779,14|2,0:0|0:0,0:0:0:0:
67,118,207585,2,0,B|61:63|61:63|94:-1,1,120.312501147389,8|0,0:0|0:0,0:0:0:0:
198,209,207754,2,0,B|233:261|233:261|222:333,1,120.312501147389,2|0,0:0|0:0,0:0:0:0:
262,63,207923,6,0,P|358:114|453:35,1,240.625002294779,8|0,0:0|0:0,0:0:0:0:
508,371,208175,2,0,P|430:273|308:314,1,240.625002294779,8|8,0:0|0:0,0:0:0:0:
54,238,208428,2,0,L|52:91,1,120.312501147389,8|8,0:0|0:0,0:0:0:0:
19,5,208597,6,0,P|162:31|339:242,1,387.187512554527,14|0,0:0|0:0,0:0:0:0:
53,321,208934,6,0,P|227:347|192:189,1,387.187512554527,10|8,0:0|0:0,0:0:0:0:
143,277,209271,1,10,0:0:0:0:
461,197,209439,5,2,0:0:0:0:
445,152,209524,1,8,0:0:0:0:
397,133,209608,1,10,0:0:0:0:
332,148,209692,1,8,0:0:0:0:
298,204,209776,1,2,0:0:0:0:
297,266,209861,1,0,0:0:0:0:
329,319,209945,1,10,0:0:0:0:
402,250,210114,5,4,0:0:0:0:
402,250,210198,1,2,0:0:0:0:
402,250,210282,1,8,0:0:0:0:
259,54,210451,1,2,0:0:0:0:
259,54,210619,2,0,P|201:63|125:55,1,120.312501147389,2|0,0:0|0:0,0:0:0:0:
0,173,210788,2,0,P|60:173|114:196,1,120.312501147389
482,203,210956,2,0,P|477:313|368:341,1,240.625002294779,2|2,0:0|0:0,0:0:0:0:
487,31,211293,6,0,P|370:51|202:58,1,240.625002294779,4|2,0:0|0:0,0:0:0:0:
61,100,211630,1,4,0:0:0:0:
319,31,211799,1,6,0:0:0:0:
493,165,211967,6,0,L|191:279,1,310.62500118494,6|0,0:0|0:0,0:0:0:0:
37,22,212220,6,0,P|172:79|369:113,1,310.62500118494,14|0,0:0|0:0,0:0:0:0:
451,9,212473,6,0,L|262:26,1,155.31250059247,8|0,0:0|0:0,0:0:0:0:
45,55,212642,6,0,L|136:91,1,98.437496995926,2|0,0:0|0:0,0:0:0:0:
336,87,213990,6,0,P|338:166|338:201,1,87.5,2|0,0:0|0:0,0:0:0:0:
246,178,214327,2,0,L|241:50,1,87.5
126,11,214664,1,2,0:0:0:0:
126,11,214833,2,0,P|101:86|97:126,1,87.5
11,253,215170,2,0,L|217:251,1,175,2|0,0:0|0:0,0:0:0:0:
426,195,215675,5,0,0:0:0:0:
315,127,215844,1,0,0:0:0:0:
315,127,216012,2,0,L|315:20,1,87.5,2|0,0:0|0:0,0:0:0:0:
209,35,216350,2,0,L|208:156,1,87.5
339,52,216687,2,0,L|447:49,1,87.5,2|0,0:0|0:0,0:0:0:0:
425,193,217024,2,0,L|297:192,1,87.5,0|0,0:0|0:0,0:0:0:0:
208,351,217361,5,6,0:0:0:0:
161,274,217529,1,0,0:0:0:0:
197,151,217698,1,8,0:0:0:0:
238,137,217866,1,0,0:0:0:0:
483,122,218035,6,0,P|391:134|346:56,1,166.249995560646,4|0,1:0|0:0,0:0:0:0:
163,2,218288,2,0,P|113:50|123:162,1,166.249995560646,4|0,1:0|0:0,0:0:0:0:
446,141,218541,1,4,1:0:0:0:
186,373,218709,6,0,L|190:271,1,83.1249977803231,0|0,0:0|0:0,0:0:0:0:
239,72,218878,2,0,L|241:165,1,83.1249977803231
87,224,219046,6,0,P|197:208|333:230,1,249.374993340969,6|0,0:0|0:0,0:0:0:0:
450,191,219383,6,0,P|458:261|360:351,1,183.749994392395,2|0,0:0|0:0,0:0:0:0:
276,304,219720,1,8,0:0:0:0:
437,109,219889,1,2,0:0:0:0:
199,88,220057,6,0,P|246:171|355:134,1,183.749994392395,2|0,0:0|0:0,0:0:0:0:
319,34,220394,1,8,0:0:0:0:
276,304,220563,1,2,0:0:0:0:
482,230,220732,6,0,P|422:223|347:225,1,91.8749971961976,2|0,0:0|0:0,0:0:0:0:
134,281,220900,2,0,P|186:249|249:221,1,91.8749971961976,0|0,0:0|0:0,0:0:0:0:
368,339,221069,1,8,0:0:0:0:
234,101,221237,1,2,0:0:0:0:
429,51,221406,6,0,P|404:136|296:102,1,183.749994392395,4|0,0:0|0:0,0:0:0:0:
58,3,221743,6,0,P|62:140|46:327,1,275.624991588593,2|0,1:0|0:0,0:0:0:0:
404,92,222080,6,0,P|295:99|185:71,1,183.749994392395,4|2,0:0|0:0,0:0:0:0:
58,3,222417,2,0,P|45:61|33:148,1,91.8749971961976,2|0,0:0|0:0,0:0:0:0:
107,323,222585,2,0,P|107:254|97:178,1,91.8749971961976,2|0,0:0|0:0,0:0:0:0:
204,40,222754,1,2,0:0:0:0:
364,320,222923,1,2,0:0:0:0:
422,68,223091,6,0,L|314:66,1,91.8749971961976,2|0,0:0|0:0,0:0:0:0:
75,247,223260,2,0,L|196:241,1,91.8749971961976,2|0,0:0|0:0,0:0:0:0:
341,256,223428,5,14,0:0:0:0:
346,214,223512,1,0,0:0:0:0:
319,170,223597,1,2,0:0:0:0:
265,165,223681,1,2,0:0:0:0:
227,189,223765,1,2,0:0:0:0:
223,221,223850,1,8,0:0:0:0:
233,256,223934,1,8,0:0:0:0:
259,275,224018,1,0,0:0:0:0:
306,348,224102,5,8,0:0:0:0:
342,311,224187,1,8,0:0:0:0:
344,255,224271,1,8,0:0:0:0:
321,199,224355,1,8,0:0:0:0:
240,158,224439,5,10,0:0:0:0:
251,59,224524,1,8,0:0:0:0:
329,10,224608,1,10,0:0:0:0:
414,35,224692,1,8,0:0:0:0:
486,110,224776,6,0,B|436:130|374:135|385:63|307:58|213:104,1,218.75,2|8,0:0|0:0,0:0:0:0:
86,229,225114,2,0,P|87:299|101:348,1,109.375,2|0,0:0|0:0,0:0:0:0:
179,136,225282,2,0,P|172:69|161:13,1,109.375,8|0,0:0|0:0,0:0:0:0:
86,229,225451,2,0,P|203:293|300:185,1,218.75,2|0,0:0|0:0,0:0:0:0:
453,40,225788,2,0,L|436:161,1,109.375,2|0,0:0|0:0,0:0:0:0:
512,352,225956,2,0,P|384:325|216:369,1,218.75,8|0,0:0|0:0,0:0:0:0:
277,98,226293,1,8,0:0:0:0:
142,135,226462,2,0,B|157:85|157:85|120:5,1,109.375,2|0,0:0|0:0,0:0:0:0:
26,253,226630,2,0,B|18:302|18:302|51:372,1,109.375,8|0,0:0|0:0,0:0:0:0:
142,135,226799,6,0,P|223:147|393:121,1,218.75,6|0,0:0|0:0,0:0:0:0:
466,373,227136,6,0,P|475:233|397:317,1,328.125,6|0,1:0|0:0,0:0:0:0:
301,368,227473,6,0,P|308:245|312:76,1,218.75,8|2,0:0|0:0,0:0:0:0:
99,4,227810,2,0,L|108:132,1,109.375,8|0,0:0|0:0,0:0:0:0:
22,217,227979,1,2,0:0:0:0:
239,253,228147,2,0,P|329:248|276:142,1,218.75,8|0,0:0|0:0,0:0:0:0:
400,3,228484,2,0,P|434:44|500:66,1,109.375,8|0,0:0|0:0,0:0:0:0:
475,358,228653,2,0,P|423:294|361:285,1,109.375,2|0,0:0|0:0,0:0:0:0:
309,148,228821,6,0,P|201:147|105:197,1,218.75,6|0,0:0|0:0,0:0:0:0:
190,300,229074,2,0,P|209:270|224:365,1,218.75,6|0,0:0|0:0,0:0:0:0:
305,116,229327,2,0,P|268:76|261:22,1,109.375,2|0,0:0|0:0,0:0:0:0:
455,125,229496,6,0,L|219:0,1,218.75,14|0,0:0|0:0,0:0:0:0:
272,360,229833,6,0,L|55:81,1,328.125,6|0,1:0|0:0,0:0:0:0:
140,166,230170,6,0,P|249:243|310:164,1,218.75,14|0,0:0|0:0,0:0:0:0:
489,0,230507,2,0,P|482:100|492:149,1,109.375,8|0,0:0|0:0,0:0:0:0:
478,346,230675,2,0,P|483:279|470:190,1,109.375,2|0,0:0|0:0,0:0:0:0:
253,86,230844,2,0,L|375:71,1,109.375,8|0,0:0|0:0,0:0:0:0:
215,294,231012,2,0,L|83:280,1,109.375,0|0,0:0|0:0,0:0:0:0:
121,19,231181,1,8,0:0:0:0:
361,72,231350,2,0,P|292:142|276:274,1,218.75,2|0,0:0|0:0,0:0:0:0:
512,149,231687,1,2,0:0:0:0:
362,337,231855,2,0,P|414:338|521:369,1,109.375,8|0,0:0|0:0,0:0:0:0:
283,166,232024,2,0,P|212:165|156:157,1,109.375,2|0,0:0|0:0,0:0:0:0:
55,351,232192,6,0,P|27:265|70:356,1,328.125,14|0,0:0|0:0,0:0:0:0:
270,350,232529,6,0,P|269:220|287:5,1,328.125,6|0,1:0|0:0,0:0:0:0:
417,133,232866,6,0,P|398:84|387:-11,1,109.375,14|0,0:0|0:0,0:0:0:0:
136,120,233035,2,0,P|175:40|176:-12,1,109.375,2|0,0:0|0:0,0:0:0:0:
275,193,233203,2,0,P|225:185|160:194,1,109.375,8|0,0:0|0:0,0:0:0:0:
338,310,233372,2,0,P|380:327|468:313,1,109.375,2|0,0:0|0:0,0:0:0:0:
361,108,233541,6,0,P|345:48|300:-19,1,109.375,8|0,0:0|0:0,0:0:0:0:
187,271,233709,2,0,P|173:349|176:421,1,109.375,8|0,0:0|0:0,0:0:0:0:
274,192,233878,2,0,L|385:192,1,109.375,8|0,0:0|0:0,0:0:0:0:
179,42,234046,2,0,L|54:37,1,109.375,8|0,0:0|0:0,0:0:0:0:
63,308,234215,6,0,L|103:305,1,39.375,4|0,0:0|0:0,0:0:0:0:
361,320,235057,1,2,0:0:0:0:
361,320,235226,2,0,L|546:291,1,131.25000500679,10|0,0:0|0:0,0:0:0:0:
78,72,235563,6,0,B|166:53|177:180|328:121,1,218.75,6|2,0:0|0:0,0:0:0:0:
512,71,235900,1,2,0:0:0:0:
413,221,236069,2,0,P|370:87|445:-7,1,218.75,6|2,0:0|0:0,0:0:0:0:
342,314,236406,2,0,P|297:289|223:272,1,109.375,2|0,0:0|0:0,0:0:0:0:
266,98,236574,2,0,P|306:91|381:53,1,109.375,2|0,0:0|0:0,0:0:0:0:
92,159,236743,2,0,P|46:287|48:371,1,218.75,4|0,0:0|0:0,0:0:0:0:
177,130,237080,6,0,L|161:17,1,109.375,2|0,0:0|0:0,0:0:0:0:
309,191,237248,2,0,L|296:300,1,109.375,2|0,0:0|0:0,0:0:0:0:
481,130,237417,2,0,P|390:175|163:117,1,328.125,6|0,0:0|0:0,0:0:0:0:
318,3,237754,1,0,0:0:0:0:
18,339,237923,2,0,L|255:318,1,218.75,2|0,0:0|0:0,0:0:0:0:
468,342,238260,6,0,P|468:271|457:195,1,131.25000500679,6|0,1:0|0:0,0:0:0:0:
378,23,238428,1,2,0:0:0:0:
378,23,238512,1,2,0:0:0:0:
378,23,238597,6,0,P|330:175|325:213,1,131.25000500679,6|0,1:0|0:0,0:0:0:0:
204,236,238765,1,2,0:0:0:0:
204,236,238850,1,2,0:0:0:0:
204,236,238934,6,0,P|294:232|399:253,1,131.25000500679,6|0,1:0|0:0,0:0:0:0:
136,20,239102,1,2,0:0:0:0:
136,20,239187,1,2,0:0:0:0:
136,20,239271,6,0,B|124:171,1,131.25000500679,8|0,0:0|0:0,0:0:0:0:
203,367,239439,2,0,B|204:230,1,131.25000500679,2|0,0:0|0:0,0:0:0:0:
432,169,239608,2,0,P|317:148|288:-25,1,262.500010013581,6|0,1:0|0:0,0:0:0:0:
461,41,239945,1,8,0:0:0:0:
483,351,240114,5,2,0:0:0:0:
116,203,240282,2,0,L|272:171,1,131.25000500679,14|0,0:0|0:0,0:0:0:0:
406,241,240451,1,8,0:0:0:0:
429,220,240535,1,8,0:0:0:0:
445,178,240619,1,8,0:0:0:0:
448,128,240703,1,8,0:0:0:0:
420,85,240788,1,8,0:0:0:0:
381,63,240872,1,8,0:0:0:0:
336,42,240956,6,0,P|254:74|28:16,1,280,10|0,0:0|0:0,0:0:0:0:
74,279,241293,1,2,0:0:0:0:
242,174,241462,2,0,P|312:174|382:181,1,140,8|0,0:0|0:0,0:0:0:0:
469,28,241630,2,0,L|484:309,1,280,2|8,0:0|0:0,0:0:0:0:
311,384,241967,2,0,P|247:330|144:311,1,140,2|0,0:0|0:0,0:0:0:0:
169,68,242136,2,0,P|197:147|273:179,1,140,8|0,0:0|0:0,0:0:0:0:
506,109,242305,6,0,L|149:112,1,280,14|0,0:0|0:0,0:0:0:0:
59,269,242557,6,0,L|344:229,1,280,14|0,0:0|0:0,0:0:0:0:
493,337,242810,6,0,P|504:251|462:201,1,140,14|0,0:0|0:0,0:0:0:0:
484,6,242979,6,0,P|290:75|186:136,1,280,6|0,0:0|0:0,0:0:0:0:
475,210,243316,2,0,P|390:241|211:319,1,280,2|0,1:0|0:0,0:0:0:0:
23,13,243653,6,0,L|47:186,1,140,6|0,0:0|0:0,0:0:0:0:
0,339,243821,2,0,P|128:284|262:322,1,280,2|8,0:0|0:0,0:0:0:0:
512,123,244158,2,0,L|360:103,1,140,2|0,0:0|0:0,0:0:0:0:
172,19,244327,2,0,P|157:110|157:350,1,280,14|0,0:0|0:0,0:0:0:0:
411,350,244664,2,0,L|272:350,1,140,8|0,0:0|0:0,0:0:0:0:
18,191,244833,2,0,L|163:184,1,140,2|0,0:0|0:0,0:0:0:0:
248,266,245001,6,0,P|256:208|244:119,1,140,8|0,0:0|0:0,0:0:0:0:
477,6,245170,2,0,P|431:75|404:153,1,140,2|0,0:0|0:0,0:0:0:0:
486,334,245338,2,0,P|402:321|290:319,1,140,12|0,0:0|0:0,0:0:0:0:
246,127,245507,2,0,P|337:125|401:108,1,140,8|2,0:0|0:0,0:0:0:0:
163,33,245675,5,14,0:0:0:0:
146,77,245760,1,8,0:0:0:0:
147,135,245844,1,8,0:0:0:0:
173,173,245928,1,8,0:0:0:0:
241,268,246012,5,8,0:0:0:0:
290,206,246097,1,8,0:0:0:0:
300,116,246181,1,8,0:0:0:0:
258,40,246265,1,8,0:0:0:0:
178,14,246350,6,0,L|168:171,1,131.25000500679,14|8,0:0|0:0,0:0:0:0:
402,107,246687,1,2,0:0:0:0:
37,295,246855,2,0,L|170:281,1,131.25000500679,14|2,0:0|0:0,0:0:0:0:
323,51,247192,1,2,0:0:0:0:
484,267,247361,1,8,0:0:0:0:
420,240,247445,1,8,0:0:0:0:
381,163,247529,1,8,0:0:0:0:
429,70,247614,1,8,0:0:0:0:
429,100,247698,6,0,L|420:102,1,8.75,2|0,0:0|0:0,0:0:0:0:
373,177,248035,2,0,L|384:179,1,8.75,2|0,0:0|0:0,0:0:0:0:
325,324,248372,5,2,0:0:0:0:
257,287,248456,1,2,0:0:0:0:
182,286,248541,1,2,0:0:0:0:
110,305,248625,1,2,0:0:0:0:
33,353,248709,6,0,P|40:233|37:117,1,196.875007510186,8|0,0:0|0:0,0:0:0:0:
193,0,249046,6,0,P|161:107|295:188,1,262.500010013581,6|8,1:0|0:0,0:0:0:0:
502,311,249383,1,2,0:0:0:0:
508,24,249552,2,0,B|370:14|397:106|354:142|247:112,1,262.500010013581,8|2,0:0|0:0,0:0:0:0:
181,366,249889,1,8,0:0:0:0:
117,139,250057,2,0,P|111:105|123:10,1,131.25000500679,2|0,0:0|0:0,0:0:0:0:
257,214,250226,2,0,P|272:292|261:365,1,131.25000500679,8|0,0:0|0:0,0:0:0:0:
231,66,250394,6,0,P|277:98|504:89,1,262.500010013581,6|8,0:0|0:0,0:0:0:0:
482,354,250732,2,0,B|500:291|500:291|488:223,1,131.25000500679,2|0,0:0|0:0,0:0:0:0:
391,0,250900,2,0,P|385:92|396:276,1,262.500010013581,8|2,0:0|0:0,0:0:0:0:
176,167,251237,6,0,P|209:152|316:174,1,131.25000500679,8|0,0:0|0:0,0:0:0:0:
55,29,251406,2,0,P|82:127|108:253,1,131.25000500679,2|0,0:0|0:0,0:0:0:0:
63,346,251574,2,0,P|87:299|146:224,1,131.25000500679,10|0,0:0|0:0,0:0:0:0:
228,65,251743,6,0,P|297:181|446:158,1,262.500010013581,6|8,1:0|0:0,0:0:0:0:
87,158,252080,1,2,0:0:0:0:
189,280,252248,2,0,P|338:289|498:362,1,262.500010013581,12|0,0:0|0:0,0:0:0:0:
475,106,252585,2,0,P|454:37|402:53,1,131.25000500679,8|0,0:0|0:0,0:0:0:0:
115,28,252754,2,0,P|154:134|202:392,1,262.500010013581,2|0,1:0|0:0,0:0:0:0:
335,9,253091,6,0,L|286:290,1,262.500010013581,6|8,0:0|0:0,0:0:0:0:
486,151,253428,2,0,P|438:106|421:46,1,131.25000500679,2|0,0:0|0:0,0:0:0:0:
509,304,253597,2,0,P|423:230|254:339,1,262.500010013581,12|2,0:0|0:0,0:0:0:0:
51,353,253934,1,8,0:0:0:0:
79,82,254102,1,8,0:0:0:0:
120,98,254187,1,8,0:0:0:0:
177,100,254271,1,8,0:0:0:0:
259,64,254355,1,8,0:0:0:0:
379,34,254439,6,0,P|234:78|300:305,1,393.750015020371,14|0,0:0|0:0,0:0:0:0:
465,136,254776,2,0,B|484:75|484:75|458:-22,1,131.25000500679,2|0,0:0|0:0,0:0:0:0:
512,253,254945,2,0,P|369:244|244:289,1,262.500010013581,8|0,0:0|0:0,0:0:0:0:
3,384,255282,6,0,P|25:316|6:230,1,131.25000500679,8|0,0:0|0:0,0:0:0:0:
180,0,255451,2,0,P|158:91|181:198,1,131.25000500679,2|0,0:0|0:0,0:0:0:0:
414,75,255619,2,0,P|315:70|248:74,1,131.25000500679,8|0,0:0|0:0,0:0:0:0:
384,227,255788,2,0,P|488:182|438:17,1,262.500010013581,2|8,1:0|0:0,0:0:0:0:
428,332,256125,1,2,0:0:0:0:
159,291,256293,2,0,P|157:151|151:9,1,262.500010013581,14|2,0:0|0:0,0:0:0:0:
286,254,256630,2,0,L|276:384,1,131.25000500679,8|0,0:0|0:0,0:0:0:0:
454,145,256799,1,2,0:0:0:0:
163,129,256967,2,0,P|220:98|258:45,1,131.25000500679,8|0,0:0|0:0,0:0:0:0:
509,348,257136,6,0,P|348:245|217:291,1,262.500010013581,6|0,0:0|0:0,0:0:0:0:
0,54,257473,2,0,B|59:83|59:83|155:38,1,131.25000500679,2|0,0:0|0:0,0:0:0:0:
238,0,257642,2,0,P|181:117|233:280,1,262.500010013581,14|0,0:0|0:0,0:0:0:0:
488,23,257979,1,8,0:0:0:0:
410,284,258147,2,0,P|321:196|204:238,1,262.500010013581,2|0,0:0|0:0,0:0:0:0:
10,19,258484,6,0,P|37:101|48:186,1,153.125001460314,6|0,0:0|0:0,0:0:0:0:
160,383,258653,2,0,P|177:298|216:217,1,153.125001460314,10|2,0:0|0:0,0:0:0:0:
354,0,258821,2,0,L|353:153,1,153.125001460314,0|8,0:0|0:0,0:0:0:0:
477,383,258990,2,0,L|477:229,1,153.125001460314,8|0,0:0|0:0,0:0:0:0:
444,113,259158,5,10,0:0:0:0:
409,143,259243,1,2,0:0:0:0:
353,153,259327,1,10,0:0:0:0:
298,129,259411,1,2,0:0:0:0:
218,91,259496,5,8,0:0:0:0:
137,63,259580,1,8,0:0:0:0:
62,87,259664,1,8,0:0:0:0:
25,166,259748,1,8,0:0:0:0:
53,254,259833,5,4,1:0:0:0:
256,192,259917,12,10,262529,0:0:0:0:
256,192,262614,12,0,265226,0:0:0:0:
