osu file format v14

[General]
AudioFilename: audio.mp3
AudioLeadIn: 0
PreviewTime: 134450
Countdown: 0
SampleSet: Soft
StackLeniency: 0.2
Mode: 0
LetterboxInBreaks: 0
WidescreenStoryboard: 1

[Editor]
DistanceSpacing: 1
BeatDivisor: 6
GridSize: 16
TimelineZoom: 2.799999

[Metadata]
Title:Shoukei to Shikabane no Michi
TitleUnicode:憧憬と屍の道
Artist:Linked Horizon
ArtistUnicode:Linked Horizon
Creator:Cheri
Version:Expert
Source:進撃の巨人
Tags:Hailie DJ Lucky Full version shingeki no kyojin attack on titan season 3 part 2 Opening OP Japanese Anime attack on titan
BeatmapID:2200841
BeatmapSetID:1053162

[Difficulty]
HPDrainRate:5
CircleSize:4
OverallDifficulty:9
ApproachRate:9.4
SliderMultiplier:1.85
SliderTickRate:1

[Events]
//Background and Video events
0,0,"realbg.jpg",0,0
//Break Periods
//Storyboard Layer 0 (Background)
//Storyboard Layer 1 (Fail)
//Storyboard Layer 2 (Pass)
//Storyboard Layer 3 (Foreground)
//Storyboard Layer 4 (Overlay)
//Storyboard Sound Samples

[TimingPoints]
9097,337.078651685393,4,2,0,30,1,0
9097,-200,4,2,0,30,0,0
9773,324.324324324324,4,2,0,30,1,0
9773,-200,4,2,0,30,0,0
11070,337.078651685393,4,2,0,30,1,0
11070,-200,4,2,0,30,0,0
12418,327.868852459016,4,2,0,30,1,0
12418,-200,4,2,0,30,0,0
13073,342.857142857143,4,2,0,30,1,0
14444,340.909090909091,4,2,0,30,1,0
14444,-200,4,2,0,30,0,0
16489,329.67032967033,4,2,0,30,1,0
17807,337.078651685393,4,2,0,30,1,0
17807,-200,4,2,0,30,0,0
18481,344.827586206897,4,2,0,30,1,0
19170,333.333333333333,4,2,0,30,1,0
21170,344.332855093257,4,2,0,30,1,0
22530,337.078651685393,4,2,1,70,1,0
22530,-66.6666666666667,4,2,1,70,0,0
25226,-125,4,2,1,40,0,0
30619,-111.111111111111,4,2,1,50,0,0
36013,-95.2380952380952,4,2,1,60,0,0
52192,-64.5161290322581,4,2,1,70,0,0
57586,-57.1428571428571,4,2,1,80,0,0
58934,-133.333333333333,4,2,1,40,0,0
62979,-54.054054054054,4,2,1,70,0,0
64327,-51.2820512820513,4,2,1,60,0,0
68372,-39.2156862745098,4,2,1,70,0,0
69721,-44.4444444444445,4,2,1,80,0,0
79159,-400,4,2,1,30,0,0
80507,-133.333333333333,4,2,1,40,0,0
85732,-100,4,2,1,50,0,0
112867,-133.333333333333,4,2,1,40,0,0
116912,-54.054054054054,4,2,1,70,0,0
118260,-51.2820512820513,4,2,1,60,0,0
123653,-42.5531914893617,4,2,1,80,0,0
133091,-666.666666666667,4,2,1,30,0,0
134440,337.078651685393,3,2,0,40,1,0
134440,-153.846153846154,3,2,0,40,0,0
150619,-117.64705882353,3,2,0,50,0,0
166799,-105.263157894737,3,2,1,55,0,0
182979,510.63829787234,4,2,1,55,1,0
182979,-71.4285714285714,4,2,1,55,0,0
185021,495.867768595041,4,2,1,55,1,0
186012,505.616557256862,4,2,1,55,1,0
187024,-64.5161290322581,3,2,1,60,0,0
198653,-57.1428571428571,3,2,1,50,0,0
199159,337.078651685393,4,2,1,80,1,1
199159,-40.8163265306122,3,2,1,80,0,1
203203,-39.2156862745098,3,2,1,80,0,0
204552,-36.3636363636364,3,2,1,80,0,1
208597,-33.8983050847458,3,2,1,80,0,1
210114,-36.3636363636364,3,2,1,50,0,0
211967,-28.169014084507,3,2,1,80,0,0
212632,-666.666666666667,3,2,1,50,0,0
213990,-71.4285714285714,3,2,1,50,0,0
218035,-52.6315789473684,3,2,1,70,0,0
219383,-47.6190476190476,3,2,1,60,0,0
224776,-40,3,2,1,80,0,0
234215,-1000,3,2,1,50,0,0
235057,-200,3,2,1,60,0,0
235226,-66.6666666666667,3,2,1,70,0,0
235563,-40,3,2,1,70,0,0
238260,-33.3333333333333,3,2,1,90,0,1
240956,-31.25,3,2,1,85,0,0
243653,-31.25,3,2,1,90,0,1
246350,-66.6666666666667,3,2,1,80,0,0
247192,-29.4117647058824,3,2,1,90,0,0
247698,-1000,3,2,1,50,0,0
248372,-66.6666666666667,3,2,1,70,0,0
249046,-33.3333333333333,3,2,1,90,0,1
258484,-28.5714285714286,3,2,1,90,0,1
259157,-26.3157894736842,3,2,1,95,0,1
259496,-25,3,2,1,100,0,1
259833,-100,3,2,1,50,0,0
260507,-100,3,2,0,20,0,0
262614,-100,3,2,0,5,0,0

[Colours]
Combo1 : 128,128,0
Combo2 : 128,64,64
Combo3 : 255,128,64
Combo4 : 255,0,0

[HitObjects]
67,23,9097,6,0,P|85:117|96:175,1,138.75,2|0,0:0|0:0,0:0:0:0:
206,304,9773,2,0,P|224:337|268:368,2,92.5,2|0|0,0:0|0:0|0:0,0:0:0:0:
331,177,11070,2,0,L|428:177,1,92.5,2|0,0:0|0:0,0:0:0:0:
409,58,11744,2,0,L|315:53,1,92.5,2|0,0:0|0:0,0:0:0:0:
179,86,12418,1,2,0:0:0:0:
157,91,13073,1,2,0:0:0:0:
135,119,13758,1,2,0:0:0:0:
71,152,14444,6,0,P|77:223|84:341,1,185,2|0,0:0|0:0,0:0:0:0:
209,341,15466,1,2,0:0:0:0:
209,341,15807,2,0,P|293:330|398:348,1,185,2|0,0:0|0:0,0:0:0:0:
466,264,16818,1,2,0:0:0:0:
352,237,17148,1,2,0:0:0:0:
134,141,17807,2,0,L|132:40,2,92.5,2|0|0,0:0|0:0|0:0,0:0:0:0:
267,165,19170,1,2,0:0:0:0:
362,163,19503,1,2,0:0:0:0:
458,167,19836,1,2,0:0:0:0:
186,311,20503,1,2,0:0:0:0:
96,311,20836,1,2,0:0:0:0:
4,310,21169,1,2,0:0:0:0:
237,25,21858,1,2,0:0:0:0:
505,41,22530,6,0,P|440:67|350:67,1,138.750005292893,2|0,0:0|0:0,0:0:0:0:
354,300,22867,1,0,0:0:0:0:
34,171,23035,2,0,P|35:96|172:46,1,208.125007939339,10|0,0:0|0:0,0:0:0:0:
159,187,23372,2,0,L|169:327,1,138.750005292893,2|0,0:0|0:0,0:0:0:0:
464,73,23709,5,10,0:0:0:0:
370,41,23878,2,0,P|362:86|367:142,1,69.3750026464463,0|0,0:0|0:0,0:0:0:0:
405,330,24046,2,0,P|390:267|374:239,1,69.3750026464463,8|0,0:0|0:0,0:0:0:0:
214,189,24215,2,0,P|282:180|325:163,1,69.3750026464463,2|0,0:0|0:0,0:0:0:0:
62,179,24383,2,0,P|58:107|36:-7,1,138.750005292893,10|0,0:0|0:0,0:0:0:0:
50,298,24636,1,8,0:0:0:0:
50,298,24721,2,0,P|127:308|192:326,1,138.750005292893,8|0,0:0|0:0,0:0:0:0:
290,311,24973,1,8,0:0:0:0:
351,226,25058,1,8,0:0:0:0:
306,141,25142,1,8,0:0:0:0:
213,93,25226,6,0,L|200:175,1,74,2|0,0:0|0:0,0:0:0:0:
73,220,25563,1,2,0:0:0:0:
73,220,25732,2,0,L|49:322,1,74,0|2,0:0|0:0,0:0:0:0:
137,345,26069,1,0,0:0:0:0:
137,345,26237,2,0,L|242:355,1,74,2|0,0:0|0:0,0:0:0:0:
391,302,26574,2,0,P|427:307|473:305,2,74,2|0|2,0:0|0:0|0:0,0:0:0:0:
292,211,27080,1,0,0:0:0:0:
292,211,27249,2,0,P|244:210|189:220,2,74,2|0|2,0:0|0:0|0:0,0:0:0:0:
421,151,27754,5,2,0:0:0:0:
421,151,27838,1,2,0:0:0:0:
421,151,27923,2,0,P|416:76|414:54,1,74,2|0,0:0|0:0,0:0:0:0:
301,67,28260,2,0,P|249:37|214:28,1,74,2|0,0:0|0:0,0:0:0:0:
135,79,28597,1,2,0:0:0:0:
135,79,28765,1,0,0:0:0:0:
72,160,28934,1,2,0:0:0:0:
72,160,29103,2,0,L|62:249,1,74,0|0,0:0|0:0,0:0:0:0:
150,327,29440,1,0,0:0:0:0:
150,327,29608,2,0,L|155:221,1,74,2|0,0:0|0:0,0:0:0:0:
326,248,29945,6,0,L|329:291,1,37,2|0,0:0|0:0,0:0:0:0:
370,164,30114,2,0,L|362:101,1,37,2|0,0:0|0:0,0:0:0:0:
463,17,30282,2,0,P|459:70|455:117,1,74,2|0,0:0|0:0,0:0:0:0:
161,51,30619,6,0,P|99:42|45:53,1,83.2499974594117,4|0,0:0|0:0,0:0:0:0:
161,160,30956,2,0,P|200:163|275:147,2,83.2499974594117,2|0|2,0:0|0:0|0:0,0:0:0:0:
333,92,31462,1,0,0:0:0:0:
431,62,31631,1,2,0:0:0:0:
495,170,31799,1,0,0:0:0:0:
495,170,31968,2,0,L|494:264,2,83.2499974594117,2|0|2,0:0|0:0|0:0,0:0:0:0:
323,86,32473,1,0,0:0:0:0:
323,86,32642,2,0,L|330:-6,2,83.2499974594117,2|0|2,0:0|0:0|0:0,0:0:0:0:
166,128,33147,5,0,0:0:0:0:
166,128,33316,2,0,P|118:156|82:166,1,83.2499974594117,6|0,0:0|0:0,0:0:0:0:
191,323,33653,2,0,P|219:318|283:321,1,83.2499974594117,2|0,0:0|0:0,0:0:0:0:
128,259,33990,2,0,P|80:266|23:258,1,83.2499974594117,2|0,0:0|0:0,0:0:0:0:
91,164,34327,1,0,0:0:0:0:
365,52,34496,5,0,3:0:0:0:
365,52,34664,1,2,0:0:0:0:
365,52,34833,1,0,3:0:0:0:
321,144,35001,1,2,0:0:0:0:
474,229,35170,1,0,3:0:0:0:
333,342,35338,1,10,0:0:0:0:
324,342,35423,1,10,0:0:0:0:
314,341,35507,1,10,0:0:0:0:
308,337,35591,1,10,0:0:0:0:
274,320,35676,2,0,P|229:332|183:294,1,83.2499974594117,2|2,0:0|0:0,0:0:0:0:
63,241,36013,6,0,P|71:310|77:372,1,97.1249970359803,6|0,0:0|0:0,0:0:0:0:
137,58,36350,1,8,0:0:0:0:
239,91,36518,1,0,0:0:0:0:
239,91,36687,2,0,L|235:206,1,97.1249970359803,2|0,0:0|0:0,0:0:0:0:
404,124,37024,1,8,0:0:0:0:
449,318,37192,1,0,0:0:0:0:
449,318,37361,2,0,P|365:312|332:297,2,97.1249970359803,2|0|8,0:0|0:0|0:0,0:0:0:0:
161,175,37867,1,0,0:0:0:0:
161,175,38035,2,0,P|239:155|270:157,2,97.1249970359803,2|0|8,0:0|0:0|0:0,0:0:0:0:
26,271,38541,1,0,0:0:0:0:
174,346,38709,6,0,L|190:231,1,97.1249970359803,2|0,0:0|0:0,0:0:0:0:
429,331,39046,1,8,0:0:0:0:
392,188,39215,1,0,0:0:0:0:
392,188,39383,2,0,L|279:193,1,97.1249970359803,2|0,0:0|0:0,0:0:0:0:
55,88,39721,1,8,0:0:0:0:
144,41,39889,1,0,0:0:0:0:
106,249,40058,5,2,0:0:0:0:
27,181,40226,2,0,L|58:74,1,97.1249970359803,0|8,0:0|0:0,0:0:0:0:
297,18,40563,5,0,0:0:0:0:
383,52,40732,2,0,L|388:166,1,97.1249970359803,2|0,0:0|0:0,0:0:0:0:
472,325,41069,1,8,0:0:0:0:
386,356,41237,5,0,0:0:0:0:
386,356,41406,2,0,P|296:341|177:344,1,194.249994071961,6|8,0:0|0:0,0:0:0:0:
32,384,41912,1,0,0:0:0:0:
79,305,42080,5,2,0:0:0:0:
79,305,42249,2,0,P|78:233|94:182,1,97.1249970359803,0|8,0:0|0:0,0:0:0:0:
200,71,42586,1,0,0:0:0:0:
200,71,42754,2,0,L|310:65,1,97.1249970359803,2|0,0:0|0:0,0:0:0:0:
360,175,43091,1,8,0:0:0:0:
360,175,43260,2,0,P|241:183|144:188,1,194.249994071961,0|0,0:0|0:0,0:0:0:0:
485,354,43765,5,8,0:0:0:0:
485,354,43934,2,0,P|350:321|318:360,1,194.249994071961,0|0,0:0|0:0,0:0:0:0:
80,195,44440,2,0,B|128:176|128:176|177:193,1,97.1249970359803,8|0,0:0|0:0,0:0:0:0:
235,106,44777,1,2,0:0:0:0:
245,106,44945,1,0,0:0:0:0:
325,20,45114,1,8,0:0:0:0:
453,49,45282,1,8,0:0:0:0:
475,188,45451,5,2,0:0:0:0:
404,125,45619,1,0,0:0:0:0:
435,41,45788,1,2,0:0:0:0:
257,220,45956,5,2,0:0:0:0:
130,205,46125,1,2,0:0:0:0:
115,352,46294,1,2,0:0:0:0:
31,83,46462,5,8,0:0:0:0:
228,93,46631,1,8,0:0:0:0:
430,187,46799,6,0,L|403:293,1,97.1249970359803,4|0,0:0|0:0,0:0:0:0:
194,348,47136,1,8,0:0:0:0:
105,294,47305,1,0,0:0:0:0:
105,294,47473,2,0,L|100:179,1,97.1249970359803,2|0,0:0|0:0,0:0:0:0:
159,51,47810,1,8,0:0:0:0:
175,51,47979,1,0,0:0:0:0:
193,55,48147,2,0,P|229:113|143:195,1,194.249994071961,2|8,0:0|0:0,0:0:0:0:
211,339,48653,1,0,0:0:0:0:
211,339,48822,2,0,B|295:299|299:362|362:366|440:334,1,194.249994071961,2|8,0:0|0:0,0:0:0:0:
459,225,49327,5,0,0:0:0:0:
459,225,49496,2,0,P|409:131|323:126,1,194.249994071961,4|8,0:0|0:0,0:0:0:0:
43,62,50001,2,0,P|95:50|145:62,1,97.1249970359803,0|2,0:0|0:0,0:0:0:0:
231,176,50338,1,0,0:0:0:0:
107,310,50507,1,8,0:0:0:0:
40,184,50676,1,0,0:0:0:0:
128,73,50844,1,2,0:0:0:0:
392,51,51013,2,0,P|264:123|208:141,1,194.249994071961,0|0,0:0|0:0,0:0:0:0:
64,352,51518,2,0,P|105:337|157:359,1,97.1249970359803,8|0,0:0|0:0,0:0:0:0:
465,84,51855,6,0,P|418:115|420:33,1,145.68749555397,6|0,1:0|0:0,0:0:0:0:
477,37,52192,6,0,P|493:119|497:149,1,71.6875005469322,2|0,1:0|0:0,0:0:0:0:
475,339,52361,1,2,0:0:0:0:
464,88,52529,1,8,0:0:0:0:
433,224,52698,1,2,0:0:0:0:
287,54,52867,2,0,L|309:134,1,71.6875005469322,8|0,0:0|0:0,0:0:0:0:
263,365,53035,1,2,0:0:0:0:
2,274,53204,6,0,P|48:229|198:249,1,215.062501640797,6|0,1:0|0:0,0:0:0:0:
465,335,53541,6,0,P|419:314|392:285,1,71.6875005469322,4|0,0:0|0:0,0:0:0:0:
276,81,53709,1,2,0:0:0:0:
430,12,53878,2,0,B|394:84|394:84|420:163,1,143.375001093864,8|0,0:0|0:0,0:0:0:0:
274,362,54215,2,0,P|277:294|284:259,1,71.6875005469322,8|0,0:0|0:0,0:0:0:0:
273,74,54383,1,8,0:0:0:0:
14,300,54552,6,0,P|94:228|220:213,1,215.062501640797,6|0,1:0|0:0,0:0:0:0:
464,34,54889,6,0,L|365:15,1,71.6875005469322,10|0,0:0|0:0,0:0:0:0:
126,58,55058,2,0,P|79:104|105:205,1,143.375001093864,2|8,0:0|0:0,0:0:0:0:
450,349,55395,1,0,0:0:0:0:
343,114,55563,2,0,P|352:187|355:231,1,71.6875005469322,8|0,0:0|0:0,0:0:0:0:
282,384,55732,1,2,0:0:0:0:
8,236,55900,6,0,P|53:214|119:199,1,71.6875005469322,10|0,0:0|0:0,0:0:0:0:
276,57,56069,2,0,L|350:44,1,71.6875005469322,2|0,0:0|0:0,0:0:0:0:
467,264,56237,6,0,P|382:264|244:303,1,215.062501640797,2|0,0:0|0:0,0:0:0:0:
289,373,56574,1,8,0:0:0:0:
205,153,56743,2,0,P|142:209|99:268,1,143.375001093864,2|0,0:0|0:0,0:0:0:0:
280,60,57080,1,0,0:0:0:0:
61,337,57249,6,0,P|186:322|132:255,1,215.062501640797,6|0,0:0|0:0,0:0:0:0:
372,49,57586,6,0,P|332:115|456:70,1,323.750003087521,4|0,1:0|0:0,0:0:0:0:
168,202,58091,6,0,P|289:230|179:287,1,323.750003087521,4|0,1:0|0:0,0:0:0:0:
164,25,58597,5,8,0:0:0:0:
91,42,58681,1,8,0:0:0:0:
43,108,58765,1,8,0:0:0:0:
56,191,58850,1,8,0:0:0:0:
133,223,58934,6,0,L|216:218,1,69.3750026464463,2|0,0:0|0:0,0:0:0:0:
215,120,59271,2,0,L|302:112,1,69.3750026464463,2|0,0:0|0:0,0:0:0:0:
351,30,59608,2,0,L|425:21,1,69.3750026464463,2|0,0:0|0:0,0:0:0:0:
486,108,59945,1,2,0:0:0:0:
486,108,60114,2,0,P|463:219|458:274,1,138.750005292893,0|0,0:0|0:0,0:0:0:0:
365,376,60619,2,0,L|366:290,1,69.3750026464463,2|0,0:0|0:0,0:0:0:0:
266,279,60956,2,0,P|201:248|126:296,1,138.750005292893,2|2,0:0|0:0,0:0:0:0:
453,87,61631,6,0,L|466:3,2,69.3750026464463,2|0|2,0:0|0:0|0:0,0:0:0:0:
355,184,62136,1,0,0:0:0:0:
197,85,62305,1,2,0:0:0:0:
113,136,62473,1,0,0:0:0:0:
74,275,62642,6,0,L|82:330,1,34.6875013232232,2|0,0:0|0:0,0:0:0:0:
117,51,62810,2,0,L|122:-17,1,34.6875013232232,2|0,0:0|0:0,0:0:0:0:
382,0,62979,6,0,P|365:99|354:213,1,171.12499934721,4|0,1:0|0:0,0:0:0:0:
54,376,63232,2,0,P|46:268|41:179,1,171.12499934721,4|0,1:0|0:0,0:0:0:0:
330,0,63485,2,0,P|340:101|360:203,1,171.12499934721,4|2,1:0|0:0,0:0:0:0:
484,48,63822,1,0,0:0:0:0:
0,136,63990,2,0,B|113:87|111:185|159:198|246:149,1,256.687499020815,6|0,0:0|0:0,0:0:0:0:
484,363,64327,6,0,P|481:297|362:242,1,180.375000688076,2|0,0:0|0:0,0:0:0:0:
165,79,64664,1,8,0:0:0:0:
38,207,64833,1,2,0:0:0:0:
460,151,65001,6,0,P|381:135|292:211,1,180.375000688076,2|0,0:0|0:0,0:0:0:0:
61,27,65338,1,8,0:0:0:0:
32,292,65507,1,2,0:0:0:0:
433,7,65676,2,0,P|359:14|285:107,1,180.375000688076,2|0,0:0|0:0,0:0:0:0:
104,283,66013,6,0,L|103:385,1,90.187500344038,8|0,0:0|0:0,0:0:0:0:
165,189,66181,2,0,L|166:85,1,90.187500344038,2|0,0:0|0:0,0:0:0:0:
441,117,66350,6,0,P|427:235|314:202,1,270.562501032114,4|0,0:0|0:0,0:0:0:0:
36,216,66687,6,0,P|42:93|165:98,1,270.562501032114,2|0,1:0|0:0,0:0:0:0:
174,377,67024,6,0,P|170:299|125:187,1,180.375000688076,4|0,0:0|0:0,0:0:0:0:
446,52,67361,2,0,P|389:130|406:222,1,180.375000688076,2|0,0:0|0:0,0:0:0:0:
455,360,67698,1,2,0:0:0:0:
344,337,67867,1,2,0:0:0:0:
260,59,68035,1,2,0:0:0:0:
81,119,68204,1,2,0:0:0:0:
77,371,68372,6,0,P|153:351|235:330,1,117.937498425365,14|0,0:0|0:0,0:0:0:0:
340,266,68541,1,2,0:0:0:0:
361,222,68625,1,2,0:0:0:0:
356,155,68709,1,2,0:0:0:0:
304,98,68794,1,8,0:0:0:0:
222,96,68878,1,8,0:0:0:0:
150,124,68962,1,2,0:0:0:0:
72,65,69046,5,8,0:0:0:0:
134,140,69131,1,8,0:0:0:0:
221,170,69215,1,8,0:0:0:0:
332,164,69299,1,8,0:0:0:0:
440,127,69383,6,0,P|448:40|453:9,1,117.937498425365,2|0,0:0|0:0,0:0:0:0:
338,327,69552,2,0,P|388:324|457:328,1,117.937498425365,2|0,0:0|0:0,0:0:0:0:
85,190,69721,6,0,P|170:261|81:350,1,208.125007939339,6|8,0:0|0:0,0:0:0:0:
455,327,70058,2,0,L|457:180,1,104.062503969669,2|0,0:0|0:0,0:0:0:0:
320,0,70226,2,0,L|326:145,1,104.062503969669,10|0,0:0|0:0,0:0:0:0:
85,190,70395,2,0,P|179:174|323:183,1,208.125007939339,2|8,0:0|0:0,0:0:0:0:
63,27,70732,2,0,P|14:81|-11:146,1,104.062503969669,2|0,0:0|0:0,0:0:0:0:
103,365,70900,2,0,P|138:257|69:183,1,208.125007939339,8|2,0:0|0:0,0:0:0:0:
415,66,71237,5,8,0:0:0:0:
198,81,71406,2,0,P|224:85|306:73,1,104.062503969669,2|0,0:0|0:0,0:0:0:0:
477,201,71574,2,0,P|401:188|328:197,1,104.062503969669,8|0,0:0|0:0,0:0:0:0:
52,222,71743,6,0,P|68:71|227:167,1,312.187511909008,6|0,0:0|0:0,0:0:0:0:
374,188,72080,6,0,P|289:253|313:117,1,312.187511909008,6|0,1:0|0:0,0:0:0:0:
464,271,72417,6,0,L|488:372,1,104.062503969669,8|0,0:0|0:0,0:0:0:0:
293,117,72586,2,0,L|315:-4,1,104.062503969669,2|0,0:0|0:0,0:0:0:0:
398,68,72754,1,8,0:0:0:0:
284,270,72923,1,2,0:0:0:0:
95,103,73091,2,0,P|185:137|312:104,1,208.125007939339,8|0,0:0|0:0,0:0:0:0:
25,305,73428,2,0,P|60:252|112:220,1,104.062503969669,8|0,0:0|0:0,0:0:0:0:
37,18,73597,2,0,P|90:88|99:130,1,104.062503969669,2|0,0:0|0:0,0:0:0:0:
324,366,73765,6,0,P|391:384|441:234,1,208.125007939339,6|0,0:0|0:0,0:0:0:0:
489,5,74018,2,0,P|417:90|459:161,1,208.125007939339,6|0,0:0|0:0,0:0:0:0:
213,193,74271,2,0,P|261:180|301:213,1,104.062503969669,2|0,0:0|0:0,0:0:0:0:
36,350,74440,6,0,L|57:14,1,312.187511909008,14|0,0:0|0:0,0:0:0:0:
447,37,74777,6,0,L|461:361,1,312.187511909008,6|0,1:0|0:0,0:0:0:0:
36,350,75114,6,0,B|105:380|175:318|174:234|257:203|309:220,1,312.187511909008,14|0,0:0|0:0,0:0:0:0:
502,102,75451,2,0,P|494:42|502:-14,1,104.062503969669,8|0,0:0|0:0,0:0:0:0:
420,231,75619,2,0,P|425:300|422:350,1,104.062503969669,2|0,0:0|0:0,0:0:0:0:
209,88,75788,2,0,P|137:94|68:98,1,104.062503969669,8|0,0:0|0:0,0:0:0:0:
347,101,75956,1,0,0:0:0:0:
268,325,76125,1,8,0:0:0:0:
45,17,76294,6,0,P|85:137|74:251,1,208.125007939339,2|8,0:0|0:0,0:0:0:0:
425,135,76631,1,2,0:0:0:0:
202,359,76799,2,0,P|214:306|258:246,1,104.062503969669,8|0,0:0|0:0,0:0:0:0:
45,17,76968,2,0,P|75:82|91:135,1,104.062503969669,2|0,0:0|0:0,0:0:0:0:
490,114,77136,6,0,P|358:113|458:195,1,312.187511909008,14|0,0:0|0:0,0:0:0:0:
445,365,77473,6,0,P|461:259|509:43,1,312.187511909008,6|0,1:0|0:0,0:0:0:0:
269,20,77810,6,0,P|323:57|369:111,1,104.062503969669,14|0,0:0|0:0,0:0:0:0:
343,279,77979,1,2,0:0:0:0:
108,130,78147,2,0,L|156:-36,1,104.062503969669,8|0,0:0|0:0,0:0:0:0:
139,267,78316,2,0,L|141:378,1,104.062503969669,2|0,0:0|0:0,0:0:0:0:
207,52,78485,5,8,0:0:0:0:
172,120,78569,1,8,0:0:0:0:
133,201,78653,1,8,0:0:0:0:
96,275,78737,1,8,0:0:0:0:
226,352,78822,5,8,0:0:0:0:
199,272,78906,1,8,0:0:0:0:
173,184,78990,1,8,0:0:0:0:
148,105,79074,1,8,0:0:0:0:
136,29,79159,6,0,L|123:205,1,173.4375,4|0,0:0|0:0,0:0:0:0:
186,242,80507,5,2,0:0:0:0:
275,224,80676,1,0,0:0:0:0:
317,142,80844,1,0,0:0:0:0:
402,118,81013,1,0,0:0:0:0:
486,151,81181,2,0,L|490:318,1,138.750005292893,2|0,0:0|0:0,0:0:0:0:
367,357,81687,6,0,L|271:356,1,69.3750026464463,2|0,0:0|0:0,0:0:0:0:
177,345,82024,1,0,0:0:0:0:
112,287,82192,1,2,0:0:0:0:
120,191,82361,1,0,0:0:0:0:
163,90,82529,2,0,L|307:91,1,138.750005292893,2|2,0:0|0:0,0:0:0:0:
29,73,83035,6,0,L|26:161,1,69.3750026464463
241,127,83372,2,0,L|331:127,1,69.3750026464463
266,28,83709,2,0,L|195:28,1,69.3750026464463,2|0,0:0|0:0,0:0:0:0:
393,174,84046,2,0,L|490:176,1,69.3750026464463,2|0,0:0|0:0,0:0:0:0:
332,309,84383,1,2,0:0:0:0:
332,309,84468,1,2,0:0:0:0:
332,309,84552,2,0,P|220:296|163:302,1,138.750005292893,2|10,0:0|0:0,0:0:0:0:
43,326,85058,1,0,0:0:0:0:
19,177,85226,1,8,0:0:0:0:
24,171,85310,1,8,0:0:0:0:
32,164,85395,1,8,0:0:0:0:
45,159,85479,1,8,0:0:0:0:
64,159,85563,1,8,0:0:0:0:
388,187,85732,6,0,P|389:295|397:386,1,185,6|0,0:0|0:0,0:0:0:0:
262,261,86237,1,8,0:0:0:0:
303,126,86406,1,0,0:0:0:0:
87,36,86574,2,0,P|124:69|153:135,1,92.5,2|0,0:0|0:0,0:0:0:0:
103,330,86912,5,8,0:0:0:0:
446,248,87080,2,0,L|261:260,1,185,6|0,0:0|0:0,0:0:0:0:
145,105,87586,1,8,0:0:0:0:
145,105,87754,2,0,L|264:122,1,92.5,0|0,0:0|0:0,0:0:0:0:
451,30,88091,2,0,L|341:33,1,92.5,2|8,0:0|0:0,0:0:0:0:
51,57,88428,6,0,P|91:157|110:262,1,185,6|0,0:0|0:0,0:0:0:0:
228,353,88934,1,8,0:0:0:0:
198,203,89103,1,0,0:0:0:0:
376,9,89271,2,0,P|356:77|347:126,1,92.5,2|0,0:0|0:0,0:0:0:0:
467,197,89608,1,8,0:0:0:0:
467,197,89777,1,8,0:0:0:0:
242,335,89945,6,0,L|122:352,1,92.5,8|0,0:0|0:0,0:0:0:0:
125,175,90282,2,0,L|223:165,1,92.5,8|0,0:0|0:0,0:0:0:0:
390,47,90619,6,0,L|257:63,1,92.5,2|0,0:0|0:0,0:0:0:0:
20,336,90956,6,0,L|170:352,1,138.75,6|0,0:0|0:0,0:0:0:0:
278,319,91294,6,0,L|293:218,2,92.5,6|0|8,0:0|0:0|0:0,0:0:0:0:
426,366,91799,2,0,P|458:290|403:204,1,185,0|0,0:0|0:0,0:0:0:0:
292,227,92305,2,0,L|167:237,1,92.5,8|0,0:0|0:0,0:0:0:0:
266,53,92642,2,0,P|350:82|457:76,1,185,2|8,0:0|0:0,0:0:0:0:
489,277,93147,2,0,P|452:339|438:380,1,92.5,0|2,0:0|0:0,0:0:0:0:
256,308,93485,1,0,0:0:0:0:
458,138,93653,2,0,P|451:73|452:17,1,92.5,8|0,0:0|0:0,0:0:0:0:
248,194,93990,6,0,L|374:194,1,92.5,2|0,0:0|0:0,0:0:0:0:
112,96,94327,1,8,0:0:0:0:
112,96,94496,2,0,P|81:197|94:290,1,185,0|0,0:0|0:0,0:0:0:0:
256,312,95001,1,8,0:0:0:0:
330,200,95170,1,0,0:0:0:0:
324,64,95338,2,0,L|331:-9,1,46.25,2|0,0:0|0:0,0:0:0:0:
406,96,95507,2,0,L|410:183,1,46.25,2|0,0:0|0:0,0:0:0:0:
274,303,95676,2,0,L|272:222,1,46.25,2|0,0:0|0:0,0:0:0:0:
173,154,95844,6,0,P|125:214|27:187,1,185,6|0,0:0|0:0,0:0:0:0:
89,102,96350,1,8,0:0:0:0:
242,288,96518,1,0,0:0:0:0:
396,65,96687,2,0,P|444:43|499:39,1,92.5,6|0,0:0|0:0,0:0:0:0:
481,253,97024,2,0,P|476:206|491:146,1,92.5,8|0,0:0|0:0,0:0:0:0:
218,37,97361,1,2,0:0:0:0:
157,141,97529,1,0,0:0:0:0:
271,178,97698,2,0,L|374:172,1,92.5,8|0,0:0|0:0,0:0:0:0:
151,341,98035,5,2,0:0:0:0:
39,207,98204,1,0,0:0:0:0:
144,46,98372,1,8,0:0:0:0:
332,32,98541,2,0,P|349:74|436:29,1,138.75
245,145,98878,2,0,P|227:195|240:235,1,92.5,2|8,0:0|0:0,0:0:0:0:
504,120,99215,6,0,P|445:178|323:172,1,185
192,89,99721,2,0,L|225:-14,1,92.5,8|0,0:0|0:0,0:0:0:0:
177,240,100058,6,0,P|262:243|287:270,1,92.5,2|0,0:0|0:0,0:0:0:0:
192,89,100395,2,0,P|144:97|91:66,1,92.5,8|8,0:0|0:0,0:0:0:0:
407,45,100732,6,0,P|452:77|462:139,1,92.5,2|0,0:0|0:0,0:0:0:0:
139,161,101069,2,0,P|110:124|109:62,1,92.5,2|2,0:0|0:0,0:0:0:0:
428,62,101406,1,2,0:0:0:0:
462,105,101490,1,8,0:0:0:0:
460,161,101574,1,2,0:0:0:0:
411,194,101659,1,2,0:0:0:0:
372,239,101743,1,8,0:0:0:0:
368,299,101827,1,8,0:0:0:0:
402,348,101912,1,8,0:0:0:0:
455,355,101996,1,8,0:0:0:0:
492,261,102080,6,0,P|441:250|397:287,1,92.5,6|0,0:0|0:0,0:0:0:0:
132,160,102417,1,8,0:0:0:0:
252,41,102586,2,0,P|246:134|239:260,1,185,0|0,0:0|0:0,0:0:0:0:
472,99,103091,1,8,0:0:0:0:
333,16,103260,1,0,0:0:0:0:
240,225,103428,2,0,P|288:234|325:201,1,92.5,2|0,0:0|0:0,0:0:0:0:
53,21,103765,1,8,0:0:0:0:
49,161,103934,2,0,P|114:118|207:162,1,185,0|0,0:0|0:0,0:0:0:0:
395,38,104440,2,0,L|502:-5,1,92.5,8|0,0:0|0:0,0:0:0:0:
481,316,104777,5,2,0:0:0:0:
326,212,104945,1,0,0:0:0:0:
395,38,105114,1,8,0:0:0:0:
156,167,105282,2,0,P|187:235|110:323,1,185,0|0,0:0|0:0,0:0:0:0:
13,238,105788,2,0,P|49:223|108:243,1,92.5,8|0,0:0|0:0,0:0:0:0:
273,340,106125,6,0,P|291:359|336:386,1,46.25,2|0,0:0|0:0,0:0:0:0:
281,183,106294,2,0,P|238:159|208:148,1,46.25
450,72,106462,1,8,0:0:0:0:
479,378,106631,2,0,L|489:268,1,92.5,6|2,0:0|0:0,0:0:0:0:
302,21,106968,5,8,0:0:0:0:
335,106,107052,1,8,0:0:0:0:
365,188,107136,1,8,0:0:0:0:
403,270,107221,1,8,0:0:0:0:
443,352,107305,1,8,0:0:0:0:
418,368,107473,6,0,L|437:281,1,46.25,2|0,0:0|0:0,0:0:0:0:
271,34,107642,6,0,L|289:110,1,46.25,14|0,0:0|0:0,0:0:0:0:
190,215,107810,2,0,P|214:142|103:101,1,185,8|2,0:0|0:0,0:0:0:0:
25,203,108316,1,0,0:0:0:0:
256,334,108485,2,0,P|285:298|347:295,1,92.5,8|0,0:0|0:0,0:0:0:0:
443,72,108822,6,0,L|446:1,1,46.25,2|0,0:0|0:0,0:0:0:0:
450,282,108990,2,0,L|449:343,1,46.25,2|0,0:0|0:0,0:0:0:0:
352,172,109159,2,0,L|354:94,1,46.25,8|0,0:0|0:0,0:0:0:0:
329,290,109327,2,0,P|240:268|138:308,1,185,2|0,0:0|0:0,0:0:0:0:
109,135,109833,5,8,0:0:0:0:
329,290,110001,2,0,P|383:295|417:294,1,46.25,0|0,0:0|0:0,0:0:0:0:
451,136,110170,2,0,L|446:245,1,92.5,2|0,0:0|0:0,0:0:0:0:
109,135,110507,2,0,L|118:0,1,92.5,8|0,0:0|0:0,0:0:0:0:
172,252,110844,2,0,L|168:324,1,46.25,2|8,0:0|0:0,0:0:0:0:
251,108,111013,2,0,L|254:33,1,46.25,0|0,0:0|0:0,0:0:0:0:
358,10,111181,2,0,P|340:107|331:174,1,138.75,8|0,0:0|0:0,0:0:0:0:
502,363,111518,6,0,P|425:339|371:333,1,92.5,2|0,0:0|0:0,0:0:0:0:
244,167,111855,2,0,P|293:152|362:146,1,92.5,10|2,0:0|0:0,0:0:0:0:
497,366,112192,1,2,0:0:0:0:
432,354,112277,1,8,0:0:0:0:
396,304,112361,1,2,0:0:0:0:
407,236,112445,1,2,0:0:0:0:
473,185,112529,1,2,0:0:0:0:
491,106,112614,1,0,0:0:0:0:
431,47,112698,1,8,0:0:0:0:
342,54,112782,1,8,0:0:0:0:
259,37,112867,5,2,0:0:0:0:
291,131,113035,1,0,0:0:0:0:
359,204,113204,1,2,0:0:0:0:
471,237,113372,1,0,0:0:0:0:
359,162,113541,5,2,0:0:0:0:
254,169,113709,1,0,0:0:0:0:
152,212,113878,1,2,0:0:0:0:
55,331,114046,2,0,P|45:236|34:174,1,138.750005292893,0|0,0:0|0:0,0:0:0:0:
142,128,114552,1,2,0:0:0:0:
142,128,114721,1,0,0:0:0:0:
142,128,114889,2,0,P|158:181|149:343,1,208.125007939339,2|0,0:0|0:0,0:0:0:0:
475,354,115563,5,2,0:0:0:0:
401,299,115732,1,0,0:0:0:0:
398,176,115900,1,2,0:0:0:0:
462,112,116069,1,0,0:0:0:0:
360,204,116237,5,2,0:0:0:0:
230,208,116406,1,0,0:0:0:0:
114,132,116574,1,2,0:0:0:0:
90,18,116743,1,2,0:0:0:0:
78,382,116912,6,0,P|154:319|218:376,1,171.12499934721,4|0,1:0|0:0,0:0:0:0:
482,236,117164,6,0,P|387:227|389:141,1,171.12499934721,4|0,1:0|0:0,0:0:0:0:
57,102,117417,6,0,P|100:114|160:51,1,85.562499673605,4|0,1:0|0:0,0:0:0:0:
482,236,117586,6,0,L|484:0,1,171.12499934721,2|0,0:0|0:0,0:0:0:0:
88,331,117923,6,0,L|21:56,1,256.687499020815,6|0,0:0|0:0,0:0:0:0:
482,236,118260,6,0,P|403:208|421:97,1,180.375000688076,2|0,0:0|0:0,0:0:0:0:
448,31,118597,1,8,0:0:0:0:
326,261,118765,1,2,0:0:0:0:
241,168,118934,6,0,P|271:50|344:12,1,180.375000688076,2|0,0:0|0:0,0:0:0:0:
257,317,119271,1,8,0:0:0:0:
148,8,119440,1,2,0:0:0:0:
100,227,119608,6,0,P|95:134|100:78,1,90.187500344038,2|0,0:0|0:0,0:0:0:0:
211,112,119777,2,0,P|261:35|298:0,1,90.187500344038,0|0,0:0|0:0,0:0:0:0:
185,319,119945,1,8,0:0:0:0:
44,39,120114,1,2,0:0:0:0:
492,142,120282,6,0,P|382:156|397:18,1,270.562501032114,4|0,0:0|0:0,0:0:0:0:
280,344,120619,6,0,P|206:294|228:126,1,270.562501032114,2|0,1:0|0:0,0:0:0:0:
492,142,120956,6,0,L|493:347,1,180.375000688076,4|0,0:0|0:0,0:0:0:0:
372,91,121294,2,0,P|382:30|417:-17,1,90.187500344038,2|0,0:0|0:0,0:0:0:0:
248,220,121462,2,0,L|155:220,1,90.187500344038
52,327,121631,2,0,P|141:313|243:323,1,180.375000688076,2|2,0:0|0:0,0:0:0:0:
256,110,121968,2,0,P|251:41|239:4,1,90.187500344038,2|0,0:0|0:0,0:0:0:0:
57,237,122136,2,0,P|52:280|53:341,1,90.187500344038,2|0,0:0|0:0,0:0:0:0:
325,365,122305,5,14,0:0:0:0:
330,266,122389,1,0,0:0:0:0:
273,190,122473,1,2,0:0:0:0:
174,182,122558,1,2,0:0:0:0:
99,241,122642,1,2,0:0:0:0:
464,37,122810,5,8,0:0:0:0:
490,306,122979,5,8,0:0:0:0:
400,309,123063,1,8,0:0:0:0:
334,248,123147,1,8,0:0:0:0:
318,144,123232,1,8,0:0:0:0:
423,90,123316,5,2,0:0:0:0:
343,188,123400,1,2,0:0:0:0:
228,195,123485,1,2,0:0:0:0:
110,140,123569,1,2,0:0:0:0:
79,310,123653,6,0,P|158:272|301:317,1,217.374996683121,6|8,0:0|0:0,0:0:0:0:
466,11,123990,2,0,P|446:97|444:138,1,108.68749834156,2|0,0:0|0:0,0:0:0:0:
387,353,124159,2,0,P|362:259|328:202,1,108.68749834156,8|0,0:0|0:0,0:0:0:0:
55,89,124327,2,0,L|303:90,1,217.374996683121,2|8,0:0|0:0,0:0:0:0:
79,310,124664,1,2,0:0:0:0:
362,130,124833,6,0,P|362:53|334:15,1,108.68749834156,8|0,0:0|0:0,0:0:0:0:
373,265,125001,2,0,P|420:264|516:262,1,108.68749834156
272,89,125170,1,8,0:0:0:0:
104,261,125338,2,0,L|103:380,1,108.68749834156,2|0,0:0|0:0,0:0:0:0:
192,137,125507,2,0,L|190:12,1,108.68749834156,8|0,0:0|0:0,0:0:0:0:
496,176,125676,6,0,P|354:163|392:9,1,326.062495024681,6|0,0:0|0:0,0:0:0:0:
503,344,126013,6,0,B|400:300|400:300|309:361|309:361|207:309,1,326.062495024681,6|0,1:0|0:0,0:0:0:0:
40,246,126350,6,0,L|42:406,1,108.68749834156,6|0,0:0|0:0,0:0:0:0:
234,176,126518,2,0,L|235:44,1,108.68749834156
438,194,126687,1,8,0:0:0:0:
85,127,126855,1,0,0:0:0:0:
376,24,127024,2,0,P|349:167|390:280,1,217.374996683121,8|2,0:0|0:0,0:0:0:0:
499,364,127361,2,0,B|509:305|509:305|469:187,1,108.68749834156,10|0,0:0|0:0,0:0:0:0:
259,124,127529,2,0,B|240:181|240:181|270:280,1,108.68749834156
44,361,127698,6,0,L|289:347,1,217.374996683121,6|0,0:0|0:0,0:0:0:0:
259,124,127951,2,0,P|322:199|445:222,1,217.374996683121,6|0,0:0|0:0,0:0:0:0:
92,62,128204,2,0,P|57:110|7:120,1,108.68749834156,2|0,0:0|0:0,0:0:0:0:
405,0,128372,6,0,L|467:336,1,326.062495024681,14|0,0:0|0:0,0:0:0:0:
92,62,128709,6,0,P|194:130|61:188,1,326.062495024681,6|0,1:0|0:0,0:0:0:0:
464,320,129046,6,0,P|484:268|357:228,1,217.374996683121,14|0,0:0|0:0,0:0:0:0:
262,12,129383,2,0,L|283:150,1,108.68749834156,8|0,0:0|0:0,0:0:0:0:
70,343,129552,2,0,L|202:331,1,108.68749834156,2|0,0:0|0:0,0:0:0:0:
366,218,129721,2,0,P|295:227|240:213,1,108.68749834156,8|0,0:0|0:0,0:0:0:0:
375,30,129889,2,0,P|436:26|501:44,1,108.68749834156,0|0,0:0|0:0,0:0:0:0:
278,119,130058,1,2,0:0:0:0:
70,340,130226,2,0,P|108:202|192:157,1,217.374996683121,10|2,0:0|0:0,0:0:0:0:
366,217,130563,1,8,0:0:0:0:
109,51,130732,6,0,L|-16:66,1,108.68749834156,8|0,0:0|0:0,0:0:0:0:
258,205,130900,2,0,L|365:217,1,108.68749834156,2|0,0:0|0:0,0:0:0:0:
36,366,131069,6,0,P|107:277|251:397,1,326.062495024681,14|0,0:0|0:0,0:0:0:0:
512,102,131406,6,0,P|315:103|170:68,1,326.062495024681,6|0,1:0|0:0,0:0:0:0:
488,266,131743,6,2,L|498:395,1,108.68749834156,14|2,0:0|0:0,0:0:0:0:
339,216,131912,1,2,0:0:0:0:
342,118,131996,1,2,0:0:0:0:
265,69,132080,1,10,0:0:0:0:
189,74,132164,1,2,0:0:0:0:
158,86,132249,1,2,0:0:0:0:
141,123,132333,1,2,0:0:0:0:
141,225,132417,6,0,L|142:369,1,108.68749834156,8|8,0:0|0:0,0:0:0:0:
475,313,132586,1,2,0:0:0:0:
455,323,132670,1,8,0:0:0:0:
403,333,132754,5,8,0:0:0:0:
317,290,132838,1,8,0:0:0:0:
301,194,132923,1,8,0:0:0:0:
360,113,133007,1,8,0:0:0:0:
422,148,133091,6,0,L|314:155,1,104.062496824265,14|0,0:0|0:0,0:0:0:0:
249,101,134440,6,0,P|228:161|251:215,1,120.249994495392,2|0,0:0|0:0,0:0:0:0:
354,222,134945,1,0,0:0:0:0:
348,134,135114,1,0,0:0:0:0:
249,101,135282,1,0,0:0:0:0:
157,161,135451,2,0,L|150:341,1,180.374991743088,2|0,0:0|0:0,0:0:0:0:
353,352,136125,6,0,L|423:354,1,60.1249972476961,2|0,0:0|0:0,0:0:0:0:
368,245,136462,2,0,L|304:244,1,60.1249972476961,2|0,0:0|0:0,0:0:0:0:
226,274,136799,2,0,P|220:242|280:160,1,120.249994495392,2|0,0:0|0:0,0:0:0:0:
381,76,137305,1,2,0:0:0:0:
381,76,137473,2,0,L|235:78,1,120.249994495392,0|0,0:0|0:0,0:0:0:0:
174,305,138147,6,0,L|236:267,1,60.1249972476961,2|0,0:0|0:0,0:0:0:0:
421,192,138484,2,0,L|285:191,1,120.249994495392,2|0,0:0|0:0,0:0:0:0:
181,87,139159,5,2,0:0:0:0:
137,164,139327,1,0,0:0:0:0:
93,261,139496,2,0,L|89:129,1,120.249994495392,2|0,0:0|0:0,0:0:0:0:
76,348,140170,5,2,0:0:0:0:
108,251,140338,1,0,0:0:0:0:
68,314,140507,2,0,P|143:309|256:303,1,180.374991743088,2|0,0:0|0:0,0:0:0:0:
498,323,141181,6,0,P|465:285|461:250,1,60.1249972476961,2|0,0:0|0:0,0:0:0:0:
428,108,141518,2,0,P|467:135|486:163,1,60.1249972476961,0|0,0:0|0:0,0:0:0:0:
330,234,141855,2,0,P|274:247|249:319,1,120.249994495392,2|0,0:0|0:0,0:0:0:0:
53,136,142529,6,0,L|25:16,1,120.249994495392,2|0,0:0|0:0,0:0:0:0:
138,177,143035,2,0,L|159:247,2,60.1249972476961,0|0|0,0:0|0:0|0:0,0:0:0:0:
149,151,143456,1,0,3:0:0:0:
168,139,143541,2,0,P|213:128|300:139,1,120.249994495392,2|0,0:0|0:0,0:0:0:0:
506,81,144215,6,0,P|473:111|447:144,1,60.1249972476961,2|0,0:0|0:0,0:0:0:0:
357,149,144552,2,0,P|400:175|425:200,1,60.1249972476961,0|0,0:0|0:0,0:0:0:0:
508,268,144889,2,0,P|410:262|359:262,1,120.249994495392,2|0,0:0|0:0,0:0:0:0:
271,323,145395,1,0,0:0:0:0:
271,323,145563,2,0,P|257:249|283:190,1,120.249994495392,2|0,0:0|0:0,0:0:0:0:
270,207,146237,1,0,0:0:0:0:
270,207,146574,6,0,L|185:221,1,60.1249972476961,2|0,0:0|0:0,0:0:0:0:
103,331,146911,2,0,P|78:242|59:210,1,120.249994495392,2|0,0:0|0:0,0:0:0:0:
60,213,147333,1,0,3:0:0:0:
50,210,147417,1,0,0:0:0:0:
175,98,147586,2,0,P|195:43|205:20,1,60.1249972476961,2|0,0:0|0:0,0:0:0:0:
401,134,147923,2,0,L|268:134,1,120.249994495392,2|0,0:0|0:0,0:0:0:0:
167,193,148428,5,0,0:0:0:0:
167,193,148597,2,0,P|197:225|165:298,1,120.249994495392,0|0,0:0|0:0,0:0:0:0:
85,300,149102,1,0,0:0:0:0:
85,300,149187,1,0,3:0:0:0:
85,300,149271,2,0,P|103:341|184:374,1,120.249994495392,2|2,0:0|0:0,0:0:0:0:
506,50,149945,6,0,P|457:112|420:82,1,120.249994495392,6|0,0:0|0:0,0:0:0:0:
419,79,150619,6,0,P|357:92|362:188,1,157.250002999306,2|0,0:0|0:0,0:0:0:0:
339,351,151125,1,0,0:0:0:0:
211,329,151293,1,2,0:0:0:0:
212,193,151462,1,0,0:0:0:0:
460,194,151631,2,0,P|461:116|389:71,1,157.250002999306,2|2,0:0|0:0,0:0:0:0:
128,46,152305,6,0,L|128:133,1,78.6250014996529,2|0,0:0|0:0,0:0:0:0:
209,233,152642,2,0,L|206:146,1,78.6250014996529
364,350,152979,2,0,P|291:310|213:331,1,157.250002999306,2|2,0:0|0:0,0:0:0:0:
34,24,153653,6,0,P|91:67|180:56,1,157.250002999306,2|2,0:0|0:0,0:0:0:0:
499,13,154327,5,2,0:0:0:0:
457,97,154496,1,0,0:0:0:0:
483,192,154664,2,0,P|405:81|371:67,1,157.250002999306,2|0,0:0|0:0,0:0:0:0:
239,28,155170,1,0,0:0:0:0:
215,131,155338,6,0,P|268:119|320:111,1,78.6250014996529,2|0,0:0|0:0,0:0:0:0:
198,317,155675,2,0,P|168:289|135:147,1,157.250002999306,2|0,0:0|0:0,0:0:0:0:
441,294,156350,6,0,P|414:348|409:390,1,78.6250014996529,2|0,0:0|0:0,0:0:0:0:
490,158,156687,2,0,P|473:78|408:16,1,157.250002999306,2|0,0:0|0:0,0:0:0:0:
97,55,157361,6,0,L|183:53,1,78.6250014996529,2|0,0:0|0:0,0:0:0:0:
134,179,157698,2,0,L|48:175,1,78.6250014996529
329,348,158035,2,0,P|381:331|491:335,1,157.250002999306,6|0,0:0|0:0,0:0:0:0:
397,296,158541,1,0,0:0:0:0:
91,303,158709,6,0,L|75:400,2,78.6250014996529,2|0|2,0:0|0:0|0:0,0:0:0:0:
218,160,159215,1,0,0:0:0:0:
354,207,159383,1,2,0:0:0:0:
458,143,159552,1,0,0:0:0:0:
217,58,159720,2,0,P|150:92|116:179,1,157.250002999306,2|0,0:0|0:0,0:0:0:0:
320,368,160395,6,0,P|310:318|293:269,1,78.6250014996529,2|0,0:0|0:0,0:0:0:0:
420,124,160732,2,0,P|407:161|397:199,1,78.6250014996529,2|0,0:0|0:0,0:0:0:0:
206,275,161069,1,2,0:0:0:0:
126,241,161237,1,0,0:0:0:0:
25,291,161406,2,0,P|27:236|27:188,1,78.6250014996529,2|0,0:0|0:0,0:0:0:0:
211,11,161743,5,2,0:0:0:0:
266,80,161911,1,0,0:0:0:0:
236,166,162080,1,2,0:0:0:0:
157,209,162248,1,0,0:0:0:0:
357,99,162417,5,2,0:0:0:0:
435,121,162586,1,0,0:0:0:0:
504,210,162754,2,0,P|410:191|315:181,1,157.250002999306,2|2,0:0|0:0,0:0:0:0:
69,359,163428,2,0,P|90:326|132:321,1,78.6250014996529,2|0,0:0|0:0,0:0:0:0:
47,45,163765,2,0,P|74:95|29:190,1,157.250002999306,2|0,0:0|0:0,0:0:0:0:
172,14,164271,5,0,0:0:0:0:
172,14,164439,2,0,P|192:46|230:64,1,78.6250014996529,2|0,0:0|0:0,0:0:0:0:
458,51,164777,1,2,0:0:0:0:
468,56,164945,1,2,0:0:0:0:
473,67,165114,1,2,0:0:0:0:
512,164,165451,2,0,P|413:153|394:123,1,117.937502249479,2|0,0:0|0:0,0:0:0:0:
120,156,165788,6,0,P|188:134|227:74,1,117.937502249479,0|0,1:0|0:0,0:0:0:0:
290,6,166125,2,0,P|349:8|391:49,1,117.937502249479,0|0,1:0|0:0,0:0:0:0:
164,292,166462,2,0,P|226:243|283:249,1,117.937502249479,0|0,1:0|0:0,0:0:0:0:
491,261,166799,6,0,P|436:197|341:198,1,175.749995306969,4|0,0:0|0:0,0:0:0:0:
92,297,167305,1,0,0:0:0:0:
92,297,167473,2,0,P|158:324|196:297,1,87.8749976534844,2|0,0:0|0:0,0:0:0:0:
349,194,167810,2,0,L|363:10,1,175.749995306969,2|0,0:0|0:0,0:0:0:0:
249,282,168484,6,0,L|243:397,1,87.8749976534844,8|0,0:0|0:0,0:0:0:0:
163,173,168822,2,0,P|252:208|290:193,1,131.812496480227,2|0,0:0|0:0,0:0:0:0:
425,101,169159,2,0,L|434:12,1,87.8749976534844
490,193,169496,1,0,0:0:0:0:
328,97,169664,1,0,0:0:0:0:
163,173,169833,2,0,P|141:295|130:354,1,175.749995306969,8|0,0:0|0:0,0:0:0:0:
71,104,170507,2,0,P|59:59|18:3,1,87.8749976534844,2|0,0:0|0:0,0:0:0:0:
163,173,170844,6,0,P|215:239|312:219,1,175.749995306969,2|0,0:0|0:0,0:0:0:0:
486,37,171518,2,0,L|395:34,1,87.8749976534844,2|0,0:0|0:0,0:0:0:0:
163,173,171855,2,0,P|248:146|340:153,1,175.749995306969,2|0,0:0|0:0,0:0:0:0:
497,360,172361,5,0,0:0:0:0:
428,302,172529,1,2,0:0:0:0:
410,213,172698,1,0,0:0:0:0:
481,139,172866,2,0,P|397:108|371:-8,1,175.749995306969,2|0,0:0|0:0,0:0:0:0:
102,287,173541,2,0,L|125:185,1,87.8749976534844,2|0,0:0|0:0,0:0:0:0:
475,34,173878,6,0,L|364:28,1,87.8749976534844,8|0,0:0|0:0,0:0:0:0:
385,149,174215,6,0,L|351:101,1,43.9374988267422,8|0,0:0|0:0,0:0:0:0:
280,180,174383,2,0,L|289:118,1,43.9374988267422,8|0,0:0|0:0,0:0:0:0:
163,128,174552,2,0,L|215:100,1,43.9374988267422,8|0,0:0|0:0,0:0:0:0:
95,23,174720,2,0,L|149:23,1,43.9374988267422,8|0,0:0|0:0,0:0:0:0:
56,129,174889,6,0,P|54:174|43:226,1,87.8749976534844,4|0,0:0|0:0,0:0:0:0:
201,107,175226,1,2,0:0:0:0:
285,160,175395,1,0,0:0:0:0:
408,156,175563,1,2,0:0:0:0:
498,82,175732,1,0,0:0:0:0:
423,306,175900,6,0,P|445:353|449:362,1,43.9374988267422,2|0,0:0|0:0,0:0:0:0:
428,151,176069,2,0,P|400:116|378:96,1,43.9374988267422,2|0,0:0|0:0,0:0:0:0:
254,264,176237,2,0,L|69:274,1,175.749995306969,4|0,0:0|0:0,0:0:0:0:
391,31,176911,6,0,L|478:17,1,87.8749976534844
467,190,177248,1,2,0:0:0:0:
375,102,177417,1,0,0:0:0:0:
238,61,177586,1,8,0:0:0:0:
109,80,177754,1,2,0:0:0:0:
144,194,177923,6,0,P|117:144|104:122,1,43.9374988267422,2|0,0:0|0:0,0:0:0:0:
273,96,178091,2,0,P|252:62|243:47,1,43.9374988267422,0|0,0:0|0:0,0:0:0:0:
323,5,178260,2,0,P|358:61|444:163,1,175.749995306969,8|0,0:0|0:0,0:0:0:0:
107,355,178934,6,0,L|198:331,1,87.8749976534844,4|0,0:0|0:0,0:0:0:0:
165,165,179271,1,0,0:0:0:0:
15,182,179439,1,0,0:0:0:0:
284,57,179608,1,8,0:0:0:0:
437,125,179777,1,2,0:0:0:0:
232,383,179945,6,0,P|225:340|186:283,1,87.8749976534844,4|0,0:0|0:0,0:0:0:0:
276,5,180282,1,0,0:0:0:0:
238,133,180451,1,0,0:0:0:0:
105,161,180619,1,8,0:0:0:0:
131,360,180788,1,0,0:0:0:0:
368,368,180956,6,0,P|314:332|295:215,1,175.749995306969,2|0,0:0|0:0,0:0:0:0:
186,19,181462,5,8,0:0:0:0:
285,99,181631,1,8,0:0:0:0:
290,228,181799,1,8,0:0:0:0:
132,18,181968,6,0,L|146:78,1,43.9374988267422,8|0,0:0|0:0,0:0:0:0:
275,99,182136,2,0,L|222:108,1,43.9374988267422,8|0,0:0|0:0,0:0:0:0:
291,263,182305,2,0,L|244:228,1,43.9374988267422,8|0,0:0|0:0,0:0:0:0:
123,352,182473,2,0,L|127:305,1,43.9374988267422,8|0,0:0|0:0,0:0:0:0:
384,162,182642,2,0,L|462:68,1,87.8749976534844,10|0,0:0|0:0,0:0:0:0:
27,43,182979,6,0,P|138:73|-4:316,1,517.999984191895,6|0,0:0|0:0,0:0:0:0:
14,313,184340,6,0,P|109:265|348:318,1,345.333322794597,2|0,0:0|0:0,0:0:0:0:
338,288,185516,6,0,L|470:290,1,123.333333333333,8|0,0:0|0:0,0:0:0:0:
255,85,186013,6,0,L|399:85,1,123.333333333333,8|8,0:0|0:0,0:0:0:0:
219,276,186518,2,0,L|89:277,1,123.333333333333,8|8,0:0|0:0,0:0:0:0:
338,355,187024,6,0,P|393:351|451:225,1,191.166668125153,6|0,0:0|0:0,0:0:0:0:
393,32,187529,2,0,P|311:78|325:197,1,191.166668125153,8|0,0:0|0:0,0:0:0:0:
88,204,188035,2,0,L|98:99,2,95.5833340625763,2|0|2,0:0|0:0|0:0,0:0:0:0:
224,28,188541,6,0,P|192:121|175:252,1,191.166668125153,8|0,0:0|0:0,0:0:0:0:
342,54,189046,2,0,L|366:153,1,95.5833340625763,2|0,0:0|0:0,0:0:0:0:
276,301,189383,1,2,0:0:0:0:
276,301,189552,2,0,P|326:296|402:302,1,95.5833340625763,8|0,0:0|0:0,0:0:0:0:
369,156,189888,1,2,0:0:0:0:
192,162,190057,2,0,P|132:171|77:164,1,95.5833340625763,2|0,0:0|0:0,0:0:0:0:
325,21,190395,1,8,0:0:0:0:
441,151,190563,1,2,0:0:0:0:
411,367,190732,1,2,0:0:0:0:
388,341,190816,1,2,0:0:0:0:
381,299,190900,1,2,0:0:0:0:
394,257,190984,1,2,0:0:0:0:
436,229,191069,6,0,P|370:217|235:270,1,191.166668125153,4|0,0:0|0:0,0:0:0:0:
10,347,191574,2,0,P|66:346|131:343,1,95.5833340625763,8|0,0:0|0:0,0:0:0:0:
373,180,191911,2,0,L|290:179,1,47.7916670312881
131,54,192080,2,0,P|166:47|165:119,1,95.5833340625763,2|0,0:0|0:0,0:0:0:0:
103,284,192417,6,0,L|101:360,1,47.7916670312881
72,178,192586,2,0,P|139:206|273:172,1,191.166668125153,8|0,0:0|0:0,0:0:0:0:
444,5,193091,2,0,L|444:128,1,95.5833340625763,2|0,0:0|0:0,0:0:0:0:
394,236,193428,6,0,L|395:165,1,47.7916670312881
489,340,193597,2,0,P|440:330|364:332,1,95.5833340625763,8|0,0:0|0:0,0:0:0:0:
213,236,193934,2,0,P|166:257|118:235,1,95.5833340625763,2|0,0:0|0:0,0:0:0:0:
215,54,194271,5,2,0:0:0:0:
252,61,194355,1,2,0:0:0:0:
281,103,194439,1,2,0:0:0:0:
269,152,194524,1,2,0:0:0:0:
198,166,194608,1,10,0:0:0:0:
157,102,194692,1,2,0:0:0:0:
223,43,194776,1,0,0:0:0:0:
356,33,194861,1,2,0:0:0:0:
367,34,194945,1,2,0:0:0:0:
378,35,195029,1,2,0:0:0:0:
409,52,195114,2,0,L|415:-14,1,47.7916670312881,4|0,0:0|0:0,0:0:0:0:
464,195,195282,2,0,L|464:261,1,47.7916670312881
475,357,195450,2,0,L|345:346,1,95.5833340625763,0|10,0:0|0:0,0:0:0:0:
224,337,195788,1,2,0:0:0:0:
34,277,195956,1,0,0:0:0:0:
34,268,196041,1,0,0:0:0:0:
39,253,196125,2,0,P|78:229|139:251,1,95.5833340625763,2|0,0:0|0:0,0:0:0:0:
356,7,196462,2,0,P|388:60|452:86,1,95.5833340625763,2|8,0:0|0:0,0:0:0:0:
467,90,196715,1,0,0:0:0:0:
463,96,196799,1,0,0:0:0:0:
204,55,196967,1,2,0:0:0:0:
172,59,197052,1,0,0:0:0:0:
142,87,197135,2,0,P|127:138|124:149,1,47.7916670312881,2|0,0:0|0:0,0:0:0:0:
110,323,197304,2,0,P|231:339|341:358,1,191.166668125153,2|10,0:0|0:0,0:0:0:0:
457,162,197810,5,2,0:0:0:0:
221,32,197979,1,0,0:0:0:0:
13,238,198147,2,0,L|16:112,1,95.5833340625763,6|0,0:0|0:0,0:0:0:0:
234,196,198484,1,8,0:0:0:0:
379,43,198653,6,0,P|450:119|394:294,1,269.791669239601,6|0,0:0|0:0,0:0:0:0:
110,316,199159,6,0,L|230:318,1,113.312501080632,6|0,0:0|0:0,0:0:0:0:
450,136,199327,2,0,P|339:139|290:116,1,113.312501080632,8|0,0:0|0:0,0:0:0:0:
170,59,199496,2,0,P|226:37|296:35,1,113.312501080632,2|0,0:0|0:0,0:0:0:0:
456,281,199664,2,0,L|486:-23,1,226.625002161264,8|2,0:0|0:0,0:0:0:0:
170,59,200001,1,8,0:0:0:0:
87,102,200170,2,0,P|140:156|206:156,1,113.312501080632,2|0,0:0|0:0,0:0:0:0:
282,314,200338,2,0,P|205:276|153:275,1,113.312501080632,10|0,0:0|0:0,0:0:0:0:
486,49,200507,6,0,P|452:145|440:297,1,226.625002161264,0|10,0:0|0:0,0:0:0:0:
58,364,200844,2,0,P|62:294|104:294,1,113.312501080632,2|0,0:0|0:0,0:0:0:0:
317,188,201012,2,0,P|181:196|77:188,1,226.625002161264,14|2,0:0|0:0,0:0:0:0:
410,337,201350,1,2,0:0:0:0:
419,338,201434,1,0,0:0:0:0:
427,338,201518,2,0,L|433:57,1,226.625002161264,2|2,1:0|0:0,0:0:0:0:
90,19,201855,6,0,P|131:73|138:134,1,113.312501080632,8|0,0:0|0:0,0:0:0:0:
85,384,202024,2,0,P|78:298|93:258,1,113.312501080632,2|0,0:0|0:0,0:0:0:0:
293,31,202192,2,0,L|422:23,1,113.312501080632,8|0,0:0|0:0,0:0:0:0:
163,193,202361,2,0,L|0:189,1,113.312501080632,6|0,0:0|0:0,0:0:0:0:
236,259,202529,5,8,0:0:0:0:
325,245,202614,1,0,0:0:0:0:
416,274,202698,1,8,0:0:0:0:
446,361,202782,1,0,0:0:0:0:
507,307,202866,2,0,P|432:302|368:252,1,113.312501080632,2|0,0:0|0:0,0:0:0:0:
149,186,203035,2,0,P|206:153|276:149,1,113.312501080632,8|0,0:0|0:0,0:0:0:0:
453,0,203203,6,0,L|463:259,1,235.874996850729,6|0,0:0|0:0,0:0:0:0:
37,335,203541,6,0,L|27:44,1,235.874996850729,6|0,0:0|0:0,0:0:0:0:
268,304,203878,5,8,0:0:0:0:
301,228,203962,1,8,0:0:0:0:
268,137,204046,1,8,0:0:0:0:
184,102,204130,1,8,0:0:0:0:
50,52,204215,5,8,0:0:0:0:
161,115,204299,1,8,0:0:0:0:
268,125,204383,1,8,0:0:0:0:
380,71,204467,1,8,0:0:0:0:
499,0,204552,6,0,P|486:62|479:126,1,127.187501212955,14|0,0:0|0:0,0:0:0:0:
331,380,204720,2,0,P|315:319|290:261,1,127.187501212955
122,71,204889,1,8,0:0:0:0:
99,39,204973,1,0,0:0:0:0:
50,52,205057,2,0,P|86:167|297:81,1,381.562503638864,2|0,0:0|0:0,0:0:0:0:
512,179,205394,2,0,B|451:154|451:154|378:180,1,127.187501212955
50,52,205563,6,0,L|458:25,1,381.562503638864,8|0,0:0|0:0,0:0:0:0:
307,382,205900,2,0,L|304:221,1,127.187501212955,8|0,0:0|0:0,0:0:0:0:
430,26,206069,2,0,L|435:187,1,127.187501212955,2|0,0:0|0:0,0:0:0:0:
50,52,206237,1,8,0:0:0:0:
225,181,206406,2,0,P|293:170|356:186,1,127.187501212955,2|0,0:0|0:0,0:0:0:0:
31,133,206574,1,14,0:0:0:0:
106,162,206659,1,0,0:0:0:0:
147,248,206743,1,0,0:0:0:0:
120,345,206827,1,0,0:0:0:0:
47,379,206911,6,0,P|163:272|38:112,1,381.562503638864,6|0,1:0|0:0,0:0:0:0:
351,262,207248,2,0,L|277:19,1,254.375002425909,14|2,0:0|0:0,0:0:0:0:
439,209,207585,2,0,L|478:349,1,127.187501212955,8|0,0:0|0:0,0:0:0:0:
245,142,207754,2,0,L|276:19,1,127.187501212955,2|0,0:0|0:0,0:0:0:0:
77,361,207923,6,0,P|118:270|241:324,1,254.375002425909,8|0,0:0|0:0,0:0:0:0:
512,125,208175,2,0,P|364:87|378:-15,1,254.375002425909,8|8,0:0|0:0,0:0:0:0:
120,139,208428,2,0,L|253:138,1,127.187501212955,8|8,0:0|0:0,0:0:0:0:
512,360,208597,6,0,P|458:260|231:358,1,409.312513271928,14|0,0:0|0:0,0:0:0:0:
480,19,208934,6,0,P|302:8|230:201,1,409.312513271928,10|8,0:0|0:0,0:0:0:0:
512,360,209271,1,10,0:0:0:0:
42,244,209439,5,2,0:0:0:0:
61,304,209524,1,8,0:0:0:0:
102,342,209608,1,10,0:0:0:0:
201,350,209692,1,8,0:0:0:0:
287,283,209776,1,2,0:0:0:0:
281,177,209861,1,0,0:0:0:0:
178,119,209945,1,10,0:0:0:0:
484,186,210114,5,4,0:0:0:0:
484,186,210198,1,2,0:0:0:0:
484,186,210282,1,8,0:0:0:0:
377,143,210451,1,2,0:0:0:0:
310,232,210619,2,0,P|343:250|446:219,1,127.187501212955,2|0,0:0|0:0,0:0:0:0:
377,143,210788,1,0,0:0:0:0:
136,77,210956,2,0,P|79:78|-6:112,1,127.187501212955,2|0,0:0|0:0,0:0:0:0:
234,162,211125,2,0,P|267:94|258:23,1,127.187501212955,2|0,0:0|0:0,0:0:0:0:
79,344,211293,6,0,P|196:313|401:345,1,254.375002425909,4|2,0:0|0:0,0:0:0:0:
479,1,211630,2,0,L|394:107,1,127.187501212955,4|0,0:0|0:0,0:0:0:0:
512,368,211799,2,0,L|391:285,1,127.187501212955,6|0,0:0|0:0,0:0:0:0:
0,180,211967,6,0,P|155:108|312:94,1,328.375001252651,6|0,0:0|0:0,0:0:0:0:
512,368,212220,6,0,P|378:320|161:327,1,328.375001252651,14|0,0:0|0:0,0:0:0:0:
61,24,212473,6,0,L|252:-9,1,164.187500626326,8|0,0:0|0:0,0:0:0:0:
475,332,212642,6,0,L|376:300,1,104.062496824265,2|0,0:0|0:0,0:0:0:0:
180,168,213990,6,0,P|171:88|152:18,1,129.499996047974,2|0,0:0|0:0,0:0:0:0:
360,166,214327,1,0,0:0:0:0:
360,166,214496,1,0,0:0:0:0:
360,166,214664,2,0,L|356:257,1,64.7499980239869,2|0,0:0|0:0,0:0:0:0:
456,138,214833,2,0,P|460:54|472:-11,1,129.499996047974,0|0,0:0|0:0,0:0:0:0:
329,81,215170,2,0,P|138:118|66:63,1,258.999992095948,2|0,0:0|0:0,0:0:0:0:
38,201,215675,5,0,0:0:0:0:
92,90,215844,1,0,0:0:0:0:
254,71,216012,2,0,L|255:336,1,258.999992095948,2|0,0:0|0:0,0:0:0:0:
493,189,216687,5,2,0:0:0:0:
408,247,216855,1,0,0:0:0:0:
292,229,217024,1,0,0:0:0:0:
240,117,217192,1,0,0:0:0:0:
21,53,217361,5,6,0:0:0:0:
146,64,217529,1,0,0:0:0:0:
255,228,217698,1,8,0:0:0:0:
256,337,217866,1,0,0:0:0:0:
476,242,218035,6,0,P|352:240|334:162,1,175.749995306969,4|0,1:0|0:0,0:0:0:0:
34,337,218288,2,0,P|81:284|192:345,1,175.749995306969,4|0,1:0|0:0,0:0:0:0:
385,120,218541,2,0,L|254:120,1,87.8749976534844,4|0,1:0|0:0,0:0:0:0:
51,341,218709,6,0,L|204:343,1,87.8749976534844
132,86,218878,2,0,L|259:88,1,87.8749976534844
481,193,219046,6,0,P|371:219|449:268,1,263.624992960453,6|0,0:0|0:0,0:0:0:0:
56,218,219383,6,0,P|41:148|167:99,1,194.249994071961,2|0,0:0|0:0,0:0:0:0:
219,37,219720,1,8,0:0:0:0:
90,289,219889,1,2,0:0:0:0:
501,332,220057,6,0,P|429:233|322:281,1,194.249994071961,2|0,0:0|0:0,0:0:0:0:
196,360,220394,1,8,0:0:0:0:
445,109,220563,1,2,0:0:0:0:
17,119,220732,6,0,P|84:117|170:101,1,97.1249970359803,2|0,0:0|0:0,0:0:0:0:
424,11,220900,2,0,P|370:58|309:92,1,97.1249970359803,0|0,0:0|0:0,0:0:0:0:
72,12,221069,1,8,0:0:0:0:
466,140,221237,1,2,0:0:0:0:
93,350,221406,6,0,P|86:261|247:308,1,291.374991107941,4|0,0:0|0:0,0:0:0:0:
473,365,221743,6,0,L|481:33,1,291.374991107941,2|0,1:0|0:0,0:0:0:0:
93,350,222080,6,0,L|319:347,1,194.249994071961,4|2,0:0|0:0,0:0:0:0:
473,365,222417,2,0,P|483:304|500:222,1,97.1249970359803,2|0,0:0|0:0,0:0:0:0:
371,30,222585,2,0,L|370:170,1,97.1249970359803,2|0,0:0|0:0,0:0:0:0:
96,108,222754,1,2,0:0:0:0:
436,219,222923,1,2,0:0:0:0:
126,356,223091,6,0,P|183:351|241:347,1,97.1249970359803,2|0,0:0|0:0,0:0:0:0:
436,219,223260,2,0,P|356:213|293:208,1,97.1249970359803,2|0,0:0|0:0,0:0:0:0:
96,213,223428,5,14,0:0:0:0:
168,261,223512,1,0,0:0:0:0:
263,250,223597,1,2,0:0:0:0:
325,170,223681,1,2,0:0:0:0:
334,83,223765,1,2,0:0:0:0:
304,34,223850,1,8,0:0:0:0:
285,25,223934,1,8,0:0:0:0:
256,26,224018,1,0,0:0:0:0:
155,65,224102,5,8,0:0:0:0:
196,134,224187,1,8,0:0:0:0:
285,158,224271,1,8,0:0:0:0:
391,141,224355,1,8,0:0:0:0:
480,8,224439,5,10,0:0:0:0:
430,109,224524,1,8,0:0:0:0:
438,217,224608,1,10,0:0:0:0:
511,301,224692,1,8,0:0:0:0:
315,339,224776,6,0,B|239:306|158:332|219:377|89:377|3:351,1,231.25,6|0,0:0|0:0,0:0:0:0:
318,117,225114,2,0,P|304:34|282:-19,1,115.625,8|0,0:0|0:0,0:0:0:0:
494,227,225282,2,0,P|468:306|467:366,1,115.625,2|0,0:0|0:0,0:0:0:0:
197,137,225451,2,0,P|340:202|450:78,1,346.875,10|0,0:0|0:0,0:0:0:0:
54,258,225788,2,0,B|46:310|46:310|68:368,1,115.625,10|0,0:0|0:0,0:0:0:0:
294,58,225956,2,0,P|168:55|-7:67,1,231.25,0|8,0:0|0:0,0:0:0:0:
372,81,226293,1,0,0:0:0:0:
376,239,226462,2,0,P|358:304|373:386,1,115.625,8|0,0:0|0:0,0:0:0:0:
485,113,226630,2,0,P|482:50|449:-5,1,115.625,2|0,0:0|0:0,0:0:0:0:
35,240,226799,6,0,P|177:212|121:354,1,346.875,6|0,0:0|0:0,0:0:0:0:
457,4,227136,6,0,P|456:128|464:360,1,346.875,6|0,1:0|0:0,0:0:0:0:
197,29,227473,6,0,B|138:46|138:46|21:10,1,115.625,8|0,0:0|0:0,0:0:0:0:
396,181,227642,2,0,B|455:165|455:165|534:182,1,115.625,2|0,0:0|0:0,0:0:0:0:
171,295,227810,1,8,0:0:0:0:
440,61,227979,1,2,0:0:0:0:
67,62,228147,2,0,L|331:63,1,231.25,8|0,0:0|0:0,0:0:0:0:
471,327,228484,2,0,P|439:320|355:336,1,115.625,8|0,0:0|0:0,0:0:0:0:
102,224,228653,2,0,P|161:220|212:185,1,115.625,2|0,0:0|0:0,0:0:0:0:
499,34,228821,6,0,P|370:101|350:198,1,231.25,6|0,0:0|0:0,0:0:0:0:
24,69,229074,2,0,P|63:126|150:8,1,231.25,6|0,0:0|0:0,0:0:0:0:
363,384,229327,2,0,P|353:329|289:280,1,115.625,2|0,0:0|0:0,0:0:0:0:
109,11,229496,6,0,L|35:381,1,346.875,14|0,0:0|0:0,0:0:0:0:
406,11,229833,6,0,L|474:359,1,346.875,6|0,1:0|0:0,0:0:0:0:
109,11,230170,6,0,P|196:32|370:-4,1,231.25,14|0,0:0|0:0,0:0:0:0:
412,356,230507,2,0,P|417:287|425:207,1,115.625,8|0,0:0|0:0,0:0:0:0:
224,2,230675,2,0,P|233:61|238:153,1,115.625,2|0,0:0|0:0,0:0:0:0:
48,202,230844,2,0,B|140:184|140:184|199:214|199:214|326:191,1,231.25,8|0,0:0|0:0,0:0:0:0:
491,271,231181,2,0,P|430:262|363:289,1,115.625,8|0,0:0|0:0,0:0:0:0:
78,314,231350,2,0,P|9:313|67:206,1,231.25,2|0,0:0|0:0,0:0:0:0:
383,97,231687,1,2,0:0:0:0:
155,118,231855,6,0,B|161:62|161:62|96:-9,1,115.625,8|0,0:0|0:0,0:0:0:0:
343,268,232024,2,0,B|324:319|324:319|341:378,1,115.625,2|0,0:0|0:0,0:0:0:0:
483,59,232192,6,0,B|418:32|327:45|299:114|253:141|146:116,1,346.875,14|0,0:0|0:0,0:0:0:0:
499,319,232529,6,0,P|496:201|345:282,1,346.875,6|0,1:0|0:0,0:0:0:0:
111,10,232866,6,0,P|148:97|168:192,1,115.625,14|0,0:0|0:0,0:0:0:0:
313,379,233035,2,0,P|328:310|354:239,1,115.625
21,194,233203,1,8,0:0:0:0:
413,36,233372,1,2,0:0:0:0:
144,294,233541,2,0,P|191:277|214:161,1,115.625,8|0,0:0|0:0,0:0:0:0:
413,36,233709,2,0,P|359:93|345:183,1,115.625,8|0,0:0|0:0,0:0:0:0:
327,354,233878,6,0,L|445:352,1,115.625,8|0,0:0|0:0,0:0:0:0:
144,294,234046,2,0,L|-22:296,1,115.625,8|0,0:0|0:0,0:0:0:0:
426,148,234215,6,0,L|428:193,1,41.625,4|0,0:0|0:0,0:0:0:0:
456,254,235057,6,0,L|447:223,1,23.125,2|2,0:0|0:0,0:0:0:0:
54,178,235226,2,0,L|96:28,1,138.750005292893,10|0,0:0|0:0,0:0:0:0:
164,251,235563,6,0,P|115:237|49:310,1,115.625,6|0,0:0|0:0,0:0:0:0:
241,339,235732,2,0,P|273:237|251:186,1,115.625,2|0,0:0|0:0,0:0:0:0:
484,55,235900,1,2,0:0:0:0:
457,330,236069,2,0,P|321:302|268:143,1,231.25,6|2,0:0|0:0,0:0:0:0:
16,4,236406,2,0,P|54:58|85:116,1,115.625,2|0,0:0|0:0,0:0:0:0:
375,181,236574,2,0,P|316:206|243:251,1,115.625,2|0,0:0|0:0,0:0:0:0:
40,364,236743,2,0,P|164:325|449:363,1,346.875,4|0,0:0|0:0,0:0:0:0:
494,263,237080,6,0,L|354:226,1,115.625,2|0,0:0|0:0,0:0:0:0:
179,24,237248,2,0,L|335:48,1,115.625,2|0,0:0|0:0,0:0:0:0:
33,142,237417,2,0,P|121:88|104:252,1,346.875,6|0,0:0|0:0,0:0:0:0:
293,41,237754,1,0,0:0:0:0:
51,350,237923,2,0,L|334:400,1,231.25,2|0,0:0|0:0,0:0:0:0:
512,17,238260,6,0,P|421:45|313:118,1,138.750005292893,6|0,1:0|0:0,0:0:0:0:
51,350,238428,1,2,0:0:0:0:
51,350,238512,1,2,0:0:0:0:
51,350,238597,6,0,P|88:187|88:153,1,138.750005292893,6|0,1:0|0:0,0:0:0:0:
512,51,238765,1,2,0:0:0:0:
512,51,238850,1,2,0:0:0:0:
512,51,238934,6,0,P|392:36|309:39,1,138.750005292893,6|0,1:0|0:0,0:0:0:0:
70,382,239102,1,2,0:0:0:0:
70,382,239187,1,2,0:0:0:0:
70,382,239271,6,0,B|84:313|84:313|56:239,1,138.750005292893,8|0,0:0|0:0,0:0:0:0:
243,3,239439,2,0,B|226:75|226:75|256:152,1,138.750005292893,2|0,0:0|0:0,0:0:0:0:
501,366,239608,2,0,P|306:269|131:426,1,416.250015878678,6|0,1:0|0:0,0:0:0:0:
14,279,239945,1,8,0:0:0:0:
270,274,240114,5,2,0:0:0:0:
270,274,240198,1,2,0:0:0:0:
154,366,240282,2,0,L|153:206,1,138.750005292893,14|0,0:0|0:0,0:0:0:0:
257,82,240451,5,8,0:0:0:0:
346,67,240535,1,8,0:0:0:0:
419,119,240619,1,8,0:0:0:0:
427,208,240703,1,8,0:0:0:0:
365,278,240788,1,8,0:0:0:0:
272,280,240872,1,8,0:0:0:0:
50,362,240956,6,0,P|114:305|459:381,1,444,10|0,0:0|0:0,0:0:0:0:
487,38,241293,2,0,P|384:47|303:42,1,148,2|0,0:0|0:0,0:0:0:0:
247,152,241462,2,0,P|290:143|419:143,1,148,8|0,0:0|0:0,0:0:0:0:
50,362,241630,2,0,L|19:51,1,296,2|8,0:0|0:0,0:0:0:0:
483,31,241967,2,0,P|400:112|393:173,1,148,2|0,0:0|0:0,0:0:0:0:
464,352,242136,2,0,P|391:286|312:273,1,148,8|0,0:0|0:0,0:0:0:0:
20,67,242305,6,0,P|137:55|154:232,1,296,14|0,0:0|0:0,0:0:0:0:
357,0,242557,6,0,L|220:298,1,296,14|0,0:0|0:0,0:0:0:0:
512,49,242810,6,0,B|434:62|434:62|396:142,1,148,14|0,0:0|0:0,0:0:0:0:
24,356,242979,6,0,P|223:268|432:327,1,444,6|0,0:0|0:0,0:0:0:0:
1,52,243316,2,0,P|134:120|418:75,1,444,2|0,1:0|0:0,0:0:0:0:
461,287,243653,6,0,L|460:123,1,148,6|0,0:0|0:0,0:0:0:0:
60,356,243821,2,0,P|80:145|156:111,1,296,2|8,0:0|0:0,0:0:0:0:
489,45,244158,2,0,L|301:43,1,148,2|0,0:0|0:0,0:0:0:0:
512,353,244327,2,0,P|359:317|472:215,1,296,14|0,0:0|0:0,0:0:0:0:
123,254,244664,6,0,L|301:254,1,148,8|0,0:0|0:0,0:0:0:0:
431,145,244833,2,0,L|231:146,1,148,2|0,0:0|0:0,0:0:0:0:
15,104,245001,6,0,P|97:95|194:41,1,148,8|0,0:0|0:0,0:0:0:0:
489,44,245170,2,0,P|381:6|294:1,1,148,2|0,0:0|0:0,0:0:0:0:
10,365,245338,2,0,P|82:346|210:363,1,148,12|0,0:0|0:0,0:0:0:0:
512,239,245507,2,0,P|403:216|330:222,1,148,8|2,0:0|0:0,0:0:0:0:
457,91,245675,5,14,0:0:0:0:
367,131,245760,1,8,0:0:0:0:
260,123,245844,1,8,0:0:0:0:
175,64,245928,1,8,0:0:0:0:
40,30,246012,5,8,0:0:0:0:
187,49,246097,1,8,0:0:0:0:
250,163,246181,1,8,0:0:0:0:
222,276,246265,1,8,0:0:0:0:
53,355,246350,6,0,L|52:169,1,138.750005292893,14|8,0:0|0:0,0:0:0:0:
151,59,246687,1,2,0:0:0:0:
461,0,246855,2,0,L|461:177,1,138.750005292893,14|2,0:0|0:0,0:0:0:0:
43,278,247192,2,0,B|113:251|113:251|200:284,1,157.250002999306,2|0,0:0|0:0,0:0:0:0:
489,294,247361,5,8,0:0:0:0:
401,253,247445,1,8,0:0:0:0:
293,198,247529,1,8,0:0:0:0:
174,139,247614,1,8,0:0:0:0:
43,278,247698,6,0,L|48:268,1,9.25,2|0,0:0|0:0,0:0:0:0:
36,120,248035,2,0,L|40:111,1,9.25,2|0,0:0|0:0,0:0:0:0:
185,133,248372,5,2,0:0:0:0:
270,197,248456,1,2,0:0:0:0:
363,193,248541,1,2,0:0:0:0:
450,136,248625,1,2,0:0:0:0:
467,9,248709,6,0,P|387:47|332:172,1,208.125007939339,8|0,0:0|0:0,0:0:0:0:
49,361,249046,6,0,P|72:249|239:148,1,277.500010585785,6|8,1:0|0:0,0:0:0:0:
493,35,249383,2,0,L|313:1,1,138.750005292893,2|0,0:0|0:0,0:0:0:0:
512,316,249552,2,0,L|180:220,1,277.500010585785,8|2,0:0|0:0,0:0:0:0:
493,35,249889,1,8,0:0:0:0:
32,300,250057,2,0,L|221:270,1,138.750005292893,2|0,0:0|0:0,0:0:0:0:
415,83,250226,2,0,L|238:108,1,138.750005292893,8|0,0:0|0:0,0:0:0:0:
502,364,250394,6,0,P|498:254|327:200,1,277.500010585785,6|8,0:0|0:0,0:0:0:0:
41,49,250732,2,0,B|107:75|107:75|204:29,1,138.750005292893,2|0,0:0|0:0,0:0:0:0:
23,322,250900,2,0,P|113:304|355:341,1,277.500010585785,8|2,0:0|0:0,0:0:0:0:
401,2,251237,6,0,P|365:72|394:139,1,138.750005292893,8|0,0:0|0:0,0:0:0:0:
159,374,251406,2,0,P|123:278|68:243,1,138.750005292893,2|0,0:0|0:0,0:0:0:0:
41,49,251574,2,0,P|134:77|189:46,1,138.750005292893,10|0,0:0|0:0,0:0:0:0:
490,384,251743,6,0,P|410:273|245:321,1,277.500010585785,6|8,1:0|0:0,0:0:0:0:
26,290,252080,2,0,B|98:314|98:314|187:255,1,138.750005292893,2|0,0:0|0:0,0:0:0:0:
512,102,252248,2,0,P|361:97|321:-10,1,277.500010585785,12|0,0:0|0:0,0:0:0:0:
29,174,252585,2,0,L|126:75,1,138.750005292893,8|0,0:0|0:0,0:0:0:0:
126,347,252754,2,0,P|317:276|501:362,1,416.250015878678,2|0,1:0|0:0,0:0:0:0:
126,74,253091,6,0,B|270:38|223:189|421:117,1,277.500010585785,6|8,0:0|0:0,0:0:0:0:
499,360,253428,2,0,P|446:297|372:250,1,138.750005292893,2|0,0:0|0:0,0:0:0:0:
61,14,253597,2,0,P|27:153|78:392,1,277.500010585785,12|2,0:0|0:0,0:0:0:0:
395,15,253934,1,8,0:0:0:0:
429,351,254102,1,8,0:0:0:0:
333,329,254187,1,8,0:0:0:0:
231,302,254271,1,8,0:0:0:0:
129,274,254355,1,8,0:0:0:0:
31,347,254439,6,0,P|173:289|370:364,1,277.500010585785,14|8,0:0|0:0,0:0:0:0:
511,11,254776,2,0,B|437:41|437:41|341:-7,1,138.750005292893,0|0,0:0|0:0,0:0:0:0:
41,214,254945,2,0,P|82:85|204:29,1,277.500010585785,8|0,0:0|0:0,0:0:0:0:
511,11,255282,6,0,P|477:80|460:174,1,138.750005292893,8|0,0:0|0:0,0:0:0:0:
315,367,255451,2,0,P|300:267|257:153,1,138.750005292893,2|0,0:0|0:0,0:0:0:0:
67,21,255619,2,0,P|172:32|240:21,1,138.750005292893,8|0,0:0|0:0,0:0:0:0:
511,281,255788,6,0,B|395:261|395:261|349:305|349:305|237:275,1,277.500010585785,2|8,1:0|0:0,0:0:0:0:
21,198,256125,2,0,L|28:376,1,138.750005292893,2|0,0:0|0:0,0:0:0:0:
203,11,256293,2,0,P|137:140|113:318,1,277.500010585785,14|2,0:0|0:0,0:0:0:0:
379,139,256630,2,0,L|376:0,1,138.750005292893,8|0,0:0|0:0,0:0:0:0:
512,160,256799,1,2,0:0:0:0:
192,384,256967,2,0,P|149:316|95:250,1,138.750005292893,8|0,0:0|0:0,0:0:0:0:
487,20,257136,6,0,P|340:101|37:13,1,416.250015878678,6|0,0:0|0:0,0:0:0:0:
30,358,257473,2,0,B|93:319|93:319|170:328,1,138.750005292893,2|0,0:0|0:0,0:0:0:0:
512,381,257642,2,0,P|503:238|281:283,1,416.250015878678,14|0,0:0|0:0,0:0:0:0:
489,60,257979,2,0,L|259:112,1,138.750005292893,8|0,0:0|0:0,0:0:0:0:
30,358,258147,2,0,P|49:138|254:34,1,416.250015878678,2|0,0:0|0:0,0:0:0:0:
481,42,258484,6,0,B|394:71|394:71|318:32,1,161.87500154376,6|0,0:0|0:0,0:0:0:0:
49,46,258653,2,0,B|127:12|127:12|234:50,1,161.87500154376,10|2,0:0|0:0,0:0:0:0:
470,188,258821,5,2,0:0:0:0:
397,203,258906,1,2,0:0:0:0:
343,274,258990,1,10,0:0:0:0:
356,357,259074,1,2,0:0:0:0:
470,344,259158,5,6,0:0:0:0:
430,267,259243,1,2,0:0:0:0:
331,231,259327,1,2,0:0:0:0:
234,255,259411,1,2,0:0:0:0:
86,359,259496,5,12,0:0:0:0:
75,233,259580,1,8,0:0:0:0:
143,116,259664,1,8,0:0:0:0:
268,82,259748,1,8,0:0:0:0:
383,104,259833,5,4,1:0:0:0:
256,192,259917,12,0,262529,0:0:0:0:
256,192,262614,12,0,265226,0:0:0:0:
