osu file format v14

[General]
AudioFilename: audio.mp3
AudioLeadIn: 0
PreviewTime: 63370
Countdown: 1
SampleSet: Soft
StackLeniency: 0.7
Mode: 0
LetterboxInBreaks: 0
WidescreenStoryboard: 0

[Editor]
DistanceSpacing: 0.9
BeatDivisor: 4
GridSize: 4
TimelineZoom: 1

[Metadata]
Title:Shinzou wo Sasageyo
TitleUnicode:Shinzou wo Sasageyo
Artist:Linked Horizon
ArtistUnicode:Linked Horizon
Creator:MyTic190
Version:Normal
Source:進撃の巨人
Tags:Attack on Titan Opening Shinzou Wo Sasageyo
BeatmapID:1256766
BeatmapSetID:594148

[Difficulty]
HPDrainRate:3
CircleSize:3
OverallDifficulty:2
ApproachRate:5
SliderMultiplier:1.2
SliderTickRate:1

[Events]
//Background and Video events
0,0,"aot.jpg",0,0
Video,0,"Attack on Titan Season 2 - Official Opening Song - Shinzou wo Sasageyo by Linked Horizon.avi"
//Break Periods
//Storyboard Layer 0 (Background)
//Storyboard Layer 1 (Fail)
//Storyboard Layer 2 (Pass)
//Storyboard Layer 3 (Foreground)
//Storyboard Sound Samples

[TimingPoints]
370,375,4,2,0,100,1,0
6370,-100,4,2,0,65,0,0
18370,-100,4,2,0,70,0,0
36370,-100,4,2,0,75,0,0
51370,-100,4,2,0,65,0,0
63370,-76.9230769230769,4,2,0,80,0,1
73870,-100,4,2,0,70,0,0

[Colours]
Combo1 : 77,77,77
Combo2 : 128,0,0
Combo3 : 176,88,0
Combo4 : 128,128,128

[HitObjects]
112,56,370,5,2,0:0:0:0:
72,140,557,2,2,P|64:200|124:236,1,120
196,196,1307,1,2,0:0:0:0:
272,120,1682,2,0,P|292:76|316:60,2,60,2|0|2,0:0|0:0|0:0,0:0:0:0:
332,196,2432,2,2,P|356:256|416:280,1,120
432,156,3182,1,2,0:0:0:0:
432,156,3370,1,8,0:0:0:0:
432,156,3557,2,0,P|372:88|336:72,1,120,0|8,0:0|0:0,0:0:0:0:
312,176,4307,2,0,P|256:188|172:168,1,120,0|8,0:0|0:0,0:0:0:0:
132,260,5057,6,8,P|92:192|92:128,1,120
120,64,5807,1,8,0:0:0:0:
264,84,6182,1,8,0:0:0:0:
264,84,6370,6,0,L|392:84,1,120,8|0,0:0|0:0,0:0:0:0:
332,164,6932,2,0,P|332:220|260:252,1,120,8|0,0:0|0:0,0:0:0:0:
248,172,7682,2,8,P|212:144|220:68,1,120,8|0,0:0|0:0,0:0:0:0:
104,76,8432,2,8,L|104:208,1,120
204,104,9182,2,0,L|276:104,1,60,0|8,0:0|0:0,0:0:0:0:
248,200,9557,2,0,L|248:328,1,120,0|8,0:0|0:0,0:0:0:0:
340,204,10307,1,0,0:0:0:0:
340,204,10682,2,0,P|388:220|452:168,1,120,8|8,0:0|0:0,0:0:0:0:
376,124,11432,2,8,P|384:76|312:52,1,120
216,52,12182,2,0,L|140:52,1,60,0|12,0:0|0:0,0:0:0:0:
128,88,12557,6,0,P|116:168|136:216,1,120,0|8,0:0|0:0,0:0:0:0:
208,252,13307,2,0,P|312:256|348:236,1,120,0|8,0:0|0:0,0:0:0:0:
404,196,14057,1,8,0:0:0:0:
408,88,14432,1,0,0:0:0:0:
296,52,14807,1,8,0:0:0:0:
236,124,15182,2,0,P|220:184|204:200,1,60,8|4,0:0|0:0,0:0:0:0:
160,148,15557,2,0,B|108:156|88:208|116:256,1,120,0|8,0:0|0:0,0:0:0:0:
224,288,16307,2,8,P|296:292|324:236,1,120,0|8,0:0|0:0,0:0:0:0:
264,200,16870,2,0,P|256:152|304:72,1,120,0|8,0:0|0:0,0:0:0:0:
164,72,17620,2,0,P|140:108|180:188,1,120,0|8,0:0|0:0,0:0:0:0:
296,204,18370,1,12,0:0:0:0:
296,204,18557,2,8,P|328:248|400:264,1,120
260,296,19307,2,0,P|208:320|140:312,1,120,0|8,0:0|0:0,0:0:0:0:
144,200,20057,5,8,0:0:0:0:
192,112,20432,1,8,0:0:0:0:
296,84,20807,1,8,0:0:0:0:
288,180,21182,2,0,P|324:208|352:208,1,60,8|4,0:0|0:0,0:0:0:0:
284,256,21557,2,8,P|264:288|176:304,1,120
184,196,22307,2,0,P|168:160|224:80,1,120,0|8,0:0|0:0,0:0:0:0:
264,40,23057,1,8,0:0:0:0:
364,80,23432,1,8,0:0:0:0:
348,176,23807,1,8,0:0:0:0:
284,240,24182,2,0,P|332:264|348:260,1,60,8|4,0:0|0:0,0:0:0:0:
252,308,24557,6,8,B|192:312|188:312|124:272,1,120
188,168,25307,2,0,P|184:104|132:52,2,120,8|0|8,0:0|0:0|0:0,0:0:0:0:
312,136,26432,2,0,P|336:88|404:56,2,120,8|0|8,0:0|0:0|0:0,0:0:0:0:
312,136,27370,1,6,0:0:0:0:
232,152,27557,2,0,P|260:212|376:212,1,180,0|8,0:0|0:0,0:0:0:0:
256,308,28495,2,0,L|128:308,1,120
96,216,29245,1,0,0:0:0:0:
116,96,29620,1,0,0:0:0:0:
220,48,29995,1,0,0:0:0:0:
240,144,30370,2,0,P|296:184|356:168,1,120,12|0,0:0|0:0,0:0:0:0:
288,272,31120,2,0,P|220:276|176:320,1,120,8|0,0:0|0:0,0:0:0:0:
144,224,31870,2,0,P|104:184|164:72,1,180,8|0,0:0|0:0,0:0:0:0:
192,148,32620,6,0,P|232:128|272:40,1,120,8|0,0:0|0:0,0:0:0:0:
376,100,33370,2,0,P|396:164|440:196,1,120,12|0,0:0|0:0,0:0:0:0:
296,220,34120,2,0,P|300:284|256:324,1,120,8|0,0:0|0:0,0:0:0:0:
192,248,34870,2,0,P|136:208|152:96,1,180,8|0,0:0|0:0,0:0:0:0:
208,152,35620,2,0,P|256:188|364:152,1,180,8|0,0:0|0:0,0:0:0:0:
324,128,36370,2,8,L|324:8,2,120,12|8|8,0:0|0:0|0:0,0:0:0:0:
224,128,37495,1,0,0:0:0:0:
156,200,37870,2,0,P|164:244|200:264,1,60,8|0,0:0|0:0,0:0:0:0:
212,288,38245,2,8,P|140:332|92:316,2,120
276,196,39370,2,0,L|412:196,1,120,4|8,0:0|0:0,0:0:0:0:
252,80,40120,6,0,L|128:80,1,120,0|8,0:0|0:0,0:0:0:0:
144,176,40870,2,8,P|136:256|224:288,1,180
220,208,41620,2,8,P|272:208|320:316,1,180
408,312,42370,2,2,L|408:180,1,120,6|2,0:0|0:0,0:0:0:0:
320,64,43120,2,2,L|320:196,1,120
240,224,43870,1,0,0:0:0:0:
152,228,44245,1,2,0:0:0:0:
128,140,44620,1,0,0:0:0:0:
224,160,44995,2,0,P|248:88|288:76,1,120,2|4,0:0|0:0,0:0:0:0:
320,164,45745,2,0,L|432:224,2,120,2|0|2,0:0|0:0|0:0,0:0:0:0:
307,255,46870,6,0,B|272:320|147:271|151:219|175:143,1,240,0|8,0:0|0:0,0:0:0:0:
171,158,47995,1,12,0:0:0:0:
284,168,48370,2,0,B|352:156|408:204|408:288|352:328,1,240,0|8,0:0|0:0,0:0:0:0:
268,280,49495,1,12,0:0:0:0:
210,199,49870,2,0,P|170:223|10:135,1,240,0|8,0:0|0:0,0:0:0:0:
52,312,50995,1,8,0:0:0:0:
52,312,51182,2,2,L|116:332,1,60,2|6,0:0|0:0,0:0:0:0:
200,320,51745,2,0,P|228:264|224:200,1,120,0|8,0:0|0:0,0:0:0:0:
148,128,52495,1,8,0:0:0:0:
148,128,52682,2,2,L|212:92,1,60
284,60,53245,2,0,P|308:96|392:116,2,120,0|8|0,0:0|0:0|0:0,0:0:0:0:
196,120,54370,6,0,P|152:136|116:220,1,120,8|0,0:0|0:0,0:0:0:0:
204,208,55120,2,0,P|224:264|304:272,1,120,8|0,0:0|0:0,0:0:0:0:
292,184,55870,2,8,P|328:152|304:92,2,120
224,128,56995,1,0,0:0:0:0:
168,64,57370,2,0,P|104:120|136:208,2,180,0|8|0,0:0|0:0|0:0,0:0:0:0:
256,160,58870,2,0,P|280:212|196:296,2,180,0|8|0,0:0|0:0|0:0,0:0:0:0:
160,128,60370,1,8,0:0:0:0:
224,64,60745,2,0,L|364:64,2,120,0|8|0,0:0|0:0|0:0,0:0:0:0:
248,148,61870,2,8,B|304:184|312:248|280:328|168:308,1,240
108,232,62995,1,8,0:0:0:0:
108,232,63182,2,2,L|108:152,1,60,2|6,0:0|0:0,0:0:0:0:
168,68,63745,6,0,P|216:76|340:60,1,155.999992858887,0|8,0:0|0:0,0:0:0:0:
220,196,64495,2,0,P|160:196|72:256,2,155.999992858887,8|8|0,0:0|0:0|0:0,0:0:0:0:
188,316,65620,1,8,0:0:0:0:
340,316,65995,1,8,0:0:0:0:
384,192,66370,2,0,P|400:144|432:120,1,77.9999964294435,8|0,0:0|0:0,0:0:0:0:
356,64,66745,2,0,B|308:64|308:64|192:64,1,155.999992858887,0|8,0:0|0:0,0:0:0:0:
272,188,67495,2,0,B|208:188|208:188|104:188,1,155.999992858887,0|8,0:0|0:0,0:0:0:0:
20,184,68245,2,0,P|8:244|92:308,1,155.999992858887,2|0,0:0|0:0,0:0:0:0:
260,260,68995,1,8,0:0:0:0:
240,160,69370,6,0,P|332:152|448:236,2,233.999989288331,0|8|0,0:0|0:0|0:0,0:0:0:0:
260,260,70870,2,0,P|176:264|56:360,2,233.999989288331,0|8|0,0:0|0:0|0:0,0:0:0:0:
260,168,72370,2,0,L|428:128,1,155.999992858887,8|0,0:0|0:0,0:0:0:0:
256,60,73120,2,0,P|184:76|124:144,2,155.999992858887,0|8|12,0:0|0:0|0:0,0:0:0:0:
264,104,74057,2,0,P|312:160|360:176,1,120,0|2,0:0|0:0,0:0:0:0:
344,316,74807,1,0,0:0:0:0:
236,336,75182,1,2,0:0:0:0:
144,288,75557,1,0,0:0:0:0:
164,208,75932,2,0,P|128:152|136:92,1,120,2|0,0:0|0:0,0:0:0:0:
240,72,76682,1,0,0:0:0:0:
240,72,76870,1,8,0:0:0:0:
240,72,77057,6,0,L|240:204,1,120,2|0,0:0|0:0,0:0:0:0:
324,136,77807,2,0,L|456:136,1,120,2|0,0:0|0:0,0:0:0:0:
384,232,78557,2,0,L|384:360,2,120,0|2|0,0:0|0:0|0:0,0:0:0:0:
280,248,79682,1,0,0:0:0:0:
280,248,79870,1,8,0:0:0:0:
280,248,80057,2,0,P|208:200|212:176,1,120,2|0,0:0|0:0,0:0:0:0:
292,140,80807,2,0,P|264:88|184:80,2,120,2|0|2,0:0|0:0|0:0,0:0:0:0:
224,204,81932,2,0,P|236:264|296:292,2,120,0|2|0,0:0|0:0|0:0,0:0:0:0:
379,225,83057,2,2,P|383:137|255:81,1,240
260,80,84182,1,0,0:0:0:0:
256,176,84557,2,0,P|200:168|156:112,1,120,2|0,0:0|0:0,0:0:0:0:
160,256,85307,6,2,P|216:300|288:292,1,120
256,192,85870,12,4,87745,0:0:0:0:
