osu file format v14

[General]
AudioFilename: audio.mp3
AudioLeadIn: 0
PreviewTime: 63370
Countdown: 1
SampleSet: Soft
StackLeniency: 0.7
Mode: 0
LetterboxInBreaks: 0
WidescreenStoryboard: 1

[Editor]
DistanceSpacing: 0.9
BeatDivisor: 4
GridSize: 4
TimelineZoom: 1.6

[Metadata]
Title:Shinzou wo Sasageyo
TitleUnicode:Shinzou wo Sasageyo
Artist:Linked Horizon
ArtistUnicode:Linked Horizon
Creator:MyTic190
Version:Insane
Source:進撃の巨人
Tags:Attack on Titan Opening Shinzou Wo Sasageyo
BeatmapID:1256765
BeatmapSetID:594148

[Difficulty]
HPDrainRate:6
CircleSize:4
OverallDifficulty:8
ApproachRate:9
SliderMultiplier:2
SliderTickRate:1

[Events]
//Background and Video events
0,0,"aot.jpg",0,0
Video,0,"Attack on Titan Season 2 - Official Opening Song - Shinzou wo Sasageyo by Linked Horizon.avi"
//Break Periods
//Storyboard Layer 0 (Background)
//Storyboard Layer 1 (Fail)
//Storyboard Layer 2 (Pass)
//Storyboard Layer 3 (Foreground)
//Storyboard Sound Samples

[TimingPoints]
370,375,4,2,0,100,1,0
370,-125,4,2,0,65,0,0
6370,-100,4,2,0,65,0,0
18370,-100,4,2,0,70,0,0
36370,-100,4,2,0,75,0,0
51370,-100,4,2,0,65,0,0
63370,-76.9230769230769,4,2,0,80,0,1
73870,-100,4,2,0,70,0,0

[Colours]
Combo1 : 77,77,77
Combo2 : 128,0,0
Combo3 : 176,88,0
Combo4 : 128,128,128

[HitObjects]
92,60,370,5,2,3:0:0:0:
176,92,557,2,0,L|176:200,1,80,2|0,3:0|0:0,0:0:0:0:
268,116,932,2,0,L|268:20,2,80,2|0|2,3:0|0:0|3:0,0:0:0:0:
372,96,1495,1,0,0:0:0:0:
416,188,1682,1,2,3:0:0:0:
368,284,1870,1,2,3:0:0:0:
296,208,2057,2,0,P|232:224|216:248,1,80,2|0,3:0|0:0,0:0:0:0:
104,192,2432,2,0,P|160:172|176:148,1,80,2|0,3:0|0:0,0:0:0:0:
124,68,2807,2,0,P|172:56|220:76,1,80,2|0,3:0|0:0,0:0:0:0:
320,48,3182,1,2,3:0:0:0:
360,60,3276,5,0,0:0:0:0:
392,84,3370,2,8,P|396:144|368:188,1,80,8|8,1:0|1:0,1:0:0:0:
408,188,3651,1,0,0:0:0:0:
416,228,3745,2,0,P|376:244|320:240,1,80,0|8,0:0|1:0,0:0:0:0:
312,288,4026,1,0,0:0:0:0:
264,292,4120,2,0,P|220:252|176:224,1,80,0|8,0:0|1:0,0:0:0:0:
104,156,4495,2,0,L|184:128,1,80,0|8,0:0|1:0,0:0:0:0:
72,304,4870,2,0,L|156:264,1,80,0|8,0:0|1:0,0:0:0:0:
328,292,5245,2,0,P|364:260|376:216,1,80,0|8,0:0|1:0,0:0:0:0:
464,184,5620,5,0,0:0:0:0:
448,88,5807,1,8,1:0:0:0:
368,40,5995,1,0,0:0:0:0:
280,56,6182,1,8,1:0:0:0:
264,92,6276,1,0,0:0:0:0:
240,124,6370,2,0,L|136:148,1,100,4|0,1:0|0:0,0:0:0:0:
68,264,6745,2,0,L|196:284,1,100,8|0,1:0|0:0,0:0:0:0:
292,328,7120,2,0,L|408:284,2,100,0|0|8,0:0|0:0|1:0,0:0:0:0:
228,144,7682,1,0,0:0:0:0:
292,328,7870,1,0,0:0:0:0:
128,208,8057,5,0,0:0:0:0:
328,212,8245,1,8,1:0:0:0:
160,332,8432,1,0,0:0:0:0:
72,264,8620,2,0,P|40:220|48:168,1,100
128,160,8995,2,0,P|148:88|168:80,1,100,12|0,1:0|0:0,0:0:0:0:
200,64,9276,1,0,0:0:0:0:
240,64,9370,2,0,L|240:176,1,100,4|0,1:0|0:0,0:0:0:0:
392,140,9745,1,8,1:0:0:0:
444,244,9932,1,0,0:0:0:0:
376,336,10120,1,0,0:0:0:0:
340,248,10307,6,0,P|268:264|248:300,1,100,0|8,0:0|1:0,0:0:0:0:
104,156,10682,1,0,0:0:0:0:
254,281,10870,1,0,0:0:0:0:
56,280,11057,1,0,0:0:0:0:
216,156,11245,1,8,1:0:0:0:
168,348,11432,1,0,0:0:0:0:
60,264,11620,2,0,L|92:156,1,100
152,40,11901,1,0,0:0:0:0:
184,40,11995,2,0,L|312:40,1,100,12|0,1:0|0:0,0:0:0:0:
400,132,12370,2,0,P|352:148|320:200,1,100,4|0,1:0|0:0,0:0:0:0:
408,224,12745,5,8,1:0:0:0:
364,312,12932,1,0,0:0:0:0:
264,328,13120,1,0,0:0:0:0:
280,216,13307,2,0,L|156:216,1,100,0|8,0:0|1:0,0:0:0:0:
176,32,13682,1,0,0:0:0:0:
228,212,13870,1,0,0:0:0:0:
88,104,14057,1,0,0:0:0:0:
264,104,14245,1,8,1:0:0:0:
116,212,14432,1,0,0:0:0:0:
56,292,14620,2,0,P|116:324|152:328,1,100
184,320,14901,5,0,0:0:0:0:
224,308,14995,2,0,L|248:204,1,100,12|0,1:0|0:0,0:0:0:0:
368,148,15370,1,4,1:0:0:0:
408,40,15557,1,0,0:0:0:0:
276,40,15745,2,0,P|220:52|192:104,1,100,8|0,1:0|0:0,0:0:0:0:
184,184,16120,2,0,P|236:184|272:136,1,100
344,108,16495,2,0,P|388:152|392:216,1,100,8|0,1:0|0:0,0:0:0:0:
384,304,16870,2,0,P|332:320|280:312,1,100,4|0,1:0|0:0,0:0:0:0:
152,244,17151,1,0,0:0:0:0:
144,216,17245,6,0,L|104:120,1,100,12|0,1:0|0:0,0:0:0:0:
128,92,17526,1,0,0:0:0:0:
168,72,17620,2,0,L|268:72,1,100,4|0,1:0|0:0,0:0:0:0:
424,88,17995,2,0,L|424:216,1,100,12|0,1:0|0:0,0:0:0:0:
408,220,18276,1,0,0:0:0:0:
384,252,18370,2,0,L|276:276,1,100,4|0,1:0|0:0,0:0:0:0:
144,212,18745,2,0,L|276:188,1,100,8|0,1:0|0:0,0:0:0:0:
328,168,19120,1,0,0:0:0:0:
408,124,19307,2,0,L|292:56,1,100,0|8,0:0|1:0,0:0:0:0:
132,164,19682,1,0,0:0:0:0:
296,40,19870,5,0,0:0:0:0:
272,240,20057,1,0,0:0:0:0:
164,60,20245,1,8,1:0:0:0:
352,160,20432,1,0,0:0:0:0:
132,180,20620,1,0,0:0:0:0:
288,48,20807,1,0,0:0:0:0:
408,44,20995,1,12,1:0:0:0:
432,72,21088,1,0,0:0:0:0:
444,100,21182,2,0,P|452:168|420:220,1,100,0|4,0:0|1:0,0:0:0:0:
456,316,21557,2,0,P|368:304|336:272,1,100,0|8,0:0|1:0,0:0:0:0:
268,344,21932,6,0,P|240:280|256:224,1,100
244,48,22307,1,0,0:0:0:0:
320,236,22495,1,8,1:0:0:0:
140,104,22682,1,0,0:0:0:0:
360,104,22870,1,0,0:0:0:0:
176,232,23057,1,0,0:0:0:0:
244,48,23245,1,8,1:0:0:0:
320,236,23432,1,0,0:0:0:0:
240,316,23620,2,0,P|176:324|116:312,1,100
80,228,23995,1,12,1:0:0:0:
96,196,24088,5,0,0:0:0:0:
128,176,24182,2,0,L|256:176,1,100,0|4,0:0|1:0,0:0:0:0:
216,288,24557,2,0,L|320:288,1,100,0|8,0:0|1:0,0:0:0:0:
452,200,24932,2,0,L|348:192,1,100
368,56,25307,2,0,L|268:92,1,100,0|8,0:0|1:0,0:0:0:0:
172,248,25682,1,0,0:0:0:0:
224,68,25870,1,4,1:0:0:0:
304,244,26057,1,0,0:0:0:0:
128,136,26245,1,8,1:0:0:0:
332,132,26432,1,0,0:0:0:0:
172,248,26620,5,0,0:0:0:0:
224,68,26807,1,0,0:0:0:0:
320,40,26995,2,0,L|420:68,1,100,12|0,1:0|0:0,0:0:0:0:
416,100,27276,1,0,0:0:0:0:
428,136,27370,2,0,P|376:212|364:212,1,100,4|0,1:0|0:0,0:0:0:0:
312,344,27745,2,0,P|260:292|268:236,1,100,8|0,1:0|0:0,0:0:0:0:
260,156,28120,1,0,0:0:0:0:
156,176,28307,1,0,0:0:0:0:
144,280,28495,1,8,1:0:0:0:
40,324,28682,2,0,L|40:208,1,100,0|4,0:0|1:0,0:0:0:0:
124,64,29057,6,0,L|124:168,1,100,0|12,0:0|1:0,0:0:0:0:
208,312,29432,2,0,L|208:208,1,100,0|4,0:0|1:0,0:0:0:0:
288,68,29807,2,0,L|288:184,2,100,0|12|0,0:0|1:0|0:0,0:0:0:0:
208,44,30370,1,4,1:0:0:0:
120,72,30557,1,0,0:0:0:0:
96,160,30745,1,8,1:0:0:0:
196,152,30932,2,0,P|184:216|140:252,1,100
104,164,31307,2,0,P|100:92|136:64,1,100,0|8,0:0|1:0,0:0:0:0:
240,44,31682,1,0,0:0:0:0:
280,32,31776,1,0,0:0:0:0:
324,40,31870,6,0,L|392:132,2,100,2|0|8,3:0|0:0|1:0,0:0:0:0:
340,212,32432,1,0,0:0:0:0:
328,244,32526,1,0,0:0:0:0:
304,276,32620,2,0,L|180:276,1,100,2|0,3:0|0:0,0:0:0:0:
192,168,32995,2,0,L|72:168,1,100,8|0,1:0|0:0,0:0:0:0:
168,64,33370,1,0,0:0:0:0:
256,20,33557,1,0,0:0:0:0:
344,60,33745,1,8,1:0:0:0:
272,132,33932,2,0,P|304:184|344:192,1,100
208,216,34307,2,0,P|192:152|160:132,1,100,0|8,0:0|1:0,0:0:0:0:
68,184,34682,5,0,0:0:0:0:
44,216,34776,1,0,0:0:0:0:
44,256,34870,2,0,L|144:328,2,100,2|0|8,3:0|0:0|1:0,0:0:0:0:
140,120,35432,1,0,0:0:0:0:
140,80,35526,1,0,0:0:0:0:
168,60,35620,2,0,L|272:44,1,100,2|0,3:0|0:0,0:0:0:0:
240,148,35995,2,0,L|356:160,1,100,8|0,1:0|0:0,0:0:0:0:
432,228,36370,1,4,1:0:0:0:
376,304,36557,1,0,0:0:0:0:
280,324,36745,1,8,1:0:0:0:
316,216,36932,6,0,L|208:192,1,100
160,76,37307,2,0,L|288:100,1,100,0|8,0:0|1:0,0:0:0:0:
368,44,37682,1,0,0:0:0:0:
400,72,37776,1,0,0:0:0:0:
416,104,37870,2,0,L|416:212,2,100,2|0|8,3:0|0:0|1:0,0:0:0:0:
288,192,38432,1,0,0:0:0:0:
272,228,38526,1,0,0:0:0:0:
256,260,38620,2,0,P|200:280|152:236,1,100,2|0,3:0|0:0,0:0:0:0:
156,144,38995,2,0,P|104:160|80:204,1,100,8|0,1:0|0:0,0:0:0:0:
128,288,39370,1,0,0:0:0:0:
232,320,39557,5,0,0:0:0:0:
320,264,39745,1,8,1:0:0:0:
216,216,39932,2,0,L|188:104,1,100
260,28,40307,2,0,L|296:132,1,100,0|8,0:0|1:0,0:0:0:0:
176,148,40682,1,0,0:0:0:0:
144,172,40776,1,0,0:0:0:0:
120,204,40870,2,0,L|112:308,2,100,2|0|8,3:0|0:0|1:0,0:0:0:0:
72,88,41432,1,0,0:0:0:0:
100,52,41526,1,0,0:0:0:0:
132,36,41620,2,0,L|252:32,1,100,2|0,3:0|0:0,0:0:0:0:
240,144,41995,6,0,P|296:128|324:88,1,100,8|0,1:0|0:0,0:0:0:0:
408,32,42370,1,4,1:0:0:0:
456,112,42557,1,0,0:0:0:0:
376,160,42745,2,0,L|376:272,1,100,8|0,1:0|0:0,0:0:0:0:
272,148,43120,2,0,L|272:32,1,100
164,168,43495,2,0,L|164:288,1,100,8|0,1:0|0:0,0:0:0:0:
268,312,43870,2,0,P|328:304|344:180,1,200,0|8,0:0|1:0,0:0:0:0:
256,216,44432,1,0,0:0:0:0:
232,128,44620,2,0,P|244:80|384:88,1,200,0|8,0:0|1:0,0:0:0:0:
340,160,45182,1,0,0:0:0:0:
384,272,45370,6,0,L|264:320,1,100,2|0,3:0|0:0,0:0:0:0:
228,216,45745,2,0,L|128:264,1,100,8|0,1:0|0:0,0:0:0:0:
124,160,46120,2,0,L|24:208,1,100,2|0,1:0|0:0,0:0:0:0:
68,68,46495,1,8,1:0:0:0:
184,56,46682,1,0,0:0:0:0:
220,40,46776,1,0,0:0:0:0:
260,40,46870,2,0,P|304:72|368:76,1,100
408,192,47245,1,8,1:0:0:0:
344,228,47432,2,0,P|300:264|252:272,1,100
160,324,47807,5,0,0:0:0:0:
104,236,47995,2,0,L|72:128,1,100,8|0,1:0|0:0,0:0:0:0:
140,32,48370,2,0,L|172:136,1,100
280,216,48745,2,0,L|256:104,1,100,8|0,1:0|0:0,0:0:0:0:
352,24,49120,2,0,L|368:132,1,100
452,176,49495,1,8,1:0:0:0:
412,252,49682,1,0,0:0:0:0:
344,324,49870,2,0,P|272:296|248:176,1,200,0|8,0:0|1:0,0:0:0:0:
328,140,50432,1,0,0:0:0:0:
344,40,50620,2,0,P|276:36|196:144,1,200,0|8,0:0|1:0,0:0:0:0:
84,168,51182,6,0,L|64:232,1,50
96,256,51370,2,0,P|136:288|200:288,1,100,4|0,1:0|0:0,0:0:0:0:
228,192,51745,1,8,1:0:0:0:
228,40,51932,1,0,0:0:0:0:
312,112,52120,2,0,P|368:148|380:196,1,100
288,192,52495,2,0,P|236:184|204:136,1,100,8|0,1:0|0:0,0:0:0:0:
200,112,52776,1,0,0:0:0:0:
184,84,52870,2,0,L|72:92,1,100
128,172,53245,2,0,L|88:292,1,100,8|0,1:0|0:0,0:0:0:0:
204,296,53620,1,0,0:0:0:0:
308,324,53807,5,0,0:0:0:0:
400,276,53995,1,8,1:0:0:0:
428,188,54182,1,0,0:0:0:0:
320,196,54370,2,0,L|356:80,1,100
260,24,54745,2,0,L|260:128,1,100,8|0,1:0|0:0,0:0:0:0:
260,240,55120,2,0,P|192:224|148:104,1,200,0|8,0:0|1:0,0:0:0:0:
48,88,55682,1,0,0:0:0:0:
48,200,55870,2,0,L|60:308,1,100
128,180,56245,2,0,L|140:64,1,100,8|0,1:0|0:0,0:0:0:0:
216,204,56620,2,0,L|228:312,1,100
320,272,56995,5,8,1:0:0:0:
404,248,57182,1,0,0:0:0:0:
348,176,57370,2,0,L|424:92,1,100,4|0,1:0|0:0,0:0:0:0:
276,120,57745,2,0,L|208:196,1,100,2|0,3:0|0:0,0:0:0:0:
136,104,58120,2,0,P|104:172|192:296,1,200,0|2,0:0|3:0,0:0:0:0:
208,180,58682,1,0,0:0:0:0:
252,84,58870,2,0,L|348:40,1,100
316,156,59245,2,0,L|216:216,1,100,2|0,3:0|0:0,0:0:0:0:
112,232,59620,2,0,P|176:300|288:276,1,200,0|2,0:0|3:0,0:0:0:0:
236,184,60182,1,0,0:0:0:0:
272,172,60276,5,0,0:0:0:0:
304,152,60370,2,0,P|344:104|344:52,2,100,4|0|10,1:0|0:0|1:0,0:0:0:0:
204,76,60933,1,0,0:0:0:0:
172,52,61026,1,0,0:0:0:0:
132,40,61120,2,0,P|112:88|128:152,2,100,4|0|8,1:0|0:0|1:0,0:0:0:0:
216,136,61682,1,0,0:0:0:0:
240,160,61776,1,0,0:0:0:0:
268,180,61870,2,0,P|344:180|376:152,1,100,4|0,1:0|0:0,0:0:0:0:
324,80,62245,2,0,P|376:28|408:32,1,100,8|0,1:0|0:0,0:0:0:0:
420,152,62620,1,4,1:0:0:0:
432,252,62807,5,0,0:0:0:0:
368,328,62995,1,8,1:0:0:0:
308,236,63182,2,0,L|248:256,1,50
216,240,63370,2,0,P|152:212|136:152,1,129.999994049073,4|0,1:0|0:0,0:0:0:0:
220,148,63745,2,0,P|216:80|280:40,1,129.999994049073,8|0,1:0|0:0,0:0:0:0:
304,120,64120,2,0,P|356:172|324:240,2,129.999994049073,0|0|8,0:0|0:0|1:0,0:0:0:0:
224,184,64682,1,0,0:0:0:0:
176,200,64776,1,0,0:0:0:0:
136,184,64870,2,0,P|116:116|144:60,1,129.999994049073
256,40,65245,2,0,L|376:112,1,129.999994049073,8|0,1:0|0:0,0:0:0:0:
240,160,65620,6,0,L|112:200,1,129.999994049073,4|0,1:0|0:0,0:0:0:0:
232,272,65995,2,0,L|352:328,1,129.999994049073,12|0,1:0|0:0,0:0:0:0:
376,172,66370,2,0,P|404:104|464:88,1,129.999994049073
320,72,66745,2,0,P|276:144|224:148,1,129.999994049073,8|0,1:0|0:0,0:0:0:0:
200,52,67120,1,0,0:0:0:0:
104,104,67307,1,0,0:0:0:0:
104,220,67495,1,8,1:0:0:0:
184,284,67682,1,0,0:0:0:0:
208,168,67870,2,0,L|352:168,1,129.999994049073
224,272,68245,6,0,L|88:272,1,129.999994049073,8|0,1:0|0:0,0:0:0:0:
128,176,68620,2,4,P|128:104|292:96,1,259.999988098145,4|12,1:0|1:0,1:0:0:0:
232,152,69182,1,0,0:0:0:0:
208,188,69276,1,0,0:0:0:0:
176,208,69370,2,0,L|176:368,2,129.999994049073,0|0|8,0:0|0:0|1:0,0:0:0:0:
92,140,69932,1,0,0:0:0:0:
88,96,70026,1,0,0:0:0:0:
112,60,70120,2,0,P|192:40|240:80,2,129.999994049073,0|0|8,0:0|0:0|1:0,0:0:0:0:
164,152,70682,2,0,L|184:216,1,64.9999970245363
204,240,70870,2,0,P|268:240|316:160,1,129.999994049073
284,96,71245,6,0,P|348:108|400:168,1,129.999994049073,8|0,1:0|0:0,0:0:0:0:
340,232,71620,2,0,P|324:312|272:328,1,129.999994049073
200,260,71995,2,0,L|232:200,1,64.9999970245363,8|0,1:0|0:0,0:0:0:0:
164,168,72182,2,0,L|128:228,2,64.9999970245363,0|0|4,0:0|0:0|1:0,0:0:0:0:
232,64,73870,2,0,L|124:76,1,100,4|2,1:0|3:0,0:0:0:0:
56,168,74245,2,0,L|176:208,1,100,8|2,1:0|3:0,0:0:0:0:
124,292,74620,1,0,0:0:0:0:
224,292,74807,1,2,3:0:0:0:
272,208,74995,1,8,1:0:0:0:
252,124,75182,1,2,3:0:0:0:
164,188,75370,6,0,L|96:80,1,100,0|2,0:0|3:0,0:0:0:0:
248,148,75745,2,0,L|300:252,1,100,8|2,1:0|3:0,0:0:0:0:
408,292,76120,2,0,L|360:180,1,100,0|2,0:0|3:0,0:0:0:0:
444,136,76495,1,8,1:0:0:0:
400,52,76682,2,0,L|260:40,1,100,2|0,3:0|0:0,0:0:0:0:
160,96,77057,2,0,L|280:136,1,100,2|8,3:0|1:0,0:0:0:0:
120,200,77432,2,2,P|128:276|248:296,1,200,2|2,1:0|1:0,1:0:0:0:
208,216,77995,1,8,1:0:0:0:
308,196,78182,1,2,1:0:0:0:
344,176,78276,1,0,0:0:0:0:
376,156,78370,2,0,L|408:48,1,100,0|2,0:0|3:0,0:0:0:0:
388,36,78651,5,0,0:0:0:0:
352,36,78745,2,0,L|236:32,1,100,8|2,1:0|3:0,0:0:0:0:
212,64,79026,1,0,0:0:0:0:
200,100,79120,2,0,P|244:156|292:188,1,100,0|2,0:0|3:0,0:0:0:0:
364,160,79495,2,0,L|496:144,1,100,8|2,1:0|3:0,0:0:0:0:
272,68,79870,2,0,L|164:88,1,100,0|2,0:0|3:0,0:0:0:0:
84,40,80245,1,8,1:0:0:0:
84,144,80432,2,2,L|84:348,1,200,2|2,3:0|3:0,3:0:0:0:
172,292,80995,2,0,L|300:292,1,100,8|2,1:0|3:0,0:0:0:0:
160,192,81370,2,0,L|288:192,1,100,0|2,0:0|3:0,0:0:0:0:
156,80,81745,6,0,L|284:80,1,100,8|2,1:0|3:0,0:0:0:0:
340,32,82120,1,0,0:0:0:0:
408,100,82307,1,2,3:0:0:0:
408,200,82495,1,8,1:0:0:0:
356,280,82682,1,2,3:0:0:0:
304,204,82870,2,0,P|256:232|240:304,1,100,0|2,0:0|3:0,0:0:0:0:
216,140,83245,2,0,P|280:104|292:64,1,100,8|2,1:0|3:0,0:0:0:0:
196,48,83620,2,0,P|128:52|100:84,1,100,0|2,0:0|3:0,0:0:0:0:
20,136,83995,1,8,1:0:0:0:
96,172,84182,2,2,B|96:256|96:256|224:256,1,200,2|2,3:0|3:0,3:0:0:0:
196,160,84745,5,8,1:0:0:0:
180,56,84932,2,2,B|292:56|292:56|352:136,1,200,2|2,3:0|3:0,3:0:0:0:
344,126,85495,1,8,1:0:0:0:
344,126,85682,1,2,3:0:0:0:
256,192,85870,12,4,87745,1:0:0:0:
