osu file format v14

[General]
AudioFilename: audio.mp3
AudioLeadIn: 0
PreviewTime: 63370
Countdown: 1
SampleSet: Soft
StackLeniency: 0.7
Mode: 0
LetterboxInBreaks: 0
WidescreenStoryboard: 1

[Editor]
DistanceSpacing: 0.9
BeatDivisor: 4
GridSize: 4
TimelineZoom: 1.2

[Metadata]
Title:Shinzou wo Sasageyo
TitleUnicode:Shinzou wo Sasageyo
Artist:Linked Horizon
ArtistUnicode:Linked Horizon
Creator:MyTic190
Version:Hard
Source:進撃の巨人
Tags:Attack on Titan Opening Shinzou Wo Sasageyo
BeatmapID:1256764
BeatmapSetID:594148

[Difficulty]
HPDrainRate:5
CircleSize:4
OverallDifficulty:5
ApproachRate:7
SliderMultiplier:1.6
SliderTickRate:1

[Events]
//Background and Video events
0,0,"aot.jpg",0,0
Video,0,"Attack on Titan Season 2 - Official Opening Song - Shinzou wo Sasageyo by Linked Horizon.avi"
//Break Periods
//Storyboard Layer 0 (Background)
//Storyboard Layer 1 (Fail)
//Storyboard Layer 2 (Pass)
//Storyboard Layer 3 (Foreground)
//Storyboard Sound Samples

[TimingPoints]
370,375,4,2,0,100,1,0
370,-200,4,2,0,65,0,0
3370,-100,4,2,0,65,0,0
6370,-153.846153846153,4,2,0,65,0,0
18370,-100,4,2,0,70,0,0
30370,-125,4,2,0,65,0,0
36370,-100,4,2,0,75,0,0
51370,-100,4,2,0,65,0,0
63370,-76.9230769230769,4,2,0,80,0,1
73870,-100,4,2,0,70,0,0

[Colours]
Combo1 : 77,77,77
Combo2 : 128,0,0
Combo3 : 176,88,0
Combo4 : 128,128,128

[HitObjects]
152,112,370,1,2,3:0:0:0:
156,116,557,2,0,L|156:168,1,40,0|2,3:0|3:0,3:0:0:0:
236,184,932,2,0,L|236:236,2,40,0|2|0,0:0|3:0|0:0,0:0:0:0:
296,120,1495,1,0,0:0:0:0:
296,120,1682,1,2,3:0:0:0:
376,88,1870,1,2,1:0:0:0:
424,160,2057,1,2,3:0:0:0:
352,216,2245,2,0,L|388:244,1,40,0|2,0:0|3:0,0:0:0:0:
368,328,2620,2,0,L|336:304,1,40,0|2,0:0|3:0,0:0:0:0:
240,312,2995,1,0,0:0:0:0:
160,268,3182,1,2,3:0:0:0:
168,168,3370,6,0,P|220:180|264:156,2,80,8|8|0,1:0|1:0|0:0,0:0:0:0:
204,92,3932,2,8,P|164:76|80:156,1,160,8|8,1:0|1:0,1:0:0:0:
32,224,4495,1,0,0:0:0:0:
108,264,4682,2,8,P|152:312|256:284,1,160,8|8,1:0|1:0,1:0:0:0:
196,228,5245,2,0,P|244:208|276:216,1,80,0|8,0:0|1:0,0:0:0:0:
328,272,5620,1,0,0:0:0:0:
420,256,5807,1,8,1:0:0:0:
368,192,5995,2,0,L|368:104,1,80,0|8,0:0|1:0,0:0:0:0:
280,52,6370,2,0,P|240:64|224:84,1,51.999997619629,4|0,1:0|0:0,0:0:0:0:
280,144,6745,2,0,P|224:160|216:156,1,51.999997619629,8|0,1:0|0:0,0:0:0:0:
148,120,7120,6,0,P|128:184|152:232,1,103.999995239258,0|8,0:0|1:0,0:0:0:0:
232,168,7682,2,0,L|300:168,1,51.999997619629
280,252,8057,2,0,L|348:252,1,51.999997619629,0|8,0:0|1:0,0:0:0:0:
332,332,8432,2,0,L|396:332,2,51.999997619629
208,320,8995,1,8,1:0:0:0:
200,216,9182,1,2,3:0:0:0:
200,216,9276,1,2,3:0:0:0:
200,216,9370,2,0,P|152:216|132:216,1,51.999997619629,2|0,3:0|0:0,0:0:0:0:
104,132,9745,1,8,1:0:0:0:
104,132,9932,2,0,L|160:132,1,51.999997619629
232,60,10307,2,0,L|288:60,1,51.999997619629,0|8,0:0|1:0,0:0:0:0:
276,144,10682,6,0,L|332:144,1,51.999997619629
324,220,11057,2,0,L|388:220,2,51.999997619629,0|8|0,0:0|1:0|0:0,0:0:0:0:
288,300,11620,1,0,0:0:0:0:
288,300,11807,1,0,0:0:0:0:
184,284,11995,2,0,P|184:320|184:332,2,25.9999988098145,10|2|2,3:0|3:0|3:0,0:0:0:0:
136,184,12370,2,2,L|136:136,2,25.9999988098145,2|2|2,3:0|3:0|3:0,3:0:0:0:
44,236,12745,1,8,1:0:0:0:
56,116,12932,2,2,L|56:72,2,25.9999988098145,2|2|2,3:0|3:0|3:0,3:0:0:0:
156,100,13307,2,0,L|228:100,1,51.999997619629,0|8,0:0|1:0,0:0:0:0:
292,52,13682,1,2,3:0:0:0:
292,52,13776,5,2,3:0:0:0:
292,52,13870,2,0,P|356:72|384:112,1,103.999995239258,2|8,3:0|1:0,0:0:0:0:
320,168,14432,1,0,0:0:0:0:
388,232,14620,2,0,P|348:264|276:256,1,103.999995239258,0|8,0:0|1:0,0:0:0:0:
228,324,15182,1,0,0:0:0:0:
200,240,15370,2,0,L|144:240,1,51.999997619629
152,156,15745,2,0,L|84:156,1,51.999997619629,8|0,1:0|0:0,0:0:0:0:
116,60,16120,2,2,L|80:60,2,25.9999988098145,2|2|2,3:0|3:0|3:0,3:0:0:0:
208,36,16495,1,8,1:0:0:0:
288,72,16682,1,0,0:0:0:0:
272,152,16870,6,0,P|312:184|328:184,1,51.999997619629,4|0,1:0|0:0,0:0:0:0:
268,252,17245,2,0,P|224:244|200:256,1,51.999997619629,12|0,1:0|0:0,0:0:0:0:
180,184,17620,2,0,P|200:144|200:128,1,51.999997619629,4|0,1:0|0:0,0:0:0:0:
264,80,17995,2,0,P|224:56|208:52,1,51.999997619629,12|0,1:0|0:0,0:0:0:0:
128,48,18370,2,0,L|64:96,1,80,4|0,1:0|0:0,0:0:0:0:
112,152,18745,2,0,P|116:208|212:244,1,160,8|0,1:0|0:0,0:0:0:0:
200,164,19307,1,0,0:0:0:0:
220,80,19495,2,0,L|304:80,1,80,8|0,1:0|0:0,0:0:0:0:
304,160,19870,2,0,L|392:160,1,80
376,240,20245,2,0,L|472:240,1,80,8|0,1:0|0:0,0:0:0:0:
440,324,20620,6,0,L|532:324,1,80
512,244,20995,2,4,L|464:88,1,160,12|4,1:0|1:0,1:0:0:0:
388,40,21557,1,0,0:0:0:0:
300,60,21745,1,8,1:0:0:0:
364,124,21932,2,0,P|348:168|240:180,1,160
252,96,22495,2,0,L|176:56,1,80,8|0,1:0|0:0,0:0:0:0:
168,144,22870,2,0,L|96:96,1,80
88,188,23245,2,0,L|16:132,1,80,8|0,1:0|0:0,0:0:0:0:
8,228,23620,2,0,L|-68:172,1,80
32,312,23995,2,0,L|0:340,2,40,14|2|2,3:0|3:0|3:0,0:0:0:0:
116,328,24370,6,0,P|156:288|268:256,1,160,4|8,1:0|1:0,0:0:0:0:
312,332,24932,1,0,0:0:0:0:
376,260,25120,2,0,L|464:260,1,80
368,168,25495,2,0,L|448:168,1,80,8|0,1:0|0:0,0:0:0:0:
420,72,25870,2,0,P|376:40|288:96,1,160,4|8,1:0|1:0,0:0:0:0:
316,184,26432,1,0,0:0:0:0:
284,264,26620,2,0,P|244:300|144:260,1,160,0|8,0:0|1:0,0:0:0:0:
208,200,27182,1,0,0:0:0:0:
164,128,27370,2,0,P|128:144|104:184,1,80,4|0,1:0|0:0,0:0:0:0:
164,240,27745,2,0,P|120:276|32:216,1,160,8|0,1:0|0:0,0:0:0:0:
96,172,28307,5,0,0:0:0:0:
96,72,28495,1,8,1:0:0:0:
184,40,28682,2,0,L|264:72,1,80,0|4,0:0|1:0,0:0:0:0:
200,136,29057,2,0,L|284:168,1,80,0|8,0:0|1:0,0:0:0:0:
224,232,29432,2,0,L|312:260,1,80
248,328,29807,2,0,L|336:356,2,80,0|8|0,0:0|1:0|0:0,0:0:0:0:
168,280,30370,1,4,1:0:0:0:
88,240,30557,1,0,0:0:0:0:
92,148,30745,1,8,1:0:0:0:
172,188,30932,2,0,P|196:124|192:104,2,64
84,216,31495,5,8,1:0:0:0:
84,316,31682,1,0,0:0:0:0:
168,264,31870,2,2,L|208:300,2,32,2|2|2,3:0|3:0|3:0,3:0:0:0:
204,172,32245,1,8,0:0:0:0:
212,80,32432,2,2,L|160:80,2,32,2|2|2,3:0|3:0|3:0,3:0:0:0:
288,28,32807,2,0,P|312:60|320:92,1,64,0|8,0:0|1:0,0:0:0:0:
400,84,33182,2,0,P|388:144|368:160,1,64,0|4,0:0|1:0,0:0:0:0:
436,216,33557,1,0,0:0:0:0:
400,300,33745,1,8,1:0:0:0:
308,312,33932,1,0,0:0:0:0:
320,224,34120,6,0,P|252:224|244:224,2,64,0|0|8,0:0|0:0|1:0,0:0:0:0:
320,132,34682,1,0,0:0:0:0:
268,56,34870,2,2,L|312:36,2,32,2|2|2,3:0|3:0|3:0,3:0:0:0:
172,88,35245,1,8,1:0:0:0:
152,184,35432,2,2,L|96:184,2,32,2|2|2,3:0|3:0|3:0,3:0:0:0:
156,284,35807,2,0,P|208:316|240:320,2,64,0|8|0,0:0|1:0|0:0,0:0:0:0:
80,224,36370,1,4,1:0:0:0:
92,128,36557,1,0,0:0:0:0:
184,96,36745,1,8,1:0:0:0:
176,196,36932,2,0,L|280:196,1,80
272,276,37307,6,0,P|344:248|356:236,1,80,0|8,0:0|1:0,0:0:0:0:
428,208,37682,1,0,0:0:0:0:
388,116,37870,2,2,L|452:116,2,40,2|2|2,3:0|3:0|3:0,3:0:0:0:
288,116,38245,1,8,1:0:0:0:
188,116,38432,2,2,L|136:116,2,40,2|2|2,3:0|3:0|3:0,3:0:0:0:
180,200,38807,2,0,L|120:256,2,80,0|8|0,0:0|1:0|0:0,0:0:0:0:
112,120,39370,1,4,1:0:0:0:
164,40,39557,1,0,0:0:0:0:
260,40,39745,1,8,1:0:0:0:
220,120,39932,2,0,L|328:120,1,80
256,200,40307,6,0,L|256:288,1,80,0|8,0:0|1:0,0:0:0:0:
168,316,40682,1,0,0:0:0:0:
72,316,40870,2,2,L|32:316,2,40,2|2|2,3:0|3:0|3:0,3:0:0:0:
128,236,41245,1,8,1:0:0:0:
28,236,41432,2,2,L|-20:236,2,40,2|2|2,3:0|3:0|3:0,3:0:0:0:
48,152,41807,2,0,P|68:80|96:68,1,80,0|8,0:0|1:0,0:0:0:0:
152,40,42182,1,0,0:0:0:0:
240,48,42370,2,0,L|328:48,2,80,4|0|8,1:0|0:0|1:0,0:0:0:0:
232,144,42932,2,0,L|144:144,2,80
244,240,43495,2,0,L|344:240,2,80,8|0|0,1:0|0:0|0:0,0:0:0:0:
196,312,44057,5,0,0:0:0:0:
104,296,44245,2,0,B|68:216|68:216|108:124,1,160,8|0,1:0|0:0,0:0:0:0:
168,188,44807,2,0,L|196:100,1,80,0|8,0:0|1:0,0:0:0:0:
260,48,45182,1,0,0:0:0:0:
356,56,45370,2,0,L|412:116,1,80,6|0,1:0|0:0,0:0:0:0:
400,216,45745,2,0,L|332:152,1,80,8|0,1:0|0:0,0:0:0:0:
284,216,46120,2,0,P|248:260|152:252,1,160,2|8,3:0|1:0,0:0:0:0:
64,236,46682,1,0,0:0:0:0:
72,144,46870,2,0,P|104:72|184:76,1,160,0|8,0:0|1:0,0:0:0:0:
160,160,47432,1,0,0:0:0:0:
136,236,47620,6,0,B|136:336|136:336|212:336,1,160,0|8,0:0|1:0,0:0:0:0:
252,260,48182,2,2,L|308:248,1,40,2|2,3:0|3:0,3:0:0:0:
332,248,48370,2,0,P|372:208|376:176,1,80,2|0,3:0|0:0,0:0:0:0:
352,96,48745,1,8,1:0:0:0:
260,68,48932,2,2,L|208:52,1,40,2|2,3:0|3:0,3:0:0:0:
188,80,49120,2,0,L|188:196,1,80,2|0,3:0|0:0,0:0:0:0:
108,180,49495,2,0,L|108:292,1,80,8|0,1:0|0:0,0:0:0:0:
204,288,49870,2,0,L|280:312,1,80
292,224,50245,2,0,L|376:256,1,80,8|0,1:0|0:0,0:0:0:0:
376,152,50620,2,0,L|464:184,2,80,0|0|8,0:0|0:0|1:0,0:0:0:0:
376,56,51182,5,0,0:0:0:0:
288,52,51370,2,0,L|120:52,1,160,4|8,1:0|1:0,0:0:0:0:
144,136,51932,1,0,0:0:0:0:
104,216,52120,2,0,P|88:264|56:292,1,80
184,244,52495,2,0,P|212:200|212:160,1,80,8|0,1:0|0:0,0:0:0:0:
248,80,52870,2,0,L|416:80,1,160,0|8,0:0|1:0,0:0:0:0:
416,168,53432,1,0,0:0:0:0:
360,228,53620,2,0,P|344:276|352:324,1,80
264,228,53995,2,0,P|292:180|288:136,1,80,8|0,1:0|0:0,0:0:0:0:
208,152,54370,2,0,B|172:80|172:80|68:80,1,160,0|8,0:0|1:0,0:0:0:0:
108,164,54932,5,0,0:0:0:0:
48,236,55120,2,0,L|76:340,1,80
156,296,55495,2,0,L|132:216,1,80,8|0,1:0|0:0,0:0:0:0:
196,188,55870,2,0,B|272:156|272:156|360:192,1,160,0|8,0:0|1:0,0:0:0:0:
272,256,56432,1,0,0:0:0:0:
312,336,56620,2,0,P|352:308|364:268,2,80,0|0|8,0:0|0:0|1:0,0:0:0:0:
220,332,57182,1,0,0:0:0:0:
184,248,57370,2,0,L|104:248,2,80,4|0|2,1:0|0:0|3:0,0:0:0:0:
128,152,57932,2,0,L|40:152,2,80
208,52,58495,2,0,L|104:52,2,80,2|0|0,3:0|0:0|0:0,0:0:0:0:
320,72,59057,5,0,0:0:0:0:
392,104,59245,2,0,P|408:184|344:224,1,160,2|0,3:0|0:0,0:0:0:0:
272,204,59807,2,0,L|236:288,1,80,0|2,0:0|3:0,0:0:0:0:
124,272,60182,2,2,L|96:224,1,40,2|2,3:0|3:0,3:0:0:0:
96,200,60370,2,0,P|96:152|192:92,1,160,2|8,3:0|1:0,0:0:0:0:
260,48,60932,2,2,L|316:48,1,40,2|2,3:0|3:0,3:0:0:0:
332,60,61120,2,0,B|372:144|372:144|372:224,1,160,2|8,3:0|1:0,0:0:0:0:
284,224,61682,2,2,L|284:300,1,40,2|2,3:0|3:0,3:0:0:0:
260,296,61870,2,0,P|200:296|164:208,1,160,2|8,3:0|1:0,0:0:0:0:
80,184,62432,1,0,0:0:0:0:
128,96,62620,5,0,0:0:0:0:
224,68,62807,1,0,0:0:0:0:
208,160,62995,2,0,L|208:256,1,80,8|0,1:0|0:0,0:0:0:0:
304,276,63370,5,12,1:0:0:0:
416,256,63557,1,0,0:0:0:0:
416,256,63745,2,0,P|432:176|324:104,1,207.999990478516,8|8,1:0|0:0,0:0:0:0:
264,56,64307,1,0,0:0:0:0:
176,60,64495,2,0,L|100:136,1,103.999995239258,8|0,1:0|0:0,0:0:0:0:
64,216,64870,2,0,P|108:272|232:232,1,207.999990478516,0|8,0:0|1:0,0:0:0:0:
160,176,65432,1,0,0:0:0:0:
152,80,65620,2,0,L|260:80,1,103.999995239258
368,164,65995,2,0,L|260:164,1,103.999995239258,8|0,1:0|0:0,0:0:0:0:
300,260,66370,2,0,L|188:260,1,103.999995239258,4|0,1:0|0:0,0:0:0:0:
124,320,66745,5,8,1:0:0:0:
72,248,66932,1,0,0:0:0:0:
156,236,67120,2,0,P|180:176|64:128,1,207.999990478516,0|8,0:0|1:0,0:0:0:0:
48,44,67682,1,0,0:0:0:0:
148,44,67870,2,0,L|252:44,1,103.999995239258
256,136,68245,2,0,L|364:136,1,103.999995239258,8|0,1:0|0:0,0:0:0:0:
348,228,68620,2,0,L|464:228,1,103.999995239258
420,316,68995,1,8,1:0:0:0:
324,320,69182,2,0,L|216:320,1,103.999995239258,0|4,0:0|1:0,0:0:0:0:
192,232,69557,1,0,0:0:0:0:
116,288,69745,5,8,1:0:0:0:
112,204,69932,2,0,P|100:152|120:100,1,103.999995239258
184,32,70307,1,0,0:0:0:0:
264,52,70495,2,0,P|320:104|440:80,1,207.999990478516,8|0,1:0|0:0,0:0:0:0:
472,176,71057,2,0,L|420:272,1,103.999995239258,0|8,0:0|1:0,0:0:0:0:
352,220,71432,2,0,L|292:316,1,103.999995239258,0|8,0:0|1:0,0:0:0:0:
208,312,71807,1,0,0:0:0:0:
128,276,71995,1,8,1:0:0:0:
104,192,72182,1,0,0:0:0:0:
144,116,72370,1,4,1:0:0:0:
256,48,73870,6,0,L|256:132,2,80,4|0|8,1:0|0:0|1:0,0:0:0:0:
176,56,74432,2,2,P|112:84|84:168,1,160,2|2,3:0|3:0,3:0:0:0:
176,144,74995,1,8,1:0:0:0:
244,192,75182,2,0,P|204:224|164:224,1,80,2|0,3:0|0:0,0:0:0:0:
176,144,75557,2,0,P|200:92|248:80,2,80,2|8|2,1:0|1:0|1:0,0:0:0:0:
296,48,76120,1,0,0:0:0:0:
312,136,76307,2,2,P|388:152|396:240,1,160,2|2,3:0|3:0,3:0:0:0:
320,228,76870,1,0,0:0:0:0:
304,312,77057,2,2,L|144:312,1,160,2|2,1:0|1:0,1:0:0:0:
100,240,77620,1,0,0:0:0:0:
60,156,77807,6,0,L|140:112,1,80,0|8,0:0|1:0,0:0:0:0:
180,48,78182,2,2,P|236:64|288:156,1,160,2|2,3:0|3:0,3:0:0:0:
196,176,78745,1,8,1:0:0:0:
196,176,78932,2,2,P|228:248|320:268,1,160,2|2,3:0|3:0,3:0:0:0:
312,176,79495,2,0,L|400:176,1,80,8|0,1:0|0:0,0:0:0:0:
452,108,79870,2,0,L|400:36,1,80,0|2,0:0|3:0,0:0:0:0:
316,44,80245,2,0,L|264:112,2,80,8|2|0,1:0|3:0|0:0,0:0:0:0:
384,104,80807,2,2,P|372:180|288:212,1,160,2|2,3:0|3:0,3:0:0:0:
296,296,81370,1,0,0:0:0:0:
204,328,81557,2,2,P|176:288|240:196,1,160,2|2,3:0|3:0,3:0:0:0:
304,192,82120,6,0,L|304:108,1,80,0|2,0:0|3:0,0:0:0:0:
224,44,82495,2,0,L|224:144,1,80,8|2,1:0|3:0,0:0:0:0:
152,228,82870,2,0,L|152:128,2,80,0|2|8,0:0|3:0|1:0,0:0:0:0:
80,272,83432,2,2,P|128:312|220:288,1,160,2|2,3:0|3:0,3:0:0:0:
160,216,83995,1,8,1:0:0:0:
204,140,84182,2,2,P|264:112|356:152,1,160,2|2,3:0|3:0,3:0:0:0:
280,204,84745,1,8,1:0:0:0:
328,312,84932,2,2,P|392:272|392:176,1,160,2|2,3:0|3:0,3:0:0:0:
436,112,85495,2,0,L|364:68,1,80,8|2,1:0|3:0,0:0:0:0:
256,192,85870,12,4,87745,1:0:0:0:
