osu file format v14

[General]
AudioFilename: audio.mp3
AudioLeadIn: 0
PreviewTime: 63370
Countdown: 1
SampleSet: Soft
StackLeniency: 0.7
Mode: 0
LetterboxInBreaks: 0
WidescreenStoryboard: 1

[Editor]
DistanceSpacing: 0.9
BeatDivisor: 4
GridSize: 4
TimelineZoom: 1.399999

[Metadata]
Title:Shinzou wo Sasageyo
TitleUnicode:Shinzou wo Sasageyo
Artist:Linked Horizon
ArtistUnicode:Linked Horizon
Creator:MyTic190
Version:Attack On Titan
Source:進撃の巨人
Tags:Attack on Titan Opening Shinzou Wo Sasageyo
BeatmapID:1258612
BeatmapSetID:594148

[Difficulty]
HPDrainRate:7
CircleSize:4
OverallDifficulty:8
ApproachRate:9
SliderMultiplier:2.5
SliderTickRate:1

[Events]
//Background and Video events
0,0,"aot.jpg",0,0
Video,0,"Attack on Titan Season 2 - Official Opening Song - Shinzou wo Sasageyo by Linked Horizon.avi"
//Break Periods
//Storyboard Layer 0 (Background)
//Storyboard Layer 1 (Fail)
//Storyboard Layer 2 (Pass)
//Storyboard Layer 3 (Foreground)
//Storyboard Sound Samples

[TimingPoints]
370,375,4,2,0,100,1,0
370,-166.666666666667,4,2,0,65,0,0
3370,-90.9090909090909,4,2,0,75,0,0
6370,-111.111111111111,4,2,0,65,0,0
18370,-111.111111111111,4,2,0,70,0,0
30370,-133.333333333333,4,2,0,65,0,0
36370,-111.111111111111,4,2,0,75,0,0
45370,-142.857142857143,4,2,0,65,0,0
51370,-111.111111111111,4,2,0,65,0,0
57370,-166.666666666667,4,2,0,65,0,0
60370,-111.111111111111,4,2,0,65,0,0
63370,-90.9090909090909,4,2,0,80,0,1
73870,-111.111111111111,4,2,0,70,0,0

[Colours]
Combo1 : 77,77,77
Combo2 : 128,0,0
Combo3 : 176,88,0
Combo4 : 128,128,128

[HitObjects]
256,80,370,5,2,3:0:0:0:
256,156,557,2,0,P|204:144|188:128,1,74.9999977111817,2|0,3:0|0:0,0:0:0:0:
256,80,932,2,0,P|312:52|340:60,1,74.9999977111817,2|0,3:0|0:0,0:0:0:0:
176,52,1307,2,0,P|124:36|88:40,1,74.9999977111817,2|0,3:0|0:0,0:0:0:0:
103,36,1682,1,2,3:0:0:0:
28,136,1869,1,2,3:0:0:0:
84,244,2057,1,2,3:0:0:0:
200,304,2245,2,0,P|224:276|240:228,1,74.9999977111817,0|2,0:0|3:0,0:0:0:0:
256,96,2620,1,0,0:0:0:0:
256,96,2807,1,2,3:0:0:0:
344,40,2995,6,0,P|408:48|424:56,1,74.9999977111817,0|2,0:0|3:0,0:0:0:0:
444,84,3276,1,0,0:0:0:0:
472,120,3370,2,8,L|472:272,1,137.500004196167,12|8,1:0|1:0,1:0:0:0:
408,304,3651,1,0,0:0:0:0:
408,304,3745,2,0,L|328:264,1,68.7500020980836
312,176,3932,2,0,P|380:176|396:184,1,68.7500020980836,8|0,1:0|0:0,0:0:0:0:
256,252,4120,2,0,P|208:188|208:176,1,68.7500020980836
244,120,4307,2,0,P|152:104|100:156,1,137.500004196167,8|0,1:0|0:0,0:0:0:0:
52,196,4682,2,0,L|88:268,1,68.7500020980836,8|0,1:0|0:0,0:0:0:0:
120,156,4870,2,0,P|136:80|160:64,1,68.7500020980836
164,68,5057,5,8,1:0:0:0:
204,56,5151,1,0,0:0:0:0:
248,64,5245,2,0,L|308:108,1,68.7500020980836
224,136,5432,2,0,P|160:168|152:184,1,68.7500020980836,8|0,1:0|0:0,0:0:0:0:
152,196,5620,1,0,0:0:0:0:
164,232,5713,1,0,0:0:0:0:
192,264,5807,1,8,1:0:0:0:
228,280,5901,1,0,0:0:0:0:
264,276,5995,1,0,0:0:0:0:
300,256,6088,1,0,0:0:0:0:
328,232,6182,1,8,1:0:0:0:
348,200,6276,1,0,0:0:0:0:
368,160,6370,6,0,L|488:136,1,112.499996566773,12|0,1:0|0:0,0:0:0:0:
280,104,6745,2,0,P|232:160|188:172,1,112.499996566773,8|0,1:0|0:0,0:0:0:0:
72,84,7120,2,0,P|36:176|44:204,2,112.499996566773,0|0|8,0:0|0:0|1:0,0:0:0:0:
200,32,7682,1,2,2:0:0:0:
200,32,7776,1,2,2:0:0:0:
200,32,7870,1,2,2:0:0:0:
328,52,8057,2,0,P|396:92|424:136,1,112.499996566773,0|8,0:0|1:0,0:0:0:0:
368,304,8432,1,0,0:0:0:0:
288,128,8620,1,0,0:0:0:0:
472,184,8807,1,0,0:0:0:0:
368,304,8995,1,8,1:0:0:0:
216,76,9182,1,2,2:0:0:0:
216,76,9276,5,2,2:0:0:0:
216,76,9370,1,4,1:0:0:0:
104,120,9557,2,0,P|64:188|60:232,1,112.499996566773,0|8,0:0|1:0,0:0:0:0:
232,156,9932,2,0,P|280:112|296:52,1,112.499996566773
432,84,10307,1,0,0:0:0:0:
375,304,10495,1,8,1:0:0:0:
480,264,10682,1,2,2:0:0:0:
480,264,10776,1,2,2:0:0:0:
480,264,10870,2,0,L|356:312,1,112.499996566773,2|0,2:0|0:0,0:0:0:0:
412,168,11245,2,0,P|424:88|460:48,2,112.499996566773,8|0|0,1:0|0:0|0:0,0:0:0:0:
360,272,11807,5,2,2:0:0:0:
360,272,11901,1,2,2:0:0:0:
360,272,11995,1,2,2:0:0:0:
160,272,12182,1,2,2:0:0:0:
160,272,12276,1,2,2:0:0:0:
160,272,12370,6,0,L|64:184,1,112.499996566773,2|0,2:0|0:0,0:0:0:0:
256,332,12745,2,0,P|332:320|388:288,1,112.499996566773,8|0,1:0|0:0,0:0:0:0:
232,220,13120,2,0,P|180:176|168:128,2,112.499996566773,0|0|8,0:0|0:0|1:0,0:0:0:0:
400,324,13682,1,0,0:0:0:0:
292,128,13870,1,0,0:0:0:0:
200,336,14057,1,0,0:0:0:0:
292,128,14245,1,8,1:0:0:0:
396,64,14432,1,2,2:0:0:0:
396,64,14526,1,2,2:0:0:0:
396,64,14620,1,2,2:0:0:0:
252,52,14807,6,0,L|132:80,1,112.499996566773,0|8,0:0|1:0,0:0:0:0:
260,196,15182,2,0,L|376:240,1,112.499996566773
156,264,15557,2,0,L|24:284,1,112.499996566773,0|8,0:0|1:0,0:0:0:0:
76,104,15932,1,2,2:0:0:0:
80,108,16026,1,2,2:0:0:0:
80,108,16120,1,2,2:0:0:0:
192,32,16307,2,0,L|312:64,2,112.499996566773,0|8|0,0:0|1:0|0:0,0:0:0:0:
184,140,16870,1,2,2:0:0:0:
184,140,16963,1,2,2:0:0:0:
184,140,17057,1,2,2:0:0:0:
208,256,17245,5,2,2:0:0:0:
208,256,17338,1,2,2:0:0:0:
208,256,17432,1,2,2:0:0:0:
296,184,17620,2,0,L|328:132,1,56.2499982833863,2|0,2:0|0:0,0:0:0:0:
344,112,17807,1,0,0:0:0:0:
372,88,17901,1,0,0:0:0:0:
408,76,17995,1,2,2:0:0:0:
444,80,18088,1,0,0:0:0:0:
472,100,18182,1,0,0:0:0:0:
500,128,18276,1,0,0:0:0:0:
512,164,18370,6,0,L|452:272,1,112.499996566773,4|0,1:0|0:0,0:0:0:0:
372,64,18745,2,0,L|244:40,1,112.499996566773,8|0,1:0|0:0,0:0:0:0:
252,200,19120,2,0,L|132:172,1,112.499996566773
60,196,19495,1,8,1:0:0:0:
256,344,19682,1,0,0:0:0:0:
136,104,19870,1,0,0:0:0:0:
352,308,20057,1,0,0:0:0:0:
332,208,20245,2,0,L|452:208,2,112.499996566773,8|0|0,1:0|0:0|0:0,0:0:0:0:
352,88,20807,1,2,2:0:0:0:
352,88,20901,1,2,2:0:0:0:
352,88,20995,1,2,2:0:0:0:
216,36,21182,6,0,P|156:60|132:104,1,112.499996566773,0|4,0:0|1:0,0:0:0:0:
184,304,21557,2,0,P|252:296|284:256,1,112.499996566773,0|8,0:0|1:0,0:0:0:0:
312,128,21932,1,0,0:0:0:0:
232,24,22120,2,0,L|80:48,2,112.499996566773,0|0|8,0:0|0:0|1:0,0:0:0:0:
364,140,22682,1,2,2:0:0:0:
364,140,22776,1,2,2:0:0:0:
364,140,22870,1,2,2:0:0:0:
376,244,23057,1,2,2:0:0:0:
372,240,23151,1,2,2:0:0:0:
376,244,23245,1,2,2:0:0:0:
396,328,23432,6,0,L|340:328,1,56.2499982833863
312,320,23620,1,2,2:0:0:0:
284,296,23713,1,0,0:0:0:0:
264,260,23807,1,0,0:0:0:0:
252,224,23901,1,0,0:0:0:0:
252,184,23995,1,2,2:0:0:0:
264,148,24088,1,0,0:0:0:0:
280,120,24182,1,2,2:0:0:0:
300,88,24276,1,2,2:0:0:0:
320,56,24370,6,0,L|192:52,1,112.499996566773,2|0,2:0|0:0,0:0:0:0:
104,212,24745,2,0,L|216:160,1,112.499996566773,8|0,1:0|0:0,0:0:0:0:
216,308,25120,1,0,0:0:0:0:
44,312,25307,1,0,0:0:0:0:
128,224,25495,2,0,L|176:104,1,112.499996566773,8|0,1:0|0:0,0:0:0:0:
256,28,25870,1,0,0:0:0:0:
256,336,26057,1,0,0:0:0:0:
256,112,26245,1,8,1:0:0:0:
260,260,26432,1,0,0:0:0:0:
260,188,26620,2,0,L|104:188,2,112.499996566773,0|0|8,0:0|0:0|1:0,0:0:0:0:
368,296,27182,5,2,2:0:0:0:
368,296,27276,1,2,2:0:0:0:
368,296,27370,1,2,2:0:0:0:
444,200,27557,2,0,L|324:176,1,112.499996566773,0|8,0:0|1:0,0:0:0:0:
176,316,27932,2,0,L|288:288,1,112.499996566773
376,168,28307,1,0,0:0:0:0:
364,48,28495,2,0,L|240:92,1,112.499996566773,8|2,1:0|2:0,0:0:0:0:
257,85,28776,1,2,2:0:0:0:
257,85,28870,1,2,2:0:0:0:
64,96,29057,1,2,2:0:0:0:
64,96,29151,1,2,2:0:0:0:
64,96,29245,1,2,2:0:0:0:
64,200,29432,5,0,0:0:0:0:
100,260,29526,1,0,0:0:0:0:
160,296,29620,1,2,2:0:0:0:
228,312,29713,1,0,0:0:0:0:
296,296,29807,1,0,0:0:0:0:
352,256,29901,1,0,0:0:0:0:
388,196,29995,2,2,L|452:196,1,56.2499982833863,2|2,2:0|2:0,2:0:0:0:
360,128,30182,2,2,L|284:128,1,56.2499982833863,2|2,2:0|2:0,2:0:0:0:
264,144,30370,2,0,L|168:200,1,93.7500035762788,4|0,1:0|0:0,0:0:0:0:
80,164,30745,1,8,1:0:0:0:
120,56,30932,5,0,0:0:0:0:
256,56,31120,2,0,L|368:96,1,93.7500035762788
200,168,31495,2,0,P|140:184|96:156,1,93.7500035762788,8|2,1:0|2:0,0:0:0:0:
88,192,31776,1,2,2:0:0:0:
56,216,31870,2,0,P|72:272|108:300,1,93.7500035762788,2|0,2:0|0:0,0:0:0:0:
88,104,32245,2,0,P|140:68|180:60,1,93.7500035762788,8|0,1:0|0:0,0:0:0:0:
168,60,32620,1,0,0:0:0:0:
256,304,32807,1,0,0:0:0:0:
352,64,32995,1,8,1:0:0:0:
256,304,33182,1,2,2:0:0:0:
256,304,33276,1,2,2:0:0:0:
256,304,33370,2,0,L|120:292,1,93.7500035762788,2|0,2:0|0:0,0:0:0:0:
336,216,33745,6,0,L|452:260,1,93.7500035762788,8|0,1:0|0:0,0:0:0:0:
432,144,34120,1,0,0:0:0:0:
436,36,34307,1,0,0:0:0:0:
332,92,34495,2,0,P|296:128|292:172,1,93.7500035762788,8|0,1:0|0:0,0:0:0:0:
312,304,34870,1,0,0:0:0:0:
312,304,35057,1,0,0:0:0:0:
160,300,35245,1,8,1:0:0:0:
160,300,35432,1,0,0:0:0:0:
112,176,35620,6,0,L|172:160,1,46.8750017881394,2|0,2:0|0:0,0:0:0:0:
140,120,35807,2,0,L|204:100,1,46.8750017881394
184,60,35995,2,0,L|244:48,1,46.8750017881394,2|0,2:0|0:0,0:0:0:0:
228,12,36182,2,2,L|288:-4,1,46.8750017881394,2|2,2:0|2:0,2:0:0:0:
308,16,36370,2,0,P|352:52|376:112,1,112.499996566773,4|0,1:0|0:0,0:0:0:0:
356,284,36745,2,0,P|296:248|280:176,1,112.499996566773,8|0,1:0|0:0,0:0:0:0:
176,248,37120,1,0,0:0:0:0:
72,324,37307,1,0,0:0:0:0:
48,176,37495,2,0,L|168:176,1,112.499996566773,8|0,1:0|0:0,0:0:0:0:
164,40,37870,6,0,L|272:84,1,112.499996566773
344,232,38245,2,0,L|232:188,1,112.499996566773,8|0,1:0|0:0,0:0:0:0:
128,232,38620,1,2,2:0:0:0:
144,272,38713,1,0,0:0:0:0:
180,296,38807,1,0,0:0:0:0:
224,308,38901,1,0,0:0:0:0:
268,308,38995,2,0,L|268:248,1,56.2499982833863,2|0,2:0|0:0,0:0:0:0:
316,248,39182,2,2,L|316:192,1,56.2499982833863,2|2,2:0|2:0,2:0:0:0:
360,180,39370,2,0,P|432:128|436:72,1,112.499996566773,4|0,1:0|0:0,0:0:0:0:
256,56,39745,1,8,1:0:0:0:
56,108,39932,2,0,P|88:160|148:180,1,112.499996566773
100,264,40307,5,0,0:0:0:0:
188,328,40495,1,8,1:0:0:0:
288,316,40682,1,0,0:0:0:0:
208,228,40870,2,0,L|304:160,1,112.499996566773
296,16,41245,2,0,L|192:84,1,112.499996566773,8|0,1:0|0:0,0:0:0:0:
80,136,41620,2,0,L|144:136,1,56.2499982833863,2|0,2:0|0:0,0:0:0:0:
120,184,41807,2,0,L|204:184,1,56.2499982833863
164,232,41995,2,0,L|244:232,1,56.2499982833863,2|0,2:0|0:0,0:0:0:0:
196,280,42182,2,2,L|264:280,1,56.2499982833863,2|2,2:0|2:0,2:0:0:0:
288,312,42370,2,0,P|344:304|392:264,1,112.499996566773,2|0,2:0|0:0,0:0:0:0:
396,88,42745,6,0,P|328:88|288:136,1,112.499996566773,8|0,1:0|0:0,0:0:0:0:
192,52,43120,1,0,0:0:0:0:
112,152,43307,2,0,L|112:288,1,112.499996566773,0|8,0:0|1:0,0:0:0:0:
248,336,43682,2,0,L|248:216,1,112.499996566773
348,192,44057,1,0,0:0:0:0:
440,88,44245,2,0,P|376:72|320:80,1,112.499996566773,8|0,1:0|0:0,0:0:0:0:
156,168,44620,2,0,P|216:200|268:200,1,112.499996566773
259,201,44995,1,8,1:0:0:0:
259,201,45182,1,0,0:0:0:0:
424,212,45370,6,0,P|408:272|284:312,1,174.999994659424,4|8,1:0|1:0,0:0:0:0:
96,320,45932,1,0,0:0:0:0:
68,184,46120,2,0,P|72:128|184:52,1,174.999994659424,0|8,0:0|1:0,0:0:0:0:
256,52,46682,1,0,0:0:0:0:
256,144,46870,2,0,L|256:260,1,87.499997329712
256,319,47245,2,0,L|256:227,1,87.499997329712,8|0,1:0|0:0,0:0:0:0:
156,304,47620,2,0,P|88:296|64:196,1,174.999994659424,0|8,0:0|1:0,0:0:0:0:
120,64,48182,1,2,2:0:0:0:
160,88,48276,1,2,2:0:0:0:
176,128,48370,2,0,P|212:180|256:192,1,87.499997329712,4|0,1:0|0:0,0:0:0:0:
240,304,48745,6,0,P|284:288|312:248,1,87.499997329712,8|2,1:0|2:0,0:0:0:0:
360,244,49026,1,2,2:0:0:0:
404,256,49120,2,0,P|436:296|480:312,1,87.499997329712,2|0,2:0|0:0,0:0:0:0:
464,160,49495,2,0,P|404:140|372:112,1,87.499997329712,8|2,1:0|2:0,0:0:0:0:
352,108,49776,1,2,2:0:0:0:
304,112,49870,2,0,P|276:160|236:180,1,87.499997329712,2|0,2:0|0:0,0:0:0:0:
220,200,50151,1,0,0:0:0:0:
180,200,50245,2,0,L|144:168,1,43.749998664856,2|0,2:0|0:0,0:0:0:0:
136,136,50432,1,0,0:0:0:0:
152,96,50526,1,0,0:0:0:0:
176,68,50620,1,2,2:0:0:0:
216,52,50713,5,2,2:0:0:0:
256,56,50807,1,2,2:0:0:0:
288,72,50901,1,2,2:0:0:0:
316,104,50995,2,2,L|316:176,1,43.749998664856,2|2,2:0|2:0,2:0:0:0:
360,164,51182,2,2,L|360:244,1,43.749998664856,2|2,2:0|2:0,2:0:0:0:
380,248,51370,2,0,P|320:292|184:248,1,224.999993133545,4|8,1:0|1:0,0:0:0:0:
32,188,51932,1,0,0:0:0:0:
36,52,52120,1,0,0:0:0:0:
164,48,52307,1,0,0:0:0:0:
168,172,52495,2,8,L|328:172,1,112.499996566773,8|8,1:0|1:0,1:0:0:0:
404,92,52870,6,0,P|464:140|408:276,1,224.999993133545,0|8,0:0|1:0,0:0:0:0:
260,308,53432,1,0,0:0:0:0:
256,184,53620,2,0,L|140:152,1,112.499996566773
272,88,53995,2,0,L|392:124,1,112.499996566773,8|0,1:0|0:0,0:0:0:0:
364,232,54370,2,0,P|288:292|196:212,1,224.999993133545,0|8,0:0|1:0,0:0:0:0:
284,64,55120,2,0,P|352:44|436:164,1,224.999993133545,0|8,0:0|1:0,0:0:0:0:
336,168,55682,1,0,0:0:0:0:
340,172,55870,2,0,L|340:296,1,112.499996566773
208,152,56245,2,0,L|208:32,1,112.499996566773,8|0,1:0|0:0,0:0:0:0:
84,48,56620,2,0,L|84:176,1,112.499996566773
48,260,56995,2,0,P|96:288|148:236,1,112.499996566773,8|0,1:0|0:0,0:0:0:0:
232,192,57370,5,0,0:0:0:0:
256,160,57557,1,0,0:0:0:0:
280,192,57745,1,2,2:0:0:0:
256,224,57932,1,0,0:0:0:0:
192,196,58120,1,0,0:0:0:0:
256,124,58307,1,0,0:0:0:0:
316,192,58495,1,2,2:0:0:0:
256,260,58682,1,0,0:0:0:0:
160,200,58870,1,0,0:0:0:0:
256,92,59057,1,0,0:0:0:0:
352,196,59245,5,2,2:0:0:0:
256,296,59432,1,0,0:0:0:0:
128,200,59620,1,0,0:0:0:0:
256,60,59807,1,0,0:0:0:0:
384,196,59995,1,2,2:0:0:0:
256,328,60182,1,2,2:0:0:0:
212,324,60276,1,2,2:0:0:0:
184,296,60370,2,0,P|172:224|192:176,1,112.499996566773,4|0,1:0|0:0,0:0:0:0:
280,52,60745,2,0,P|292:128|264:176,1,112.499996566773,8|0,1:0|0:0,0:0:0:0:
304,192,61026,1,0,0:0:0:0:
328,232,61120,6,0,P|392:268|440:256,1,112.499996566773
352,104,61495,2,0,P|272:92|232:124,1,112.499996566773,8|0,1:0|0:0,0:0:0:0:
144,68,61870,2,2,L|84:104,1,56.2499982833863,2|2,2:0|2:0,2:0:0:0:
88,136,62057,2,0,P|112:216|132:244,1,112.499996566773,2|0,2:0|0:0,0:0:0:0:
168,268,62338,2,0,L|236:280,1,56.2499982833863
256,244,62526,2,0,L|320:252,2,56.2499982833863,0|2|2,0:0|2:0|2:0,0:0:0:0:
260,196,62807,2,2,L|372:112,1,112.499996566773,2|2,2:0|2:0,2:0:0:0:
288,44,63182,1,2,2:0:0:0:
288,44,63276,1,2,2:0:0:0:
288,44,63370,6,0,P|208:72|168:136,1,137.500004196167,4|0,1:0|0:0,0:0:0:0:
336,168,63745,2,0,P|400:132|424:64,1,137.500004196167,8|2,1:0|2:0,0:0:0:0:
404,48,64026,1,2,2:0:0:0:
368,40,64120,2,0,L|220:40,1,137.500004196167,2|0,2:0|0:0,0:0:0:0:
230,40,64495,1,8,1:0:0:0:
132,128,64682,1,2,2:0:0:0:
132,128,64776,1,2,2:0:0:0:
104,176,64870,2,0,P|136:248|192:276,1,137.500004196167
352,68,65245,2,0,P|268:116|248:176,1,137.500004196167,8|0,1:0|0:0,0:0:0:0:
372,352,65620,2,0,P|348:272|284:252,1,137.500004196167
256,56,65995,5,8,1:0:0:0:
140,268,66182,1,2,2:0:0:0:
172,296,66276,1,2,2:0:0:0:
208,316,66370,2,0,P|280:320|280:248,1,137.500004196167,4|0,1:0|0:0,0:0:0:0:
392,88,66745,2,0,P|316:88|320:144,1,137.500004196167,8|0,1:0|0:0,0:0:0:0:
164,72,67120,2,0,L|56:168,1,137.500004196167,0|2,0:0|2:0,0:0:0:0:
32,232,67401,1,2,2:0:0:0:
32,232,67495,2,0,P|88:272|132:220,1,137.500004196167,8|2,1:0|2:0,0:0:0:0:
184,164,67776,1,2,2:0:0:0:
184,164,67870,2,0,L|336:160,1,137.500004196167,2|0,2:0|0:0,0:0:0:0:
272,304,68245,6,0,L|428:304,1,137.500004196167,8|0,1:0|0:0,0:0:0:0:
240,176,68620,1,2,2:0:0:0:
240,176,68713,1,2,2:0:0:0:
240,176,68807,1,2,2:0:0:0:
448,120,68995,1,2,2:0:0:0:
448,120,69089,1,2,2:0:0:0:
448,120,69183,1,2,2:0:0:0:
292,48,69370,2,0,P|208:60|176:120,1,137.500004196167,4|0,1:0|0:0,0:0:0:0:
324,280,69745,2,0,P|416:264|424:208,1,137.500004196167,8|0,1:0|0:0,0:0:0:0:
256,192,70120,1,0,0:0:0:0:
136,316,70307,5,0,0:0:0:0:
44,192,70495,1,8,1:0:0:0:
148,84,70682,2,0,L|332:84,1,137.500004196167
172,228,71057,2,0,P|144:300|212:344,1,137.500004196167,0|8,0:0|1:0,0:0:0:0:
179,339,71432,1,0,0:0:0:0:
312,316,71620,1,2,2:0:0:0:
312,316,71713,1,2,2:0:0:0:
312,316,71807,1,2,2:0:0:0:
308,112,71995,1,2,2:0:0:0:
308,112,72088,1,2,2:0:0:0:
308,112,72182,2,2,L|160:112,1,137.500004196167,2|2,2:0|2:0,2:0:0:0:
76,208,73120,5,2,2:0:0:0:
112,264,73213,1,0,0:0:0:0:
168,300,73307,1,0,0:0:0:0:
232,320,73401,1,0,0:0:0:0:
296,312,73495,1,2,2:0:0:0:
360,292,73588,1,0,0:0:0:0:
416,260,73682,1,2,2:0:0:0:
448,204,73776,1,2,2:0:0:0:
448,160,73870,2,0,L|352:68,1,112.499996566773,4|0,1:0|0:0,0:0:0:0:
168,192,74245,2,0,L|328:192,1,112.499996566773,8|0,1:0|0:0,0:0:0:0:
372,280,74620,5,0,0:0:0:0:
204,328,74807,1,0,0:0:0:0:
64,244,74995,1,8,1:0:0:0:
72,104,75182,1,2,2:0:0:0:
112,88,75276,1,2,2:0:0:0:
156,92,75370,2,0,L|292:92,1,112.499996566773,0|2,0:0|2:0,0:0:0:0:
312,64,75651,1,2,2:0:0:0:
352,92,75745,2,0,L|472:92,1,112.499996566773,8|0,1:0|0:0,0:0:0:0:
444,196,76120,1,0,0:0:0:0:
256,336,76307,1,0,0:0:0:0:
76,188,76495,1,8,1:0:0:0:
256,40,76682,1,2,2:0:0:0:
256,84,76776,5,2,2:0:0:0:
256,128,76870,2,0,L|256:248,1,112.499996566773
120,40,77245,2,0,L|120:180,1,112.499996566773,8|0,2:0|0:0,0:0:0:0:
184,336,77620,2,0,L|184:216,2,112.499996566773,0|0|8,0:0|0:0|1:0,0:0:0:0:
340,272,78182,1,2,2:0:0:0:
392,224,78276,1,2,2:0:0:0:
432,168,78370,2,0,L|432:40,1,112.499996566773,0|2,0:0|2:0,0:0:0:0:
328,64,78651,1,2,2:0:0:0:
316,80,78745,2,0,P|296:148|304:196,1,112.499996566773,8|2,1:0|2:0,0:0:0:0:
256,288,79026,1,2,2:0:0:0:
220,284,79120,6,0,P|196:208|216:152,1,112.499996566773,0|2,0:0|2:0,0:0:0:0:
192,144,79401,1,2,2:0:0:0:
156,116,79495,1,8,1:0:0:0:
108,132,79588,1,0,0:0:0:0:
84,168,79682,1,2,2:0:0:0:
80,208,79776,1,2,2:0:0:0:
100,248,79870,2,0,L|176:344,1,112.499996566773,4|0,1:0|0:0,0:0:0:0:
212,148,80245,2,0,L|136:48,1,112.499996566773,8|0,1:0|0:0,0:0:0:0:
388,60,80620,2,0,L|324:168,1,112.499996566773,0|2,0:0|2:0,0:0:0:0:
292,192,80901,1,2,2:0:0:0:
336,232,80995,6,0,L|336:352,1,112.499996566773,8|0,1:0|0:0,0:0:0:0:
156,188,81370,2,0,L|156:68,1,112.499996566773,0|2,0:0|2:0,0:0:0:0:
116,56,81651,1,2,2:0:0:0:
72,76,81745,2,0,L|72:208,1,112.499996566773,8|0,1:0|0:0,0:0:0:0:
76,328,82120,1,0,0:0:0:0:
212,344,82307,1,0,0:0:0:0:
248,240,82495,2,0,P|312:232|372:264,1,112.499996566773,8|2,1:0|2:0,0:0:0:0:
400,228,82776,1,2,2:0:0:0:
432,192,82870,2,0,P|424:120|452:64,1,112.499996566773
256,48,83245,1,8,1:0:0:0:
256,192,83432,5,0,0:0:0:0:
256,304,83620,2,0,L|256:188,1,112.499996566773
256,192,83995,1,8,1:0:0:0:
256,192,84182,1,0,0:0:0:0:
452,76,84370,2,0,P|400:52|344:56,1,112.499996566773
148,56,84745,1,8,1:0:0:0:
72,112,84932,2,0,P|72:204|128:232,1,112.499996566773,0|8,0:0|1:0,0:0:0:0:
81,213,85307,1,0,0:0:0:0:
180,160,85495,2,8,L|304:160,1,112.499996566773,0|8,0:0|1:0,1:0:0:0:
256,192,85870,12,4,87745,1:0:0:0:
