osu file format v14

[General]
AudioFilename: audio.mp3
AudioLeadIn: 0
PreviewTime: 288788
Countdown: 0
SampleSet: Normal
StackLeniency: 0.8
Mode: 0
LetterboxInBreaks: 0
WidescreenStoryboard: 1

[Editor]
Bookmarks: 2231,3769,7688,8231,11813,19519,24938,32231,67348,84786,139348,166911,318973,331144,333769
DistanceSpacing: 0.8
BeatDivisor: 8
GridSize: 16
TimelineZoom: 1.8

[Metadata]
Title:Shinzou wo Sasageyo!
TitleUnicode:心臓を捧げよ!
Artist:Linked Horizon
ArtistUnicode:Linked Horizon
Creator:Anri17
Version:Give your Heart!
Source:進撃の巨人
Tags:Shingeki no Kyojin season 2 Attack on Titan AOT Eren Mikasa Armin Give your heard dedicate long full version ackerman survey corps opening theme song sound opening OP jaeger arlet hearts
BeatmapID:1346248
BeatmapSetID:634484

[Difficulty]
HPDrainRate:5
CircleSize:4.2
OverallDifficulty:8
ApproachRate:9.3
SliderMultiplier:2
SliderTickRate:1

[Events]
//Background and Video events
0,0,"BG.jpg",0,0
//Break Periods
2,287113,288234
//Storyboard Layer 0 (Background)
//Storyboard Layer 1 (Fail)
//Storyboard Layer 2 (Pass)
//Storyboard Layer 3 (Foreground)
//Storyboard Sound Samples

[TimingPoints]
2288,375,4,1,0,70,1,0
2288,-125,4,1,0,70,0,0
5288,-100,4,1,0,70,0,0
53288,-133.333333333333,4,1,0,70,0,0
59288,-181.818181818182,4,1,0,70,0,0
61538,-133.333333333333,4,1,0,70,0,0
62288,-100,4,1,0,70,0,0
65288,-100,4,1,0,70,0,1
74288,-200,4,1,0,70,0,0
75225,-100,4,1,0,70,0,0
81788,-100,4,1,0,70,0,1
90788,-100,4,1,0,70,0,0
111600,-133.333333333333,4,1,0,70,0,0
117788,-181.818181818181,4,1,0,70,0,0
120038,-133.333333333333,4,1,0,70,0,0
120788,-100,4,1,0,70,0,0
123788,-100,4,1,0,70,0,1
132788,-200,4,1,0,70,0,0
133725,-100,4,1,0,70,0,0
140288,-100,4,1,0,70,0,1
149288,-100,4,1,0,70,0,0
186600,-200,4,1,0,70,0,0
186881,-200,4,1,0,30,0,0
186975,-100,4,1,0,70,0,0
193866,-100,4,1,0,30,0,0
193959,-100,4,1,0,70,0,0
200288,-100,4,1,0,30,0,0
202538,-100,4,1,0,70,0,0
203288,-100,4,1,0,30,0,0
204788,-100,4,1,0,70,0,0
206288,-100,4,1,0,30,0,0
208538,-100,4,1,0,70,0,0
209288,-100,4,1,0,30,0,0
210788,-100,4,1,0,70,0,0
248288,-100,4,1,0,70,0,1
261788,-111.111111111111,4,1,0,70,0,0
262163,-125,4,1,0,70,0,0
262538,-142.857142857143,4,1,0,70,0,0
262913,-166.666666666667,4,1,0,70,0,0
263288,-100,4,1,0,70,0,0
288788,375,4,1,0,70,1,0
288788,-200,4,1,0,70,0,0
289444,-200,4,1,0,20,0,0
289538,-133.333333333333,4,1,0,70,0,0
307538,-200,4,1,0,70,0,0
310069,-133.333333333333,4,1,0,70,0,0
310538,-100,4,1,0,70,0,0
313538,-66.6666666666667,4,1,0,70,0,1
322538,-200,4,1,0,70,0,0
323475,-100,4,1,0,70,0,0
324038,-100,4,1,0,70,0,0
330038,-66.6666666666667,4,1,0,70,0,1
335850,-66.6666666666667,4,1,0,70,0,0

[Colours]
Combo1 : 13,176,255
Combo2 : 0,128,128
Combo3 : 0,255,0
Combo4 : 255,255,128
Combo5 : 255,0,0
Combo6 : 0,255,128

[HitObjects]
100,186,2288,5,2,2:1:0:0:
59,97,2475,2,0,P|140:95|193:151,3,160,2|2|2|0,2:1|2:1|2:1|2:1,2:1:0:0:
412,198,3788,5,2,2:1:0:0:
453,287,3975,2,0,P|372:289|319:233,3,160,2|2|2|0,2:1|2:1|2:1|2:1,2:1:0:0:
192,321,5288,37,4,0:1:0:0:
55,292,5475,2,0,P|70:240|109:210,1,100,2|0,0:1|0:1,0:1:0:0:
255,139,5756,1,0,0:1:0:0:
255,139,5850,1,2,0:1:0:0:
318,275,6038,1,2,0:1:0:0:
318,275,6131,1,2,0:1:0:0:
318,275,6225,2,0,L|214:265,1,100,2|0,0:1|0:1,0:1:0:0:
71,180,6506,5,0,0:0:0:0:
71,180,6600,2,0,P|87:133|128:100,1,100,2|0,0:1|0:1,0:1:0:0:
267,82,6881,1,0,0:0:0:0:
267,82,6975,2,0,P|288:126|281:179,1,100,2|0,0:1|0:1,0:1:0:0:
163,259,7256,1,0,0:0:0:0:
163,259,7350,2,0,P|201:289|251:295,1,100,2|0,0:1|0:1,0:1:0:0:
337,300,7631,5,0,0:1:0:0:
375,287,7725,1,0,0:0:0:0:
397,254,7819,1,0,0:0:0:0:
411,216,7913,2,0,L|404:144,1,50
314,81,8100,2,0,L|307:152,1,50
273,288,8288,5,4,2:1:0:0:
176,334,8475,2,0,P|136:304|114:259,1,100,0|0,2:1|2:1,2:1:0:0:
197,115,8850,2,0,L|205:214,1,100,0|0,2:1|2:1,2:1:0:0:
326,306,9225,2,0,L|334:206,1,100,0|0,2:1|2:1,2:1:0:0:
313,73,9600,21,2,2:1:0:0:
313,73,9694,1,2,2:1:0:0:
313,73,9788,1,2,2:1:0:0:
147,102,9975,2,0,P|109:132|92:178,1,100,0|0,2:1|2:1,2:1:0:0:
274,249,10350,2,0,P|228:233|197:194,1,100,0|0,2:1|2:1,2:1:0:0:
284,162,10725,2,0,P|332:154|369:121,1,100,0|0,2:1|2:1,2:1:0:0:
216,60,11100,21,2,2:1:0:0:
216,60,11194,1,2,2:1:0:0:
216,60,11288,1,2,2:1:0:0:
114,158,11475,2,0,L|124:281,1,100,0|0,2:1|2:1,2:1:0:0:
187,359,11850,2,0,P|221:322|234:274,1,100,0|0,2:1|2:1,2:1:0:0:
201,186,12225,2,0,P|200:137|232:100,1,100,0|0,2:1|2:1,2:1:0:0:
388,124,12600,21,2,2:1:0:0:
388,124,12694,1,2,2:1:0:0:
388,124,12788,1,2,2:1:0:0:
293,231,12975,2,0,L|301:330,1,100,0|0,2:1|2:1,2:1:0:0:
300,139,13350,2,0,P|251:146|216:180,1,100,0|0,2:1|2:1,2:1:0:0:
393,177,13725,2,0,L|384:77,1,100,0|0,2:1|2:1,2:1:0:0:
425,296,14100,21,2,2:1:0:0:
425,296,14194,1,2,2:1:0:0:
425,296,14288,1,6,2:1:0:0:
393,177,14475,2,0,L|293:185,1,100,0|0,2:1|2:1,2:1:0:0:
216,272,14850,1,0,0:0:0:0:
216,272,14944,1,0,0:0:0:0:
216,272,15038,1,0,0:0:0:0:
57,167,15225,2,0,L|156:175,1,100,0|0,2:1|2:1,2:1:0:0:
51,262,15600,21,2,2:1:0:0:
51,262,15694,1,2,2:1:0:0:
51,262,15788,1,2,2:1:0:0:
231,161,15975,2,0,L|261:257,1,100,0|0,2:1|2:1,2:1:0:0:
354,280,16350,1,0,0:0:0:0:
332,319,16444,1,0,0:0:0:0:
297,342,16538,1,0,0:0:0:0:
147,273,16725,1,0,0:0:0:0:
142,138,16913,2,0,P|184:95|227:86,1,100
372,91,17194,5,2,2:1:0:0:
372,91,17288,1,2,2:1:0:0:
320,190,17475,2,0,L|208:180,1,100,0|0,2:1|2:1,2:1:0:0:
129,124,17850,1,0,0:0:0:0:
94,147,17944,1,0,0:0:0:0:
72,186,18038,1,0,0:0:0:0:
152,288,18225,1,0,2:0:0:0:
300,236,18413,1,0,2:0:0:0:
229,99,18600,1,0,2:1:0:0:
197,73,18694,1,0,0:0:0:0:
156,72,18788,38,0,P|152:126|173:188,1,100,4|0,2:1|2:1,2:1:0:0:
255,252,19069,1,2,2:1:0:0:
255,252,19163,2,0,P|348:230|372:200,1,100,6|0,2:1|2:1,2:1:0:0:
392,104,19444,1,2,2:1:0:0:
392,104,19538,2,0,P|299:126|275:156,1,100,4|0,2:1|2:1,2:1:0:0:
224,202,19819,1,2,2:1:0:0:
224,202,19913,1,4,2:1:0:0:
372,251,20100,21,0,2:1:0:0:
372,251,20194,1,0,2:1:0:0:
372,251,20288,1,4,2:1:0:0:
306,326,20475,2,0,P|241:267|224:218,1,100,10|0,2:1|2:1,2:1:0:0:
328,100,20850,2,0,L|330:221,1,100,2|0,2:1|2:1,2:1:0:0:
184,225,21131,1,0,2:1:0:0:
184,225,21225,2,0,L|183:126,1,100,10|0,2:1|2:1,2:1:0:0:
177,27,21600,22,0,P|239:45|256:73,1,100,2|0,2:1|2:1,2:1:0:0:
242,261,21975,2,0,P|180:243|163:215,1,100,10|0,2:1|2:1,2:1:0:0:
291,154,22350,2,0,L|394:164,1,100,2|0,2:1|2:1,2:1:0:0:
467,285,22725,2,0,L|363:275,1,100,2|0,2:1|2:1,2:1:0:0:
477,178,23100,21,2,2:1:0:0:
477,178,23194,1,2,2:1:0:0:
477,178,23288,1,2,2:1:0:0:
359,195,23475,2,0,L|368:83,1,100,10|0,2:1|2:1,2:1:0:0:
427,266,23850,2,0,P|377:291|310:277,1,100,2|0,2:1|2:1,2:1:0:0:
226,232,24131,1,0,2:1:0:0:
226,232,24225,2,0,L|216:120,1,100,10|0,2:1|2:1,2:1:0:0:
179,40,24600,22,0,P|234:24|296:51,1,100,2|0,2:1|2:1,2:1:0:0:
313,130,24975,2,0,L|303:233,1,100,10|0,2:1|2:1,2:1:0:0:
165,305,25350,2,0,L|156:205,1,100,2|0,2:1|2:1,2:1:0:0:
228,85,25725,1,10,2:1:0:0:
288,179,25913,1,0,2:1:0:0:
222,264,26100,21,2,2:1:0:0:
222,264,26194,1,2,2:1:0:0:
222,264,26288,1,2,2:1:0:0:
216,132,26475,2,0,P|264:98|323:98,1,100,10|0,2:1|2:1,2:1:0:0:
409,194,26850,2,0,L|305:184,1,100,2|0,2:1|2:1,2:1:0:0:
410,104,27225,2,0,L|513:113,1,100,2|0,2:1|2:1,2:1:0:0:
439,261,27600,1,0,0:0:0:0:
439,261,27694,1,0,0:0:0:0:
439,261,27788,1,0,0:0:0:0:
264,206,27975,2,0,L|254:102,1,100,2|0,2:1|2:1,2:1:0:0:
132,118,28350,1,2,2:1:0:0:
132,118,28444,1,0,2:1:0:0:
132,118,28538,1,0,2:1:0:0:
84,230,28725,2,0,P|131:245|180:240,1,100,10|0,2:1|2:1,2:1:0:0:
355,199,29100,21,2,2:1:0:0:
355,199,29194,1,2,2:1:0:0:
355,199,29288,1,6,2:1:0:0:
471,154,29475,2,0,P|441:113|399:87,1,100,10|0,2:1|2:1,2:1:0:0:
254,127,29850,1,0,0:0:0:0:
254,127,29944,1,0,0:0:0:0:
254,127,30038,1,8,2:1:0:0:
272,261,30225,2,0,P|302:302|344:328,1,100,10|0,2:1|2:1,2:1:0:0:
409,203,30600,5,2,2:1:0:0:
409,203,30694,1,0,2:1:0:0:
409,203,30788,2,0,L|359:207,1,50,12|0,2:1|2:1,2:1:0:0:
240,307,30975,2,0,L|289:302,1,50,0|0,2:1|2:1,2:1:0:0:
274,172,31163,2,0,L|278:221,1,50,12|0,2:1|2:1,2:1:0:0:
378,341,31350,2,0,L|373:291,1,50,8|0,2:1|2:1,2:1:0:0:
339,130,31538,21,12,2:1:0:0:
306,105,31632,1,0,2:1:0:0:
266,98,31726,1,0,2:1:0:0:
228,111,31820,1,0,2:1:0:0:
203,141,31913,1,12,2:1:0:0:
215,294,32100,1,0,2:1:0:0:
280,184,32288,5,2,2:1:0:0:
217,74,32475,1,2,2:1:0:0:
215,294,32663,1,10,2:1:0:0:
152,184,32851,1,2,2:1:0:0:
88,293,33038,1,2,2:1:0:0:
280,184,33225,1,2,2:1:0:0:
342,295,33413,1,10,2:1:0:0:
152,184,33600,1,0,2:1:0:0:
239,120,33788,22,0,L|248:223,1,100,0|0,2:1|2:1,2:1:0:0:
209,338,34163,1,8,2:1:0:0:
211,194,34350,5,0,0:0:0:0:
211,194,34444,1,0,0:0:0:0:
211,194,34538,2,0,P|290:205|319:232,1,100,8|0,2:1|2:1,2:1:0:0:
358,303,34819,1,0,2:1:0:0:
358,303,34913,2,0,L|479:293,1,100,8|0,2:1|2:1,2:1:0:0:
429,211,35194,1,0,0:0:0:0:
429,211,35288,5,0,0:0:0:0:
322,115,35475,1,0,0:0:0:0:
341,201,35663,1,0,0:0:0:0:
458,70,35850,1,8,0:0:0:0:
494,151,36038,1,0,0:0:0:0:
374,43,36225,1,0,0:0:0:0:
341,201,36413,1,8,0:0:0:0:
403,132,36600,1,0,0:0:0:0:
270,123,36788,22,0,P|200:126|161:149,1,100,0|0,2:1|2:1,2:1:0:0:
81,188,37163,2,0,P|114:242|206:295,1,150,8|0,2:1|2:1,2:1:0:0:
226,301,37538,5,0,2:1:0:0:
368,300,37725,1,0,2:1:0:0:
441,249,37913,21,10,2:1:0:0:
468,213,38006,1,2,2:1:0:0:
480,169,38100,1,2,2:1:0:0:
479,123,38194,1,2,2:1:0:0:
459,82,38288,5,6,2:1:0:0:
343,28,38475,1,2,2:1:0:0:
289,144,38663,1,10,2:1:0:0:
405,198,38850,1,0,2:1:0:0:
376,111,39038,21,2,2:1:0:0:
321,226,39225,1,0,2:1:0:0:
489,153,39413,1,8,2:1:0:0:
449,273,39600,1,2,2:1:0:0:
240,176,39788,5,4,2:1:0:0:
376,111,39975,1,2,2:1:0:0:
251,25,40163,1,10,2:1:0:0:
342,213,40350,5,0,2:1:0:0:
342,213,40444,2,0,P|321:272|222:283,1,150,4|0,2:1|2:1,2:1:0:0:
118,336,40913,2,0,P|121:264|136:216,1,100,12|2,2:1|2:1,2:1:0:0:
149,97,41288,5,0,2:1:0:0:
247,15,41475,1,0,2:1:0:0:
231,195,41663,1,8,2:1:0:0:
329,113,41850,1,0,2:1:0:0:
237,104,42038,21,0,2:1:0:0:
140,186,42225,1,0,2:1:0:0:
222,283,42413,1,8,2:1:0:0:
319,201,42600,1,0,2:1:0:0:
365,58,42788,6,0,L|253:67,1,100,12|0,2:1|2:1,2:1:0:0:
157,226,43069,1,0,0:0:0:0:
157,226,43163,2,0,L|268:216,1,100,12|0,2:1|2:1,2:1:0:0:
435,132,43444,1,0,0:0:0:0:
435,132,43538,2,0,L|335:140,1,100,12|0,2:1|2:1,2:1:0:0:
246,168,43819,5,0,0:0:0:0:
209,190,43913,1,0,0:0:0:0:
169,194,44007,1,0,0:0:0:0:
130,182,44101,1,0,0:0:0:0:
101,154,44194,1,0,0:0:0:0:
81,119,44288,22,0,L|76:63,1,50,10|0,1:1|1:1,1:1:0:0:
193,135,44475,2,0,L|189:185,1,50,0|0,1:1|1:1,1:1:0:0:
67,280,44663,2,0,L|62:224,1,50,10|0,1:1|1:1,1:1:0:0:
176,293,44850,2,0,L|171:342,1,50,0|0,1:1|1:1,1:1:0:0:
195,375,45038,2,0,P|245:370|291:351,1,100,10|0,1:1|1:1,1:1:0:0:
326,333,45319,2,0,P|387:267|394:190,1,150,10|2,1:1|1:1,1:1:0:0:
329,60,45788,6,0,L|324:109,1,50,0|0,1:1|1:1,1:1:0:0:
438,172,45975,2,0,L|433:122,1,50,10|0,1:1|1:1,1:1:0:0:
312,218,46163,2,0,L|307:267,1,50,0|0,1:1|1:1,1:1:0:0:
421,330,46350,2,0,L|416:280,1,50,10|0,1:1|1:1,1:1:0:0:
357,163,46538,5,0,1:1:0:0:
357,163,46631,1,0,1:1:0:0:
357,163,46725,2,0,L|351:99,1,50
217,94,46913,1,0,0:0:0:0:
217,94,47006,1,0,0:0:0:0:
217,94,47100,2,0,L|222:157,1,50
302,283,47288,5,6,2:1:0:0:
472,240,47475,1,0,2:1:0:0:
374,218,47663,1,0,2:1:0:0:
401,319,47850,1,2,2:1:0:0:
451,145,48038,1,0,2:1:0:0:
347,120,48225,1,2,2:1:0:0:
277,195,48413,1,2,2:1:0:0:
374,218,48600,1,0,2:1:0:0:
401,319,48788,22,0,P|319:375|224:344,1,200,2|0,2:1|2:1,2:1:0:0:
302,283,49350,1,0,2:1:0:0:
183,224,49538,2,0,P|212:136|280:115,1,150,2|0,2:1|2:1,2:1:0:0:
296,155,49913,5,0,0:0:0:0:
294,184,50006,1,0,0:0:0:0:
292,214,50100,2,0,L|286:277,1,50,0|0,2:1|2:1,2:1:0:0:
221,343,50288,2,0,P|172:343|132:311,1,100,12|0,1:1|2:1,2:1:0:0:
182,175,50569,1,0,0:0:0:0:
182,175,50663,2,0,L|186:125,1,50
354,197,50850,5,0,2:1:0:0:
353,198,50944,1,0,2:1:0:0:
354,197,51038,2,0,P|341:245|310:284,1,100,8|0,1:1|2:1,2:1:0:0:
233,239,51319,1,0,0:0:0:0:
233,239,51413,2,0,L|183:243,1,50
114,326,51600,2,0,L|64:321,1,50
77,198,51788,21,8,1:1:0:0:
77,198,51881,1,0,1:1:0:0:
77,198,51975,2,0,L|83:126,1,50,0|0,1:1|1:1,1:1:0:0:
234,201,52163,2,0,L|188:222,1,50,0|0,1:1|1:1,1:1:0:0:
160,61,52350,2,0,L|200:89,1,50,0|0,1:1|1:1,1:1:0:0:
384,175,52538,21,8,1:1:0:0:
384,175,52631,1,0,1:1:0:0:
384,175,52725,2,0,L|378:238,1,50,0|0,1:1|1:1,1:1:0:0:
199,282,52913,1,8,0:0:0:0:
64,128,53100,5,8,1:1:0:0:
64,128,53288,2,0,P|127:92|199:110,1,150.000005722046,6|0,2:1|2:1,2:1:0:0:
151,318,53850,1,0,2:1:0:0:
151,318,54038,2,0,L|137:158,1,150.000005722046,10|0,2:1|2:1,2:1:0:0:
448,128,54600,5,8,1:1:0:0:
448,128,54788,2,0,P|385:92|313:110,1,150.000005722046,6|0,2:1|2:1,2:1:0:0:
361,318,55350,1,0,2:1:0:0:
361,318,55538,2,0,L|374:158,1,150.000005722046,10|0,2:1|2:1,2:1:0:0:
466,94,56100,21,0,2:1:0:0:
466,94,56194,1,0,2:1:0:0:
466,94,56288,2,0,P|507:160|461:244,1,150.000005722046,10|0,2:1|2:1,2:1:0:0:
386,295,56850,1,0,2:1:0:0:
192,232,57038,2,0,P|206:197|234:173,2,75.0000028610231,10|0|0,2:1|2:1|2:1,2:1:0:0:
283,306,57600,21,0,2:1:0:0:
440,240,57788,2,0,P|468:215|481:181,2,75.0000028610231,10|0|0,2:1|2:1|2:1,2:1:0:0:
374,180,58350,1,0,2:1:0:0:
422,299,58538,2,0,L|334:291,1,75.0000028610231,10|0,1:1|1:1,1:1:0:0:
289,210,58819,1,0,1:1:0:0:
289,210,58913,2,0,L|214:216,1,75.0000028610231,10|0,1:1|1:1,1:1:0:0:
64,304,59288,6,0,L|175:314,1,110.000003356934,12|0,2:1|2:1,2:1:0:0:
432,240,59850,1,0,2:1:0:0:
432,240,60038,2,0,L|322:229,1,110.000003356934,8|0,2:1|2:1,2:1:0:0:
128,192,60600,1,0,0:0:0:0:
128,192,60788,2,0,P|151:121|195:102,1,110.000003356934
293,135,61350,1,0,2:1:0:0:
235,228,61538,2,0,L|229:280,1,37.5000014305115,2|0,2:1|2:1,2:1:0:0:
119,309,61725,2,0,L|122:257,1,37.5000014305115,2|0,2:1|2:1,2:1:0:0:
69,131,61913,5,8,2:1:0:0:
75,158,62006,1,0,2:1:0:0:
80,183,62100,1,8,2:1:0:0:
89,216,62194,1,0,2:1:0:0:
96,243,62288,2,0,P|145:284|237:288,1,150,12|0,1:1|2:1,2:1:0:0:
252,279,62663,1,0,0:0:0:0:
294,152,62850,6,0,L|230:146,1,50
113,65,63038,1,0,0:0:0:0:
257,27,63225,6,0,L|251:91,1,50,0|0,2:0|2:0,2:0:0:0:
170,208,63413,1,0,2:0:0:0:
352,32,63600,6,0,L|357:82,1,50,8|2,1:1|2:1,2:1:0:0:
424,200,63788,21,8,2:1:0:0:
403,221,63881,1,0,2:1:0:0:
382,242,63975,1,0,2:1:0:0:
361,263,64069,1,0,2:1:0:0:
333,285,64163,2,0,L|261:291,1,50,8|0,2:1|2:1,2:1:0:0:
219,341,64350,2,0,L|169:336,1,50,8|0,2:1|2:1,2:1:0:0:
96,236,64538,21,10,2:1:0:0:
78,206,64631,1,10,2:1:0:0:
75,171,64725,1,10,2:1:0:0:
85,137,64819,1,10,2:1:0:0:
109,107,64913,2,0,L|172:101,1,50
248,71,65100,21,12,1:1:0:0:
473,227,65288,6,0,L|417:222,1,50,12|0,0:1|0:1,0:1:0:0:
339,118,65475,2,0,L|394:122,1,50,12|0,0:1|0:1,0:1:0:0:
320,272,65663,6,0,L|324:216,1,50,12|0,0:1|0:1,0:1:0:0:
490,79,65850,2,0,L|485:134,1,50,12|0,0:1|0:1,0:1:0:0:
417,277,66038,5,8,0:1:0:0:
383,279,66131,1,0,0:1:0:0:
347,281,66225,2,0,L|280:288,1,50,2|0,0:1|0:1,0:1:0:0:
228,177,66413,5,8,0:1:0:0:
262,175,66506,1,0,0:1:0:0:
297,172,66600,2,0,L|364:165,1,50,2|0,0:1|0:1,0:1:0:0:
207,282,66788,6,0,L|157:277,1,50,12|0,0:1|0:1,0:1:0:0:
125,160,66975,2,0,L|175:165,1,50,12|0,0:1|0:1,0:1:0:0:
60,285,67163,2,0,L|64:235,1,50,12|0,0:1|0:1,0:1:0:0:
109,76,67350,2,0,L|159:71,1,50,12|0,0:1|0:1,0:1:0:0:
288,79,67538,5,8,0:1:0:0:
322,82,67631,1,0,0:1:0:0:
357,86,67725,2,0,L|425:91,1,50,2|0,0:1|0:1,0:1:0:0:
463,200,67913,1,8,0:1:0:0:
430,196,68006,1,0,0:1:0:0:
395,193,68100,2,0,L|326:187,1,50,2|0,0:1|0:1,0:1:0:0:
368,288,68288,6,0,L|363:337,1,50,8|0,0:1|0:1,0:1:0:0:
256,192,68475,2,0,L|260:142,1,50,8|0,0:1|0:1,0:1:0:0:
268,340,68663,6,0,L|229:372,1,50,8|0,0:1|0:1,0:1:0:0:
256,192,68850,2,0,L|294:159,1,50,8|0,0:1|0:1,0:1:0:0:
160,304,69038,6,0,L|110:299,1,50,8|0,0:1|0:1,0:1:0:0:
256,192,69225,2,0,L|305:196,1,50,8|0,0:1|0:1,0:1:0:0:
109,204,69413,6,0,L|76:165,1,50,8|0,0:1|0:1,0:1:0:0:
256,192,69600,2,0,L|288:230,1,50,8|0,0:1|0:1,0:1:0:0:
143,96,69788,5,0,0:0:0:0:
143,96,69881,1,0,0:0:0:0:
143,96,69975,2,0,L|195:91,1,50,2|0,2:1|2:1,2:1:0:0:
328,182,70163,2,0,L|275:186,1,50,2|0,2:1|2:1,2:1:0:0:
323,66,70350,2,0,L|375:61,1,50,2|0,2:1|2:1,2:1:0:0:
449,176,70538,5,0,0:0:0:0:
449,176,70631,1,0,0:0:0:0:
449,175,70725,2,0,L|444:224,1,50,2|0,2:1|2:1,2:1:0:0:
235,217,70913,2,0,L|239:167,1,50,2|0,2:1|2:1,2:1:0:0:
332,290,71100,2,0,L|327:339,1,50,2|0,2:1|2:1,2:1:0:0:
135,319,71288,5,8,0:1:0:0:
135,319,71381,1,0,0:1:0:0:
135,319,71475,2,0,L|139:269,1,50,2|0,2:1|2:1,2:1:0:0:
292,144,71663,2,0,L|287:193,1,50,2|0,2:1|2:1,2:1:0:0:
136,125,71850,2,0,L|199:130,1,50,2|0,0:1|0:1,0:1:0:0:
265,299,72038,5,8,0:1:0:0:
265,299,72131,1,0,0:1:0:0:
265,299,72225,2,0,L|201:293,1,50,2|0,0:1|0:1,0:1:0:0:
209,119,72413,2,0,L|259:126,1,50,2|0,0:1|0:1,0:1:0:0:
327,219,72600,2,0,L|277:212,1,50,2|0,2:1|2:1,2:1:0:0:
176,208,72788,5,8,2:1:0:0:
176,208,72881,1,0,2:1:0:0:
176,208,72975,2,0,L|181:144,1,50,2|0,2:1|2:1,2:1:0:0:
407,166,73163,2,0,L|401:229,1,50,2|0,2:1|2:1,2:1:0:0:
296,104,73350,2,0,L|301:40,1,50,2|0,2:1|2:1,2:1:0:0:
384,300,73538,5,8,0:1:0:0:
363,338,73631,1,0,0:1:0:0:
322,358,73725,1,2,0:1:0:0:
278,348,73819,1,0,0:1:0:0:
244,313,73913,2,0,L|238:246,1,50,8|8,0:1|0:1,0:1:0:0:
318,195,74100,2,0,L|324:262,1,50,8|8,0:1|0:1,0:1:0:0:
237,127,74288,6,0,P|296:93|377:108,1,150,12|8,0:1|0:1,0:1:0:0:
413,226,75038,1,14,0:1:0:0:
232,294,75225,5,2,0:1:0:0:
196,292,75319,1,2,0:1:0:0:
160,291,75413,2,0,L|96:285,1,50,10|0,0:1|0:1,0:1:0:0:
215,145,75600,2,0,L|278:150,1,50,10|0,0:1|0:1,0:1:0:0:
141,202,75788,5,14,0:1:0:0:
49,141,75975,2,0,P|92:101|143:94,1,100,2|0,3:1|3:1,3:1:0:0:
330,287,76350,2,0,L|218:277,1,100,2|0,3:1|3:1,3:1:0:0:
214,152,76725,2,0,L|325:161,1,100,2|0,3:1|3:1,3:1:0:0:
479,268,77100,1,2,3:1:0:0:
348,333,77288,5,4,3:1:0:0:
479,268,77475,2,0,L|469:164,1,100,2|0,3:1|3:1,3:1:0:0:
233,207,77850,2,0,L|242:310,1,100,2|0,3:1|3:1,3:1:0:0:
369,288,78225,2,0,L|359:184,1,100,2|0,3:1|3:1,3:1:0:0:
215,78,78600,1,2,3:1:0:0:
360,188,78788,5,4,3:1:0:0:
281,315,78975,2,0,L|177:324,1,100,2|0,3:1|3:1,3:1:0:0:
101,151,79256,1,0,0:0:0:0:
101,151,79350,2,0,L|200:142,1,100,2|0,3:1|3:1,3:1:0:0:
290,220,79725,2,0,L|186:229,1,100,2|0,3:1|3:1,3:1:0:0:
71,52,80006,1,0,0:0:0:0:
71,52,80100,2,0,L|170:43,1,100,2|0,3:1|3:1,3:1:0:0:
324,61,80381,5,0,0:0:0:0:
324,61,80475,1,2,3:1:0:0:
409,190,80663,1,0,3:1:0:0:
409,190,80756,1,0,3:1:0:0:
409,190,80850,2,0,P|388:235|351:268,1,100,2|0,3:1|3:1,3:1:0:0:
148,243,81225,2,0,P|168:197|205:164,1,100,2|0,3:1|3:1,3:1:0:0:
317,107,81506,1,0,3:1:0:0:
317,107,81600,1,2,3:1:0:0:
115,107,81788,6,0,L|109:170,1,50,4|0,0:1|0:1,0:1:0:0:
300,299,81975,2,0,L|305:235,1,50,4|0,0:1|0:1,0:1:0:0:
120,286,82163,1,0,0:0:0:0:
120,286,82256,1,0,0:0:0:0:
119,285,82350,2,0,P|144:287|169:290,1,50,4|0,0:1|0:1,0:1:0:0:
317,107,82538,5,0,0:0:0:0:
317,107,82631,1,0,0:0:0:0:
318,108,82725,2,0,P|293:106|268:103,1,50,4|0,0:1|0:1,0:1:0:0:
78,172,82913,1,0,0:0:0:0:
78,172,83006,1,0,0:0:0:0:
77,171,83100,2,0,P|102:173|127:176,1,50,4|0,0:1|0:1,0:1:0:0:
259,197,83288,6,0,L|309:192,1,50,4|0,0:1|0:1,0:1:0:0:
463,294,83475,2,0,L|413:299,1,50,4|0,0:1|0:1,0:1:0:0:
428,138,83663,1,0,0:0:0:0:
428,138,83756,1,0,0:0:0:0:
427,137,83850,2,0,L|423:186,1,50,4|0,0:1|0:1,0:1:0:0:
207,267,84038,5,0,0:0:0:0:
207,267,84131,1,0,0:0:0:0:
208,269,84225,2,0,L|211:219,1,50,4|0,0:1|0:1,0:1:0:0:
331,110,84413,1,0,0:0:0:0:
331,110,84506,1,0,0:0:0:0:
330,110,84600,2,0,L|326:159,1,50,4|0,0:1|0:1,0:1:0:0:
266,256,84788,6,0,L|269:305,1,50,4|0,0:1|0:1,0:1:0:0:
430,186,84975,2,0,L|426:136,1,50,4|0,0:1|0:1,0:1:0:0:
288,82,85163,1,0,0:1:0:0:
249,86,85256,1,0,0:1:0:0:
209,89,85350,2,0,L|153:93,1,50,10|0,0:1|0:1,0:1:0:0:
222,266,85538,5,0,0:1:0:0:
261,262,85631,1,0,0:1:0:0:
301,259,85725,2,0,L|356:254,1,50,10|0,0:1|0:1,0:1:0:0:
336,170,85913,5,0,0:1:0:0:
297,174,86006,1,0,0:1:0:0:
257,177,86100,2,0,L|202:182,1,50,10|0,0:1|0:1,0:1:0:0:
280,339,86288,5,0,0:1:0:0:
319,335,86381,1,0,0:1:0:0:
359,332,86475,2,0,L|414:327,1,50,10|0,0:1|0:1,0:1:0:0:
403,188,86663,5,0,0:0:0:0:
403,188,86756,1,0,0:0:0:0:
403,188,86850,2,0,L|398:132,1,50,8|0,2:1|2:1,2:1:0:0:
245,237,87038,1,0,0:0:0:0:
245,237,87131,1,0,0:0:0:0:
245,237,87225,2,0,L|249:292,1,50,8|0,2:1|2:1,2:1:0:0:
323,216,87413,2,0,L|318:160,1,50,8|0,2:1|2:1,2:1:0:0:
125,171,87600,5,10,0:1:0:0:
129,211,87694,1,2,0:1:0:0:
132,250,87788,1,6,0:1:0:0:
294,331,87975,2,0,P|359:259|348:162,1,200,2|2,2:1|2:1,2:1:0:0:
280,72,88538,1,0,2:1:0:0:
174,87,88725,6,0,B|110:92,1,50,8|0,0:1|0:1,0:1:0:0:
240,184,88913,2,0,B|303:178,1,50,8|0,0:1|0:1,0:1:0:0:
130,190,89100,2,0,P|87:246|89:295,1,100,6|0,2:1|2:1,2:1:0:0:
328,226,89381,1,0,0:0:0:0:
328,226,89475,2,0,L|332:176,1,50,10|0,0:1|0:1,0:1:0:0:
248,112,89663,6,0,L|243:161,1,50,10|0,0:1|0:1,0:1:0:0:
326,317,89850,2,0,P|411:306|452:266,1,100,14|0,2:1|2:1,2:1:0:0:
397,130,90131,5,0,0:0:0:0:
397,130,90225,2,0,P|391:180|365:222,1,100,14|0,2:1|2:1,2:1:0:0:
331,233,90506,1,0,0:1:0:0:
296,238,90600,1,2,0:1:0:0:
261,233,90694,1,0,0:1:0:0:
226,226,90788,5,4,2:1:0:0:
209,73,90975,1,0,2:1:0:0:
285,151,91163,1,8,2:1:0:0:
333,63,91350,1,0,2:1:0:0:
150,151,91538,5,0,2:1:0:0:
209,73,91725,1,0,2:1:0:0:
80,228,91913,1,8,2:1:0:0:
72,82,92100,1,0,2:1:0:0:
141,312,92288,5,0,2:1:0:0:
141,312,92475,2,8,P|211:331|259:299,1,100,10|0,2:1|2:1,2:1:0:0:
382,229,92850,1,0,2:1:0:0:
382,229,92944,1,0,2:1:0:0:
382,229,93038,2,0,L|372:125,1,100,10|0,2:1|2:1,2:1:0:0:
254,62,93413,2,0,L|244:165,1,100,10|0,2:1|2:1,2:1:0:0:
162,258,93788,5,4,2:1:0:0:
70,149,93975,1,0,2:1:0:0:
210,123,94163,1,8,2:1:0:0:
71,240,94350,1,0,2:1:0:0:
129,79,94537,5,0,2:1:0:0:
240,209,94725,1,0,2:1:0:0:
111,320,94913,1,8,2:1:0:0:
0,191,95100,1,0,2:1:0:0:
107,171,95288,5,0,2:1:0:0:
226,328,95475,1,0,2:1:0:0:
256,170,95663,1,8,2:1:0:0:
354,300,95850,1,0,2:1:0:0:
354,300,95944,1,0,0:0:0:0:
354,300,96038,54,0,P|411:334|453:315,1,100,10|0,2:1|2:1,2:1:0:0:
418,145,96319,1,0,0:0:0:0:
418,145,96413,2,0,L|408:248,1,100,10|0,2:1|2:1,2:1:0:0:
272,320,96694,5,0,0:0:0:0:
272,320,96788,1,4,2:1:0:0:
144,272,96975,1,0,2:1:0:0:
249,185,97163,1,8,2:1:0:0:
185,355,97350,5,0,2:1:0:0:
156,180,97537,1,0,2:1:0:0:
322,241,97725,1,0,2:1:0:0:
90,281,97913,5,8,2:1:0:0:
268,134,98100,1,0,2:1:0:0:
306,361,98288,2,0,P|256:366|208:355,1,100,0|0,2:1|2:1,2:1:0:0:
275,200,98663,2,0,P|324:194|372:205,1,100,0|0,2:1|2:1,2:1:0:0:
393,234,98944,38,0,L|406:74,1,150,2|0,2:1|2:1,2:1:0:0:
258,43,99413,2,0,L|248:154,1,100,2|0,2:1|2:1,2:1:0:0:
320,272,99694,5,0,0:0:0:0:
320,272,99788,1,4,2:1:0:0:
449,188,99975,1,0,2:1:0:0:
312,119,100163,1,8,2:1:0:0:
419,282,100350,5,0,2:1:0:0:
408,98,100538,1,0,2:1:0:0:
254,198,100725,1,0,2:1:0:0:
487,186,100913,5,8,2:1:0:0:
290,85,101100,1,0,2:1:0:0:
302,307,101288,38,0,P|256:336|208:336,1,100,4|0,2:1|2:1,2:1:0:0:
130,252,101663,2,0,P|176:223|224:223,1,100,4|0,2:1|2:1,2:1:0:0:
354,232,102038,2,0,P|403:229|444:202,1,100,4|0,2:1|2:1,2:1:0:0:
360,117,102413,2,0,P|310:119|269:146,1,100,4|0,2:1|2:1,2:1:0:0:
167,298,102788,6,0,P|141:303|110:294,1,50,12|0,1:1|1:1,1:1:0:0:
117,130,102975,2,0,P|141:125|166:131,1,50,2|0,1:1|1:1,1:1:0:0:
58,239,103163,2,0,P|53:213|62:182,1,50,8|0,1:1|1:1,1:1:0:0:
225,189,103350,2,0,P|230:213|225:238,1,50,2|0,1:1|1:1,1:1:0:0:
139,214,103538,2,0,P|151:126|182:87,1,100,8|2,1:1|1:1,1:1:0:0:
207,45,103819,6,0,L|329:142,1,150,8|2,1:1|2:1,2:1:0:0:
461,212,104288,2,0,P|466:236|461:260,1,50,12|0,1:1|1:1,1:1:0:0:
293,259,104475,2,0,P|288:234|293:210,1,50,2|0,1:1|1:1,1:1:0:0:
401,319,104663,2,0,P|376:324|352:319,1,50,8|0,1:1|1:1,1:1:0:0:
353,152,104850,2,0,P|377:147|401:152,1,50,2|0,1:1|1:1,1:1:0:0:
380,237,105038,6,0,P|328:283|266:271,1,100,8|2,1:1|1:1,1:1:0:0:
164,137,105413,2,0,L|263:164,1,100,8|2,1:1|1:1,1:1:0:0:
474,167,105788,1,14,2:1:0:0:
376,196,105975,1,0,2:1:0:0:
347,97,106163,1,2,2:1:0:0:
445,68,106350,1,0,2:1:0:0:
436,218,106538,5,10,2:1:0:0:
385,44,106725,1,0,2:1:0:0:
496,105,106913,1,2,2:1:0:0:
323,157,107100,1,0,2:1:0:0:
221,61,107288,6,2,P|173:108|175:241,1,200,10|2,2:1|2:1,2:1:0:0:
302,289,107850,1,0,2:1:0:0:
302,289,107944,1,0,2:1:0:0:
302,289,108038,2,2,P|326:229|317:173,1,100,14|2,2:1|2:1,2:1:0:0:
200,138,108319,1,0,0:0:0:0:
200,138,108413,1,0,0:0:0:0:
126,281,108600,5,0,0:0:0:0:
126,281,108694,1,2,2:1:0:0:
126,281,108788,2,8,P|175:297|229:295,1,100,14|0,2:1|2:1,2:1:0:0:
362,237,109163,1,0,0:0:0:0:
269,101,109350,1,0,0:0:0:0:
269,101,109444,1,0,0:0:0:0:
269,101,109538,2,0,L|259:204,1,100
158,299,109913,5,8,2:1:0:0:
52,182,110100,1,0,2:1:0:0:
128,53,110288,2,0,L|191:58,1,50,12|0,1:1|1:1,1:1:0:0:
304,182,110475,2,0,L|240:176,1,50,12|0,1:1|1:1,1:1:0:0:
281,34,110663,2,0,L|275:97,1,50,12|0,1:1|1:1,1:1:0:0:
151,208,110850,2,0,L|156:144,1,50,12|0,1:1|1:1,1:1:0:0:
385,152,111038,5,12,1:1:0:0:
390,191,111132,1,0,1:1:0:0:
381,229,111226,1,0,1:1:0:0:
358,261,111320,1,0,1:1:0:0:
323,280,111413,1,12,1:1:0:0:
139,274,111600,5,0,1:1:0:0:
188,197,111788,2,0,P|219:236|227:270,1,75.0000028610231
87,341,112163,2,0,P|56:302|48:268,1,75.0000028610231
126,57,112538,2,0,L|112:206,1,150.000005722046,10|0,2:1|2:1,2:1:0:0:
373,274,113100,5,0,1:1:0:0:
324,196,113288,2,0,P|293:235|285:269,1,75.0000028610231
425,341,113663,2,0,P|456:302|464:268,1,75.0000028610231
386,57,114038,2,0,L|399:206,1,150.000005722046,10|0,2:1|2:1,2:1:0:0:
256,288,114600,5,0,1:1:0:0:
338,249,114788,2,0,P|343:286|334:323,1,75.0000028610231
172,316,115163,2,0,P|167:279|177:243,1,75.0000028610231
299,139,115538,2,0,P|335:133|372:143,2,75.0000028610231
199,192,116100,5,0,2:1:0:0:
211,301,116288,2,0,P|128:300|104:264,1,112.500004291535,10|0,2:1|2:1,2:1:0:0:
92,255,116663,1,8,2:1:0:0:
80,96,116850,1,2,2:1:0:0:
211,74,117038,5,10,1:1:0:0:
212,103,117131,1,2,1:1:0:0:
205,132,117225,1,10,1:1:0:0:
190,162,117319,1,2,1:1:0:0:
175,188,117413,1,10,1:1:0:0:
164,216,117506,1,0,0:0:0:0:
165,246,117600,5,8,0:0:0:0:
174,262,117694,1,0,0:0:0:0:
183,275,117788,2,0,P|266:257|300:231,1,110.000003356934,6|0,2:1|2:1,2:1:0:0:
376,176,118350,1,0,2:1:0:0:
376,176,118538,2,0,L|263:134,1,110.000003356934,2|0,2:1|2:1,2:1:0:0:
136,103,119100,5,0,2:1:0:0:
136,103,119288,2,0,P|82:149|79:204,1,110.000003356934,2|0,2:1|2:1,2:1:0:0:
141,267,119850,1,0,2:1:0:0:
316,219,120038,1,2,2:1:0:0:
224,160,120225,5,2,2:1:0:0:
219,182,120319,1,2,2:1:0:0:
212,203,120413,2,0,P|229:260|262:279,1,75.0000028610231,10|0,2:1|2:1,2:1:0:0:
381,263,120694,1,0,2:1:0:0:
381,263,120788,6,0,P|444:246|456:147,1,150,12|0,2:1|2:1,2:1:0:0:
463,139,121163,1,0,0:0:0:0:
303,67,121350,2,0,L|297:135,1,50,8|0,0:3|0:3,0:3:0:0:
301,285,121538,1,4,0:0:0:0:
406,181,121725,2,0,L|337:175,1,50,8|0,0:3|0:3,0:3:0:0:
200,184,121913,1,4,0:0:0:0:
79,48,122100,2,0,L|150:54,1,50,12|0,1:1|2:1,2:1:0:0:
273,79,122288,5,12,1:1:0:0:
311,87,122381,1,0,2:1:0:0:
346,106,122475,1,0,2:1:0:0:
377,131,122569,1,0,2:1:0:0:
398,164,122663,2,0,L|426:224,1,50,8|0,1:1|2:1,2:1:0:0:
461,265,122850,2,0,L|440:311,1,50,8|0,1:1|2:1,2:1:0:0:
349,345,123038,5,12,1:1:0:0:
310,329,123131,1,8,2:1:0:0:
272,314,123225,1,8,2:1:0:0:
234,298,123319,1,8,2:1:0:0:
196,283,123413,1,8,1:1:0:0:
160,192,123600,5,8,1:1:0:0:
269,158,123788,6,0,L|332:153,1,50,12|0,0:1|0:1,0:1:0:0:
437,116,123975,2,0,L|373:110,1,50,12|0,0:1|0:1,0:1:0:0:
195,84,124163,2,0,L|258:78,1,50,12|0,0:1|0:1,0:1:0:0:
371,35,124350,2,0,L|307:29,1,50,12|0,0:1|0:1,0:1:0:0:
88,56,124538,5,8,0:1:0:0:
88,56,124631,1,0,0:1:0:0:
88,56,124725,2,0,L|93:119,1,50,0|0,0:1|0:1,0:1:0:0:
143,186,124913,1,8,0:1:0:0:
143,186,125006,1,0,0:1:0:0:
143,186,125100,2,0,L|137:249,1,50,0|0,0:1|0:1,0:1:0:0:
91,295,125288,6,0,L|42:291,1,50,12|0,0:1|0:1,0:1:0:0:
159,252,125475,2,0,L|209:248,1,50,12|0,0:1|0:1,0:1:0:0:
157,376,125663,2,0,L|108:372,1,50,12|0,0:1|0:1,0:1:0:0:
234,327,125850,2,0,L|284:323,1,50,12|0,0:1|0:1,0:1:0:0:
362,331,126038,5,4,0:1:0:0:
362,331,126131,1,0,2:1:0:0:
362,331,126225,2,0,L|367:267,1,50,0|0,2:1|2:1,2:1:0:0:
447,211,126413,5,4,0:1:0:0:
447,211,126506,1,0,2:1:0:0:
447,211,126600,2,0,L|441:147,1,50,0|0,2:1|2:1,2:1:0:0:
368,96,126788,6,0,L|363:47,1,50,8|0,0:1|0:1,0:1:0:0:
256,192,126975,2,0,L|260:242,1,50,8|0,0:1|0:1,0:1:0:0:
268,44,127163,6,0,L|229:12,1,50,8|0,0:1|0:1,0:1:0:0:
256,192,127350,2,0,L|294:225,1,50,8|0,0:1|0:1,0:1:0:0:
160,80,127538,6,0,L|110:85,1,50,8|0,0:1|0:1,0:1:0:0:
256,192,127725,2,0,L|305:188,1,50,8|0,0:1|0:1,0:1:0:0:
109,180,127913,6,0,L|76:219,1,50,8|0,0:1|0:1,0:1:0:0:
256,192,128100,2,0,L|288:154,1,50,8|0,0:1|0:1,0:1:0:0:
170,266,128288,5,8,0:1:0:0:
197,302,128381,1,0,0:1:0:0:
224,331,128475,2,0,L|273:335,1,50,0|0,0:1|0:1,0:1:0:0:
357,248,128663,2,0,L|395:215,1,50,0|0,0:1|0:1,0:1:0:0:
379,110,128850,2,0,L|383:60,1,50,0|0,0:1|0:1,0:1:0:0:
251,110,129038,5,8,0:1:0:0:
215,137,129131,1,0,0:1:0:0:
186,164,129225,2,0,L|181:213,1,50,0|0,0:1|0:1,0:1:0:0:
234,333,129413,5,8,0:1:0:0:
270,306,129506,1,0,0:1:0:0:
299,279,129600,2,0,L|303:229,1,50,0|0,0:1|0:1,0:1:0:0:
81,225,129788,5,8,0:1:0:0:
81,225,129881,1,0,0:1:0:0:
81,225,129975,2,0,L|76:274,1,50,0|0,0:1|0:1,0:1:0:0:
246,216,130163,2,0,L|196:211,1,50,8|0,0:1|0:1,0:1:0:0:
158,328,130350,2,0,L|207:332,1,50,8|0,0:1|0:1,0:1:0:0:
431,159,130538,5,8,0:1:0:0:
431,159,130631,1,0,0:1:0:0:
431,159,130725,2,0,L|435:109,1,50,0|0,0:1|0:1,0:1:0:0:
354,56,130913,2,0,L|304:51,1,50,8|0,0:1|0:1,0:1:0:0:
266,168,131100,2,0,L|315:172,1,50,8|0,0:1|0:1,0:1:0:0:
442,291,131288,5,8,0:1:0:0:
442,291,131381,1,0,0:1:0:0:
442,291,131475,2,0,L|446:241,1,50,0|0,0:1|0:1,0:1:0:0:
332,175,131663,2,0,L|336:224,1,50,0|0,0:1|0:1,0:1:0:0:
434,139,131850,2,0,L|438:89,1,50,0|0,0:1|0:1,0:1:0:0:
310,50,132038,5,8,0:1:0:0:
269,33,132131,1,0,0:1:0:0:
225,41,132225,1,0,0:1:0:0:
192,71,132319,1,0,0:1:0:0:
170,104,132413,2,0,L|165:153,1,50,0|0,0:1|0:1,0:1:0:0:
273,226,132600,2,0,L|277:176,1,50,0|0,0:1|0:1,0:1:0:0:
163,262,132788,2,0,P|194:311|290:340,1,150,4|0,1:1|1:1,2:1:0:0:
385,171,133538,1,2,0:1:0:0:
465,203,133725,5,2,0:1:0:0:
443,229,133819,1,2,0:1:0:0:
413,256,133913,2,0,L|349:261,1,50,8|0,0:1|0:1,0:1:0:0:
257,174,134100,2,0,L|306:178,1,50,8|0,0:1|0:1,0:1:0:0:
248,273,134288,5,8,3:1:0:0:
313,66,134475,2,0,P|364:66|411:86,1,100,2|0,3:1|3:1,3:1:0:0:
287,238,134850,2,0,P|236:238|189:218,1,100,2|0,3:1|3:1,3:1:0:0:
300,160,135225,2,0,P|351:160|398:180,1,100,2|0,3:1|3:1,3:1:0:0:
235,322,135600,1,2,3:1:0:0:
393,313,135788,5,4,3:1:0:0:
235,322,135975,2,0,L|225:218,1,100,2|0,3:1|3:1,3:1:0:0:
311,138,136350,2,0,L|320:241,1,100,2|0,3:1|3:1,3:1:0:0:
140,249,136725,2,0,L|130:145,1,100,2|0,3:1|3:1,3:1:0:0:
237,58,137100,1,2,3:1:0:0:
420,157,137288,5,4,3:1:0:0:
237,58,137475,2,0,P|187:57|141:76,1,100,2|0,3:1|3:1,3:1:0:0:
122,255,137756,1,0,0:0:0:0:
122,255,137850,2,0,P|171:255|217:236,1,100,2|0,3:1|3:1,3:1:0:0:
155,163,138225,2,0,P|105:162|59:181,1,100,2|0,3:1|3:1,3:1:0:0:
117,345,138506,1,0,0:0:0:0:
117,345,138600,6,0,L|220:354,1,100,6|0,3:1|3:1,3:1:0:0:
284,195,138975,2,0,L|180:204,1,100,6|0,3:1|3:1,3:1:0:0:
311,305,139256,1,0,0:0:0:0:
311,305,139350,2,0,L|410:296,1,100,6|0,3:1|3:1,3:1:0:0:
479,163,139725,2,0,P|461:104|431:81,1,100
400,66,140006,1,8,3:1:0:0:
400,66,140100,1,8,3:1:0:0:
396,143,140288,6,0,L|390:206,1,50,4|0,0:1|0:1,0:1:0:0:
180,299,140475,2,0,L|186:235,1,50,4|0,0:1|0:1,0:1:0:0:
359,318,140663,1,0,0:0:0:0:
359,318,140756,1,0,0:0:0:0:
361,317,140850,2,0,P|336:314|310:313,1,50,4|0,0:1|0:1,0:1:0:0:
197,107,141038,5,0,0:0:0:0:
197,107,141131,1,0,0:0:0:0:
195,108,141225,2,0,P|219:110|245:111,1,50,4|0,0:1|0:1,0:1:0:0:
421,213,141413,1,0,0:0:0:0:
421,213,141506,1,0,0:0:0:0:
422,212,141600,2,0,P|397:209|371:208,1,50,4|0,0:1|0:1,0:1:0:0:
238,206,141788,6,0,L|189:192,1,50,4|0,0:1|0:1,0:1:0:0:
20,266,141975,2,0,L|68:279,1,50,4|0,0:1|0:1,0:1:0:0:
82,119,142163,1,0,0:0:0:0:
82,119,142256,1,0,0:0:0:0:
83,118,142350,2,0,L|78:166,1,50,4|0,0:1|0:1,0:1:0:0:
277,284,142538,5,0,0:0:0:0:
277,284,142631,5,0,0:0:0:0:
276,286,142725,2,0,L|281:236,1,50,4|0,0:1|0:1,0:1:0:0:
182,108,142913,1,0,0:0:0:0:
182,108,143006,1,0,0:0:0:0:
183,108,143100,2,0,L|178:156,1,50,4|0,0:1|0:1,0:1:0:0:
221,263,143288,6,0,L|209:310,1,50,4|0,0:1|0:1,0:1:0:0:
72,166,143475,2,0,L|84:117,1,50,4|0,0:1|0:1,0:1:0:0:
229,88,143663,1,0,0:1:0:0:
267,99,143756,1,0,0:1:0:0:
306,108,143850,2,0,L|360:121,1,50,10|0,0:1|0:1,0:1:0:0:
263,281,144038,5,0,0:1:0:0:
225,270,144131,1,0,0:1:0:0:
186,260,144225,2,0,L|132:245,1,50,10|0,0:1|0:1,0:1:0:0:
167,166,144413,5,0,0:1:0:0:
205,177,144506,1,0,0:1:0:0:
244,187,144600,2,0,L|297:201,1,50,10|0,0:1|0:1,0:1:0:0:
193,342,144788,5,0,0:1:0:0:
155,332,144881,1,0,0:1:0:0:
116,322,144975,2,0,L|62:307,1,50,10|0,0:1|0:1,0:1:0:0:
98,172,145163,5,0,0:0:0:0:
98,172,145256,1,0,0:0:0:0:
98,172,145350,2,0,L|112:117,1,50,8|0,2:1|2:1,2:1:0:0:
245,248,145538,1,0,0:0:0:0:
245,248,145631,1,0,0:0:0:0:
245,248,145725,2,0,L|231:301,1,50,8|0,2:1|2:1,2:1:0:0:
172,214,145913,2,0,L|186:159,1,50,8|0,2:1|2:1,2:1:0:0:
375,204,146100,5,10,0:1:0:0:
364,242,146194,1,2,0:1:0:0:
354,280,146288,1,6,0:1:0:0:
257,142,146475,5,2,0:1:0:0:
257,142,146569,1,2,0:1:0:0:
257,142,146663,1,2,0:1:0:0:
371,85,146850,2,0,P|422:98|461:140,1,100,4|0,0:1|0:1,0:1:0:0:
474,165,147131,1,2,0:1:0:0:
474,165,147225,1,2,0:1:0:0:
342,282,147413,1,0,0:1:0:0:
439,280,147600,6,0,P|426:331|384:370,1,100,4|0,0:1|0:1,0:1:0:0:
173,326,147881,1,0,0:1:0:0:
173,326,147975,2,0,L|163:214,1,100,2|0,0:1|0:1,0:1:0:0:
290,103,148350,2,0,L|299:214,1,100,2|0,0:1|0:1,0:1:0:0:
310,316,148631,1,0,0:1:0:0:
310,316,148725,2,0,P|390:284|406:252,1,100,2|0,0:1|0:1,0:1:0:0:
402,179,149006,1,0,0:1:0:0:
386,143,149100,1,2,0:1:0:0:
362,111,149194,1,0,0:1:0:0:
330,87,149288,5,4,2:1:0:0:
171,72,149475,1,0,2:1:0:0:
110,195,149663,2,0,P|120:252|155:283,1,100
321,239,150038,2,0,P|273:249|227:230,1,100
198,73,150413,2,0,P|245:62|291:81,1,100
352,281,150788,5,0,2:1:0:0:
230,224,150975,1,0,2:1:0:0:
398,206,151163,2,0,P|431:242|437:291,1,100
416,325,151444,2,0,L|310:315,1,100,0|0,2:1|2:1,2:1:0:0:
211,237,151725,1,0,0:0:0:0:
211,237,151819,1,2,2:1:0:0:
211,237,151913,1,0,0:0:0:0:
277,130,152100,1,0,0:0:0:0:
251,98,152194,1,0,0:0:0:0:
218,74,152288,6,0,P|166:70|110:100,1,100
329,235,152663,2,0,P|357:195|364:146,1,100
100,190,153038,2,0,P|120:234|160:265,1,100
335,57,153413,2,0,P|286:53|240:72,1,100
296,291,153788,5,0,2:1:0:0:
380,141,153975,1,0,2:1:0:0:
256,174,154163,1,8,2:1:0:0:
461,215,154350,1,0,2:1:0:0:
461,215,154444,2,0,P|482:165|484:113,1,100,2|0,2:1|2:1,2:1:0:0:
464,86,154725,1,0,0:0:0:0:
265,39,154913,1,0,0:0:0:0:
323,169,155100,5,0,0:0:0:0:
323,169,155194,1,0,0:0:0:0:
323,169,155288,1,4,2:1:0:0:
416,272,155475,1,0,2:1:0:0:
293,268,155663,1,8,2:1:0:0:
432,173,155850,1,0,2:1:0:0:
352,308,156038,5,0,2:1:0:0:
392,106,156225,1,0,2:1:0:0:
473,227,156413,1,8,2:1:0:0:
271,187,156600,1,0,2:1:0:0:
163,339,156788,6,0,P|119:317|94:266,1,100,0|0,2:1|2:1,2:1:0:0:
133,120,157163,2,0,P|181:143|207:199,1,100,0|0,2:1|2:1,2:1:0:0:
223,218,157444,2,0,L|334:227,1,100,2|0,2:1|2:1,2:1:0:0:
362,223,157725,1,0,0:0:0:0:
430,102,157913,1,10,2:1:0:0:
304,21,158100,1,0,2:1:0:0:
263,21,158194,1,0,2:1:0:0:
224,31,158288,6,0,P|173:49|137:94,1,100,4|0,2:1|2:1,2:1:0:0:
247,227,158663,1,0,0:0:0:0:
230,123,158850,1,0,0:0:0:0:
230,123,158944,1,0,0:0:0:0:
230,123,159038,1,0,0:0:0:0:
109,210,159225,1,0,0:0:0:0:
195,331,159413,2,0,L|244:326,1,50
326,262,159600,2,0,L|375:266,1,50
203,247,159788,5,14,2:1:0:0:
171,215,159881,1,0,2:1:0:0:
157,172,159975,1,0,2:1:0:0:
157,126,160069,1,0,2:1:0:0:
166,86,160163,2,0,L|172:14,1,50,10|0,2:1|2:1,2:1:0:0:
298,153,160350,2,0,L|304:224,1,50,10|0,2:1|2:1,2:1:0:0:
292,51,160538,5,0,2:1:0:0:
292,51,160631,1,0,2:1:0:0:
292,51,160726,2,0,L|341:46,1,50,10|0,2:1|2:1,2:1:0:0:
186,181,160913,5,0,2:1:0:0:
186,181,161006,1,0,2:1:0:0:
186,181,161101,2,0,L|136:185,1,50,10|0,2:1|2:1,2:1:0:0:
67,75,161288,5,4,2:1:0:0:
208,52,161475,1,0,2:1:0:0:
287,156,161663,1,8,2:1:0:0:
397,85,161850,1,0,2:1:0:0:
449,200,162038,5,0,2:1:0:0:
325,322,162225,1,0,2:1:0:0:
311,191,162413,1,8,2:1:0:0:
452,317,162600,1,0,2:1:0:0:
283,307,162788,6,0,P|232:276|206:222,1,100,4|0,2:1|2:1,2:1:0:0:
120,154,163163,2,0,P|98:198|99:248,1,100,4|0,2:1|2:1,2:1:0:0:
127,277,163444,2,0,L|291:293,1,150,2|0,2:1|2:1,2:1:0:0:
326,297,163913,1,10,2:1:0:0:
459,227,164100,1,0,2:1:0:0:
448,80,164288,5,4,2:1:0:0:
288,208,164475,1,0,2:1:0:0:
432,224,164663,1,8,2:1:0:0:
304,64,164850,1,0,2:1:0:0:
356,245,165038,1,2,2:1:0:0:
379,42,165225,1,0,2:1:0:0:
266,132,165413,1,8,2:1:0:0:
469,155,165600,1,0,2:1:0:0:
152,92,165788,6,0,P|123:132|124:181,1,100,4|0,2:1|2:1,2:1:0:0:
333,239,166163,2,0,P|293:210|244:211,1,100,4|0,2:1|2:1,2:1:0:0:
239,315,166444,2,2,P|168:336|96:320,1,150,8|0,2:1|2:1,2:1:0:0:
219,133,166913,2,0,L|322:123,1,100,8|0,2:1|2:1,2:1:0:0:
416,288,167288,5,4,2:1:0:0:
240,336,167475,1,0,2:1:0:0:
352,344,167663,1,8,2:1:0:0:
165,237,167850,1,0,2:1:0:0:
165,237,167944,2,0,L|151:77,1,150,2|0,2:1|2:1,2:1:0:0:
274,43,168413,2,0,L|265:142,1,100,2|0,2:1|2:1,2:1:0:0:
140,213,168788,5,0,2:1:0:0:
266,338,168975,1,0,2:1:0:0:
116,293,169163,1,8,2:1:0:0:
346,248,169350,1,0,2:1:0:0:
346,248,169444,6,0,L|359:88,1,150,2|0,2:1|2:1,2:1:0:0:
432,32,169913,1,10,0:0:0:0:
236,33,170100,1,0,0:0:0:0:
236,33,170194,1,0,2:1:0:0:
236,33,170288,6,0,P|197:63|181:110,1,100,8|0,2:1|2:1,2:1:0:0:
271,223,170569,1,0,0:0:0:0:
271,223,170663,2,0,P|309:192|325:145,1,100,8|0,2:1|2:1,2:1:0:0:
118,144,170944,1,0,0:0:0:0:
118,144,171038,2,0,L|122:193,1,50
231,148,171225,1,0,0:0:0:0:
231,148,171319,1,0,0:0:0:0:
231,148,171413,1,0,0:0:0:0:
319,272,171600,1,0,0:0:0:0:
286,309,171694,1,0,0:0:0:0:
250,329,171788,6,0,P|220:335|186:323,1,50,4|0,2:1|2:1,2:1:0:0:
211,179,171975,2,0,L|217:250,1,50,0|0,2:1|2:1,2:1:0:0:
106,303,172163,2,0,L|99:231,1,50,0|0,2:1|2:1,2:1:0:0:
72,158,172350,2,0,P|102:152|136:164,1,50,0|0,2:1|2:1,2:1:0:0:
223,260,172538,5,4,2:1:0:0:
254,263,172631,1,0,2:1:0:0:
286,267,172725,1,0,2:1:0:0:
318,271,172819,1,0,2:1:0:0:
350,275,172913,2,0,L|424:282,1,50,4|0,2:1|2:1,2:1:0:0:
472,138,173100,2,0,L|422:142,1,50,4|0,2:1|2:1,2:1:0:0:
268,163,173288,5,4,2:1:0:0:
144,64,173475,1,0,2:1:0:0:
159,176,173663,1,8,2:1:0:0:
274,67,173850,1,0,2:1:0:0:
208,272,174038,1,0,2:1:0:0:
422,246,174225,2,0,P|424:173|368:128,1,150,0|0,2:1|2:1,2:1:0:0:
304,320,174600,6,0,P|224:320|176:288,1,100,12|0,2:1|2:1,2:1:0:0:
119,136,174975,1,0,2:1:0:0:
75,293,175163,1,0,2:1:0:0:
215,149,175350,1,0,2:1:0:0:
170,280,175538,1,8,2:1:0:0:
81,182,175725,2,0,P|91:96|130:73,1,100,0|0,2:1|2:1,2:1:0:0:
268,58,176100,1,0,2:1:0:0:
400,224,176288,6,0,L|390:335,1,100,12|0,2:1|2:1,2:1:0:0:
307,208,176663,2,0,P|327:163|370:138,1,100,0|0,2:1|2:1,2:1:0:0:
318,326,177038,1,8,2:1:0:0:
112,304,177225,2,0,P|80:240|128:128,1,200,0|0,2:1|2:1,2:1:0:0:
256,64,177694,5,0,2:1:0:0:
256,64,177788,2,0,P|304:64|352:128,1,100,12|0,2:1|2:1,2:1:0:0:
272,160,178163,1,8,2:1:0:0:
441,120,178350,1,0,2:1:0:0:
461,246,178538,2,0,L|349:256,1,100,8|0,2:1|2:1,2:1:0:0:
198,289,178913,1,0,2:1:0:0:
238,166,179100,5,0,2:1:0:0:
238,166,179194,1,0,2:1:0:0:
238,166,179288,1,12,2:1:0:0:
83,138,179475,1,0,2:1:0:0:
150,264,179662,1,8,2:1:0:0:
203,72,179850,1,0,2:1:0:0:
330,203,180038,1,8,2:1:0:0:
469,213,180225,2,0,P|443:267|383:290,1,100,0|0,2:0|0:0,0:0:0:0:
304,184,180600,6,0,L|313:80,1,100,12|0,2:1|2:1,2:1:0:0:
411,65,180975,1,0,2:1:0:0:
412,217,181163,1,8,2:1:0:0:
278,93,181350,1,0,2:1:0:0:
473,212,181538,6,0,L|463:323,1,100,2|0,2:1|2:1,2:1:0:0:
348,169,181819,6,0,L|356:268,1,100,2|0,2:1|2:1,2:1:0:0:
381,354,182100,5,2,2:1:0:0:
277,337,182288,6,6,P|221:346|135:229,1,200,4|0,2:1|2:1,2:1:0:0:
235,47,183038,2,6,P|290:37|376:154,1,200,4|0,2:1|2:1,2:1:0:0:
256,336,183788,2,2,L|272:121,1,200,2|0,2:1|2:1,2:1:0:0:
207,39,184350,5,0,2:1:0:0:
207,39,184444,1,0,2:1:0:0:
206,38,184538,2,0,P|114:68|79:159,1,200,0|0,2:1|2:1,2:1:0:0:
109,270,185100,1,0,2:1:0:0:
247,302,185288,6,0,L|346:310,1,100
366,117,185663,2,0,L|267:126,1,100
367,217,186038,2,0,L|467:209,1,100
433,60,186413,1,0,2:1:0:0:
249,42,186600,2,0,P|206:46|176:58,1,75
176,57,186975,5,0,0:0:0:0:
117,149,187163,1,8,2:1:0:0:
225,198,187350,1,0,2:1:0:0:
128,276,187538,1,8,2:1:0:0:
274,297,187725,2,0,P|369:303|423:224,1,200,0|0,2:1|2:1,2:1:0:0:
388,106,188288,5,4,0:1:0:0:
197,84,188475,1,0,0:1:0:0:
197,84,188569,1,0,0:1:0:0:
197,84,188663,2,0,P|265:96|320:192,1,150,2|0,0:1|0:1,0:1:0:0:
329,193,189038,1,2,0:1:0:0:
238,329,189225,5,2,0:1:0:0:
96,240,189413,1,2,0:1:0:0:
96,240,189506,2,0,P|96:144|116:112,1,100,0|0,0:1|0:1,0:1:0:0:
96,142,189788,1,2,0:0:0:0:
352,168,189975,5,0,0:1:0:0:
352,168,190069,2,0,P|304:181|259:164,1,100,2|2,0:1|0:1,0:1:0:0:
387,130,190350,2,0,P|415:170|414:219,1,100,2|0,0:1|0:1,0:1:0:0:
368,320,190725,5,8,0:1:0:0:
160,272,190913,1,8,0:1:0:0:
288,96,191100,1,8,0:1:0:0:
96,96,191288,6,0,P|64:144|64:192,1,100,4|0,0:1|0:1,0:1:0:0:
62,184,191569,1,0,0:0:0:0:
62,184,191663,1,0,0:0:0:0:
206,323,191850,2,0,L|214:223,1,100,2|0,0:1|0:1,0:1:0:0:
229,186,192131,2,0,P|302:201|354:253,1,150,2|2,0:1|0:1,0:1:0:0:
362,351,192600,1,0,0:1:0:0:
240,296,192788,5,0,0:1:0:0:
240,296,192881,2,0,P|193:310|144:304,1,100,10|0,0:1|0:1,0:1:0:0:
221,175,193163,2,0,P|268:160|317:167,1,100,10|0,0:1|0:1,0:1:0:0:
114,223,193444,2,0,L|123:111,1,100,10|0,0:1|0:1,0:1:0:0:
405,152,193725,2,0,L|397:242,1,75,10|0,0:1|0:1,0:1:0:0:
394,263,193959,1,0,0:0:0:0:
217,319,194100,1,8,0:1:0:0:
64,208,194288,6,0,P|80:128|128:96,1,100,4|0,0:1|0:1,0:1:0:0:
263,116,194663,1,2,0:1:0:0:
302,240,194850,2,0,P|253:238|215:208,1,100,2|0,0:1|0:1,0:1:0:0:
345,222,195131,2,0,P|355:275|317:332,1,100,2|0,0:1|0:1,0:1:0:0:
336,315,195413,1,2,0:1:0:0:
120,306,195600,5,0,0:1:0:0:
120,306,195694,1,0,0:1:0:0:
120,306,195788,2,0,L|108:178,1,100,2|2,0:1|0:1,0:1:0:0:
145,52,196163,5,0,0:1:0:0:
145,52,196256,1,0,0:1:0:0:
145,52,196350,2,0,L|244:60,1,100,2|2,0:1|0:1,0:1:0:0:
418,91,196725,5,8,0:1:0:0:
442,290,196912,1,8,0:1:0:0:
192,176,197100,1,8,0:1:0:0:
288,352,197287,6,0,P|336:320|336:256,1,100,2|0,0:1|0:1,0:1:0:0:
352,96,197663,5,0,3:1:0:0:
336,112,197756,1,0,3:1:0:0:
320,128,197850,1,0,3:1:0:0:
304,144,197944,1,0,3:1:0:0:
291,156,198038,2,0,P|243:184|196:173,1,100,8|0,0:1|0:1,0:1:0:0:
64,192,198413,5,0,3:1:0:0:
80,208,198506,1,0,3:1:0:0:
96,224,198600,1,0,3:1:0:0:
112,240,198694,1,0,3:1:0:0:
128,256,198788,6,0,P|176:284|223:273,1,100,8|0,0:1|0:1,0:1:0:0:
386,250,199069,2,0,P|348:211|292:200,1,100,8|0,0:1|0:1,0:1:0:0:
311,341,199350,1,8,0:1:0:0:
468,192,199538,6,0,L|458:80,1,100,8|0,0:1|0:1,0:1:0:0:
315,213,199819,2,0,L|324:324,1,100,8|0,0:1|0:1,0:1:0:0:
338,100,200100,1,8,0:1:0:0:
138,140,200288,6,0,L|90:156,7,50,4|0|0|0|0|0|0|0,3:1|3:1|3:1|3:1|3:1|3:1|3:1|3:1,3:1:0:0:
211,96,201038,6,0,L|258:54,7,50,0|0|0|0|0|0|0|0,3:1|3:1|3:1|3:1|3:1|3:1|3:1|3:1,3:1:0:0:
207,174,201788,6,0,L|217:223,7,50,0|0|0|0|0|0|0|0,3:1|3:1|3:1|3:1|3:1|3:1|3:1|3:1,3:1:0:0:
216,222,202538,1,0,0:1:0:0:
305,322,202725,5,8,0:1:0:0:
158,211,202912,1,8,0:1:0:0:
322,123,203100,1,8,0:1:0:0:
420,252,203288,6,0,L|484:252,7,50,4|0|0|0|0|0|0|0,3:1|3:1|3:1|3:1|3:1|3:1|3:1|3:1,3:1:0:0:
361,299,204038,2,0,L|297:299,7,50,0|0|0|0|0|0|0|0,3:1|3:1|3:1|3:1|3:1|3:1|3:1|3:1,3:1:0:0:
144,304,204788,5,0,0:1:0:0:
144,304,204881,2,0,P|96:272|80:224,1,100,8|0,0:1|0:1,0:1:0:0:
283,207,205163,2,0,L|171:216,1,100,8|0,0:1|0:1,0:1:0:0:
322,110,205444,2,0,P|364:135|385:179,1,100,8|0,0:1|0:1,0:1:0:0:
428,268,205725,5,8,0:1:0:0:
292,348,205913,1,8,0:1:0:0:
296,204,206100,1,8,0:1:0:0:
192,296,206288,6,0,L|136:320,7,50,4|0|0|0|0|0|0|0,3:1|3:1|3:1|3:1|3:1|3:1|3:1|3:1,3:1:0:0:
137,220,207038,6,0,L|96:192,7,50,0|0|0|0|0|0|0|0,3:1|3:1|3:1|3:1|3:1|3:1|3:1|3:1,3:1:0:0:
152,127,207788,6,0,L|127:72,7,50,0|0|0|0|0|0|0|0,3:1|3:1|3:1|3:1|3:1|3:1|3:1|3:1,3:1:0:0:
240,160,208538,1,0,0:1:0:0:
304,320,208725,5,8,0:1:0:0:
176,231,208913,1,8,0:1:0:0:
313,112,209100,1,8,0:1:0:0:
400,240,209288,6,0,L|456:264,7,50,4|0|0|0|0|0|0|0,3:1|3:1|3:1|3:1|3:1|3:1|3:1|3:1,3:1:0:0:
300,315,210038,2,0,L|322:371,7,50,0|0|0|0|0|0|0|0,3:1|3:1|3:1|3:1|3:1|3:1|3:1|3:1,3:1:0:0:
144,328,210788,6,0,P|90:330|48:312,1,100,8|0,0:1|0:1,0:1:0:0:
48,312,211069,1,0,0:1:0:0:
90,197,211256,6,0,L|80:85,1,100,8|0,0:1|0:1,0:1:0:0:
79,69,211538,2,0,P|115:49|190:59,1,100,8|0,0:1|0:1,0:1:0:0:
172,51,211819,5,8,0:1:0:0:
274,161,212006,1,8,0:1:0:0:
112,72,212663,5,4,3:1:0:0:
83,92,212756,1,0,3:1:0:0:
63,121,212850,1,0,3:1:0:0:
56,155,212944,1,0,3:1:0:0:
66,188,213038,1,0,3:1:0:0:
89,213,213131,1,0,3:1:0:0:
123,216,213225,1,0,3:1:0:0:
156,205,213319,1,0,3:1:0:0:
181,180,213413,2,0,P|226:146|288:153,1,100
372,211,213788,5,0,3:1:0:0:
383,243,213881,1,0,3:1:0:0:
374,276,213975,1,0,3:1:0:0:
347,299,214069,1,0,3:1:0:0:
314,311,214163,1,8,3:1:0:0:
272,305,214256,1,0,3:1:0:0:
237,293,214350,2,0,B|221:278|203:277|203:277|192:296|191:326|191:326|163:308|155:267|155:267|133:313|105:326|105:326|94:300|99:277|99:277|105:254|97:237,1,325,0|8,3:1|3:1,3:1:0:0:
93,138,215100,1,0,3:1:0:0:
229,138,215288,5,0,3:1:0:0:
267,129,215381,1,0,3:1:0:0:
290,102,215475,1,0,3:1:0:0:
309,85,215569,1,0,3:1:0:0:
323,79,215663,2,0,L|386:84,1,50
468,165,215850,6,0,P|451:226|327:282,1,200,0|0,3:1|3:1,3:1:0:0:
205,262,216413,1,8,3:1:0:0:
283,141,216600,1,0,3:1:0:0:
218,38,216788,6,0,P|125:67|86:156,1,200,0|0,3:1|3:1,3:1:0:0:
140,284,217350,1,0,3:1:0:0:
140,284,217444,1,0,3:1:0:0:
140,284,217538,2,0,P|196:338|282:319,1,150
342,268,217913,1,0,3:1:0:0:
403,163,218100,1,0,3:1:0:0:
399,43,218288,5,8,3:1:0:0:
360,21,218381,1,0,3:1:0:0:
317,35,218475,2,0,P|274:80|191:54,1,150,0|0,3:1|3:1,3:1:0:0:
156,37,218850,5,0,3:1:0:0:
121,33,218944,1,0,3:1:0:0:
86,40,219038,2,0,P|60:55|47:72,1,50
106,332,219225,5,0,3:1:0:0:
141,336,219319,1,0,3:1:0:0:
176,329,219413,2,0,P|202:314|215:297,1,50
135,130,219600,5,0,0:0:0:0:
132,161,219694,1,0,0:0:0:0:
129,193,219788,2,0,L|123:256,1,50
335,284,219975,5,0,0:0:0:0:
332,253,220069,1,0,0:0:0:0:
329,221,220163,2,0,L|323:157,1,50
269,58,220350,5,0,3:1:0:0:
224,65,220444,1,0,3:1:0:0:
185,87,220538,1,8,3:1:0:0:
168,128,220631,1,0,3:1:0:0:
169,173,220725,1,0,3:1:0:0:
177,212,220819,1,0,3:1:0:0:
190,244,220913,1,8,3:1:0:0:
198,272,221006,1,0,3:1:0:0:
214,291,221100,5,0,3:1:0:0:
254,290,221194,1,0,3:1:0:0:
292,301,221288,6,0,P|400:292|473:222,1,200,8|8,3:1|3:1,3:1:0:0:
220,83,221756,1,0,0:0:0:0:
220,83,221850,6,0,P|111:91|38:161,1,200,8|8,3:1|3:1,3:1:0:0:
192,242,222319,5,0,3:1:0:0:
230,230,222413,1,8,3:1:0:0:
257,201,222506,1,0,3:1:0:0:
280,168,222600,1,0,3:1:0:0:
287,128,222694,1,0,3:1:0:0:
314,99,222788,6,0,P|356:107|406:145,1,100,12|0,0:1|0:1,0:1:0:0:
302,284,223069,1,0,0:0:0:0:
302,284,223163,2,0,L|311:172,1,100,12|0,0:1|0:1,0:1:0:0:
178,229,223444,1,0,0:0:0:0:
178,229,223538,2,0,L|168:340,1,100,12|0,0:1|0:1,0:1:0:0:
61,221,223819,1,0,0:0:0:0:
61,221,223913,2,0,L|66:157,1,50,0|0,0:3|0:3,0:3:0:0:
145,66,224100,5,0,0:0:0:0:
166,62,224194,1,0,0:0:0:0:
180,62,224288,2,0,L|247:67,3,50,4|0|2|0,3:1|3:1|3:1|3:1,3:1:0:0:
307,108,224663,6,0,L|350:160,3,50,4|0|2|0,2:1|2:1|2:1|2:1,2:1:0:0:
289,229,225038,6,0,L|283:296,3,50,4|0|2|0,2:1|2:1|2:1|2:1,2:1:0:0:
404,279,225413,6,0,L|409:346,3,50,4|0|2|0,2:1|2:1|2:1|2:1,2:1:0:0:
431,194,225788,5,0,3:1:0:0:
431,194,225881,1,0,3:1:0:0:
431,194,225975,2,0,L|436:130,1,50,2|0,3:1|3:1,3:1:0:0:
334,124,226163,1,0,3:1:0:0:
334,124,226256,1,0,3:1:0:0:
334,124,226350,2,0,L|306:65,1,50,2|0,3:1|3:1,3:1:0:0:
210,135,226538,5,0,3:1:0:0:
210,135,226631,1,0,3:1:0:0:
210,135,226725,2,0,L|157:98,1,50,2|0,3:1|3:1,3:1:0:0:
164,255,226913,1,0,3:1:0:0:
164,255,227006,1,0,3:1:0:0:
164,255,227100,2,0,L|100:249,1,50,2|0,3:1|3:1,3:1:0:0:
293,295,227288,5,0,3:1:0:0:
332,292,227381,1,0,3:1:0:0:
372,289,227475,2,0,L|447:282,1,50,2|0,3:1|3:1,3:1:0:0:
413,121,227663,5,0,3:1:0:0:
374,124,227756,1,0,3:1:0:0:
334,127,227850,2,0,L|258:133,1,50,2|0,3:1|3:1,3:1:0:0:
143,223,228038,5,0,3:1:0:0:
182,219,228131,1,0,3:1:0:0:
222,216,228225,2,0,L|297:209,1,50,2|0,3:1|3:1,3:1:0:0:
181,69,228413,5,0,3:1:0:0:
142,72,228506,1,0,3:1:0:0:
102,75,228600,2,0,L|26:81,1,50,2|0,3:1|3:1,3:1:0:0:
190,313,228788,6,0,B|216:329|247:320|247:320|266:293|266:293|296:309|336:301,1,150,4|0,3:1|3:1,3:1:0:0:
416,277,229163,2,0,L|431:202,1,50,0|0,3:1|3:1,3:1:0:0:
455,107,229350,6,0,B|430:88|398:95|398:95|377:120|377:120|349:101|308:106,1,150,4|0,3:1|3:1,3:1:0:0:
219,93,229725,2,0,L|225:180,1,50,2|0,3:1|3:1,3:1:0:0:
281,241,229913,5,0,3:1:0:0:
249,264,230006,1,0,3:1:0:0:
209,266,230100,1,0,3:1:0:0:
176,242,230194,1,0,3:1:0:0:
161,204,230288,6,0,L|169:108,2,66.6666666666667,6|0|0,3:1|3:1|3:1,3:1:0:0:
108,273,230663,6,0,L|116:368,2,66.6666666666667,6|0|0,3:1|3:1|3:1,3:1:0:0:
61,196,231038,6,0,L|52:100,2,66.6666666666667,6|0|0,3:1|3:1|3:1,3:1:0:0:
225,252,231413,2,0,B|254:293|300:290|300:290|316:267|316:267|369:295|415:271,1,200,2|0,3:1|3:1,3:1:0:0:
463,192,231850,6,0,B|462:190|464:160|467:152,2,33.3333333333333
463,192,232038,2,0,P|498:258|463:310,1,100,2|0,3:1|3:1,3:1:0:0:
363,206,232350,5,2,3:1:0:0:
367,166,232444,1,0,3:1:0:0:
401,146,232538,1,2,3:1:0:0:
429,118,232631,1,0,3:1:0:0:
436,78,232725,2,0,P|379:61|314:82,1,100,2|0,3:1|3:1,3:1:0:0:
380,165,233100,5,0,2:1:0:0:
353,194,233194,1,0,2:1:0:0:
321,212,233288,2,0,P|254:211|234:177,1,100,8|0,2:1|2:1,2:1:0:0:
222,151,233569,5,0,2:1:0:0:
198,118,233663,1,0,2:1:0:0:
162,99,233756,1,0,2:1:0:0:
122,105,233850,2,0,P|83:144|93:217,1,100,8|0,2:1|2:1,2:1:0:0:
102,219,234131,5,0,2:1:0:0:
138,235,234225,1,0,2:1:0:0:
177,239,234319,1,0,2:1:0:0:
216,233,234413,2,0,P|273:217|321:183,1,100,8|0,2:1|2:1,2:1:0:0:
425,287,234788,6,0,L|361:292,1,50,4|0,3:1|3:1,3:1:0:0:
264,278,234975,1,0,3:1:0:0:
264,278,235069,1,0,3:1:0:0:
264,278,235163,2,0,L|214:273,1,50,4|0,3:1|3:1,3:1:0:0:
168,60,235350,5,0,3:1:0:0:
168,60,235444,1,0,3:1:0:0:
168,60,235538,2,0,L|217:64,1,50,4|0,3:1|3:1,3:1:0:0:
369,189,235725,1,0,3:1:0:0:
369,189,235819,1,0,3:1:0:0:
369,189,235913,2,0,L|319:184,1,50,4|0,3:1|3:1,3:1:0:0:
207,142,236100,5,0,3:1:0:0:
207,142,236194,1,0,3:1:0:0:
207,142,236288,1,4,3:1:0:0:
380,106,236475,2,0,P|442:152|426:248,1,150,10|0,2:1|2:1,2:1:0:0:
221,276,236850,5,0,2:1:0:0:
221,276,237038,2,0,P|216:227|240:184,1,100,0|8,2:1|2:1,2:1:0:0:
424,347,237319,2,0,P|375:275|299:243,1,150,2|0,2:1|2:1,2:1:0:0:
137,203,237788,6,0,L|46:195,3,50,0|0|8|0,2:1|2:1|2:1|2:1,2:1:0:0:
164,115,238163,2,0,L|105:45,3,50,2|0|8|0,2:1|2:1|2:1|2:1,2:1:0:0:
231,191,238538,6,0,L|325:199,1,50,0|0,2:1|2:1,2:1:0:0:
373,201,238725,2,0,P|362:152|328:118,1,100,10|0,2:1|2:1,2:1:0:0:
287,291,239100,1,0,2:1:0:0:
391,300,239288,6,0,L|454:305,3,50,0|0|0|0,2:1|2:1|2:1|2:1,2:1:0:0:
322,237,239663,2,0,P|219:207|201:213,1,100,10|0,2:1|2:1,2:1:0:0:
70,288,240038,2,0,L|182:297,1,100,0|0,2:1|2:1,2:1:0:0:
271,334,240319,6,0,P|316:271|294:180,1,150,10|0,2:1|2:1,2:1:0:0:
224,194,240788,2,0,L|229:258,1,50,2|0,2:1|2:1,2:1:0:0:
246,88,240975,2,0,P|153:111|122:202,1,200,2|0,2:1|2:1,2:1:0:0:
424,62,241538,5,8,2:1:0:0:
446,94,241631,1,0,2:1:0:0:
453,133,241725,1,0,2:1:0:0:
433,168,241819,1,0,2:1:0:0:
422,206,241913,1,8,2:1:0:0:
442,240,242006,1,0,2:1:0:0:
456,277,242100,1,0,2:1:0:0:
438,312,242194,1,0,2:1:0:0:
413,343,242288,6,0,P|310:356|219:293,1,200,4|0,2:1|2:1,2:1:0:0:
211,220,242850,1,0,2:1:0:0:
201,175,242944,1,0,2:1:0:0:
165,147,243038,2,0,P|96:191|113:249,1,150,2|0,2:1|2:1,2:1:0:0:
156,281,243413,5,2,2:1:0:0:
319,281,243600,1,0,2:1:0:0:
419,155,243788,2,0,P|403:92|367:64,2,100,2|0|0,2:1|2:1|2:1,2:1:0:0:
422,278,244350,2,0,P|354:316|288:308,1,100,2|0,2:1|2:1,2:1:0:0:
172,318,244725,1,2,2:1:0:0:
60,214,244913,2,0,P|73:162|129:106,1,100,2|0,2:1|2:1,2:1:0:0:
236,45,245288,6,0,L|300:51,1,50,4|0,3:1|3:1,3:1:0:0:
327,138,245475,5,2,3:1:0:0:
327,138,245569,1,2,3:1:0:0:
327,138,245663,1,2,3:1:0:0:
327,138,245756,1,0,3:1:0:0:
327,138,245850,2,0,L|379:174,1,50,4|0,3:1|3:1,3:1:0:0:
301,254,246038,5,2,3:1:0:0:
301,254,246132,1,2,3:1:0:0:
301,254,246226,1,2,3:1:0:0:
301,254,246319,1,0,3:1:0:0:
301,254,246413,2,0,L|328:312,1,50,4|0,3:1|3:1,3:1:0:0:
225,358,246600,5,2,3:1:0:0:
225,358,246694,1,2,3:1:0:0:
225,358,246788,1,2,3:1:0:0:
225,358,246881,1,0,3:1:0:0:
225,358,246975,2,0,L|197:299,1,50,4|0,3:1|3:1,3:1:0:0:
136,246,247163,5,2,3:1:0:0:
136,246,247257,1,2,3:1:0:0:
136,246,247351,1,2,3:1:0:0:
136,246,247444,1,0,3:1:0:0:
136,246,247538,2,0,L|141:182,1,50,4|0,3:1|3:1,3:1:0:0:
277,92,247725,1,2,3:1:0:0:
277,92,247818,1,0,3:1:0:0:
277,92,247912,2,0,L|282:155,1,50,4|0,3:1|3:1,3:1:0:0:
276,298,248100,5,2,3:1:0:0:
276,298,248194,1,2,3:1:0:0:
276,298,248288,2,0,P|182:280|156:258,1,100
153,114,248569,2,0,P|246:131|272:153,1,100
224,205,248850,2,0,B|174:200,1,50,2|0,0:1|0:1,0:1:0:0:
306,59,249038,2,0,P|385:126|379:237,1,200,2|0,0:1|0:1,0:1:0:0:
294,276,249600,5,2,0:1:0:0:
298,170,249788,2,0,P|210:127|120:162,1,200,2|0,0:1|0:1,0:1:0:0:
95,292,250350,5,0,0:1:0:0:
102,308,250444,1,0,0:1:0:0:
116,325,250538,2,0,B|168:355|168:355|247:343,1,100,0|0,0:1|0:1,0:1:0:0:
324,217,250913,6,0,L|164:230,1,150,8|0,0:1|0:1,0:1:0:0:
141,226,251288,22,0,B|95:193|95:193|76:132,1,100,4|0,0:1|0:1,0:1:0:0:
64,113,251569,1,0,0:1:0:0:
75,69,251663,1,0,0:1:0:0:
114,47,251756,1,0,0:1:0:0:
158,52,251850,1,0,0:1:0:0:
195,76,251944,1,0,0:1:0:0:
195,121,252038,5,0,0:1:0:0:
233,142,252131,1,0,0:1:0:0:
277,134,252225,1,0,0:1:0:0:
316,112,252319,1,0,0:1:0:0:
346,80,252413,6,0,L|409:85,1,50,0|0,3:1|3:1,3:1:0:0:
457,193,252600,21,0,3:1:0:0:
457,193,252694,1,0,3:1:0:0:
457,193,252788,2,0,L|450:272,1,50,4|0,1:1|1:1,1:1:0:0:
381,320,252975,5,0,0:1:0:0:
342,343,253069,1,0,0:1:0:0:
297,349,253163,1,0,0:1:0:0:
258,325,253256,1,0,0:1:0:0:
236,285,253350,1,0,0:1:0:0:
263,249,253444,1,0,0:1:0:0:
248,206,253538,37,0,0:1:0:0:
203,201,253631,1,0,0:1:0:0:
173,235,253725,1,0,0:1:0:0:
144,269,253819,1,0,0:1:0:0:
99,264,253913,22,0,P|90:235|98:196,1,50,8|0,3:1|3:1,3:1:0:0:
179,100,254100,5,0,3:1:0:0:
179,100,254194,1,0,3:1:0:0:
179,100,254288,2,0,L|185:179,1,50,4|0,1:1|1:1,1:1:0:0:
231,276,254475,5,0,0:1:0:0:
258,284,254569,1,0,0:1:0:0:
285,291,254663,2,0,L|353:284,1,50,8|0,0:1|0:1,0:1:0:0:
391,138,254850,5,0,0:1:0:0:
364,130,254944,1,0,0:1:0:0:
336,122,255038,2,0,L|268:128,1,50,8|0,0:1|0:1,0:1:0:0:
425,345,255225,5,0,0:1:0:0:
433,318,255319,1,0,0:1:0:0:
441,290,255413,2,0,L|435:240,1,50,8|0,0:1|0:1,0:1:0:0:
186,80,255600,5,0,0:1:0:0:
178,107,255694,1,0,0:1:0:0:
170,135,255788,2,0,L|175:184,1,50,8|0,0:1|0:1,0:1:0:0:
302,322,255975,6,0,L|307:258,1,50,2|0,0:1|0:1,0:1:0:0:
399,104,256163,2,0,L|393:167,1,50,2|0,0:1|0:1,0:1:0:0:
462,284,256350,2,0,L|412:279,1,50,2|0,0:1|0:1,0:1:0:0:
235,149,256538,2,0,L|284:153,1,50,2|0,0:1|0:1,0:1:0:0:
261,281,256725,6,0,L|265:231,1,50,2|0,0:1|0:1,0:1:0:0:
357,187,256913,2,0,L|352:236,1,50,2|0,0:1|0:1,0:1:0:0:
157,248,257100,2,0,L|162:199,1,50,2|0,0:1|0:1,0:1:0:0:
447,158,257288,2,0,L|442:207,1,50,2|0,0:1|0:1,0:1:0:0:
315,308,257475,5,0,3:1:0:0:
315,308,257569,1,0,3:1:0:0:
315,308,257663,1,0,3:1:0:0:
315,308,257756,1,0,3:1:0:0:
315,308,257850,2,0,L|265:303,1,50,2|0,0:1|0:1,0:1:0:0:
119,209,258038,5,0,3:1:0:0:
119,209,258132,1,0,3:1:0:0:
119,209,258226,1,0,3:1:0:0:
119,209,258319,1,0,3:1:0:0:
119,209,258413,2,0,L|123:159,1,50,2|0,0:1|0:1,0:1:0:0:
267,129,258600,5,0,3:1:0:0:
267,129,258694,1,0,3:1:0:0:
267,129,258788,1,0,3:1:0:0:
267,129,258881,1,0,3:1:0:0:
267,129,258975,2,0,L|262:178,1,50,2|0,0:1|0:1,0:1:0:0:
380,226,259163,5,0,3:1:0:0:
380,226,259257,1,0,3:1:0:0:
380,226,259351,1,0,3:1:0:0:
380,226,259444,1,0,3:1:0:0:
380,226,259538,2,0,L|384:176,1,50,2|0,0:1|0:1,0:1:0:0:
151,77,259725,5,0,3:1:0:0:
113,92,259819,1,0,3:1:0:0:
92,126,259913,2,0,P|89:178|161:260,1,150,4|0,3:1|3:1,3:1:0:0:
269,184,260288,6,0,L|205:178,1,50,6|0,3:1|3:1,3:1:0:0:
259,291,260475,5,0,3:1:0:0:
259,291,260569,1,0,3:1:0:0:
259,291,260663,2,0,L|322:285,1,50,6|0,3:1|3:1,3:1:0:0:
405,191,260850,5,0,3:1:0:0:
405,191,260944,1,0,3:1:0:0:
405,191,261038,2,0,L|399:127,1,50,6|0,3:1|3:1,3:1:0:0:
206,129,261225,5,0,3:1:0:0:
206,129,261319,1,0,3:1:0:0:
206,129,261413,2,0,L|211:192,1,50,6|0,3:1|3:1,3:1:0:0:
97,297,261600,5,0,3:1:0:0:
97,297,261694,1,0,3:1:0:0:
97,297,261788,6,0,L|83:137,1,134.999995880127,10|0,3:1|3:1,3:1:0:0:
186,76,262163,6,0,L|198:219,1,120,10|0,3:1|3:1,3:1:0:0:
304,278,262538,6,0,L|292:150,1,104.999996795654,10|0,3:1|3:1,3:1:0:0:
383,69,262913,6,10,L|391:159,1,89.9999972534181,0|0,3:1|3:1,3:1:0:0:
416,331,263288,5,4,2:1:0:0:
310,246,263475,1,0,2:1:0:0:
448,178,263663,1,0,2:1:0:0:
343,81,263850,2,0,P|244:68|163:120,1,200,0|0,2:1|2:1,2:1:0:0:
101,258,264319,5,0,2:1:0:0:
101,258,264413,2,0,L|93:170,1,50,8|0,2:1|2:1,2:1:0:0:
144,48,264600,1,4,2:1:0:0:
272,168,264788,6,0,P|192:208|160:208,1,100,4|0,2:1|2:1,2:1:0:0:
88,136,265163,1,0,2:1:0:0:
216,72,265350,2,0,P|280:72|320:104,1,100,0|0,2:1|2:1,2:1:0:0:
445,197,265725,6,0,L|439:260,1,50,8|0,2:1|2:1,2:1:0:0:
257,233,265913,6,0,L|262:169,1,50,8|0,2:1|2:1,2:1:0:0:
346,245,266100,6,0,L|340:308,1,50,8|0,2:1|2:1,2:1:0:0:
159,218,266288,5,4,2:1:0:0:
66,163,266475,1,0,2:1:0:0:
183,111,266663,1,0,2:1:0:0:
91,40,266850,2,0,L|218:28,1,100,0|0,2:1|2:1,2:1:0:0:
360,48,267225,6,0,L|354:111,1,50,8|0,2:1|2:1,2:1:0:0:
263,230,267413,2,0,L|268:293,1,50,8|0,2:1|2:1,2:1:0:0:
389,319,267600,2,0,L|375:159,1,150,4|0,2:1|2:1,2:1:0:0:
329,62,267975,2,0,P|280:59|235:80,1,100,0|0,2:1|2:1,2:1:0:0:
208,216,268350,5,2,2:1:0:0:
208,216,268444,1,2,2:1:0:0:
208,216,268538,2,0,P|176:280|128:304,1,100,2|0,2:1|2:1,2:1:0:0:
74,246,268913,5,2,2:1:0:0:
175,101,269100,1,2,2:1:0:0:
213,88,269194,1,0,2:1:0:0:
253,87,269288,1,4,1:1:0:0:
384,176,269475,1,0,1:1:0:0:
299,333,269663,1,8,1:1:0:0:
240,176,269850,5,2,1:1:0:0:
240,176,269944,1,2,1:1:0:0:
240,176,270038,2,0,P|211:122|240:56,1,100,8|0,1:1|1:1,1:1:0:0:
393,68,270413,1,8,1:1:0:0:
450,246,270600,1,0,1:1:0:0:
369,187,270788,1,8,1:1:0:0:
343,333,270975,2,0,L|231:323,1,100,0|8,1:1|1:1,1:1:0:0:
208,208,271350,5,2,1:1:0:0:
208,208,271444,1,2,1:1:0:0:
208,208,271538,2,0,P|240:157|280:136,1,100,8|0,1:1|1:1,1:1:0:0:
441,77,271913,1,8,1:1:0:0:
491,239,272100,1,0,1:1:0:0:
240,320,272288,1,8,1:1:0:0:
120,284,272475,6,0,P|102:230|108:156,1,100,2|8,1:1|1:1,1:1:0:0:
214,106,272850,2,0,P|232:160|225:233,1,100,2|8,1:1|1:1,1:1:0:0:
218,332,273225,1,0,0:0:0:0:
430,297,273413,1,0,0:0:0:0:
287,182,273600,1,0,0:0:0:0:
446,82,273788,5,12,0:1:0:0:
446,82,273881,1,0,0:1:0:0:
446,82,273975,2,0,L|366:75,1,50,0|0,0:1|0:1,0:1:0:0:
322,34,274163,2,0,L|272:38,1,50,0|0,0:1|0:1,0:1:0:0:
236,111,274350,2,0,L|186:106,1,50,0|0,0:1|0:1,0:1:0:0:
86,200,274538,5,12,0:1:0:0:
86,200,274631,1,0,0:1:0:0:
86,200,274725,2,0,L|165:206,1,50,0|0,0:1|0:1,0:1:0:0:
210,248,274913,2,0,L|259:243,1,50,0|0,0:1|0:1,0:1:0:0:
296,171,275100,2,0,L|345:175,1,50,0|0,0:1|0:1,0:1:0:0:
445,259,275288,5,6,2:1:0:0:
339,117,275475,1,2,2:1:0:0:
254,244,275663,1,10,2:1:0:0:
131,110,275850,2,0,P|75:126|59:182,1,100,4|0,0:1|0:1,0:1:0:0:
118,332,276225,2,0,P|174:316|190:260,1,100,4|0,0:1|0:1,0:1:0:0:
243,109,276600,6,0,L|250:208,1,100,8|0,0:1|0:1,0:1:0:0:
305,300,276975,1,0,0:1:0:0:
386,174,277163,1,2,0:1:0:0:
286,65,277350,2,0,P|198:65|166:89,1,100,0|0,0:1|0:1,0:1:0:0:
88,224,277725,5,2,0:1:0:0:
251,330,277913,1,2,0:1:0:0:
408,234,278100,2,0,P|372:156|339:141,2,100,2|0|0,0:1|0:1|0:1,0:1:0:0:
384,320,278663,5,0,0:1:0:0:
467,183,278850,2,0,L|457:71,1,100,2|0,0:1|0:1,0:1:0:0:
326,127,279225,2,0,L|335:238,1,100,2|0,0:1|0:1,0:1:0:0:
464,352,279600,1,2,0:1:0:0:
320,320,279788,6,0,L|256:314,1,50,8|0,0:1|0:1,0:1:0:0:
160,256,279975,2,0,L|209:251,1,50,8|0,0:1|0:1,0:1:0:0:
320,176,280163,2,0,L|256:170,1,50,8|0,0:1|0:1,0:1:0:0:
160,112,280350,2,0,L|209:107,1,50,8|0,0:1|0:1,0:1:0:0:
408,48,280538,5,8,0:1:0:0:
440,80,280631,1,0,0:1:0:0:
461,111,280725,2,0,L|450:165,1,50,0|0,0:1|0:1,0:1:0:0:
355,179,280913,1,8,0:1:0:0:
400,296,281100,5,2,0:1:0:0:
400,296,281194,1,2,0:1:0:0:
400,296,281288,2,0,P|344:320|296:304,1,100,4|0,0:1|0:1,0:1:0:0:
225,187,281663,1,8,0:1:0:0:
175,294,281850,2,0,P|127:246|127:182,1,100,2|0,0:1|0:1,0:1:0:0:
96,86,282225,2,0,P|48:134|48:198,1,100,10|0,0:1|0:1,0:1:0:0:
192,80,282600,6,0,L|304:96,1,100,4|0,0:1|0:1,0:1:0:0:
432,152,282975,1,10,0:1:0:0:
304,224,283163,1,2,0:1:0:0:
149,95,283350,6,8,P|220:63|313:90,1,150,0|0,3:1|3:1,3:1:0:0:
390,105,283725,6,0,P|423:164|404:218,1,100,8|0,3:1|3:1,3:1:0:0:
389,293,284006,6,0,P|317:333|253:341,1,100,8|0,3:1|3:1,3:1:0:0:
191,301,284288,5,12,0:0:0:0:
191,301,284381,1,0,0:0:0:0:
191,301,284475,2,0,L|143:252,1,50
221,152,284663,2,0,L|207:200,1,50,8|0,0:0|0:0,0:0:0:0:
79,201,284850,2,0,L|127:188,1,50
321,83,285038,5,12,0:0:0:0:
321,83,285131,1,0,0:0:0:0:
321,83,285225,2,0,L|369:132,1,50
291,232,285413,2,0,L|304:183,1,50,8|0,0:0|0:0,0:0:0:0:
433,183,285600,2,0,L|384:195,1,50
161,217,285788,5,12,0:1:0:0:
161,217,285881,1,0,0:1:0:0:
161,217,285975,2,0,L|154:154,1,50,0|0,0:1|0:1,0:1:0:0:
388,134,286163,5,8,0:1:0:0:
388,134,286256,1,0,0:1:0:0:
388,134,286350,2,0,L|381:197,1,50,0|0,0:1|0:1,0:1:0:0:
237,297,286538,2,0,L|244:234,1,50,0|0,0:1|0:1,0:1:0:0:
323,91,286725,2,0,L|316:154,1,50,0|0,0:1|0:1,0:1:0:0:
240,126,286913,1,10,0:1:0:0:
120,91,288788,6,0,P|64:139|80:251,1,175,0|0,2:1|2:1,2:1:0:0:
156,321,289538,2,0,L|142:169,1,150.000005722046,6|0,2:1|2:1,2:1:0:0:
75,56,290100,1,8,2:1:0:0:
75,56,290288,2,0,P|155:56|219:120,1,150.000005722046,10|0,2:1|2:1,2:1:0:0:
356,321,290850,5,0,2:1:0:0:
356,321,291038,2,0,L|369:169,1,150.000005722046,6|0,2:1|2:1,2:1:0:0:
437,56,291600,1,8,2:1:0:0:
437,56,291788,2,0,P|357:56|293:120,1,150.000005722046,10|0,2:1|2:1,2:1:0:0:
168,320,292538,6,0,P|120:280|96:168,1,150.000005722046,2|0,2:1|2:1,2:1:0:0:
256,128,293100,1,8,2:1:0:0:
256,128,293288,2,0,L|264:223,2,75.0000028610231,10|0|0,2:1|2:1|2:1,2:1:0:0:
336,48,293850,5,0,2:1:0:0:
416,144,294038,2,0,P|395:220|310:232,1,150.000005722046,10|0,2:1|2:1,2:1:0:0:
168,168,294600,1,8,2:1:0:0:
168,168,294788,2,0,P|112:224|144:304,1,150.000005722046,10|0,2:1|2:1,2:1:0:0:
272,320,295350,5,0,2:1:0:0:
400,320,295538,2,0,L|415:144,1,150.000005722046,2|0,2:1|2:1,2:1:0:0:
272,96,296100,1,8,2:1:0:0:
272,96,296288,2,0,L|285:245,1,150.000005722046,2|0,2:1|2:1,2:1:0:0:
120,288,296850,5,0,2:1:0:0:
88,184,297038,2,0,P|112:120|200:72,1,150.000005722046,2|0,2:1|2:1,2:1:0:0:
412,80,297600,1,8,2:1:0:0:
412,80,297788,2,0,P|404:152|324:208,1,150.000005722046,10|0,2:1|2:1,2:1:0:0:
233,210,298350,5,0,2:1:0:0:
131,273,298538,2,0,P|163:329|242:357,1,150.000005722046,2|0,2:1|2:1,2:1:0:0:
369,342,299100,1,8,2:1:0:0:
450,282,299288,1,0,2:1:0:0:
369,222,299475,1,0,2:1:0:0:
450,162,299663,1,0,2:1:0:0:
369,102,299850,5,0,2:1:0:0:
450,42,300038,2,0,P|464:128|429:183,1,150.000005722046,2|0,2:1|2:1,2:1:0:0:
192,240,300600,1,8,2:1:0:0:
160,80,300788,5,10,0:1:0:0:
189,85,300881,1,2,0:1:0:0:
216,97,300975,1,2,0:1:0:0:
237,118,301069,1,2,0:1:0:0:
252,143,301163,2,0,L|255:180,1,37.5000014305115,8|0,0:1|0:1,0:1:0:0:
320,267,301350,2,0,L|323:229,1,37.5000014305115,8|0,0:1|0:1,0:1:0:0:
345,134,301538,6,0,P|393:134|433:150,2,75.0000028610231,4|0|0,3:1|3:1|3:1,3:1:0:0:
238,263,302100,1,0,3:1:0:0:
328,351,302288,2,0,P|408:311|416:239,1,150.000005722046,8|0,3:1|3:1,3:1:0:0:
432,91,302850,5,0,3:1:0:0:
333,72,303038,2,0,P|285:120|277:152,2,75.0000028610231,2|0|0,3:1|3:1|3:1,3:1:0:0:
369,157,303600,1,0,3:1:0:0:
420,249,303788,2,0,L|260:262,1,150.000005722046,8|0,3:1|3:1,3:1:0:0:
104,272,304350,5,0,3:1:0:0:
104,272,304444,1,0,3:1:0:0:
104,272,304538,2,0,P|96:224|120:176,1,75.0000028610231,2|0,3:1|3:1,3:1:0:0:
276,189,304913,2,0,P|283:225|275:261,1,75.0000028610231,2|0,3:1|3:1,3:1:0:0:
191,346,305194,1,0,0:0:0:0:
191,346,305288,2,0,P|263:338|287:322,2,75.0000028610231,8|0|0,3:1|3:1|3:1,3:1:0:0:
189,220,305850,5,0,3:1:0:0:
120,120,306038,2,0,P|145:74|189:54,2,75.0000028610231,2|0|0,3:1|3:1|3:1,3:1:0:0:
80,256,306600,1,0,3:0:0:0:
183,336,306788,5,10,3:1:0:0:
218,347,306881,1,2,3:1:0:0:
255,350,306975,1,2,3:1:0:0:
294,347,307069,1,2,3:1:0:0:
329,336,307163,1,10,3:1:0:0:
432,256,307350,1,0,3:0:0:0:
461,145,307538,6,0,P|461:97|437:33,1,100,2|0,3:1|3:1,3:1:0:0:
328,64,308100,1,0,3:1:0:0:
224,144,308288,2,0,L|335:153,1,100,2|0,3:1|3:1,3:1:0:0:
367,247,308850,1,0,3:1:0:0:
248,329,309038,2,0,L|136:319,1,100,2|0,3:1|3:1,3:1:0:0:
152,160,309600,1,0,3:1:0:0:
34,213,309788,1,2,3:1:0:0:
117,318,309975,5,0,0:1:0:0:
148,320,310069,1,0,0:1:0:0:
180,323,310163,1,2,0:1:0:0:
212,326,310256,1,2,0:1:0:0:
244,329,310350,2,0,L|291:333,1,37.5000014305115,0|0,0:1|0:1,0:1:0:0:
416,320,310538,6,0,P|464:288|480:240,1,100,12|0,0:1|0:1,0:1:0:0:
481,103,310913,1,8,0:1:0:0:
359,136,311100,6,0,L|352:207,1,50,0|0,0:1|0:1,0:1:0:0:
322,319,311288,1,8,0:1:0:0:
205,222,311475,6,0,L|276:228,1,50,0|0,0:1|0:1,0:1:0:0:
388,259,311663,1,8,0:1:0:0:
223,351,311850,6,0,L|229:279,1,50,0|0,0:1|0:1,0:1:0:0:
238,121,312038,1,8,0:1:0:0:
258,87,312131,1,0,0:1:0:0:
286,58,312225,1,0,0:1:0:0:
324,47,312319,1,0,0:1:0:0:
363,52,312413,6,0,L|434:58,1,50,0|0,0:1|0:1,0:1:0:0:
478,152,312600,2,0,L|406:145,1,50,0|0,0:1|0:1,0:1:0:0:
325,201,312788,5,8,0:1:0:0:
315,229,312881,1,0,0:1:0:0:
304,257,312975,1,0,0:1:0:0:
293,285,313069,1,0,0:1:0:0:
280,312,313163,1,8,0:1:0:0:
171,315,313350,1,8,0:1:0:0:
72,312,313538,6,0,P|49:285|45:244,1,75.0000028610231,8|0,0:1|0:1,0:1:0:0:
198,99,313725,2,0,P|221:126|225:167,1,75.0000028610231,8|0,0:1|0:1,0:1:0:0:
127,249,313913,2,0,L|135:153,1,75.0000028610231,8|0,0:1|0:1,0:1:0:0:
287,202,314100,2,0,L|280:282,1,75.0000028610231,8|0,0:1|0:1,0:1:0:0:
299,87,314288,5,8,0:1:0:0:
299,87,314381,1,0,0:1:0:0:
299,87,314475,2,0,L|404:96,1,75.0000028610231,0|0,0:1|0:1,0:1:0:0:
467,181,314663,1,8,0:1:0:0:
467,181,314756,1,0,0:1:0:0:
467,181,314850,2,0,L|361:190,1,75.0000028610231,0|0,0:1|0:1,0:1:0:0:
208,273,315038,6,0,P|193:239|196:202,1,75.0000028610231,8|0,0:1|0:1,0:1:0:0:
294,115,315225,2,0,L|374:122,1,75.0000028610231,0|0,0:1|0:1,0:1:0:0:
412,286,315413,2,0,L|332:279,1,75.0000028610231,0|0,0:1|0:1,0:1:0:0:
454,110,315600,2,0,P|469:144|466:181,1,75.0000028610231,8|0,0:1|0:1,0:1:0:0:
294,225,315788,5,4,2:1:0:0:
294,225,315881,1,0,2:1:0:0:
294,225,315975,2,0,L|206:232,1,75.0000028610231,0|0,0:1|0:1,0:1:0:0:
124,152,316163,1,12,2:1:0:0:
124,152,316256,1,0,2:1:0:0:
124,152,316350,2,0,L|211:144,1,75.0000028610231,0|0,0:1|0:1,0:1:0:0:
331,68,316538,5,8,0:1:0:0:
368,91,316631,1,0,0:1:0:0:
396,127,316725,2,0,P|417:162|426:205,1,75.0000028610231,0|0,0:1|0:1,0:1:0:0:
295,324,316913,5,8,0:1:0:0:
249,298,317006,1,0,0:1:0:0:
218,255,317100,2,0,P|197:220|188:177,1,75.0000028610231,0|0,0:1|0:1,0:1:0:0:
341,38,317288,6,0,L|421:45,1,75.0000028610231,8|0,0:1|0:1,0:1:0:0:
340,166,317475,2,0,L|260:159,1,75.0000028610231,8|0,0:1|0:1,0:1:0:0:
184,66,317663,2,0,L|263:72,1,75.0000028610231,8|0,0:1|0:1,0:1:0:0:
182,193,317850,2,0,L|102:186,1,75.0000028610231,8|0,0:1|0:1,0:1:0:0:
58,91,318038,5,8,0:1:0:0:
58,91,318131,1,0,0:1:0:0:
58,91,318225,2,0,L|64:11,1,75.0000028610231,0|0,0:1|0:1,0:1:0:0:
107,186,318413,2,0,L|100:265,1,75.0000028610231,0|0,0:1|0:1,0:1:0:0:
235,154,318600,2,0,L|241:74,1,75.0000028610231,0|0,0:1|0:1,0:1:0:0:
355,217,318788,5,8,0:1:0:0:
355,217,318881,1,0,0:1:0:0:
354,216,318975,2,0,L|347:290,1,75.0000028610231,0|0,0:1|0:1,0:1:0:0:
483,165,319163,5,8,0:1:0:0:
483,165,319256,1,0,0:1:0:0:
483,165,319350,2,0,L|476:90,1,75.0000028610231,0|0,0:1|0:1,0:1:0:0:
270,246,319538,5,8,0:1:0:0:
270,246,319631,1,0,0:1:0:0:
270,246,319725,2,0,L|190:239,1,75.0000028610231,0|0,0:1|0:1,0:1:0:0:
135,135,319913,2,0,L|214:141,1,75.0000028610231,0|0,0:1|0:1,0:1:0:0:
106,216,320100,2,0,L|31:222,1,75.0000028610231,0|0,0:1|0:1,0:1:0:0:
135,314,320288,5,8,0:1:0:0:
135,314,320381,1,0,0:1:0:0:
134,313,320475,2,0,L|208:306,1,75.0000028610231,0|0,0:1|0:1,0:1:0:0:
356,197,320663,2,0,L|282:204,1,75.0000028610231,0|0,0:1|0:1,0:1:0:0:
346,305,320850,2,0,L|420:298,1,75.0000028610231,0|0,0:1|0:1,0:1:0:0:
155,159,321038,5,8,0:1:0:0:
155,159,321131,1,0,0:1:0:0:
155,159,321225,2,0,L|115:222,1,75.0000028610231,0|0,0:1|0:1,0:1:0:0:
239,307,321413,2,0,L|204:241,1,75.0000028610231,8|0,0:1|0:1,0:1:0:0:
67,311,321600,2,0,L|141:313,1,75.0000028610231,8|0,0:1|0:1,0:1:0:0:
324,156,321788,5,8,0:1:0:0:
324,156,321881,1,0,0:1:0:0:
324,156,321975,2,0,L|364:93,1,75.0000028610231,0|0,0:1|0:1,0:1:0:0:
413,175,322163,2,0,L|448:241,1,75.0000028610231,8|8,0:1|0:1,0:1:0:0:
350,247,322350,2,0,L|276:245,1,75.0000028610231,8|0,0:1|0:1,0:1:0:0:
112,128,322538,6,0,P|169:78|224:112,1,150,4|0,0:1|0:1,0:1:0:0:
128,208,323288,1,2,0:1:0:0:
302,85,323475,5,8,0:1:0:0:
302,85,323569,1,8,0:1:0:0:
302,85,323663,2,0,L|306:134,1,50,10|0,0:1|0:1,0:1:0:0:
416,144,323850,2,0,L|411:193,1,50,10|0,0:1|0:1,0:1:0:0:
314,236,324038,1,12,0:1:0:0:
347,331,324225,6,0,P|290:344|222:322,1,100,2|0,3:1|3:1,3:1:0:0:
159,290,324506,1,0,0:0:0:0:
159,290,324600,2,0,L|149:178,1,100,2|0,3:1|3:1,3:1:0:0:
256,112,324881,1,0,0:0:0:0:
256,112,324975,2,0,L|265:223,1,100,2|0,3:1|3:1,3:1:0:0:
149,80,325350,1,2,3:1:0:0:
272,16,325538,5,4,3:1:0:0:
149,80,325725,2,0,P|104:116|91:182,1,100,2|0,3:1|3:1,3:1:0:0:
176,256,326006,1,0,0:0:0:0:
176,256,326100,2,0,L|275:247,1,100,2|0,3:1|3:1,3:1:0:0:
336,128,326381,1,0,0:0:0:0:
336,128,326475,2,0,L|236:136,1,100,2|0,3:1|3:1,3:1:0:0:
384,240,326850,1,2,3:1:0:0:
416,112,327038,5,4,3:1:0:0:
384,240,327225,2,0,P|353:289|312:299,1,100,2|0,3:1|3:1,3:1:0:0:
144,208,327506,1,0,0:0:0:0:
144,208,327600,2,0,L|255:217,1,100,2|0,3:1|3:1,3:1:0:0:
368,112,327881,1,0,0:0:0:0:
368,112,327975,2,0,L|256:102,1,100,2|0,3:1|3:1,3:1:0:0:
139,84,328256,5,0,0:0:0:0:
139,84,328350,2,0,P|110:129|126:187,1,100,2|0,3:1|3:1,3:1:0:0:
272,320,328631,1,0,0:0:0:0:
272,320,328725,2,0,P|301:275|285:217,1,100,2|0,3:1|3:1,3:1:0:0:
202,74,329100,6,0,L|190:202,1,100,8|0,3:1|3:1,3:1:0:0:
104,264,329381,1,0,0:0:0:0:
104,264,329475,2,0,L|109:198,1,50
103,86,329663,1,0,3:0:0:0:
103,86,329756,1,0,3:0:0:0:
103,86,329850,1,8,3:1:0:0:
213,58,330038,6,0,P|250:56|286:66,1,75.0000028610231,4|0,0:1|0:1,0:1:0:0:
368,304,330225,2,0,P|331:306|295:296,1,75.0000028610231,8|0,0:1|0:1,0:1:0:0:
272,136,330413,2,0,P|299:160|317:193,1,75.0000028610231,0|0,0:1|0:1,0:1:0:0:
176,344,330600,2,0,P|148:319|130:286,1,75.0000028610231,8|0,0:1|0:1,0:1:0:0:
128,112,330788,6,0,L|135:24,1,75.0000028610231,0|0,0:1|0:1,0:1:0:0:
224,200,330975,2,0,L|216:287,1,75.0000028610231,8|0,0:1|0:1,0:1:0:0:
320,104,331163,2,0,L|327:16,1,75.0000028610231,0|0,0:1|0:1,0:1:0:0:
416,192,331350,2,0,L|408:279,1,75.0000028610231,8|0,0:1|0:1,0:1:0:0:
248,326,331538,5,4,0:1:0:0:
203,328,331631,1,0,0:1:0:0:
160,311,331725,2,0,P|125:296|97:271,1,75.0000028610231,8|0,0:1|0:1,0:1:0:0:
154,133,331913,5,0,2:1:0:0:
201,137,332006,1,0,2:1:0:0:
249,141,332100,2,0,L|336:148,1,75.0000028610231,8|0,2:1|2:1,2:1:0:0:
358,251,332288,5,0,2:1:0:0:
311,247,332381,1,0,2:1:0:0:
263,243,332475,2,0,L|175:235,1,75.0000028610231,8|0,2:1|2:1,2:1:0:0:
264,57,332663,5,0,0:1:0:0:
309,56,332756,1,0,0:1:0:0:
352,73,332850,2,0,P|386:87|414:112,1,75.0000028610231,8|0,0:1|0:1,0:1:0:0:
292,279,333038,5,4,0:1:0:0:
292,279,333131,1,0,0:1:0:0:
292,279,333225,2,0,L|285:358,1,75.0000028610231,8|0,0:1|0:1,0:1:0:0:
193,188,333413,5,0,0:1:0:0:
193,188,333506,1,0,0:1:0:0:
193,188,333600,2,0,L|199:267,1,75.0000028610231,8|0,0:1|0:1,0:1:0:0:
303,111,333788,5,0,0:1:0:0:
303,111,333881,1,0,0:1:0:0:
303,111,333975,2,0,L|296:190,1,75.0000028610231,8|0,0:1|0:1,0:1:0:0:
203,70,334163,5,0,0:1:0:0:
203,70,334256,1,0,0:1:0:0:
203,70,334350,2,0,P|129:55|41:83,1,150.000005722046,8|0,0:1|0:1,0:1:0:0:
46,283,334631,1,0,0:0:0:0:
46,283,334725,2,0,P|27:211|51:141,1,150.000005722046,8|0,0:1|0:1,0:1:0:0:
208,56,335100,1,0,0:0:0:0:
379,77,335288,1,0,0:1:0:0:
439,257,335475,1,10,0:1:0:0:
427,284,335569,1,2,0:1:0:0:
407,307,335663,6,2,P|380:333|341:342,1,75.0000028610231,2|2,0:1|0:1,0:1:0:0:
219,337,335850,1,12,0:1:0:0:
