osu file format v14

[General]
AudioFilename: audio.mp3
AudioLeadIn: 0
PreviewTime: 288798
Countdown: 0
SampleSet: Soft
StackLeniency: 0.4
Mode: 0
LetterboxInBreaks: 0
WidescreenStoryboard: 0

[Editor]
DistanceSpacing: 0.5
BeatDivisor: 4
GridSize: 32
TimelineZoom: 2.6

[Metadata]
Title:Shinzou o Sasageyo!
TitleUnicode:心臓を捧げよ!
Artist:Linked Horizon
ArtistUnicode:Linked Horizon
Creator:wolf3211
Version:Devote Your Heart to Humanity
Source:進撃の巨人
Tags:revo attack on titan shingeki no kyojin season 2 two dedicate all your hearts heart snk aot opening one theme song full anime japanese j-rock jrock rock
BeatmapID:2598068
BeatmapSetID:1250057

[Difficulty]
HPDrainRate:6
CircleSize:4.2
OverallDifficulty:9
ApproachRate:9.5
SliderMultiplier:2.2
SliderTickRate:1

[Events]
//Background and Video events
0,0,"BG.jpg",0,0
//Break Periods
2,59522,61234
2,118022,119734
2,289772,300109
2,307772,309484
//Storyboard Layer 0 (Background)
//Storyboard Layer 1 (Fail)
//Storyboard Layer 2 (Pass)
//Storyboard Layer 3 (Foreground)
//Storyboard Layer 4 (Overlay)
//Storyboard Sound Samples

[TimingPoints]
2322,375,4,2,21,50,1,0
2322,-153.846153846153,4,2,21,50,0,0
2790,-153.846153846153,4,2,21,5,0,0
2884,-153.846153846153,4,2,21,50,0,0
4290,-153.846153846153,4,2,21,5,0,0
4384,-153.846153846153,4,2,21,50,0,0
5322,-71.4285714285714,4,2,12,72,0,0
8322,-117.64705882353,4,2,12,48,0,0
9634,-117.64705882353,4,2,12,32,0,0
9822,-117.64705882353,4,2,12,48,0,0
10947,-117.64705882353,4,2,12,32,0,0
11322,-117.64705882353,4,2,12,48,0,0
12634,-117.64705882353,4,2,12,32,0,0
12822,-117.64705882353,4,2,12,48,0,0
13947,-117.64705882353,4,2,12,32,0,0
14322,-117.64705882353,4,2,12,48,0,0
14884,-117.64705882353,4,2,12,32,0,0
15072,-117.64705882353,4,2,12,48,0,0
16384,-117.64705882353,4,2,12,32,0,0
16572,-117.64705882353,4,2,12,48,0,0
16759,-117.64705882353,4,2,12,32,0,0
17322,-117.64705882353,4,2,12,48,0,0
17884,-117.64705882353,4,2,12,32,0,0
18072,-117.64705882353,4,2,12,48,0,0
18634,-117.64705882353,4,2,12,32,0,0
18822,-95.2380952380956,4,2,12,55,0,0
19103,-95.2380952380956,4,2,12,5,0,0
19197,-86.9565217391304,4,2,12,58,0,0
19478,-86.9565217391304,4,2,12,5,0,0
19572,-80,4,2,12,61,0,0
19853,-80,4,2,12,5,0,0
19947,-74.0740740740741,4,2,12,64,0,0
20322,-100,4,2,12,60,0,0
25947,-100,4,2,12,52,0,0
26134,-100,4,2,12,56,0,0
26322,-100,4,2,12,60,0,0
30822,-71.4285714285714,4,2,12,64,0,0
31103,-71.4285714285714,4,2,12,5,0,0
31197,-71.4285714285714,4,2,12,68,0,0
31478,-71.4285714285714,4,2,12,5,0,0
31572,-71.4285714285714,4,2,12,72,0,0
31947,-71.4285714285714,4,2,5,54,0,0
32322,-100,4,2,12,64,0,0
34572,-71.4285714285714,4,2,12,68,0,0
34853,-71.4285714285714,4,2,12,5,0,0
34947,-71.4285714285714,4,2,12,70,0,0
35228,-71.4285714285714,4,2,12,5,0,0
35322,-71.4285714285714,4,2,12,64,0,0
36822,-90.9090909090909,4,2,12,64,0,0
38322,-100,4,2,12,64,0,0
40572,-66.6666666666667,4,2,12,68,0,0
40853,-66.6666666666667,4,2,12,5,0,0
40947,-66.6666666666667,4,2,12,70,0,0
41228,-66.6666666666667,4,2,12,5,0,0
41322,-100,4,2,12,64,0,0
42822,-58.8235294117647,4,2,12,70,0,0
44322,-83.3333333333333,4,2,12,72,0,0
45447,-58.8235294117647,4,2,12,72,0,0
45822,-83.3333333333333,4,2,12,72,0,0
46572,-71.4285714285714,4,2,12,72,0,0
46947,-58.8235294117647,4,2,12,72,0,0
47322,-100,4,2,12,55,0,0
47415,-100,4,2,12,5,0,0
47509,-100,4,2,12,55,0,0
47603,-100,4,2,12,5,0,0
47697,-100,4,2,12,55,0,0
47790,-100,4,2,12,5,0,0
47884,-100,4,2,12,55,0,0
47978,-100,4,2,12,5,0,0
48072,-100,4,2,12,55,0,0
48165,-100,4,2,12,5,0,0
48259,-100,4,2,12,55,0,0
48353,-100,4,2,12,5,0,0
48447,-100,4,2,12,55,0,0
48540,-100,4,2,12,5,0,0
48634,-100,4,2,12,55,0,0
48728,-100,4,2,12,5,0,0
48822,-100,4,2,12,55,0,0
49947,-100,4,2,12,64,0,0
50322,-76.9230769230769,4,2,12,70,0,0
50697,-100,4,2,12,70,0,0
51072,-76.9230769230769,4,2,12,70,0,0
51822,-58.8235294117647,4,2,12,75,0,0
53322,-125,4,2,12,68,0,0
59322,-125,4,2,12,50,0,0
61947,-166.666666666667,4,2,12,64,0,0
62322,-71.4285714285714,4,2,12,68,0,0
63822,-55.5555555555556,4,2,12,73,0,0
65134,-83.3333333333333,4,2,12,75,0,0
65322,-66.6666666666667,4,2,12,80,0,1
67572,-55.5555555555556,4,2,12,80,0,1
68040,-55.5555555555556,4,2,12,5,0,1
68134,-55.5555555555556,4,2,12,80,0,1
68228,-55.5555555555556,4,2,12,5,0,1
68322,-66.6666666666667,4,2,12,80,0,1
70572,-55.5555555555556,4,2,12,80,0,1
71040,-55.5555555555556,4,2,12,5,0,1
71134,-55.5555555555556,4,2,12,80,0,1
71228,-55.5555555555556,4,2,12,5,0,1
71322,-66.6666666666667,4,2,12,80,0,1
73572,-62.5,4,2,12,80,0,1
74322,-62.5,4,2,12,80,0,0
75822,-62.5,4,2,12,80,0,1
76290,-62.5,4,2,12,5,0,1
76384,-62.5,4,2,12,80,0,1
77790,-62.5,4,2,12,5,0,1
77884,-62.5,4,2,12,80,0,1
79290,-62.5,4,2,12,5,0,1
79384,-62.5,4,2,12,80,0,1
81822,-62.5,4,2,12,80,0,1
82290,-62.5,4,2,12,5,0,1
82384,-62.5,4,2,12,80,0,1
83790,-62.5,4,2,12,5,0,1
83884,-62.5,4,2,12,80,0,1
85290,-62.5,4,2,12,5,0,1
85384,-62.5,4,2,12,80,0,1
87822,-111.111111111111,4,2,12,80,0,0
88853,-111.111111111111,4,2,12,5,0,0
88947,-111.111111111111,4,2,12,80,0,0
89040,-111.111111111111,4,2,12,5,0,0
89134,-111.111111111111,4,2,12,80,0,0
90822,-100,4,2,12,64,0,0
93072,-83.3333333333333,4,2,12,68,0,0
93353,-83.3333333333333,4,2,12,5,0,0
93447,-71.4285714285714,4,2,12,70,0,0
93728,-71.4285714285714,4,2,12,5,0,0
93822,-100,4,2,12,64,0,0
96072,-83.3333333333333,4,2,12,68,0,0
96447,-83.3333333333333,4,2,12,70,0,0
96822,-100,4,2,12,64,0,0
99072,-66.6666666666667,4,2,12,68,0,0
99353,-66.6666666666667,4,2,12,5,0,0
99447,-66.6666666666667,4,2,12,72,0,0
99728,-66.6666666666667,4,2,12,5,0,0
99822,-100,4,2,12,64,0,0
101322,-66.6666666666667,4,2,12,70,0,0
102822,-83.3333333333333,4,2,12,72,0,0
103947,-62.5,4,2,12,72,0,0
104322,-83.3333333333333,4,2,12,72,0,0
105072,-71.4285714285714,4,2,12,72,0,0
105447,-58.8235294117647,4,2,12,72,0,0
105822,-100,4,2,12,55,0,0
105915,-100,4,2,12,5,0,0
106009,-100,4,2,12,55,0,0
106103,-100,4,2,12,5,0,0
106197,-100,4,2,12,55,0,0
106290,-100,4,2,12,5,0,0
106384,-100,4,2,12,55,0,0
106478,-100,4,2,12,5,0,0
106572,-100,4,2,12,55,0,0
106665,-100,4,2,12,5,0,0
106759,-100,4,2,12,55,0,0
106853,-100,4,2,12,5,0,0
106947,-100,4,2,12,55,0,0
107040,-100,4,2,12,5,0,0
107134,-100,4,2,12,55,0,0
108447,-100,4,2,12,64,0,0
108822,-62.5,4,2,12,70,0,0
110322,-55.5555555555556,4,2,12,75,0,0
111447,-66.6666666666667,4,2,12,75,0,0
111822,-125,4,2,12,68,0,0
117822,-250,4,2,12,50,0,0
120447,-166.666666666667,4,2,12,64,0,0
120822,-71.4285714285715,4,2,12,68,0,0
122322,-55.5555555555556,4,2,12,72,0,0
123634,-83.3333333333333,4,2,12,75,0,0
123822,-62.5,4,2,12,80,0,1
126072,-55.5555555555556,4,2,12,80,0,1
126540,-55.5555555555556,4,2,12,5,0,1
126634,-55.5555555555556,4,2,12,80,0,1
126728,-55.5555555555556,4,2,12,5,0,1
126822,-62.5,4,2,12,80,0,1
129072,-55.5555555555556,4,2,12,80,0,1
129540,-55.5555555555556,4,2,12,5,0,1
129634,-55.5555555555556,4,2,12,80,0,1
129822,-62.5,4,2,12,80,0,1
132072,-62.5,4,2,12,80,0,1
132822,-80,4,2,12,80,0,0
134322,-62.5,4,2,12,80,0,1
134790,-62.5,4,2,12,5,0,1
134884,-62.5,4,2,12,80,0,1
136290,-62.5,4,2,12,5,0,1
136384,-62.5,4,2,12,80,0,1
137790,-62.5,4,2,12,5,0,1
137884,-62.5,4,2,12,80,0,1
140322,-62.5,4,2,12,80,0,1
140790,-62.5,4,2,12,5,0,1
140884,-62.5,4,2,12,80,0,1
142290,-62.5,4,2,12,5,0,1
142384,-62.5,4,2,12,80,0,1
143790,-62.5,4,2,12,5,0,1
143884,-62.5,4,2,12,80,0,1
146322,-83.3333333333333,4,2,12,80,0,1
149322,-100,4,2,12,64,0,0
150915,-100,4,2,12,5,0,0
151009,-100,4,2,12,64,0,0
151103,-100,4,2,12,5,0,0
151197,-100,4,2,12,64,0,0
153915,-100,4,2,12,5,0,0
154009,-100,4,2,12,64,0,0
154103,-100,4,2,12,5,0,0
154197,-100,4,2,12,64,0,0
154947,-83.3333333333333,4,2,12,64,0,0
155322,-100,4,2,12,64,0,0
156915,-100,4,2,12,5,0,0
157009,-100,4,2,12,64,0,0
157103,-100,4,2,12,5,0,0
157197,-100,4,2,12,64,0,0
157947,-83.3333333333333,4,2,12,64,0,0
158322,-100,4,2,12,64,0,0
159822,-71.4285714285714,4,2,12,74,0,0
160478,-71.4285714285714,4,2,12,5,0,0
160572,-71.4285714285714,4,2,12,74,0,0
160947,-71.4285714285714,4,2,12,64,0,0
161322,-83.3333333333333,4,2,12,64,0,0
171822,-66.6666666666667,4,2,12,68,0,0
172103,-66.6666666666667,4,2,12,5,0,0
172197,-50,4,2,12,72,0,0
172478,-58.8235294117647,4,2,12,5,0,0
172572,-58.8235294117647,4,2,12,75,0,0
173322,-90.9090909090909,4,2,12,68,0,0
178103,-90.9090909090909,4,2,12,5,0,0
178197,-90.9090909090909,4,2,12,68,0,0
178853,-90.9090909090909,4,2,12,5,0,0
178947,-90.9090909090909,4,2,12,68,0,0
181759,-90.9090909090909,4,2,12,5,0,0
181853,-90.9090909090909,4,2,12,68,0,0
182040,-90.9090909090909,4,2,12,5,0,0
182134,-90.9090909090909,4,2,12,68,0,0
182228,-90.9090909090909,4,2,12,5,0,0
182322,-80,4,2,12,74,0,1
183353,-80,4,2,12,5,0,1
183447,-80,4,2,12,74,0,1
183822,-80,4,2,12,74,0,1
184853,-80,4,2,12,5,0,1
184947,-80,4,2,12,74,0,1
185228,-80,4,2,12,5,0,1
185322,-80,4,2,12,68,0,0
186868,-80,4,2,12,5,0,0
187572,-133.333333333333,4,2,12,52,0,0
187853,-133.333333333333,4,2,12,5,0,0
187947,-133.333333333333,4,2,12,52,0,0
188322,-100,4,2,12,70,0,0
188697,-100,4,2,24,70,0,0
197322,-83.3333333333333,4,2,24,65,0,0
197603,-83.3333333333333,4,2,24,5,0,0
197697,-76.9230769230769,4,2,24,65,0,0
198353,-76.9230769230769,4,2,24,5,0,0
198447,-71.4285714285714,4,2,24,65,0,0
198728,-71.4285714285714,4,2,24,5,0,0
198822,-100,4,2,30,62,0,0
200322,-111.111111111111,4,2,12,60,0,0
202759,-71.4285714285714,4,2,12,68,0,0
203322,-111.111111111111,4,2,12,60,0,0
204822,-71.4285714285714,4,2,12,68,0,0
205478,-83.3333333333333,4,2,12,70,0,0
205759,-76.9230769230769,4,2,12,68,0,0
206322,-111.111111111111,4,2,12,60,0,0
208759,-71.4285714285714,4,2,12,68,0,0
209322,-111.111111111111,4,2,12,60,0,0
210822,-71.4285714285714,4,2,12,68,0,0
211009,-71.4285714285714,4,2,12,5,0,0
211072,-76.9230769230769,4,2,12,70,0,0
211259,-76.9230769230769,4,2,12,5,0,0
211322,-76.9230769230769,4,2,12,65,0,0
211509,-76.9230769230769,4,2,12,5,0,0
211572,-76.9230769230769,4,2,12,72,0,0
211759,-76.9230769230769,4,2,12,5,0,0
211822,-66.6666666666667,4,2,12,65,0,0
212009,-66.6666666666667,4,2,12,5,0,0
212072,-125,4,2,12,62,0,0
212415,-125,4,2,12,5,0,0
212697,375,4,2,12,70,1,0
212697,-76.9230769230769,4,2,12,70,0,0
213822,375,4,2,12,70,1,0
213822,-76.9230769230769,4,2,12,70,0,0
214384,-66.6666666666667,4,2,12,70,0,0
215322,-62.5,4,2,12,70,0,0
215884,-76.9230769230769,4,2,12,70,0,0
217009,-76.9230769230769,4,2,12,5,0,0
217103,-76.9230769230769,4,2,12,70,0,0
217290,-76.9230769230769,4,2,12,5,0,0
217384,-76.9230769230769,4,2,12,70,0,0
217478,-76.9230769230769,4,2,12,5,0,0
217572,-76.9230769230769,4,2,12,70,0,0
217759,-76.9230769230769,4,2,12,5,0,0
217853,-76.9230769230769,4,2,12,70,0,0
218040,-76.9230769230769,4,2,12,5,0,0
218134,-76.9230769230769,4,2,12,70,0,0
218228,-76.9230769230769,4,2,12,5,0,0
218322,-76.9230769230769,4,2,12,70,0,0
222822,-62.5,4,2,12,74,0,0
223103,-62.5,4,2,12,5,0,0
223197,-71.4285714285714,4,2,12,70,0,0
223478,-71.4285714285714,4,2,12,5,0,0
223572,-58.8235294117647,4,2,12,74,0,0
223853,-58.8235294117647,4,2,12,5,0,0
223947,-66.6666666666667,4,2,12,72,0,0
224228,-66.6666666666667,4,2,12,5,0,0
224322,-76.9230769230769,4,2,12,70,0,0
228822,-62.5,4,2,12,72,0,0
229103,-62.5,4,2,12,5,0,0
229197,-62.5,4,2,12,72,0,0
229384,-58.8235294117647,4,2,12,72,0,0
230322,-76.9230769230769,4,2,12,70,0,0
234822,-66.6666666666667,4,2,12,70,0,0
235103,-66.6666666666667,4,2,12,5,0,0
235197,-62.5,4,2,12,70,0,0
235478,-62.5,4,2,12,5,0,0
235572,-55.5555555555556,4,2,12,70,0,0
235853,-55.5555555555556,4,2,12,5,0,0
235947,-58.8235294117647,4,2,12,70,0,0
236228,-58.8235294117647,4,2,12,5,0,0
236322,-100,4,2,12,58,0,0
236509,-100,4,2,12,5,0,0
236603,-100,4,2,12,58,0,0
236790,-100,4,2,12,5,0,0
236884,-100,4,2,12,58,0,0
237353,-100,4,2,12,5,0,0
237447,-100,4,2,12,58,0,0
239603,-100,4,2,12,5,0,0
239697,-100,4,2,12,58,0,0
240353,-100,4,2,12,5,0,0
240447,-100,4,2,12,58,0,0
241853,-100,4,2,12,5,0,0
241947,-100,4,2,12,58,0,0
245322,-76.9230769230769,4,2,12,68,0,0
247853,-76.9230769230769,4,2,12,5,0,0
247947,-76.9230769230769,4,2,12,73,0,0
248228,-76.9230769230769,4,2,12,5,0,0
248322,-66.6666666666667,4,2,12,65,0,1
249540,-105.263157894737,4,2,12,65,0,1
249728,-105.263157894737,4,2,12,5,0,1
249822,-83.3333333333333,4,2,12,65,0,1
250290,-83.3333333333333,4,2,12,5,0,1
250384,-83.3333333333333,4,2,12,65,0,1
250572,-71.4285714285714,4,2,12,65,0,1
250947,-58.8235294117647,4,2,12,71,0,1
251228,-58.8235294117647,4,2,12,5,0,1
251322,-76.9230769230769,4,2,12,65,0,1
252447,-62.5,4,2,12,71,0,1
252728,-62.5,4,2,12,5,0,1
252822,-71.4285714285714,4,2,12,71,0,1
253947,-71.4285714285714,4,2,12,71,0,1
254228,-71.4285714285714,4,2,12,5,0,1
254322,-76.9230769230769,4,2,12,65,0,1
256947,-76.9230769230769,4,2,12,65,0,1
257228,-76.9230769230769,4,2,12,5,0,0
257322,-62.5,4,2,12,75,0,1
260322,-71.4285714285714,4,2,12,75,0,1
260697,-76.9230769230769,4,2,12,75,0,1
261072,-83.3333333333333,4,2,12,75,0,1
261447,-90.9090909090909,4,2,12,75,0,1
261822,-100,4,2,12,75,0,0
262103,-100,4,2,12,5,0,0
262197,-133.333333333333,4,2,12,75,0,0
262478,-133.333333333333,4,2,12,5,0,0
262572,-100,4,2,12,75,0,0
263322,-133.333333333333,4,2,12,58,0,0
264353,-133.333333333333,4,2,12,5,0,0
264447,-133.333333333333,4,2,12,58,0,0
264540,-133.333333333333,4,2,12,5,0,0
264634,-133.333333333333,4,2,12,58,0,0
264728,-133.333333333333,4,2,12,5,0,0
264822,-133.333333333333,4,2,12,58,0,0
265665,-133.333333333333,4,2,12,5,0,0
265759,-133.333333333333,4,2,12,58,0,0
265853,-133.333333333333,4,2,12,5,0,0
265947,-133.333333333333,4,2,12,58,0,0
266040,-133.333333333333,4,2,12,5,0,0
266134,-133.333333333333,4,2,12,58,0,0
266228,-133.333333333333,4,2,12,5,0,0
266322,-133.333333333333,4,2,12,58,0,0
267165,-133.333333333333,4,2,12,5,0,0
267259,-133.333333333333,4,2,12,58,0,0
267353,-133.333333333333,4,2,12,5,0,0
267447,-133.333333333333,4,2,12,58,0,0
267540,-133.333333333333,4,2,12,5,0,0
267634,-133.333333333333,4,2,12,58,0,0
268103,-133.333333333333,4,2,12,5,0,0
268197,-90.9090909090909,4,2,12,71,0,0
268478,-90.9090909090909,4,2,12,5,0,0
268572,-111.111111111111,4,2,12,58,0,0
269322,-111.111111111111,4,2,12,65,0,0
270728,-111.111111111111,4,2,12,5,0,0
270822,-111.111111111111,4,2,12,65,0,0
272228,-111.111111111111,4,2,12,5,0,0
272322,-111.111111111111,4,2,12,65,0,0
275322,-249.999999999999,4,2,12,43,0,0
275415,-249.999999999999,4,2,12,5,0,0
275509,-249.999999999999,4,2,12,43,0,0
275603,-249.999999999999,4,2,12,5,0,0
275697,-71.4285714285714,4,2,12,68,0,0
275790,-71.4285714285714,4,2,12,5,0,0
275884,-90.9090909090909,4,2,12,68,0,0
276165,-90.9090909090909,4,2,12,5,0,0
276259,-90.9090909090909,4,2,12,68,0,0
276353,-90.9090909090909,4,2,12,5,0,0
276447,-90.9090909090909,4,2,12,68,0,0
276540,-90.9090909090909,4,2,12,5,0,0
276634,-90.9090909090909,4,2,12,68,0,0
276915,-90.9090909090909,4,2,12,5,0,0
277009,-90.9090909090909,4,2,12,68,0,0
277103,-90.9090909090909,4,2,12,5,0,0
277197,-90.9090909090909,4,2,12,68,0,0
277290,-90.9090909090909,4,2,12,5,0,0
277384,-71.4285714285714,4,2,12,68,0,0
277665,-71.4285714285714,4,2,12,5,0,0
277759,-71.4285714285714,4,2,12,68,0,0
277853,-71.4285714285714,4,2,12,5,0,0
277947,-71.4285714285714,4,2,12,68,0,0
278040,-71.4285714285714,4,2,12,5,0,0
278134,-71.4285714285714,4,2,12,68,0,0
278228,-71.4285714285714,4,2,12,5,0,0
278322,-66.6666666666667,4,2,12,72,0,0
278603,-66.6666666666667,4,2,12,5,0,0
278697,-66.6666666666667,4,2,12,72,0,0
278790,-66.6666666666667,4,2,12,5,0,0
278884,-66.6666666666667,4,2,12,72,0,0
279165,-66.6666666666667,4,2,12,5,0,0
279259,-66.6666666666667,4,2,12,72,0,0
279540,-66.6666666666667,4,2,12,5,0,0
279634,-66.6666666666667,4,2,12,72,0,0
279728,-66.6666666666667,4,2,12,5,0,0
279822,-66.6666666666667,4,2,12,72,0,0
280478,-66.6666666666667,4,2,12,5,0,0
280572,-66.6666666666667,4,2,12,72,0,0
281603,-66.6666666666667,4,2,12,5,0,0
281697,-66.6666666666667,4,2,12,72,0,0
281790,-66.6666666666667,4,2,12,5,0,0
281884,-66.6666666666667,4,2,12,72,0,0
282165,-66.6666666666667,4,2,12,5,0,0
282259,-66.6666666666667,4,2,12,72,0,0
282540,-66.6666666666667,4,2,12,5,0,0
282634,-66.6666666666667,4,2,12,72,0,0
283290,-66.6666666666667,4,2,12,5,0,0
283384,-66.6666666666667,4,2,12,72,0,0
283665,-66.6666666666667,4,2,12,5,0,0
283759,-66.6666666666667,4,2,12,72,0,0
283853,-66.6666666666667,4,2,12,5,0,0
283947,-66.6666666666667,4,2,12,72,0,0
284697,-76.9230769230769,4,2,12,72,0,0
286572,-111.111111111111,4,2,12,72,0,0
287134,-111.111111111111,4,2,12,32,0,0
288009,-181.818181818181,4,2,12,23,0,0
288822,-100,4,2,12,33,0,0
289197,-100,4,2,12,5,0,0
289572,375,4,2,12,45,1,0
301572,-133.333333333333,4,2,12,50,0,0
304103,-133.333333333333,4,2,12,5,0,0
304197,-133.333333333333,4,2,12,50,0,0
304478,-133.333333333333,4,2,12,5,0,0
304572,-133.333333333333,4,2,12,50,0,0
310009,-166.666666666667,4,2,12,50,0,0
310572,-66.6666666666667,4,2,12,68,0,0
312072,-50,4,2,12,72,0,0
313572,-58.8235294117647,4,2,12,80,0,1
315822,-52.6315789473684,4,2,12,80,0,1
316290,-52.6315789473684,4,2,12,5,0,1
316384,-52.6315789473684,4,2,12,80,0,1
316478,-52.6315789473684,4,2,12,5,0,1
316572,-58.8235294117647,4,2,12,80,0,1
318822,-52.6315789473684,4,2,12,80,0,1
319290,-52.6315789473684,4,2,12,5,0,1
319384,-52.6315789473684,4,2,12,80,0,1
319478,-52.6315789473684,4,2,12,5,0,1
319572,-58.8235294117647,4,2,12,80,0,1
321822,-62.5,4,2,12,80,0,1
322197,-62.5,4,2,12,80,0,1
322572,-66.6666666666667,4,2,12,80,0,0
324072,-58.8235294117647,4,2,12,80,0,1
324540,-58.8235294117647,4,2,12,5,0,1
324634,-58.8235294117647,4,2,12,80,0,1
326040,-58.8235294117647,4,2,12,5,0,1
326134,-58.8235294117647,4,2,12,80,0,1
327540,-58.8235294117647,4,2,12,5,0,1
327634,-58.8235294117647,4,2,12,80,0,1
330072,-58.8235294117647,4,2,12,80,0,1
330540,-58.8235294117647,4,2,12,5,0,1
330634,-58.8235294117647,4,2,12,80,0,1
332040,-58.8235294117647,4,2,12,5,0,1
332134,-58.8235294117647,4,2,12,80,0,1
333540,-58.8235294117647,4,2,12,5,0,1
333634,-58.8235294117647,4,2,12,80,0,1
335978,-58.8235294117647,4,2,12,80,0,0

[Colours]
Combo1 : 147,147,255
Combo2 : 164,164,164
Combo3 : 255,170,130
Combo4 : 192,129,129
SliderBorder : 220,192,192
SliderTrackOverride : 22,22,22

[HitObjects]
358,28,2322,5,2,0:1:0:0:
452,137,2509,2,0,P|401:134|337:130,1,107.249995090485,2|0,0:0|0:0,0:0:0:0:
332,117,2884,1,2,0:0:0:0:
347,211,3259,1,2,0:0:0:0:
362,306,3634,1,2,0:0:0:0:
217,224,3822,5,2,0:1:0:0:
112,298,4009,2,0,P|163:301|227:305,1,107.249995090485,2|0,0:0|0:0,0:0:0:0:
232,318,4384,1,2,0:0:0:0:
217,224,4759,1,2,0:0:0:0:
202,129,5134,2,0,P|199:108|195:82,1,35.749998363495,2|0,0:0|0:0,0:0:0:0:
366,0,5322,6,0,P|372:38|381:92,1,76.9999976501466,4|0,0:1|0:0,0:0:0:0:
291,283,5509,2,0,P|376:240|439:209,1,153.999995300293,12|0,0:1|0:0,0:0:0:0:
512,166,5790,1,0,3:2:0:0:
271,38,5884,6,0,B|280:93|280:93|291:120|291:120|305:193,1,153.999995300293,12|0,0:1|0:0,0:0:0:0:
291,283,6165,1,0,3:2:0:0:
56,207,6259,2,0,B|111:212|111:212|130:222|130:222|151:217|151:217|207:222,1,153.999995300293,12|0,0:1|0:0,0:0:0:0:
291,283,6540,1,0,3:2:0:0:
90,357,6634,6,0,P|76:297|55:204,1,153.999995300293,12|0,0:1|0:0,0:0:0:0:
37,112,6915,1,0,3:2:0:0:
271,38,7009,2,0,B|182:44|221:87|129:94,1,153.999995300293,12|0,0:1|0:0,0:0:0:0:
66,16,7290,1,0,3:2:0:0:
150,217,7384,6,0,B|178:316|178:316|199:271,1,153.999995300293,12|0,0:1|0:0,0:0:0:0:
275,125,7665,1,0,3:2:0:0:
275,125,7759,1,12,0:1:0:0:
262,169,7853,1,8,0:0:0:0:
279,211,7947,1,8,0:0:0:0:
305,226,8040,1,8,3:2:0:0:
335,228,8134,1,4,3:1:0:0:
362,213,8228,1,0,3:2:0:0:
375,185,8322,6,0,P|384:235|393:280,1,93.500001783371,4|2,0:3|0:0,0:0:0:0:
411,372,8697,1,0,3:2:0:0:
215,320,8884,2,0,P|259:314|304:346,1,93.500001783371,2|0,0:0|3:2,0:0:0:0:
96,368,9259,2,0,P|100:323|105:275,1,93.500001783371,2|0,0:0|3:2,0:0:0:0:
80,77,9634,1,10,0:0:0:0:
80,77,9728,1,8,0:0:0:0:
80,77,9822,6,0,P|75:123|70:170,1,93.500001783371,0|2,3:2|0:0,0:0:0:0:
105,275,10197,1,0,3:2:0:0:
245,193,10384,2,0,P|200:202|155:168,1,93.500001783371,2|0,0:0|3:2,0:0:0:0:
309,125,10759,1,2,0:0:0:0:
409,340,10947,1,4,3:2:0:0:
413,307,11040,1,8,0:0:0:0:
417,274,11134,1,10,0:0:0:0:
421,241,11228,1,8,0:0:0:0:
425,208,11322,6,0,P|418:161|410:110,1,93.500001783371,4|2,0:0|0:0,0:0:0:0:
397,17,11697,1,0,3:2:0:0:
218,104,11884,2,0,P|274:117|309:125,1,93.500001783371,2|0,0:0|3:2,0:0:0:0:
196,295,12259,2,0,P|150:284|104:273,1,93.500001783371,2|0,0:0|3:2,0:0:0:0:
21,99,12634,1,10,0:0:0:0:
21,99,12728,1,8,0:0:0:0:
21,99,12822,6,0,P|48:145|46:188,1,93.500001783371,0|2,3:2|0:0,0:0:0:0:
1,265,13197,1,0,3:2:0:0:
192,193,13384,2,0,P|237:203|283:214,1,93.500001783371,2|0,0:0|3:2,0:0:0:0:
425,208,13759,1,2,0:0:0:0:
290,364,13947,1,4,3:2:0:0:
281,332,14040,1,8,0:0:0:0:
260,306,14134,1,10,0:0:0:0:
229,293,14228,1,8,0:0:0:0:
196,295,14322,6,0,P|148:305|92:316,1,93.500001783371,4|2,0:0|0:0,0:0:0:0:
1,265,14697,1,0,3:2:0:0:
132,114,14884,1,10,0:0:0:0:
132,114,14978,1,8,0:0:0:0:
132,114,15072,1,0,3:2:0:0:
16,30,15259,2,0,P|25:74|34:121,1,93.500001783371,2|0,0:0|3:2,0:0:0:0:
161,207,15634,1,2,0:0:0:0:
374,113,15822,6,0,P|325:103|278:133,1,93.500001783371,0|2,3:2|0:0,0:0:0:0:
450,174,16197,1,0,3:2:0:0:
327,19,16384,1,10,0:0:0:0:
327,19,16478,1,8,0:0:0:0:
327,19,16572,1,0,3:2:0:0:
267,208,16759,1,10,0:0:0:0:
374,113,16947,1,4,3:2:0:0:
373,144,17040,1,8,0:0:0:0:
370,176,17134,1,10,0:0:0:0:
369,208,17228,1,8,0:0:0:0:
366,240,17322,6,0,P|363:289|360:334,1,93.500001783371,4|2,0:0|0:0,0:0:0:0:
261,361,17697,1,0,3:2:0:0:
124,232,17884,1,10,0:0:0:0:
124,232,17978,1,8,0:0:0:0:
124,232,18072,2,0,P|127:281|130:326,1,93.500001783371,4|0,3:2|0:0,0:0:0:0:
267,208,18447,1,2,3:2:0:0:
81,60,18634,1,8,0:0:0:0:
81,60,18728,1,8,0:0:0:0:
81,60,18822,6,0,B|132:51|132:51|143:46|143:46|158:47|158:47|223:37|223:37|194:61,1,173.24999471283,4|0,0:1|0:0,0:0:0:0:
384,208,19197,6,0,B|327:218|327:218|316:223|316:223|301:222|301:222|236:232|236:232|274:203,1,189.750003619194,4|0,0:1|0:0,0:0:0:0:
503,138,19572,6,0,B|455:152|414:117|414:117|412:112|412:112|407:112|407:112|357:79|310:102,1,206.25,4|0,0:1|0:0,0:0:0:0:
77,249,19947,5,8,0:0:0:0:
30,279,20040,1,8,0:0:0:0:
34,335,20134,1,10,0:0:0:0:
85,359,20228,1,8,0:0:0:0:
130,325,20322,6,0,P|182:320|242:313,1,110,4|2,0:1|0:0,0:0:0:0:
460,270,20697,1,0,3:2:0:0:
322,384,20884,2,0,P|309:339|331:279,1,110,10|0,0:0|3:2,0:0:0:0:
383,207,21259,1,2,0:0:0:0:
393,339,21447,1,8,0:0:0:0:
172,212,21634,1,2,3:2:0:0:
172,212,21728,1,0,3:2:0:0:
172,212,21822,6,0,P|117:220|56:230,1,110,8|2,0:0|0:0,0:0:0:0:
0,84,22197,1,0,3:2:0:0:
212,115,22384,2,0,P|157:123|96:133,1,110,10|0,0:0|3:2,0:0:0:0:
227,13,22759,1,2,0:0:0:0:
347,184,22947,2,0,P|322:141|346:82,1,110,12|2,0:1|3:2,0:0:0:0:
503,236,23228,1,0,3:2:0:0:
503,236,23322,6,0,P|425:248|387:254,1,110,12|2,0:1|0:0,0:0:0:0:
204,284,23697,1,0,3:2:0:0:
350,371,23884,2,0,P|331:327|305:265,1,110,10|0,0:0|3:2,0:0:0:0:
237,152,24259,1,2,0:0:0:0:
159,358,24447,1,8,0:0:0:0:
11,253,24634,1,2,3:2:0:0:
11,253,24728,1,0,3:2:0:0:
11,253,24822,6,0,P|75:270|126:284,1,110,8|2,0:0|0:0,0:0:0:0:
30,374,25197,1,0,3:2:0:0:
204,284,25384,2,0,P|187:220|173:169,1,110,10|0,0:0|3:2,0:0:0:0:
131,27,25759,1,2,0:0:0:0:
350,123,25947,1,12,0:1:0:0:
360,163,26040,1,8,0:0:0:0:
372,205,26134,1,10,0:0:0:0:
385,246,26228,1,8,0:0:0:0:
396,289,26322,6,0,P|347:274|291:303,1,110,12|2,0:1|0:0,0:0:0:0:
449,358,26697,1,0,3:2:0:0:
472,163,26884,2,0,P|486:213|502:268,1,110,10|0,0:0|3:2,0:0:0:0:
352,345,27259,1,2,0:0:0:0:
272,202,27447,1,8,0:0:0:0:
159,358,27634,1,2,3:2:0:0:
159,358,27728,1,0,3:2:0:0:
159,358,27822,6,0,P|92:346|40:336,1,110,12|2,0:1|0:0,0:0:0:0:
20,209,28197,1,0,3:2:0:0:
204,284,28384,2,0,P|137:272|85:262,1,110,10|0,0:0|3:2,0:0:0:0:
195,167,28759,1,2,0:0:0:0:
93,23,28947,2,0,P|79:79|105:125,1,110,12|2,0:1|3:2,0:0:0:0:
297,92,29228,1,0,3:2:0:0:
297,92,29322,6,0,P|230:80|178:70,1,110,12|2,0:1|0:0,0:0:0:0:
380,37,29697,1,0,3:2:0:0:
410,235,29884,1,10,0:0:0:0:
498,131,30072,2,0,P|435:120|390:153,1,110,4|0,3:1|0:0,0:0:0:0:
316,355,30447,2,0,P|302:304|287:244,1,110,10|0,0:0|3:2,0:0:0:0:
75,157,30728,1,0,3:2:0:0:
57,168,30822,6,0,B|26:187|26:187|89:198|89:198|140:181|140:181|149:174|149:174|161:172|161:172|229:146,1,230.99999295044,12|0,0:1|0:0,0:0:0:0:
68,63,31197,6,0,P|175:64|97:100,1,230.99999295044,12|0,0:1|0:0,0:0:0:0:
160,252,31572,6,0,P|179:345|250:280,1,230.99999295044,12|0,0:1|0:0,0:0:0:0:
375,97,31947,5,14,0:0:0:0:
315,135,32040,1,2,1:2:0:0:
321,205,32134,1,2,1:2:0:0:
385,235,32228,1,2,1:2:0:0:
442,193,32322,6,0,P|436:240|426:308,1,110,4|2,0:3|0:3,0:0:0:0:
160,252,32697,2,0,P|166:299|176:367,1,110,10|2,0:0|0:3,0:0:0:0:
238,175,33072,1,2,3:2:0:0:
79,305,33259,1,2,0:3:0:0:
262,384,33447,1,10,0:0:0:0:
60,329,33634,1,2,0:3:0:0:
146,142,33822,6,0,P|160:250|175:359,1,220,2|8,3:2|0:0,0:0:0:0:
319,179,34384,2,0,P|314:151|309:124,1,55,2|0,0:3|0:0,0:0:0:0:
254,29,34572,6,0,B|310:-3|366:29|366:29|414:-11|478:13,1,230.99999295044,6|0,3:2|0:0,0:0:0:0:
481,201,34947,6,0,B|458:226|460:263|460:263|430:93,1,230.99999295044,14|0,0:0|0:0,0:0:0:0:
254,29,35322,5,6,3:2:0:0:
65,142,35509,1,2,0:3:0:0:
257,266,35697,1,10,0:0:0:0:
152,64,35884,1,2,0:3:0:0:
10,231,36072,1,2,3:2:0:0:
224,163,36259,1,2,0:3:0:0:
39,40,36447,1,10,0:0:0:0:
136,242,36634,1,2,0:3:0:0:
345,140,36822,6,0,P|333:175|345:222,1,60.5000018463135,2|0,3:2|0:0,0:0:0:0:
493,180,37009,2,0,P|481:144|442:115,1,60.5000018463135,2|0,0:3|0:0,0:0:0:0:
395,289,37197,2,0,P|434:288|474:260,1,60.5000018463135,10|0,0:0|0:0,0:0:0:0:
314,362,37384,1,2,3:2:0:0:
261,371,37478,1,2,3:2:0:0:
218,338,37572,2,0,P|213:308|208:276,1,60.5000018463135,4|0,3:2|0:0,0:0:0:0:
30,266,37759,2,0,P|34:295|39:325,1,60.5000018463135,0|0,3:2|0:0,0:0:0:0:
121,141,37947,1,14,0:0:0:0:
71,112,38040,1,2,3:2:0:0:
83,56,38134,1,2,3:2:0:0:
138,50,38228,1,2,3:2:0:0:
162,102,38322,6,0,P|189:102|222:102,1,55,6|0,0:0|0:0,0:0:0:0:
339,173,38509,2,0,P|311:177|284:181,1,55,2|0,0:3|0:0,0:0:0:0:
163,347,38697,2,0,P|188:343|217:338,1,55,10|0,0:0|0:0,0:0:0:0:
309,256,38884,2,0,P|337:252|363:247,1,55,2|0,0:3|0:0,0:0:0:0:
162,102,39072,1,2,3:2:0:0:
309,256,39259,1,2,0:3:0:0:
413,108,39447,1,10,0:0:0:0:
302,279,39634,1,2,0:3:0:0:
66,183,39822,6,0,P|40:177|16:162,1,55,2|0,3:2|0:0,0:0:0:0:
54,273,40009,2,0,P|69:296|75:322,1,55,2|0,0:3|0:0,0:0:0:0:
137,238,40197,2,0,P|161:223|187:217,1,55,10|0,0:0|0:0,0:0:0:0:
446,278,40384,1,2,3:2:0:0:
461,233,40478,1,2,3:2:0:0:
440,189,40572,6,0,B|473:180|499:191|499:191|515:168|511:124|446:90|402:115|378:147,1,247.500009441376,4|0,3:2|0:0,0:0:0:0:
268,34,40947,6,0,B|283:144|283:144|288:156|288:156|286:168|286:168|302:279,1,247.500009441376,14|0,0:0|0:0,0:0:0:0:
313,361,41322,6,0,P|259:343|207:354,1,110,6|2,3:2|0:3,0:0:0:0:
72,218,41697,2,0,P|79:273|88:332,1,110,10|2,0:0|0:3,0:0:0:0:
307,188,42072,1,2,3:2:0:0:
208,353,42259,1,2,0:3:0:0:
72,218,42447,1,10,0:0:0:0:
302,278,42634,2,0,L|366:269,1,55,0|0,3:2|3:2,0:0:0:0:
417,122,42822,6,0,B|390:103|390:103|333:109|333:109|329:114|329:114|272:120|272:120|251:94,1,187.000003566742,14|0,0:0|3:2,0:0:0:0:
300,24,43103,1,0,3:2:0:0:
204,269,43197,2,0,B|189:216|189:216|179:200|179:200|165:141|165:141|173:164|205:179,1,187.000003566742,14|0,0:0|3:2,0:0:0:0:
251,94,43478,1,0,3:2:0:0:
76,108,43572,6,0,P|86:155|98:205,1,93.500001783371,14|0,0:0|0:0,0:0:0:0:
21,344,43759,2,0,P|10:298|0:252,1,93.500001783371,0|0,3:2|3:2,0:0:0:0:
301,383,43947,1,12,0:0:0:0:
380,376,44040,1,8,0:0:0:0:
433,319,44134,1,8,0:0:0:0:
438,242,44228,1,8,0:0:0:0:
392,178,44322,6,0,L|399:113,1,65.9999979858399,6|0,0:0|0:0,0:0:0:0:
404,81,44509,2,0,P|372:86|342:75,1,65.9999979858399,0|0,3:2|0:0,0:0:0:0:
160,6,44697,2,0,L|152:72,1,65.9999979858399,14|0,0:0|0:0,0:0:0:0:
121,83,44884,2,0,P|91:95|59:89,1,65.9999979858399,0|0,3:2|0:0,0:0:0:0:
21,344,45072,2,0,P|48:327|81:328,1,65.9999979858399,14|0,0:0|0:0,0:0:0:0:
279,274,45259,1,2,3:2:0:0:
270,240,45353,1,2,3:2:0:0:
261,209,45447,6,0,B|212:203|212:203|128:221|128:221|69:219,1,187.000003566742,12|2,0:0|3:2,0:0:0:0:
286,93,45728,1,2,3:2:0:0:
286,93,45822,2,0,L|351:99,1,65.9999979858399,14|0,0:0|0:0,0:0:0:0:
372,129,46009,2,0,P|365:161|378:191,1,65.9999979858399,0|0,3:2|0:0,0:0:0:0:
508,384,46197,2,0,P|508:350|494:321,1,65.9999979858399,12|0,0:0|0:0,0:0:0:0:
279,274,46384,1,2,3:2:0:0:
308,278,46478,1,0,3:2:0:0:
338,283,46572,6,0,P|262:294|185:307,1,153.999995300293,14|0,0:0|3:2,0:0:0:0:
108,356,46853,1,0,3:2:0:0:
23,218,46947,6,0,B|70:208|82:152|82:152|58:267|103:337,1,280.500005350113,14|0,0:0|0:0,0:0:0:0:
0,140,47322,6,0,P|6:112|12:74,1,55,4|0,0:1|0:0,0:0:0:0:
152,33,47509,2,0,P|125:38|97:43,1,55
184,104,47697,2,0,P|211:99|237:93,1,55,2|0,3:2|0:0,0:0:0:0:
335,20,47884,2,0,P|331:48|325:75,1,55
441,118,48072,6,0,P|426:90|404:76,1,55,10|0,0:0|0:0,0:0:0:0:
469,193,48259,2,0,P|493:182|510:158,1,55
393,222,48447,2,0,P|403:242|433:266,1,55,2|0,3:2|0:0,0:0:0:0:
365,146,48634,2,0,P|345:153|321:196,1,55,2|0,0:0|0:0,0:0:0:0:
291,265,48822,6,0,P|391:264|399:363,1,220,2|0,3:2|3:2,0:0:0:0:
331,330,49384,1,2,0:0:0:0:
342,319,49572,1,14,0:0:0:0:
38,246,49947,5,8,0:0:0:0:
32,175,50040,1,8,0:0:0:0:
26,103,50134,2,0,L|19:17,1,55,10|8,0:0|0:0,0:0:0:0:
217,127,50322,6,0,B|266:78|266:78|237:174|237:174|250:220,1,214.49999018097,6|0,0:0|0:0,0:0:0:0:
481,342,50697,2,0,B|433:332|433:332|422:333|422:333|366:322,1,110,8|2,0:0|3:2,0:0:0:0:
286,302,50978,1,0,3:2:0:0:
436,115,51072,6,0,P|473:127|519:116,1,71.4999967269899,10|0,0:0|0:0,0:0:0:0:
318,211,51259,2,0,P|282:206|249:218,1,71.4999967269899,2|0,3:2|3:2,0:0:0:0:
481,342,51447,2,0,P|476:306|471:270,1,71.4999967269899,10|0,0:0|0:0,0:0:0:0:
427,44,51634,2,0,P|432:79|436:115,1,71.4999967269899,2|0,3:2|3:2,0:0:0:0:
73,302,51822,6,0,B|10:223|2:120|104:92|149:152|130:218,1,280.500005350113,14|0,0:0|0:0,0:0:0:0:
318,293,52197,2,0,B|273:296|273:296|256:293|256:293|238:299|238:299|187:303|187:303|220:296|234:269,1,187.000003566742,12|0,0:0|3:2,0:0:0:0:
278,194,52478,1,0,3:2:0:0:
217,377,52572,6,0,L|310:369,1,93.500001783371,14|0,0:0|0:0,0:0:0:0:
490,304,52759,1,0,3:2:0:0:
486,257,52853,1,0,3:2:0:0:
482,210,52947,1,12,0:0:0:0:
512,49,53134,1,2,3:2:0:0:
228,81,53322,6,0,P|297:30|378:58,1,176,4|0,0:1|3:2,0:0:0:0:
312,131,53884,1,2,0:0:0:0:
330,333,54072,2,0,P|315:251|298:159,1,176,10|0,0:0|0:0,0:0:0:0:
128,54,54634,1,2,3:2:0:0:
75,278,54822,5,2,3:2:0:0:
163,141,55009,1,8,0:0:0:0:
142,144,55103,1,8,0:0:0:0:
121,148,55197,1,0,3:2:0:0:
228,81,55384,1,2,3:2:0:0:
318,266,55572,2,0,B|362:287|362:287|488:270,1,176,10|0,0:0|3:2,0:0:0:0:
471,49,56134,1,8,0:0:0:0:
473,69,56228,1,8,0:0:0:0:
476,90,56322,6,0,B|432:69|432:69|305:85,1,176,6|0,0:0|3:2,0:0:0:0:
118,62,56884,1,0,3:2:0:0:
239,258,57072,2,0,B|218:129|218:129|230:155|253:166,1,176,10|0,0:0|3:2,0:0:0:0:
428,222,57634,1,2,3:2:0:0:
405,224,57728,1,0,3:2:0:0:
382,226,57822,1,2,3:2:0:0:
131,118,58009,6,0,P|142:190|158:293,1,176,8|2,0:0|3:2,0:0:0:0:
353,360,58478,1,0,3:2:0:0:
377,349,58572,2,0,P|420:338|469:347,1,88,10|0,0:0|0:0,0:0:0:0:
335,215,58947,2,0,P|292:226|243:217,1,88,8|2,0:0|0:0,0:0:0:0:
404,97,59322,5,4,3:1:0:0:
469,339,61759,5,0,3:2:0:0:
450,332,61853,1,0,3:2:0:0:
430,326,61947,5,8,0:0:0:0:
254,354,62134,1,2,3:2:0:0:
179,347,62228,1,0,3:2:0:0:
104,340,62322,6,0,P|68:268|211:293,1,307.999990600586,10|8,0:0|0:0,0:0:0:0:
280,72,62884,2,0,P|273:112|266:150,1,76.9999976501466,2|0,3:2|3:2,0:0:0:0:
140,277,63072,2,0,P|146:239|153:201,1,76.9999976501466,10|0,0:0|0:0,0:0:0:0:
365,78,63259,2,0,P|358:115|351:153,1,76.9999976501466,2|0,3:2|3:2,0:0:0:0:
215,38,63447,2,0,P|236:11|276:0,1,76.9999976501466,10|0,0:0|0:0,0:0:0:0:
414,189,63634,2,0,P|393:216|353:227,1,76.9999976501466,2|0,3:2|3:2,0:0:0:0:
97,140,63822,6,0,B|120:71|35:0|-81:128|45:241,1,296.99999093628,14|0,0:0|3:2,0:0:0:0:
221,375,64197,2,0,P|206:332|214:276,1,98.9999969787599,12|0,0:0|0:0,0:0:0:0:
271,105,64384,2,0,P|279:149|262:203,1,98.9999969787599,2|0,3:2|3:2,0:0:0:0:
387,328,64572,6,0,P|338:324|289:321,1,98.9999969787599,14|8,0:0|0:0,0:0:0:0:
98,140,64759,2,0,P|147:144|196:148,1,98.9999969787599,8|8,0:0|0:0,0:0:0:0:
356,157,64947,1,12,0:0:0:0:
43,366,65134,6,0,P|23:345|14:304,1,65.9999979858399,10|0,0:0|3:2,0:0:0:0:
98,140,65322,6,0,B|94:211|94:211|95:219|95:219|93:227|93:227|89:304,1,165.000006294251,6|8,0:0|0:0,0:0:0:0:
356,157,65603,1,0,0:0:0:0:
347,99,65697,1,0,3:2:0:0:
304,60,65790,1,0,0:0:0:0:
246,65,65884,2,0,P|288:57|353:47,1,82.5000031471254,10|0,0:0|0:0,0:0:0:0:
494,247,66072,6,0,P|451:240|386:231,1,82.5000031471254,2|0,3:2|0:0,0:0:0:0:
198,143,66259,1,8,0:0:0:0:
204,173,66353,1,0,0:0:0:0:
211,205,66447,2,0,P|249:193|305:215,1,82.5000031471254,0|0,3:2|0:0,0:0:0:0:
104,384,66634,2,0,P|63:381|29:358,1,82.5000031471254,10|0,0:0|0:0,0:0:0:0:
252,276,66822,6,0,P|170:290|89:304,1,165.000006294251,2|8,3:2|0:0,0:0:0:0:
350,382,67103,1,0,0:0:0:0:
350,382,67197,2,0,P|347:340|384:295,1,82.5000031471254,0|0,3:2|0:0,0:0:0:0:
507,178,67384,2,0,P|510:220|473:265,1,82.5000031471254,10|0,0:0|0:0,0:0:0:0:
327,51,67572,6,0,B|342:98|342:98|344:120|344:120|376:204|376:204|379:153,1,197.99999395752,6|8,0:0|3:2,0:0:0:0:
155,97,67853,1,0,3:2:0:0:
184,116,67947,2,0,B|197:158|197:158|194:160|194:160|197:159|197:159|212:208,1,98.9999969787599,4|0,0:0|0:0,0:0:0:0:
452,96,68134,2,0,B|439:54|439:54|442:52|442:52|439:53|439:53|424:4,1,98.9999969787599,8|0,0:0|0:0,0:0:0:0:
180,23,68322,6,0,P|200:95|226:186,1,165.000006294251,6|8,0:0|0:0,0:0:0:0:
29,358,68603,1,0,0:0:0:0:
13,302,68697,1,0,3:2:0:0:
40,251,68790,1,0,0:0:0:0:
96,240,68884,2,0,P|120:281|162:301,1,82.5000031471254,8|0,0:0|0:0,0:0:0:0:
390,182,69072,6,0,P|378:142|366:103,1,82.5000031471254,2|0,3:2|0:0,0:0:0:0:
239,305,69259,2,0,P|251:344|262:383,1,82.5000031471254,10|0,0:0|0:0,0:0:0:0:
464,218,69447,2,0,P|435:254|390:264,1,82.5000031471254,2|0,3:2|0:0,0:0:0:0:
291,64,69634,2,0,P|320:28|365:18,1,82.5000031471254,10|0,0:0|0:0,0:0:0:0:
316,268,69822,6,0,P|287:173|258:79,1,165.000006294251,2|8,3:2|0:0,0:0:0:0:
29,27,70103,1,0,0:0:0:0:
29,27,70197,2,0,P|59:63|120:72,1,82.5000031471254,0|0,3:2|0:0,0:0:0:0:
208,237,70384,2,0,P|178:201|117:192,1,82.5000031471254,10|0,0:0|0:0,0:0:0:0:
16,338,70572,6,0,B|45:379|45:379|54:343|54:343|41:306|41:306|40:297|40:297|35:292|35:292|13:233,1,197.99999395752,6|8,0:0|3:2,0:0:0:0:
211,13,70853,1,0,3:2:0:0:
199,31,70947,2,0,B|212:73|212:73|209:75|209:75|212:74|212:74|227:123,1,98.9999969787599,4|0,0:0|0:0,0:0:0:0:
235,326,71134,2,0,B|222:284|222:284|225:282|225:282|222:283|222:283|207:234,1,98.9999969787599,10|0,0:0|0:0,0:0:0:0:
447,368,71322,6,0,B|429:313|429:313|414:292|414:292|415:269|415:269|396:213,1,165.000006294251,6|8,0:0|0:0,0:0:0:0:
199,31,71603,1,0,0:0:0:0:
254,13,71697,1,0,3:2:0:0:
306,36,71790,1,0,0:0:0:0:
326,90,71884,2,0,P|365:99|409:110,1,82.5000031471254,10|0,0:0|0:0,0:0:0:0:
208,237,72072,6,0,P|169:228|125:217,1,82.5000031471254,2|0,3:2|0:0,0:0:0:0:
359,371,72259,1,8,0:0:0:0:
348,339,72353,1,0,0:0:0:0:
337,307,72447,2,0,P|325:268|312:225,1,82.5000031471254,0|0,3:2|0:0,0:0:0:0:
383,30,72634,2,0,P|395:69|406:109,1,82.5000031471254,10|0,0:0|0:0,0:0:0:0:
489,306,72822,6,0,P|464:225|441:145,1,165.000006294251,2|8,3:2|0:0,0:0:0:0:
199,31,73103,1,0,0:0:0:0:
199,31,73197,2,0,P|211:70|222:110,1,82.5000031471254,0|0,3:2|0:0,0:0:0:0:
147,316,73384,2,0,P|129:280|132:234,1,82.5000031471254,10|0,0:0|0:0,0:0:0:0:
396,252,73572,6,0,B|315:233|252:301|304:301|245:366|166:350,1,264,6|0,0:0|3:2,0:0:0:0:
30,131,73947,5,12,0:0:0:0:
113,85,74040,1,8,0:0:0:0:
178,156,74134,1,10,0:0:0:0:
131,239,74228,1,8,0:0:0:0:
41,221,74322,1,14,0:0:0:0:
30,131,75259,5,8,0:0:0:0:
74,103,75353,1,8,0:0:0:0:
127,104,75447,1,10,0:0:0:0:
155,132,75540,1,2,3:2:0:0:
185,158,75634,1,2,3:2:0:0:
226,159,75728,1,2,3:2:0:0:
265,141,75822,6,0,P|257:186|252:232,1,88,4|0,3:2|0:0,0:0:0:0:
479,377,76009,2,0,P|503:246|406:267,1,264,10|0,0:0|0:0,0:0:0:0:
165,305,76384,6,0,B|230:315|230:315|250:313|250:313|271:321|271:321|341:331,1,176,10|0,0:0|3:2,0:0:0:0:
69,368,76665,1,0,0:0:0:0:
69,368,76759,2,0,P|60:322|52:277,1,88,10|0,0:0|0:0,0:0:0:0:
74,58,76947,1,0,3:2:0:0:
90,88,77040,1,0,3:2:0:0:
108,118,77134,2,0,P|116:161|124:204,1,88,10|0,0:0|0:0,0:0:0:0:
253,41,77322,6,0,P|208:32|163:23,1,88,0|0,3:2|0:0,0:0:0:0:
165,305,77509,2,0,B|223:230|223:230|268:208|268:208|313:151|313:151|269:162,1,264,10|0,0:0|0:0,0:0:0:0:
499,27,77884,6,0,B|444:37|444:37|434:36|434:36|427:41|427:41|355:54|355:54|442:74,1,176,10|0,0:0|3:2,0:0:0:0:
490,269,78165,1,0,0:0:0:0:
490,269,78259,2,0,P|501:220|516:166,1,88,10|0,0:0|0:0,0:0:0:0:
286,351,78447,1,0,3:2:0:0:
297,318,78540,1,0,3:2:0:0:
303,280,78634,2,0,P|313:323|325:367,1,88,10|0,0:0|0:0,0:0:0:0:
417,142,78822,6,0,P|407:186|395:243,1,88,0|0,3:2|0:0,0:0:0:0:
208,384,79009,2,0,B|195:320|195:320|197:295|197:295|186:273|186:273|178:193|178:193|141:294,1,264,10|0,0:0|0:0,0:0:0:0:
0,120,79384,6,0,P|22:202|46:298,1,176,10|0,0:0|3:2,0:0:0:0:
113,118,79665,1,0,0:0:0:0:
113,118,79759,2,0,P|100:72|85:16,1,88,10|0,0:0|0:0,0:0:0:0:
316,163,79947,1,0,3:2:0:0:
316,163,80040,1,0,3:2:0:0:
316,163,80134,2,0,P|306:207|294:264,1,88,10|0,0:0|0:0,0:0:0:0:
497,384,80322,5,0,3:2:0:0:
506,351,80415,1,0,3:2:0:0:
494,319,80509,2,0,P|504:275|516:218,1,88,10|0,0:0|0:0,0:0:0:0:
437,3,80697,1,0,3:2:0:0:
413,49,80790,1,0,3:2:0:0:
428,99,80884,6,0,P|418:143|406:200,1,88,10|0,0:0|0:0,0:0:0:0:
282,359,81072,1,0,3:2:0:0:
316,308,81165,1,0,3:2:0:0:
297,249,81259,2,0,P|307:205|319:148,1,88,10|0,0:0|0:0,0:0:0:0:
73,165,81447,2,0,P|91:202|113:248,1,88,0|0,3:2|3:2,0:0:0:0:
231,38,81634,2,0,P|186:48|137:58,1,88,10|0,3:2|3:2,0:0:0:0:
16,248,81822,6,0,P|32:282|77:370,1,88,4|0,3:2|0:0,0:0:0:0:
316,308,82009,2,0,B|244:286|180:317|203:354|134:385|66:350,1,264,10|0,0:0|0:0,0:0:0:0:
43,87,82384,6,0,B|66:143|66:143|66:168|66:168|85:187|85:187|111:245,1,176,10|0,0:0|3:2,0:0:0:0:
320,312,82665,1,0,0:0:0:0:
320,312,82759,2,0,P|296:267|272:221,1,88,10|0,0:0|0:0,0:0:0:0:
420,9,82947,1,0,3:2:0:0:
408,42,83040,1,0,3:2:0:0:
376,57,83134,2,0,P|359:89|335:134,1,88,10|0,0:0|0:0,0:0:0:0:
461,264,83322,6,0,P|439:223|418:183,1,88,0|0,3:2|0:0,0:0:0:0:
198,47,83509,2,0,B|281:7|281:7|254:58|254:58|245:80|245:80|231:95|231:95|193:166,1,264,10|0,0:0|0:0,0:0:0:0:
74,348,83884,6,0,P|55:262|37:176,1,176,10|0,0:0|3:2,0:0:0:0:
97,15,84165,1,0,0:0:0:0:
97,15,84259,2,0,P|109:64|122:120,1,88,10|0,0:0|0:0,0:0:0:0:
186,295,84447,1,0,3:2:0:0:
225,280,84540,1,0,3:2:0:0:
265,265,84634,2,0,P|254:305|244:350,1,88,10|0,0:0|0:0,0:0:0:0:
461,264,84822,6,0,P|439:223|418:183,1,88,0|0,3:2|0:0,0:0:0:0:
239,29,85009,2,0,B|303:20|303:20|346:31|346:31|435:21|435:21|376:80,1,264,10|0,0:0|0:0,0:0:0:0:
137,129,85384,6,0,P|233:120|340:112,1,176,10|0,0:0|3:2,0:0:0:0:
265,265,85665,1,0,0:0:0:0:
265,265,85759,2,0,P|188:273|133:280,1,88,10|0,0:0|0:0,0:0:0:0:
26,227,85947,1,0,3:2:0:0:
26,227,86040,1,0,3:2:0:0:
26,227,86134,2,0,P|47:288|63:331,1,88,10|0,0:0|0:0,0:0:0:0:
233,350,86322,5,0,3:2:0:0:
219,316,86415,1,0,3:2:0:0:
187,300,86509,2,0,P|172:258|156:217,1,88,10|0,0:0|0:0,0:0:0:0:
0,9,86697,1,0,3:2:0:0:
22,56,86790,1,0,3:2:0:0:
74,64,86884,6,0,P|88:105|104:146,1,88,10|0,0:0|0:0,0:0:0:0:
368,77,87072,1,0,3:2:0:0:
306,82,87165,1,0,3:2:0:0:
256,46,87259,2,0,P|211:29|172:15,1,88,10|2,0:0|0:0,0:0:0:0:
261,231,87447,2,0,P|289:196|334:147,1,88,8|8,0:0|0:0,0:0:0:0:
454,24,87634,2,0,P|471:66|488:111,1,88,10|8,0:0|0:0,0:0:0:0:
427,232,87822,5,4,3:2:0:0:
494,380,88009,1,2,0:0:0:0:
478,374,88384,1,2,0:0:0:0:
462,368,88759,2,0,L|399:347,1,49.4999984893799,10|0,0:0|0:0,0:0:0:0:
247,321,88947,2,0,L|293:336,1,49.4999984893799,8|0,0:0|0:0,0:0:0:0:
132,364,89134,5,6,0:0:0:0:
138,348,89509,2,0,L|127:300,1,49.4999984893799,10|0,0:0|3:2,0:0:0:0:
38,198,89697,2,0,L|49:246,1,49.4999984893799,0|0,3:2|3:2,0:0:0:0:
164,115,89884,6,0,P|134:118|102:133,1,49.4999984893799,14|0,0:0|0:0,0:0:0:0:
7,48,90072,2,0,P|37:45|69:30,1,49.4999984893799
241,87,90259,1,14,0:0:0:0:
285,76,90353,1,8,0:0:0:0:
326,96,90447,1,8,0:0:0:0:
335,125,90540,1,0,3:2:0:0:
334,160,90634,1,6,3:2:0:0:
312,189,90728,1,0,3:2:0:0:
276,199,90822,6,0,P|282:250|291:313,1,110,4|2,0:3|3:2,0:0:0:0:
386,384,91197,1,2,0:3:0:0:
189,286,91384,1,0,0:0:0:0:
350,170,91572,2,0,P|358:219|370:293,1,110,2|2,3:2|3:2,0:0:0:0:
386,384,91947,1,2,0:3:0:0:
276,199,92134,1,0,0:0:0:0:
504,98,92322,6,0,B|449:128|391:113|405:86|348:67|291:101,1,220,2|2,3:2|0:3,0:0:0:0:
103,46,92884,2,0,P|106:73|108:100,1,55,10|8,0:0|0:0,0:0:0:0:
113,311,93072,6,0,P|130:213|39:194,1,197.99999395752,6|0,3:2|0:0,0:0:0:0:
144,384,93447,6,0,B|-12:300|-12:300|21:312|66:289,1,230.99999295044,14|0,0:0|0:0,0:0:0:0:
161,172,93822,6,0,P|110:180|44:189,1,110,6|2,3:2|3:2,0:0:0:0:
108,100,94197,1,2,0:3:0:0:
261,219,94384,1,0,0:0:0:0:
403,83,94572,2,0,P|352:91|286:100,1,110,2|2,3:2|3:2,0:0:0:0:
350,11,94947,1,2,0:3:0:0:
497,151,95134,1,0,0:0:0:0:
380,301,95322,6,0,P|384:251|390:187,1,110,2|2,3:2|3:2,0:0:0:0:
403,83,95697,1,2,0:3:0:0:
261,219,95884,1,0,3:2:0:0:
256,251,95978,1,0,3:2:0:0:
253,283,96072,6,0,B|189:289|189:289|159:308|159:308|125:296|125:296|62:303,1,197.99999395752,6|0,0:0|3:2,0:0:0:0:
12,112,96447,1,14,0:0:0:0:
50,67,96540,1,8,0:0:0:0:
108,77,96634,1,8,0:0:0:0:
127,133,96728,1,8,0:0:0:0:
92,181,96822,6,0,P|148:176|218:171,1,110,6|2,0:0|0:3,0:0:0:0:
404,158,97197,1,10,0:0:0:0:
292,33,97384,1,2,0:3:0:0:
144,292,97572,2,0,P|200:287|270:282,1,110,2|2,3:2|0:3,0:0:0:0:
453,304,97947,2,0,P|425:307|399:310,1,55,10|0,0:0|0:3,0:0:0:0:
462,275,98134,2,0,P|434:278|408:281,1,55,2|0,0:3|0:3,0:0:0:0:
404,158,98322,6,0,L|458:152,1,55,2|0,3:2|0:0,0:0:0:0:
346,39,98509,2,0,L|292:33,1,55,2|0,0:3|0:0,0:0:0:0:
201,172,98697,2,0,L|255:166,1,55,10|0,0:0|0:0,0:0:0:0:
37,108,98884,1,2,3:2:0:0:
42,153,98978,1,2,3:2:0:0:
47,198,99072,6,0,B|54:246|54:246|53:268|53:268|60:283|60:283|72:365|72:365|65:321|98:289,1,247.500009441376,4|0,3:2|0:0,0:0:0:0:
393,351,99447,6,0,B|321:311|265:335|289:367|217:391|161:351,1,247.500009441376,14|0,0:0|0:0,0:0:0:0:
212,215,99822,6,0,P|240:218|266:221,1,55,6|0,3:2|0:0,0:0:0:0:
203,186,100009,2,0,P|231:189|257:192,1,55,2|0,0:3|0:0,0:0:0:0:
421,88,100197,2,0,P|407:144|390:207,1,110,10|2,0:0|0:3,0:0:0:0:
361,353,100572,1,2,3:2:0:0:
505,174,100759,1,2,0:3:0:0:
316,126,100947,1,10,0:0:0:0:
380,274,101134,2,0,L|442:256,1,55,0|0,3:2|3:2,0:0:0:0:
241,376,101322,6,0,B|226:303|226:303|227:292|227:292|211:213,1,165.000006294251,14|0,0:0|3:2,0:0:0:0:
195,120,101603,1,0,3:2:0:0:
1,184,101697,2,0,B|50:174|50:174|64:176|64:176|79:168|79:168|115:160|115:160|64:148,1,165.000006294251,14|0,0:0|3:2,0:0:0:0:
112,61,101978,1,0,3:2:0:0:
39,258,102072,6,0,P|74:262|115:242,1,82.5000031471254,14|0,0:0|0:0,0:0:0:0:
241,376,102259,2,0,P|205:356|164:359,1,82.5000031471254,0|0,3:2|3:2,0:0:0:0:
358,239,102447,1,12,0:0:0:0:
432,262,102540,1,8,0:0:0:0:
495,221,102634,1,8,0:0:0:0:
499,144,102728,1,8,0:0:0:0:
443,91,102822,6,0,P|406:88|375:86,1,65.9999979858399,6|0,0:0|0:0,0:0:0:0:
344,100,103009,2,0,P|353:135|345:165,1,65.9999979858399,0|0,3:2|0:0,0:0:0:0:
116,242,103197,2,0,P|153:245|184:247,1,65.9999979858399,14|0,0:0|0:0,0:0:0:0:
214,232,103384,2,0,P|205:197|213:167,1,65.9999979858399,0|0,3:2|0:0,0:0:0:0:
112,61,103572,2,0,P|121:96|113:126,1,65.9999979858399,14|0,0:0|0:0,0:0:0:0:
71,332,103759,1,2,3:2:0:0:
109,352,103853,1,2,3:2:0:0:
147,338,103947,6,0,B|224:333|224:333|233:331|233:331|242:332|242:332|322:328,1,176,12|2,0:0|3:2,0:0:0:0:
500,178,104228,1,2,3:2:0:0:
500,178,104322,2,0,P|463:175|432:173,1,65.9999979858399,14|0,0:0|0:0,0:0:0:0:
401,187,104509,2,0,P|410:222|402:252,1,65.9999979858399,0|0,3:2|0:0,0:0:0:0:
225,144,104697,2,0,P|219:108|230:79,1,65.9999979858399,12|0,0:0|0:0,0:0:0:0:
20,132,104884,1,2,3:2:0:0:
23,104,104978,1,0,3:2:0:0:
26,77,105072,6,0,P|33:150|42:236,1,153.999995300293,14|0,0:0|3:2,0:0:0:0:
57,331,105353,1,0,3:2:0:0:
280,329,105447,6,0,B|235:316|176:312|223:377|117:403|64:371|58:286|122:270|148:296,1,280.500005350113,14|0,0:0|0:0,0:0:0:0:
360,353,105822,6,0,P|363:319|351:290,1,55,4|0,0:1|0:0,0:0:0:0:
377,179,106009,2,0,P|374:213|386:242,1,55
466,252,106197,2,0,P|469:218|457:189,1,55,2|0,3:2|0:0,0:0:0:0:
483,78,106384,2,0,P|480:112|492:141,1,55,2|0,0:0|0:0,0:0:0:0:
361,27,106572,6,0,P|394:23|429:20,1,55,10|0,0:0|0:0,0:0:0:0:
297,109,106759,2,0,P|330:105|365:102,1,55
202,42,106947,2,0,P|235:38|270:35,1,55,2|0,3:2|0:0,0:0:0:0:
138,124,107134,2,0,P|171:120|206:117,1,55,2|0,0:0|3:2,0:0:0:0:
16,71,107322,6,0,B|35:166|35:166|40:177|40:177|63:285,1,220,2|0,3:2|3:2,0:0:0:0:
38,358,107884,1,2,0:0:0:0:
20,352,108072,2,0,P|49:300|148:293,1,165,14|0,0:0|0:0,0:0:0:0:
344,322,108447,5,8,0:0:0:0:
273,311,108540,1,8,0:0:0:0:
201,301,108634,2,0,L|115:288,1,55,10|8,0:0|0:0,0:0:0:0:
261,119,108822,6,0,B|72:94|72:94|110:96|139:125,1,264,6|0,0:0|0:0,0:0:0:0:
306,232,109197,2,0,P|216:218|130:204,1,176,8|2,0:0|3:2,0:0:0:0:
35,188,109478,1,2,3:2:0:0:
132,36,109572,6,0,P|135:77|138:124,1,88,10|0,0:0|0:0,0:0:0:0:
312,319,109759,2,0,P|309:275|306:231,1,88,2|0,3:2|3:2,0:0:0:0:
292,25,109947,2,0,P|249:39|208:30,1,88,10|0,0:0|0:0,0:0:0:0:
389,122,110134,2,0,P|432:108|473:117,1,88,2|0,3:2|3:2,0:0:0:0:
178,333,110322,6,0,B|197:310|225:305|225:305|177:294|125:338|125:338|106:329|106:329|62:369|4:350,1,296.99999093628,14|0,0:0|0:0,0:0:0:0:
55,76,110697,6,0,P|49:175|42:274,1,197.99999395752,12|0,0:0|0:0,0:0:0:0:
129,216,110978,1,0,3:2:0:0:
296,331,111072,6,0,B|309:278|271:247|271:247|279:232|279:232|244:199|254:148,1,197.99999395752,14|0,0:0|3:2,0:0:0:0:
295,61,111353,1,0,3:2:0:0:
415,185,111447,2,0,L|334:170,1,82.5000031471254,12|0,0:0|0:0,0:0:0:0:
214,76,111634,2,0,L|295:61,1,82.5000031471254,2|0,3:2|0:0,0:0:0:0:
88,141,111822,6,0,P|99:100|234:96,1,176,4|0,0:1|0:0,0:0:0:0:
334,170,112384,1,2,3:2:0:0:
187,318,112572,2,0,B|179:235|179:235|176:225|176:225|169:144,1,176,10|0,0:0|0:0,0:0:0:0:
31,60,113134,1,2,3:2:0:0:
215,76,113322,5,2,3:2:0:0:
341,212,113509,1,8,0:0:0:0:
338,191,113603,1,8,0:0:0:0:
334,170,113697,1,0,3:2:0:0:
407,50,113884,1,2,3:2:0:0:
512,149,114072,2,0,P|469:144|418:139,1,88,10|0,0:0|0:0,0:0:0:0:
253,221,114447,2,0,P|296:216|347:211,1,88,0|0,3:2|0:0,0:0:0:0:
468,333,114822,6,0,P|388:342|290:352,1,176,6|0,0:0|0:0,0:0:0:0:
103,313,115384,1,0,3:2:0:0:
100,292,115478,1,0,3:2:0:0:
96,271,115572,2,0,B|74:148|74:148|83:177|109:192,1,176,10|0,0:0|3:2,0:0:0:0:
198,94,116134,1,2,3:2:0:0:
5,226,116322,5,2,3:2:0:0:
173,255,116509,1,8,0:0:0:0:
176,276,116603,1,8,0:0:0:0:
180,297,116697,1,8,0:0:0:0:
294,351,116884,1,2,3:2:0:0:
433,129,117072,6,0,B|392:141|392:141|347:133,1,88,10|0,0:0|3:2,0:0:0:0:
261,113,117353,1,0,3:2:0:0:
252,126,117447,2,0,L|254:193,1,44,8|0,3:2|3:2,0:0:0:0:
182,253,117634,2,0,L|178:320,1,44,2|0,3:2|3:2,0:0:0:0:
99,355,117822,5,12,0:1:0:0:
5,226,120259,5,0,3:2:0:0:
12,245,120353,1,0,3:2:0:0:
19,264,120447,5,8,0:0:0:0:
222,367,120634,1,2,3:2:0:0:
297,357,120728,1,0,3:2:0:0:
324,286,120822,6,0,B|346:234|400:229|400:229|445:199|443:148|408:109|344:109|324:159,1,307.999990600586,14|8,0:0|0:0,0:0:0:0:
419,384,121384,2,0,P|409:346|399:309,1,76.9999976501466,2|0,3:2|3:2,0:0:0:0:
334,62,121572,2,0,P|371:50|417:63,1,76.9999976501466,10|0,0:0|0:0,0:0:0:0:
233,218,121759,2,0,P|196:230|150:217,1,76.9999976501466,2|0,3:2|3:2,0:0:0:0:
37,78,121947,2,0,P|40:116|44:154,1,76.9999976501466,10|0,0:0|0:0,0:0:0:0:
242,294,122134,2,0,P|238:256|233:218,1,76.9999976501466,2|0,3:2|3:2,0:0:0:0:
222,12,122322,6,0,B|150:-6|91:70|216:158|359:45,1,296.99999093628,14|0,0:0|3:2,0:0:0:0:
489,287,122697,2,0,B|466:199|466:199|467:183|467:183|443:95,1,197.99999395752,12|2,0:0|3:2,0:0:0:0:
420,3,122978,1,0,3:2:0:0:
394,253,123072,2,0,P|382:207|370:157,1,98.9999969787599,14|8,0:0|0:0,0:0:0:0:
222,12,123259,2,0,P|233:60|246:108,1,98.9999969787599,8|8,0:0|0:0,0:0:0:0:
315,357,123447,1,12,0:0:0:0:
98,210,123634,6,0,P|133:214|172:229,1,65.9999979858399,10|0,0:0|3:2,0:0:0:0:
0,336,123822,6,0,P|91:341|168:374,1,176,6|8,0:0|0:0,0:0:0:0:
370,157,124103,1,0,0:0:0:0:
327,189,124197,1,0,3:2:0:0:
275,180,124290,1,0,0:0:0:0:
250,133,124384,2,0,P|260:176|272:224,1,88,10|0,0:0|0:0,0:0:0:0:
499,378,124572,6,0,P|488:335|478:292,1,88,2|0,3:2|0:0,0:0:0:0:
397,23,124759,1,8,0:0:0:0:
419,50,124853,1,0,0:0:0:0:
422,85,124947,2,0,P|384:68|336:78,1,88,0|0,3:2|0:0,0:0:0:0:
175,167,125134,2,0,P|218:161|250:132,1,88,10|0,0:0|0:0,0:0:0:0:
0,22,125322,6,0,P|31:107|63:197,1,176,2|8,3:2|0:0,0:0:0:0:
254,349,125603,1,0,0:0:0:0:
254,349,125697,2,0,P|239:307|224:266,1,88,0|0,3:2|0:0,0:0:0:0:
135,49,125884,2,0,P|150:90|164:131,1,88,10|0,0:0|0:0,0:0:0:0:
65,384,126072,6,0,B|10:240|10:240|32:260|68:260,1,197.99999395752,6|8,0:0|3:2,0:0:0:0:
312,253,126353,1,0,3:2:0:0:
320,279,126447,2,0,B|333:321|333:321|330:323|330:323|333:322|333:322|348:371,1,98.9999969787599,4|0,0:0|0:0,0:0:0:0:
476,160,126634,2,0,B|463:118|463:118|466:116|466:116|463:117|463:117|448:70,1,98.9999969787599,8|0,0:0|0:0,0:0:0:0:
484,290,126822,6,0,P|397:271|300:251,1,176,6|8,0:0|0:0,0:0:0:0:
135,49,127103,1,0,0:0:0:0:
143,109,127197,1,0,3:2:0:0:
195,140,127290,1,0,0:0:0:0:
253,125,127384,2,0,P|210:115|166:106,1,88,8|0,0:0|0:0,0:0:0:0:
33,313,127572,6,0,P|24:269|14:226,1,88,2|0,3:2|0:0,0:0:0:0:
244,298,127759,2,0,P|253:340|262:384,1,88,10|0,0:0|0:0,0:0:0:0:
83,151,127947,2,0,P|110:185|168:195,1,88,2|0,3:2|0:0,0:0:0:0:
389,36,128134,2,0,P|341:42|311:68,1,88,10|0,0:0|0:0,0:0:0:0:
422,260,128322,6,0,P|437:177|378:117,1,176,2|8,3:2|0:0,0:0:0:0:
177,54,128603,1,0,0:0:0:0:
177,54,128697,2,0,P|185:97|195:140,1,88,0|0,3:2|0:0,0:0:0:0:
15,227,128884,2,0,P|24:184|33:140,1,88,10|0,0:0|0:0,0:0:0:0:
163,353,129072,6,0,B|144:286|144:286|147:284|147:284|144:287|144:287|121:211|121:211|103:269,1,197.99999395752,6|8,0:0|3:2,0:0:0:0:
349,354,129353,1,0,3:2:0:0:
325,378,129447,2,0,B|310:331|310:331|307:332|307:332|310:330|310:330|297:288,1,98.9999969787599,4|0,0:0|0:0,0:0:0:0:
482,102,129634,1,10,3:2:0:0:
475,171,129728,1,0,3:2:0:0:
468,240,129822,6,0,P|439:154|411:64,1,176,6|8,0:0|0:0,0:0:0:0:
162,5,130103,1,0,0:0:0:0:
179,64,130197,1,0,3:2:0:0:
234,89,130290,1,0,0:0:0:0:
293,70,130384,2,0,P|250:70|216:97,1,88,10|0,0:0|0:0,0:0:0:0:
91,380,130572,6,0,P|76:338|61:296,1,88,2|0,3:2|0:0,0:0:0:0:
73,54,130759,2,0,P|87:95|102:137,1,88,8|0,0:0|0:0,0:0:0:0:
297,283,130947,2,0,P|273:242|218:224,1,88,0|0,3:2|0:0,0:0:0:0:
25,161,131134,2,0,P|49:202|109:216,1,88,10|0,0:0|0:0,0:0:0:0:
293,70,131322,6,0,P|321:138|359:232,1,176,2|8,3:2|0:0,0:0:0:0:
194,380,131603,1,0,0:0:0:0:
194,380,131697,2,0,P|177:339|160:298,1,88,0|0,3:2|0:0,0:0:0:0:
204,144,131884,2,0,P|220:184|237:225,1,88,10|0,0:0|0:0,0:0:0:0:
456,384,132072,6,0,P|495:286|368:263,1,264,6|0,0:0|3:2,0:0:0:0:
126,202,132447,5,12,0:0:0:0:
50,142,132540,1,8,0:0:0:0:
82,50,132634,1,10,0:0:0:0:
179,51,132728,1,8,0:0:0:0:
204,144,132822,1,14,0:0:0:0:
204,144,133759,5,8,0:0:0:0:
254,128,133853,1,8,0:0:0:0:
305,143,133947,1,10,0:0:0:0:
325,174,134040,1,2,3:2:0:0:
345,205,134134,1,2,3:2:0:0:
382,215,134228,1,2,3:2:0:0:
423,208,134322,6,0,P|405:250|389:294,1,88,4|0,3:2|0:0,0:0:0:0:
143,324,134509,2,2,B|252:348|252:348|264:347|264:347|261:354|261:354|273:353|273:353|349:371|349:371|315:324,1,264,10|2,0:0|0:0,0:0:0:0:
19,206,134884,6,0,B|60:333|60:333|57:308|81:266,1,176,10|0,0:0|3:2,0:0:0:0:
258,131,135165,1,0,0:0:0:0:
258,131,135259,2,0,P|271:173|286:227,1,88,10|0,0:0|0:0,0:0:0:0:
100,59,135447,1,0,3:2:0:0:
132,46,135540,1,0,3:2:0:0:
162,63,135634,2,0,P|200:89|257:79,1,88,10|0,0:0|0:0,0:0:0:0:
466,231,135822,6,0,P|422:230|387:255,1,88,0|0,3:2|0:0,0:0:0:0:
197,293,136009,2,0,B|263:273|310:320|310:320|312:317|312:317|308:323|308:323|310:320|310:320|357:366|427:347,1,264,10|0,0:0|0:0,0:0:0:0:
468,115,136384,6,0,P|390:111|306:184,1,176,10|0,0:0|3:2,0:0:0:0:
76,331,136665,1,0,0:0:0:0:
76,331,136759,2,0,P|105:297|108:255,1,88,10|0,0:0|0:0,0:0:0:0:
22,58,136947,1,0,3:2:0:0:
37,89,137040,1,0,3:2:0:0:
55,119,137134,2,0,P|97:130|141:141,1,88,10|0,0:0|0:0,0:0:0:0:
392,38,137322,6,0,P|346:39|308:68,1,88,0|0,3:2|0:0,0:0:0:0:
395,254,137509,2,0,B|275:201|341:63|428:97|435:174,1,264,10|0,0:0|0:0,0:0:0:0:
256,364,137884,6,0,B|385:328|385:328|318:307,1,176,10|0,0:0|3:2,0:0:0:0:
220,122,138165,1,0,0:0:0:0:
220,122,138259,2,0,P|231:164|243:207,1,88,10|0,0:0|0:0,0:0:0:0:
480,277,138447,1,0,3:2:0:0:
480,277,138540,1,0,3:2:0:0:
480,277,138634,2,0,P|435:266|395:254,1,88,10|0,0:0|0:0,0:0:0:0:
134,166,138822,5,0,3:2:0:0:
101,154,138915,1,0,3:2:0:0:
69,169,139009,2,0,P|103:149|159:154,1,88,10|0,0:0|0:0,0:0:0:0:
349,64,139197,1,0,3:2:0:0:
400,71,139290,1,0,3:2:0:0:
439,35,139384,6,0,P|405:55|349:50,1,88,10|0,0:0|0:0,0:0:0:0:
202,265,139572,1,0,3:2:0:0:
247,305,139665,1,0,3:2:0:0:
247,366,139759,2,0,P|243:326|206:284,1,88,10|0,0:0|0:0,0:0:0:0:
36,92,139947,2,0,P|39:131|76:173,1,88,0|0,3:2|3:2,0:0:0:0:
232,4,140134,2,0,P|218:50|203:97,1,88,10|0,3:2|3:2,0:0:0:0:
57,352,140322,6,0,P|98:345|156:331,1,88,4|0,3:2|0:0,0:0:0:0:
404,286,140509,2,0,B|409:239|374:204|318:218|318:218|268:228|268:228|270:236|270:236|268:228|268:228|180:250,1,264,10|0,0:0|0:0,0:0:0:0:
430,384,140884,6,0,B|445:323|445:323|461:301|461:301|457:275|457:275|471:216,1,176,10|0,0:0|3:2,0:0:0:0:
344,23,141165,1,0,0:0:0:0:
344,23,141259,2,0,P|333:65|317:120,1,88,10|0,0:0|0:0,0:0:0:0:
55,267,141447,1,0,3:2:0:0:
65,233,141540,1,0,3:2:0:0:
55,199,141634,2,0,P|67:156|78:114,1,88,10|0,0:0|0:0,0:0:0:0:
206,244,141822,6,0,P|194:286|182:328,1,88,0|0,3:2|0:0,0:0:0:0:
426,259,142009,2,0,B|446:187|446:187|461:163|461:163|461:133|461:133|480:66|480:66|466:110|429:125,1,264,10|0,0:0|0:0,0:0:0:0:
307,234,142384,6,0,B|270:366|270:366|307:336,1,176,10|0,0:0|3:2,0:0:0:0:
336,146,142665,1,0,0:0:0:0:
336,146,142759,2,0,P|288:142|248:164,1,88,10|0,0:0|0:0,0:0:0:0:
71,303,142947,1,0,3:2:0:0:
94,276,143040,1,0,3:2:0:0:
116,248,143134,2,0,P|133:203|124:158,1,88,10|0,0:0|0:0,0:0:0:0:
4,17,143322,6,0,P|19:59|37:111,1,88,0|0,3:2|0:0,0:0:0:0:
195,338,143509,2,0,B|167:271|167:271|160:265|160:265|162:253|162:253|127:164|127:164|147:197|207:205,1,264,10|0,0:0|0:0,0:0:0:0:
458,73,143884,6,0,P|428:155|399:239,1,176,10|0,0:0|3:2,0:0:0:0:
472,384,144165,1,0,0:0:0:0:
472,384,144259,2,0,P|486:342|501:300,1,88,10|0,0:0|0:0,0:0:0:0:
359,102,144447,1,0,3:2:0:0:
359,102,144540,1,0,3:2:0:0:
359,102,144634,2,0,P|344:143|329:185,1,88,10|0,0:0|0:0,0:0:0:0:
34,340,144822,5,0,3:2:0:0:
19,308,144915,1,0,3:2:0:0:
30,274,145009,2,0,P|72:277|109:311,1,88,10|0,0:0|0:0,0:0:0:0:
329,184,145197,1,0,3:2:0:0:
350,231,145290,1,0,3:2:0:0:
333,281,145384,6,0,P|291:278|254:244,1,88,10|0,0:0|0:0,0:0:0:0:
43,109,145572,1,0,3:2:0:0:
83,63,145665,1,0,3:2:0:0:
144,68,145759,2,0,P|186:71|223:105,1,88,10|0,0:0|0:0,0:0:0:0:
206,356,145947,2,0,P|192:314|179:272,1,88,0|0,3:2|3:2,0:0:0:0:
303,100,146134,2,0,P|315:140|329:183,1,88,10|0,3:2|3:2,0:0:0:0:
512,344,146322,5,4,0:3:0:0:
505,365,146509,2,0,P|494:329|481:291,1,65.9999979858399,10|0,0:0|3:2,0:0:0:0:
433,183,146697,1,0,3:2:0:0:
233,165,146884,1,10,0:0:0:0:
299,356,147072,1,0,3:2:0:0:
285,313,147165,1,0,3:2:0:0:
271,270,147259,1,10,0:0:0:0:
121,106,147447,1,0,3:2:0:0:
52,276,147634,6,0,B|34:231|34:231|32:214|32:214|23:201|23:201|5:153,1,131.99999597168,14|0,0:0|3:2,0:0:0:0:
14,115,147915,1,0,3:2:0:0:
14,115,148009,1,10,0:0:0:0:
197,180,148197,1,0,3:2:0:0:
137,25,148384,6,0,B|186:3|242:17|219:49|278:70|323:49,1,197.99999395752,14|0,0:0|0:0,0:0:0:0:
495,147,148759,2,0,P|503:178|511:210,1,65.9999979858399,14|8,0:0|0:0,0:0:0:0:
495,347,148947,1,8,0:0:0:0:
503,329,149040,1,0,3:2:0:0:
511,311,149134,2,0,P|503:278|495:247,1,65.9999979858399,6|0,3:2|3:2,0:0:0:0:
365,150,149322,6,0,P|377:203|389:257,1,110,4|2,0:3|0:0,0:0:0:0:
224,358,149697,1,8,0:0:0:0:
156,181,149884,1,2,0:0:0:0:
304,341,150072,2,0,P|265:284|215:277,1,110,2|2,3:2|0:0,0:0:0:0:
38,329,150447,1,8,0:0:0:0:
224,358,150634,1,2,0:0:0:0:
144,127,150822,6,0,L|155:180,1,55,2|0,3:2|0:0,0:0:0:0:
113,58,151009,2,0,L|124:111,1,55,2|0,0:0|0:0,0:0:0:0:
307,207,151197,2,0,B|296:155|296:155|294:156|294:156|295:155|295:155|284:94,1,110,10|2,0:0|3:2,0:0:0:0:
449,28,151478,1,2,3:2:0:0:
449,28,151572,2,0,B|459:79|459:79|457:80|457:80|459:79|459:79|470:131,1,110,0|0,3:2|0:0,0:0:0:0:
453,205,151853,1,2,3:2:0:0:
453,205,151947,1,8,0:0:0:0:
296,154,152134,2,0,L|307:208,1,55,2|0,3:2|3:2,0:0:0:0:
402,363,152322,6,0,P|366:311|321:301,1,110,4|2,0:0|0:0,0:0:0:0:
128,342,152697,1,8,0:0:0:0:
156,180,152884,1,2,0:0:0:0:
235,366,153072,1,2,3:2:0:0:
49,245,153259,1,2,0:0:0:0:
247,136,153447,1,10,0:0:0:0:
31,229,153634,1,0,0:0:0:0:
291,248,153822,6,0,P|263:256|238:256,1,55,2|0,3:2|0:0,0:0:0:0:
362,269,154009,2,0,P|334:261|309:261,1,55,2|0,0:0|0:0,0:0:0:0:
439,330,154197,2,0,P|462:268|439:217,1,110,10|2,0:0|3:2,0:0:0:0:
399,177,154478,1,2,3:2:0:0:
399,177,154572,1,0,3:2:0:0:
439,330,154759,1,0,3:2:0:0:
288,158,154947,2,0,P|238:120|168:136,1,131.99999597168,12|0,0:0|3:2,0:0:0:0:
108,276,155228,1,0,3:2:0:0:
118,296,155322,6,0,P|110:242|102:188,1,110,4|2,0:0|0:0,0:0:0:0:
215,22,155697,1,8,0:0:0:0:
58,112,155884,1,2,0:0:0:0:
219,222,156071,1,2,3:2:0:0:
117,21,156259,1,2,0:0:0:0:
102,188,156447,1,8,0:0:0:0:
243,111,156634,1,2,0:0:0:0:
390,290,156822,6,0,P|398:262|398:237,1,55,2|0,3:2|0:0,0:0:0:0:
411,361,157009,2,0,P|403:332|403:308,1,55,2|0,0:0|0:0,0:0:0:0:
512,131,157197,2,0,P|469:160|407:150,1,110,10|2,0:0|0:0,0:0:0:0:
355,27,157478,1,2,0:0:0:0:
355,27,157572,2,0,P|343:77|329:139,1,110,0|0,3:2|3:2,0:0:0:0:
294,270,157853,1,0,3:2:0:0:
294,270,157947,2,0,P|287:200|243:163,1,131.99999597168,12|2,0:0|3:2,0:0:0:0:
66,270,158228,1,2,3:2:0:0:
66,270,158322,6,0,B|75:196|75:196|81:185|81:185|95:95,1,165,6|0,3:2|0:0,0:0:0:0:
82,69,158697,1,8,0:0:0:0:
223,24,158884,1,0,3:2:0:0:
223,24,158978,1,0,3:2:0:0:
223,24,159072,1,6,0:0:0:0:
82,69,159259,1,0,3:2:0:0:
285,133,159447,1,14,0:0:0:0:
142,294,159634,2,0,L|150:236,1,55,0|0,3:2|3:2,0:0:0:0:
478,296,159822,6,0,B|391:282|391:282|364:291|364:291|340:274|340:274|256:260,1,230.99999295044,14|0,0:0|3:2,0:0:0:0:
461,74,160197,2,0,B|470:132|470:132|470:145|470:145|473:156|473:156|482:214|482:214|392:199,1,230.99999295044,12|0,0:0|0:0,0:0:0:0:
286,12,160572,5,14,0:0:0:0:
327,45,160665,1,10,0:0:0:0:
327,99,160759,1,10,0:0:0:0:
285,133,160853,1,10,0:0:0:0:
232,120,160947,1,10,0:0:0:0:
200,53,161040,1,10,0:0:0:0:
127,36,161134,1,10,3:2:0:0:
69,82,161228,1,10,0:0:0:0:
69,157,161322,6,0,P|78:217|91:293,1,131.99999597168,6|0,0:0|0:0,0:0:0:0:
325,321,161697,1,10,0:0:0:0:
232,120,161884,1,0,3:2:0:0:
196,357,162072,2,0,P|184:292|171:227,1,131.99999597168,10|0,0:0|3:2,0:0:0:0:
133,32,162447,1,10,0:0:0:0:
326,82,162634,1,2,3:2:0:0:
17,54,162822,6,0,P|70:18|133:32,1,131.99999597168,10|2,0:0|0:0,0:0:0:0:
171,228,163197,1,10,0:0:0:0:
85,97,163384,2,0,L|98:165,1,65.9999979858399,2|2,3:2|3:2,0:0:0:0:
263,279,163572,2,0,P|251:214|240:146,1,131.99999597168,10|2,0:0|3:2,0:0:0:0:
465,19,163947,1,8,0:0:0:0:
462,66,164040,1,8,0:0:0:0:
459,114,164134,1,8,0:0:0:0:
457,162,164228,1,8,0:0:0:0:
453,210,164322,6,0,B|443:258|443:258|444:272|444:272|431:344,1,131.99999597168,14|0,0:0|0:0,0:0:0:0:
140,273,164697,2,0,P|192:250|265:288,1,131.99999597168,10|2,0:0|3:2,0:0:0:0:
53,349,165072,1,8,0:0:0:0:
196,336,165259,1,2,3:2:0:0:
112,188,165447,1,8,0:0:0:0:
216,357,165634,2,0,P|250:355|283:353,1,65.9999979858399,2|2,3:2|3:2,0:0:0:0:
389,272,165822,6,0,P|326:275|253:278,1,131.99999597168,10|2,0:0|3:2,0:0:0:0:
318,126,166197,1,10,0:0:0:0:
203,33,166384,2,0,L|268:31,1,65.9999979858399,2|2,3:2|3:2,0:0:0:0:
450,119,166572,2,0,B|400:119|400:119|386:123|386:123|314:126,1,131.99999597168,10|0,0:0|3:2,0:0:0:0:
118,189,166947,1,10,0:0:0:0:
258,278,167134,1,0,3:2:0:0:
57,248,167322,6,0,P|37:179|66:120,1,131.99999597168,14|2,0:0|0:0,0:0:0:0:
203,33,167697,1,10,0:0:0:0:
184,191,167884,2,0,L|118:189,1,65.9999979858399,2|2,3:2|3:2,0:0:0:0:
258,278,168072,1,8,0:0:0:0:
318,125,168259,1,2,3:2:0:0:
425,264,168447,1,8,0:0:0:0:
313,149,168634,2,0,L|329:224,1,65.9999979858399,2|2,3:2|3:2,0:0:0:0:
337,363,168822,6,0,P|310:295|244:281,1,131.99999597168,12|2,0:0|3:2,0:0:0:0:
57,248,169197,1,10,0:0:0:0:
174,371,169384,2,0,L|162:306,1,65.9999979858399,2|2,3:2|3:2,0:0:0:0:
236,155,169572,2,0,B|247:213|247:213|245:216|245:216|247:213|247:213|259:278,1,131.99999597168,8|0,0:0|3:2,0:0:0:0:
445,358,169947,1,10,0:0:0:0:
410,186,170134,2,0,L|422:252,1,65.9999979858399,2|2,3:2|3:2,0:0:0:0:
366,100,170322,5,14,0:0:0:0:
326,78,170415,1,0,3:2:0:0:
282,83,170509,1,0,3:2:0:0:
248,112,170603,1,0,3:2:0:0:
236,155,170697,1,8,0:0:0:0:
270,351,170884,1,2,3:2:0:0:
129,217,171072,1,12,0:0:0:0:
313,151,171259,1,2,3:2:0:0:
351,339,171447,6,0,P|308:278|191:335,1,197.99999395752,12|0,0:0|0:0,0:0:0:0:
3,361,171822,6,0,B|18:306|18:306|10:272|10:272|33:199|33:199|32:184|32:184|41:175|41:175|60:116,1,247.500009441376,14|0,0:0|0:0,0:0:0:0:
227,42,172197,6,0,B|123:-35|42:46|42:46|35:49|35:49|42:51|42:51|70:104|140:85,1,330,12|0,0:0|0:0,0:0:0:0:
363,165,172572,5,10,0:0:0:0:
414,142,172665,1,8,0:0:0:0:
464,167,172759,1,8,0:0:0:0:
473,222,172853,1,8,0:0:0:0:
440,268,172947,1,8,0:0:0:0:
368,247,173040,1,8,0:0:0:0:
300,279,173134,1,10,0:0:0:0:
285,351,173228,1,8,0:0:0:0:
211,369,173322,6,0,P|151:356|92:344,1,121.000003692627,6|2,0:0|0:0,0:0:0:0:
57,126,173697,2,0,P|116:138|175:150,1,121.000003692627,10|2,0:0|0:0,0:0:0:0:
442,107,174072,1,2,3:2:0:0:
350,336,174259,2,0,B|341:279|341:279|343:277|343:277|341:279|341:279|332:216,1,121.000003692627,2|8,3:2|0:0,0:0:0:0:
160,25,174634,6,0,B|329:60|329:60|291:60|265:80,1,242.000007385254,6|2,0:0|3:2,0:0:0:0:
333,222,175197,1,10,0:0:0:0:
170,350,175384,1,2,3:2:0:0:
170,350,175478,1,0,3:2:0:0:
170,350,175572,2,0,P|217:320|280:330,1,121.000003692627,2|2,3:2|0:0,0:0:0:0:
442,202,175947,2,0,P|395:232|332:222,1,121.000003692627,8|0,0:0|0:0,0:0:0:0:
159,84,176322,6,0,P|86:120|161:229,1,242.000007385254,6|10,0:0|0:0,0:0:0:0:
365,87,176884,1,2,0:0:0:0:
150,157,177072,1,2,3:2:0:0:
330,301,177259,2,0,P|317:243|302:181,1,121.000003692627,2|8,3:2|0:0,0:0:0:0:
458,29,177634,1,2,3:2:0:0:
458,29,177728,1,2,3:2:0:0:
458,29,177822,6,0,B|469:76|469:76|473:74|473:74|469:76|469:76|502:221,1,181.500005538941,6|0,0:0|0:0,0:0:0:0:
459,233,178197,2,0,P|444:173|424:94,1,121.000003692627,14|2,0:0|0:0,0:0:0:0:
210,57,178572,2,0,B|221:104|221:104|225:102|225:102|221:104|221:104|254:249,1,181.500005538941,6|0,0:0|0:0,0:0:0:0:
186,336,178947,2,0,P|242:323|263:265,1,121.000003692627,12|2,0:0|3:2,0:0:0:0:
49,335,179228,1,2,3:2:0:0:
49,335,179322,6,0,B|35:282|35:282|39:280|39:280|35:282|35:282|19:215,1,121.000003692627,6|2,0:0|0:0,0:0:0:0:
137,100,179697,2,0,P|151:159|166:220,1,121.000003692627,10|2,0:0|0:0,0:0:0:0:
48,53,180072,1,2,3:2:0:0:
268,119,180259,1,2,3:2:0:0:
121,298,180447,1,8,0:0:0:0:
416,158,180634,6,0,B|341:140|283:203|331:203|276:263|203:248,1,242.000007385254,6|2,0:0|3:2,0:0:0:0:
441,72,181197,1,10,0:0:0:0:
485,316,181384,1,0,0:0:0:0:
232,166,181572,6,0,P|234:104|191:51,1,121.000003692627,14|0,0:0|0:0,0:0:0:0:
54,102,181853,6,0,P|52:164|95:217,1,121.000003692627,14|0,0:0|0:0,0:0:0:0:
119,51,182134,6,0,B|125:75|125:75|129:81|129:81|131:86|131:86|140:116,1,60.5000018463135,14|0,0:0|0:0,0:0:0:0:
406,247,182322,6,0,B|379:277|388:316|388:316|355:230|355:230|346:216|346:216|339:188|339:188|313:119,1,275,6|10,3:2|0:0,0:0:0:0:
2,25,183072,2,0,P|96:18|136:118,1,206.25,6|0,3:2|0:0,0:0:0:0:
101,360,183447,2,0,P|64:263|29:165,1,206.25,10|0,0:0|3:2,0:0:0:0:
392,192,183822,6,0,B|408:240|376:280|376:280|277:234|320:120,1,275,6|8,0:0|0:0,0:0:0:0:
472,268,184384,2,0,P|469:303|450:329,1,68.75,2|0,0:0|3:2,0:0:0:0:
231,120,184572,6,0,P|359:56|399:115,1,206.25,6|0,0:0|0:0,0:0:0:0:
164,283,184947,2,0,B|126:143|126:143|142:176|176:183,1,206.25,12|0,0:0|0:0,0:0:0:0:
282,342,185322,6,0,P|272:306|263:271,1,68.75,4|0,0:3|0:0,0:0:0:0:
36,204,185509,2,0,P|44:237|53:270,1,68.75,2|0,3:2|0:0,0:0:0:0:
198,105,185697,2,0,P|231:106|260:125,1,68.75,14|0,0:0|0:0,0:0:0:0:
414,44,185884,2,0,P|371:66|333:57,1,68.75,2|2,3:2|3:2,0:0:0:0:
496,118,186072,1,2,3:2:0:0:
416,360,186259,2,0,B|392:304|424:264|424:264|408:272|408:272|424:248|424:248|408:256|408:256|440:200|400:136,1,275,6|2,0:0|3:2,0:0:0:0:
191,72,186822,6,0,L|199:112,1,34.375,12|0,0:0|0:0,0:0:0:0:
83,51,187572,6,0,P|137:37|198:86,1,123.750004720688,4|0,0:3|0:0,0:0:0:0:
158,326,187946,1,8,0:0:0:0:
151,272,188040,1,8,0:0:0:0:
144,218,188134,1,8,0:0:0:0:
136,164,188228,1,8,0:0:0:0:
128,110,188322,5,4,0:1:0:0:
128,110,188697,1,8,0:0:0:0:
148,84,188790,2,0,L|156:139,1,55,0|0,3:2|0:0,0:0:0:0:
299,255,188978,1,0,3:2:0:0:
309,217,189072,2,0,L|301:162,1,55,8|0,0:0|0:0,0:0:0:0:
447,61,189259,2,0,L|455:116,1,55,8|0,0:0|3:2,0:0:0:0:
497,343,189447,1,8,0:0:0:0:
478,310,189541,2,0,L|470:255,1,55,8|0,0:0|0:0,0:0:0:0:
272,97,189728,5,0,3:2:0:0:
298,68,189822,2,0,P|326:61|357:65,1,55,8|0,0:0|0:0,0:0:0:0:
72,24,190009,1,0,0:0:0:0:
98,53,190103,2,0,P|126:60|157:56,1,55,8|0,0:0|0:0,0:0:0:0:
106,271,190290,1,0,3:2:0:0:
80,242,190384,2,0,P|52:235|21:239,1,55,8|0,0:0|0:0,0:0:0:0:
301,163,190572,2,0,P|273:170|242:166,1,55,0|0,3:2|3:2,0:0:0:0:
418,281,190759,6,0,P|445:271|476:271,1,55,6|0,3:2|0:0,0:0:0:0:
260,326,190947,2,0,P|276:349|283:380,1,55,6|0,0:0|0:0,0:0:0:0:
301,163,191134,2,0,P|275:149|255:125,1,55,6|0,0:0|0:0,0:0:0:0:
444,22,191322,6,0,B|437:90|437:90|440:118|440:118|432:191,1,165,6|0,3:2|3:2,0:0:0:0:
356,2,191697,2,0,L|350:57,1,55,8|0,0:0|0:0,0:0:0:0:
165,200,191884,1,8,0:0:0:0:
151,163,191978,2,0,L|157:108,1,55
45,341,192165,1,8,0:0:0:0:
59,304,192259,2,0,L|52:249,1,55
6,15,192447,2,0,B|53:20|53:20|66:17|66:17|77:22|77:22|181:33,1,165,8|0,0:0|3:2,0:0:0:0:
453,126,192822,6,0,P|413:46|345:60,1,165,6|0,0:0|0:0,0:0:0:0:
396,277,193197,2,0,P|385:223|374:167,1,110,6|0,3:2|3:2,0:0:0:0:
169,32,193478,2,0,L|180:93,1,55,14|0,0:0|0:0,0:0:0:0:
84,236,193665,1,0,3:2:0:0:
112,210,193759,2,0,P|143:199|175:201,1,55,6|0,0:0|0:0,0:0:0:0:
396,276,193947,6,0,P|370:287|343:288,1,55,6|0,3:2|0:0,0:0:0:0:
350,56,194134,2,0,P|371:80|380:111,1,55,6|0,3:2|0:0,0:0:0:0:
313,365,194322,6,0,P|262:305|293:224,1,165,6|0,0:0|0:0,0:0:0:0:
228,18,194697,2,0,P|217:43|199:63,1,55,8|0,0:0|0:0,0:0:0:0:
34,170,194884,1,8,0:0:0:0:
24,132,194978,2,0,P|42:111|52:86,1,55
163,255,195165,2,0,B|154:215|154:215|155:202|155:202|148:188|148:188|139:145,1,110,8|0,0:0|0:0,0:0:0:0:
166,142,195447,6,0,B|174:181|174:181|181:195|181:195|180:209|180:209|202:318,1,165,4|0,3:2|3:2,0:0:0:0:
362,156,195822,2,0,L|374:210,1,55,8|0,0:0|0:0,0:0:0:0:
503,352,196009,1,4,3:2:0:0:
473,326,196103,2,0,L|461:272,1,55,0|0,3:2|0:0,0:0:0:0:
230,83,196290,1,0,3:2:0:0:
260,109,196384,2,0,L|272:163,1,55,0|0,3:2|0:0,0:0:0:0:
210,356,196572,2,0,L|198:302,1,55,8|0,0:0|0:0,0:0:0:0:
34,170,196759,6,0,P|27:196|14:220,1,55,6|0,0:0|0:0,0:0:0:0:
173,130,196947,2,0,P|157:96|153:60,1,55,6|0,0:0|0:0,0:0:0:0:
198,302,197134,2,0,P|222:289|248:282,1,55,6|0,0:0|0:0,0:0:0:0:
410,122,197322,6,0,B|393:262|393:262|394:237|366:198,1,197.99999395752,6|0,0:0|0:0,0:0:0:0:
294,21,197697,2,0,B|286:69|286:69|281:85|281:85|281:102|281:102|271:167,1,142.99999345398,4|0,0:0|3:2,0:0:0:0:
170,356,197978,2,0,L|175:320,1,35.749998363495,0|0,3:2|3:2,0:0:0:0:
198,302,198072,6,0,B|260:285|308:323|288:334|331:375|395:367,1,214.49999018097,12|0,0:0|0:0,0:0:0:0:
460,167,198447,2,0,P|364:126|405:218,1,230.99999295044,4|0,0:0|0:0,0:0:0:0:
496,374,198822,6,0,L|487:318,1,55,6|0,3:2|3:2,0:0:0:0:
460,167,199009,1,0,3:2:0:0:
470,129,199103,2,0,L|478:183,1,55,6|0,3:2|3:2,0:0:0:0:
282,123,199290,1,0,3:2:0:0:
272,161,199384,2,0,L|264:107,1,55,14|0,0:0|3:2,0:0:0:0:
60,36,199572,6,0,L|68:90,1,55,6|0,3:2|3:2,0:0:0:0:
71,309,199759,1,0,3:2:0:0:
83,272,199853,2,0,P|56:281|30:280,1,55,6|8,3:2|0:0,0:0:0:0:
304,325,200040,1,8,0:0:0:0:
316,362,200134,2,0,P|289:353|263:354,1,55,14|8,0:0|0:0,0:0:0:0:
188,108,200322,6,0,P|179:198|169:308,1,197.99999395752,6|0,0:0|3:2,0:0:0:0:
264,150,201072,2,0,L|260:200,1,49.4999984893799,2|0,3:2|0:0,0:0:0:0:
304,325,201259,1,0,0:0:0:0:
304,294,201353,1,0,0:0:0:0:
322,274,201446,1,2,3:2:0:0:
350,271,201540,1,2,0:0:0:0:
373,285,201634,1,2,0:0:0:0:
381,312,201728,1,2,0:0:0:0:
413,334,201822,5,2,3:2:0:0:
416,302,201916,1,0,0:0:0:0:
419,270,202010,1,0,0:0:0:0:
423,238,202103,1,0,0:0:0:0:
426,206,202197,1,2,3:2:0:0:
415,171,202290,5,0,0:0:0:0:
417,133,202384,1,2,0:0:0:0:
422,95,202478,1,2,0:0:0:0:
410,54,202572,1,2,3:2:0:0:
373,73,202665,1,0,0:0:0:0:
333,72,202759,6,0,L|420:94,1,76.9999976501466,14|0,0:0|0:0,0:0:0:0:
226,35,202947,2,0,L|142:47,1,76.9999976501466,6|0,3:2|3:2,0:0:0:0:
50,155,203134,2,0,L|128:143,1,76.9999976501466,6|0,3:2|3:2,0:0:0:0:
44,316,203322,6,0,B|41:293|41:293|39:287|39:287|37:262,1,49.4999984893799,6|0,3:2|0:0,0:0:0:0:
48,239,203509,1,0,0:0:0:0:
0,35,203697,2,0,L|7:106,1,49.4999984893799,2|0,3:2|0:0,0:0:0:0:
126,143,203884,1,0,0:0:0:0:
161,137,203978,1,0,0:0:0:0:
194,133,204072,6,0,L|244:125,3,49.4999984893799,2|0|0|0,3:2|0:0|0:0|0:0,0:0:0:0:
376,159,204447,1,2,3:2:0:0:
347,179,204540,1,0,0:0:0:0:
343,213,204634,2,0,L|294:220,1,49.4999984893799
222,364,204822,1,8,0:0:0:0:
229,349,204915,6,0,B|280:339|280:339|301:327|301:327|327:329|327:329|378:319,1,153.999995300293,6|0,0:0|0:0,0:0:0:0:
107,220,205197,2,0,P|125:288|149:373,1,153.999995300293,6|0,3:2|0:0,0:0:0:0:
194,133,205478,6,0,P|199:69|141:83,1,131.99999597168,14|0,0:0|0:0,0:0:0:0:
22,240,205759,2,0,P|30:273|42:314,1,71.4999967269899,14|0,0:0|0:0,0:0:0:0:
61,134,205947,2,0,P|26:107|-10:107,1,71.4999967269899,6|0,3:2|3:2,0:0:0:0:
191,209,206134,2,0,P|224:206|254:180,1,71.4999967269899,6|0,3:2|3:2,0:0:0:0:
426,133,206322,6,0,P|419:227|412:333,1,197.99999395752,6|2,0:0|3:2,0:0:0:0:
509,375,206884,1,0,0:0:0:0:
324,232,207072,2,0,B|341:215|341:215|332:339,1,148.49999546814,2|0,3:2|0:0,0:0:0:0:
299,365,207447,1,2,3:2:0:0:
197,165,207634,2,0,L|191:229,1,49.4999984893799,2|0,0:0|0:0,0:0:0:0:
75,309,207822,5,2,3:2:0:0:
95,289,207915,1,0,0:0:0:0:
101,260,208009,1,0,0:0:0:0:
96,231,208103,1,0,0:0:0:0:
72,205,208197,5,2,3:2:0:0:
47,181,208290,1,0,0:0:0:0:
40,146,208384,1,2,0:0:0:0:
46,111,208478,1,2,0:0:0:0:
70,85,208572,1,0,3:2:0:0:
103,77,208665,1,0,0:0:0:0:
135,87,208759,6,0,P|172:87|210:73,1,76.9999976501466,6|0,0:0|0:0,0:0:0:0:
390,22,208947,2,0,P|353:22|315:8,1,76.9999976501466,6|0,3:2|3:2,0:0:0:0:
197,165,209134,2,0,P|234:165|272:179,1,76.9999976501466,6|0,3:2|3:2,0:0:0:0:
491,356,209322,6,0,L|477:295,3,49.4999984893799,6|0|0|0,3:2|0:0|0:0|0:0,0:0:0:0:
338,235,209697,2,0,L|365:342,1,98.9999969787599,2|2,3:2|0:0,0:0:0:0:
223,246,209978,1,2,0:0:0:0:
222,280,210072,6,0,L|235:335,1,49.4999984893799,0|0,3:2|0:0,0:0:0:0:
81,275,210259,2,0,L|69:226,1,49.4999984893799,2|0,0:0|0:0,0:0:0:0:
82,67,210447,1,2,3:2:0:0:
105,80,210540,1,0,0:0:0:0:
131,75,210634,1,0,0:0:0:0:
148,53,210728,1,0,0:0:0:0:
138,30,210822,6,0,B|206:35|206:35|219:39|219:39|291:43,1,153.999995300293,6|0,0:0|0:0,0:0:0:0:
460,245,211072,2,0,B|448:203|448:203|447:191|447:191|442:179|442:179|432:138|432:138|414:175,1,142.99999345398,14|0,3:2|0:0,0:0:0:0:
234,348,211322,6,0,P|190:300|209:224,1,142.99999345398,6|0,3:2|0:0,0:0:0:0:
311,127,211572,2,0,B|321:166|321:166|326:164|326:164|322:166|322:166|346:255,1,142.99999345398,14|0,3:2|0:0,0:0:0:0:
90,383,211822,6,0,B|80:349|80:349|75:341|75:341|75:330|75:330|44:221,1,165.000006294251,6|0,3:2|0:0,0:0:0:0:
186,49,212072,6,0,P|291:62|204:128,1,264,14|0,0:0|0:0,0:0:0:0:
56,3,212697,6,0,B|80:82|80:82|83:106|83:106|94:125|94:125|123:216,1,214.49999018097,4|0,0:1|0:0,0:0:0:0:
397,312,213072,1,2,3:2:0:0:
354,312,213165,1,2,0:0:0:0:
319,288,213259,1,0,0:0:0:0:
306,247,213353,1,0,0:0:0:0:
319,206,213447,1,10,0:0:0:0:
354,181,213540,1,0,0:0:0:0:
397,181,213634,1,2,0:0:0:0:
432,206,213728,1,2,0:0:0:0:
444,247,213822,5,2,3:2:0:0:
385,232,213915,1,0,0:0:0:0:
327,240,214009,1,0,0:0:0:0:
277,270,214103,1,2,0:0:0:0:
228,301,214197,1,10,0:0:0:0:
169,309,214290,1,2,0:0:0:0:
112,292,214384,6,0,B|79:326|82:374|82:374|63:293|63:293|46:279|46:279|56:258|56:258|40:185|40:185|51:165|51:165|33:150|33:150|18:76|18:76|34:126|90:146,1,495.000018882752,2|8,3:2|0:0,0:0:0:0:
325,17,215134,2,0,P|284:25|244:35,1,82.5000031471254,10|10,0:0|0:0,0:0:0:0:
475,189,215322,6,0,B|397:154|304:218|379:228|290:302|220:280|220:280|253:272|270:243,1,352,6|8,0:0|0:0,0:0:0:0:
14,116,215884,2,0,B|21:171|21:171|20:187|20:187|26:203|26:203|32:250|32:250|78:288|112:239|112:239|105:192|105:192|107:175|107:175|101:160|101:160|93:104|93:104|102:136|132:149,1,428.999980361939,2|8,3:2|0:0,0:0:0:0:
475,189,216822,6,0,P|490:265|503:329,1,142.99999345398,0|0,3:2|0:0,0:0:0:0:
363,131,217103,2,0,P|378:207|391:271,1,142.99999345398,2|0,0:0|0:0,0:0:0:0:
433,20,217384,2,0,L|448:96,1,71.4999967269899,2|0,3:2|0:0,0:0:0:0:
300,212,217572,6,0,P|305:139|387:153,1,142.99999345398,2|0,3:2|0:0,0:0:0:0:
268,345,217853,2,0,B|212:340|212:340|195:344|195:344|119:340,1,142.99999345398,2|0,0:0|0:0,0:0:0:0:
13,264,218134,2,0,P|19:305|23:334,1,71.4999967269899,2|0,3:2|0:0,0:0:0:0:
97,76,218322,6,0,P|63:62|28:64,1,71.4999967269899,6|0,0:0|0:0,0:0:0:0:
219,33,218509,2,0,P|253:47|288:45,1,71.4999967269899,2|0,0:0|0:0,0:0:0:0:
459,279,218697,5,10,0:0:0:0:
408,303,218790,1,0,0:0:0:0:
354,304,218884,1,2,0:0:0:0:
304,281,218978,1,2,0:0:0:0:
272,245,219072,5,2,0:0:0:0:
237,217,219165,1,0,0:0:0:0:
203,204,219259,1,2,3:2:0:0:
167,208,219353,1,2,0:0:0:0:
141,232,219447,5,10,0:0:0:0:
130,266,219541,1,0,0:0:0:0:
138,300,219634,1,2,0:0:0:0:
161,326,219728,1,0,0:0:0:0:
198,345,219822,5,2,3:2:0:0:
219,309,219916,1,2,0:0:0:0:
223,267,220009,1,2,0:0:0:0:
203,229,220103,1,2,0:0:0:0:
167,208,220197,5,10,0:0:0:0:
115,213,220291,1,0,0:0:0:0:
69,192,220384,1,2,3:2:0:0:
38,152,220478,1,2,0:0:0:0:
31,100,220572,5,2,0:0:0:0:
41,65,220666,1,0,0:0:0:0:
72,36,220759,1,2,3:2:0:0:
113,24,220853,1,0,0:0:0:0:
155,31,220947,1,10,0:0:0:0:
184,61,221040,1,0,0:0:0:0:
186,103,221134,2,0,P|150:110|115:117,1,71.4999967269899,2|0,0:0|0:0,0:0:0:0:
2,329,221322,6,0,P|34:341|68:354,1,71.4999967269899,6|0,0:0|0:0,0:0:0:0:
342,249,221509,2,0,P|308:262|275:275,1,71.4999967269899,2|0,0:0|0:0,0:0:0:0:
280,79,221697,5,10,0:0:0:0:
306,49,221790,1,2,0:0:0:0:
345,46,221884,1,0,0:0:0:0:
375,70,221978,1,0,0:0:0:0:
381,108,222072,5,2,0:0:0:0:
411,147,222165,1,2,0:0:0:0:
459,150,222259,1,2,3:2:0:0:
491,114,222353,1,2,0:0:0:0:
485,66,222447,5,10,0:0:0:0:
432,92,222540,1,0,0:0:0:0:
411,147,222634,1,2,0:0:0:0:
432,201,222728,1,2,0:0:0:0:
485,228,222822,6,0,B|532:280|532:280|434:259|434:259|416:261|416:261|342:249,1,264,6|0,0:0|0:0,0:0:0:0:
113,199,223197,6,0,B|82:153|116:103|116:103|119:92|119:92|126:101|126:101|181:136|168:192,1,230.99999295044,6|4,0:0|0:0,0:0:0:0:
5,332,223572,6,0,B|64:296|124:337|124:337|127:345|127:345|135:343|135:343|196:379|268:343,1,280.500005350113,6|0,0:0|0:0,0:0:0:0:
411,147,223947,6,0,B|427:90|427:90|379:107|379:107|363:110|363:110|350:117|350:117|304:135|304:135|351:167,1,247.500009441376,6|0,0:0|0:0,0:0:0:0:
458,0,224322,6,0,L|388:22,1,71.4999967269899,6|0,0:0|0:0,0:0:0:0:
109,110,224509,1,0,0:0:0:0:
136,78,224602,1,2,0:0:0:0:
177,73,224696,1,8,0:0:0:0:
211,95,224790,1,0,0:0:0:0:
223,135,224884,1,2,0:0:0:0:
206,172,224977,1,0,0:0:0:0:
169,190,225072,6,0,P|203:180|237:169,1,71.4999967269899,2|0,0:0|0:0,0:0:0:0:
122,366,225259,1,0,3:2:0:0:
88,339,225353,2,0,B|73:291|73:291|63:272|63:272|61:250|61:250|47:201,1,142.99999345398,2|0,0:0|0:0,0:0:0:0:
284,290,225634,2,0,P|249:299|215:310,1,71.4999967269899,2|0,0:0|0:0,0:0:0:0:
496,332,225822,5,2,3:2:0:0:
467,291,225915,1,0,0:0:0:0:
468,240,226009,1,2,0:0:0:0:
498,200,226103,2,0,P|431:215|351:232,1,142.99999345398,2|0,0:0|0:0,0:0:0:0:
211,95,226385,1,2,3:2:0:0:
253,59,226478,1,2,0:0:0:0:
301,70,226572,6,0,P|333:61|370:53,1,71.4999967269899,2|0,0:0|0:0,0:0:0:0:
259,211,226759,2,0,P|224:219|189:227,1,71.4999967269899,2|0,3:2|0:0,0:0:0:0:
375,161,226947,2,0,P|366:195|358:230,1,71.4999967269899,10|0,0:0|0:0,0:0:0:0:
165,331,227134,2,0,P|173:296|181:261,1,71.4999967269899,2|0,0:0|0:0,0:0:0:0:
94,20,227322,5,6,0:0:0:0:
49,35,227415,1,0,0:0:0:0:
23,76,227509,1,2,0:0:0:0:
30,123,227603,1,2,0:0:0:0:
67,155,227697,5,10,0:0:0:0:
116,156,227790,1,0,0:0:0:0:
153,125,227884,1,0,0:0:0:0:
201,124,227978,1,0,0:0:0:0:
238,155,228072,5,2,0:0:0:0:
248,202,228165,1,0,0:0:0:0:
224,244,228259,1,0,3:2:0:0:
181,261,228353,1,2,0:0:0:0:
135,245,228447,5,8,0:0:0:0:
111,203,228540,1,0,0:0:0:0:
65,186,228634,1,2,0:0:0:0:
19,202,228728,1,2,0:0:0:0:
0,249,228822,6,0,B|109:273|109:273|121:272|121:272|118:279|118:279|130:278|130:278|206:296|206:296|172:249,1,264,2|0,3:2|0:0,0:0:0:0:
396,360,229197,2,0,P|377:320|358:281,1,88,10|0,0:0|0:0,0:0:0:0:
446,55,229384,6,0,B|408:108|411:164|443:190|457:235|457:235|439:179|376:125|251:175|280:290|280:290|278:236|321:216,1,561.000010700226,2|8,3:2|0:0,0:0:0:0:
247,30,230134,2,0,P|236:76|226:121,1,93.500001783371,2|0,0:0|0:0,0:0:0:0:
48,344,230322,5,6,0:0:0:0:
82,253,230447,1,2,0:0:0:0:
116,164,230572,1,2,0:0:0:0:
127,40,230697,5,10,0:0:0:0:
93,129,230822,1,2,0:0:0:0:
59,220,230947,1,2,0:0:0:0:
19,361,231072,5,2,3:2:0:0:
108,327,231197,1,2,0:0:0:0:
199,293,231322,1,2,0:0:0:0:
355,355,231447,6,0,B|287:339|287:339|287:344|287:344|288:339|288:339|202:317,1,142.99999345398,10|0,0:0|3:2,0:0:0:0:
417,244,231728,1,2,3:2:0:0:
440,271,231822,6,0,P|408:261|365:250,1,71.4999967269899,2|2,3:2|0:0,0:0:0:0:
277,190,232009,2,0,P|311:199|351:210,1,71.4999967269899,2|0,0:0|0:0,0:0:0:0:
470,0,232197,1,8,0:0:0:0:
498,30,232290,1,2,0:0:0:0:
495,65,232384,1,2,0:0:0:0:
475,93,232478,1,2,0:0:0:0:
444,109,232572,6,0,P|409:113|380:139,1,71.4999967269899,2|0,0:0|0:0,0:0:0:0:
215,217,232759,2,0,P|250:213|279:187,1,71.4999967269899,2|0,3:2|0:0,0:0:0:0:
269,13,232947,2,0,P|282:47|297:90,1,71.4999967269899,10|0,0:0|0:0,0:0:0:0:
240,284,233134,2,0,P|228:250|215:216,1,71.4999967269899
43,53,233322,5,6,0:0:0:0:
77,20,233415,1,2,0:0:0:0:
123,20,233509,1,2,0:0:0:0:
161,51,233603,1,2,0:0:0:0:
157,101,233697,5,10,0:0:0:0:
179,144,233790,1,0,0:0:0:0:
224,166,233884,1,2,0:0:0:0:
272,153,233978,1,2,0:0:0:0:
303,115,234072,5,2,0:0:0:0:
354,86,234165,1,2,0:0:0:0:
409,103,234259,1,2,3:2:0:0:
436,156,234353,1,2,0:0:0:0:
416,210,234447,5,10,0:0:0:0:
372,262,234540,1,2,0:0:0:0:
391,326,234634,1,2,0:0:0:0:
455,345,234728,1,2,0:0:0:0:
507,302,234822,6,0,B|392:315|392:315|383:320|383:320|372:318|372:318|258:331,1,247.500009441376,6|0,0:0|0:0,0:0:0:0:
86,291,235197,6,0,B|39:310|0:278|0:278|35:190|103:200|140:227,1,264,6|0,0:0|0:0,0:0:0:0:
410,102,235572,6,0,B|458:87|494:123|494:123|455:199|379:181|379:181|356:200|356:200|305:211,1,296.99999093628,6|0,0:0|0:0,0:0:0:0:
142,122,235947,6,0,P|104:22|199:101,1,280.500005350113,6|0,0:0|0:0,0:0:0:0:
76,357,236322,6,0,P|64:308|49:243,1,110,6|0,0:0|0:0,0:0:0:0:
40,212,236603,2,0,P|91:197|139:227,1,110,2|0,3:2|0:0,0:0:0:0:
152,260,236884,1,2,0:0:0:0:
76,358,237072,1,8,0:0:0:0:
272,277,237259,6,0,L|259:218,1,55,2|0,3:2|0:0,0:0:0:0:
297,57,237447,1,2,0:0:0:0:
303,88,237540,1,2,0:0:0:0:
309,119,237634,1,0,0:0:0:0:
469,302,237822,6,0,P|471:247|436:204,1,110,0|8,3:2|0:0,0:0:0:0:
412,191,238103,1,0,0:0:0:0:
412,191,238197,2,0,L|398:132,1,55,2|0,0:0|0:0,0:0:0:0:
405,36,238384,2,0,P|351:46|291:58,1,110,2|8,3:2|0:0,0:0:0:0:
66,82,238759,6,0,B|110:73|110:73|120:69|120:69|130:68|130:68|174:61,1,110,2|2,0:0|3:2,0:0:0:0:
143,203,239040,1,2,0:0:0:0:
164,171,239134,1,0,0:0:0:0:
201,159,239228,1,0,0:0:0:0:
237,169,239322,6,0,P|229:250|221:334,1,165,6|0,0:0|0:0,0:0:0:0:
245,356,239697,2,0,P|251:292|257:228,1,110,2|0,3:2|0:0,0:0:0:0:
507,295,240072,2,0,P|464:229|360:233,1,165,10|0,0:0|0:0,0:0:0:0:
366,246,240447,1,2,3:2:0:0:
479,110,240634,1,8,0:0:0:0:
260,97,240822,6,0,P|314:91|375:84,1,110,6|8,0:0|0:0,0:0:0:0:
170,23,241197,1,0,3:2:0:0:
129,28,241290,1,0,0:0:0:0:
89,34,241384,1,0,0:0:0:0:
128,237,241572,6,0,P|108:157|44:171,1,165,14|0,0:0|0:0,0:0:0:0:
55,313,241947,1,0,3:2:0:0:
65,338,242040,1,0,3:2:0:0:
87,354,242134,1,0,3:2:0:0:
114,356,242228,1,0,3:2:0:0:
141,352,242322,6,0,B|197:320|253:344|245:360|294:382|357:352,1,220,6|0,0:0|0:0,0:0:0:0:
496,208,242884,1,2,3:2:0:0:
494,239,242977,1,2,0:0:0:0:
493,271,243072,1,14,0:0:0:0:
304,120,243384,1,2,3:2:0:0:
353,277,243634,1,2,3:2:0:0:
443,67,243822,6,0,B|394:79|394:79|384:79|384:79|336:92,1,110,6|0,0:0|0:0,0:0:0:0:
149,150,244197,1,0,3:2:0:0:
210,2,244384,2,0,L|222:58,1,55,2|0,0:0|3:2,0:0:0:0:
174,260,244572,6,0,P|230:241|254:191,1,110,12|2,0:0|0:0,0:0:0:0:
147,67,244853,1,0,0:0:0:0:
127,42,244947,2,0,P|138:96|150:156,1,110,4|2,0:0|3:2,0:0:0:0:
203,376,245228,1,2,3:2:0:0:
203,376,245322,6,0,B|262:365|262:365|277:367|277:367|345:356,1,142.99999345398,14|0,0:0|0:0,0:0:0:0:
477,176,245602,1,0,3:2:0:0:
456,130,245696,1,0,3:2:0:0:
469,80,245790,1,0,3:2:0:0:
511,51,245884,6,0,B|452:40|452:40|437:42|437:42|369:31,1,142.99999345398,14|0,0:0|0:0,0:0:0:0:
123,43,246165,1,0,3:2:0:0:
169,22,246259,1,0,3:2:0:0:
219,35,246353,1,0,3:2:0:0:
248,77,246447,6,0,B|237:136|237:136|239:151|239:151|228:219,1,142.99999345398,14|0,0:0|0:0,0:0:0:0:
33,348,246727,1,0,3:2:0:0:
79,369,246821,1,0,3:2:0:0:
129,356,246915,1,0,3:2:0:0:
158,314,247009,6,0,P|153:279|148:244,1,71.4999967269899,14|0,0:0|0:0,0:0:0:0:
318,157,247197,2,0,P|313:192|308:227,1,71.4999967269899,2|0,3:2|3:2,0:0:0:0:
133,113,247384,2,0,P|128:78|123:43,1,71.4999967269899,2|0,3:2|3:2,0:0:0:0:
355,42,247572,6,0,B|346:104|346:104|350:104|350:104|346:104|346:104|326:247,1,214.49999018097,14|0,0:0|0:0,0:0:0:0:
490,324,247947,6,0,B|510:361|510:361|528:243|528:243|492:284,1,214.49999018097,14|0,0:0|0:0,0:0:0:0:
294,365,248322,6,0,B|219:359|219:359|209:362|209:362|125:356,1,165.000006294251,6|0,0:0|0:0,0:0:0:0:
26,147,248603,1,2,0:0:0:0:
34,175,248697,2,0,P|26:216|16:265,1,82.5000031471254,10|0,0:0|0:0,0:0:0:0:
86,82,248884,2,0,P|78:123|68:172,1,82.5000031471254,2|0,0:0|0:0,0:0:0:0:
302,166,249072,6,0,B|201:142|122:226|187:226|114:307|15:287,1,330.000012588501,10|8,0:0|0:0,0:0:0:0:
18,256,249540,6,0,P|75:262|113:233,1,104.499997209549,2|0,0:0|0:0,0:0:0:0:
327,66,249822,6,0,P|392:121|378:231,1,197.99999395752,14|0,0:0|0:0,0:0:0:0:
366,244,250197,2,0,P|377:214|394:175,1,65.9999979858399,8|0,0:0|0:0,0:0:0:0:
241,372,250384,1,2,0:0:0:0:
236,334,250478,1,2,0:0:0:0:
273,352,250572,6,0,B|311:385|311:385|227:365|227:365|208:349|208:349|139:329,1,230.99999295044,10|0,0:0|0:0,0:0:0:0:
0,91,250947,2,0,B|7:69|41:52|73:60|73:60|104:69|125:100|120:133|120:133|125:133|125:133|120:133|120:133|115:166|86:190|58:188,1,280.500005350113,14|0,0:0|0:0,0:0:0:0:
33,8,251322,6,0,P|18:43|3:81,1,71.4999967269899,14|0,0:0|0:0,0:0:0:0:
95,273,251509,2,0,P|81:239|65:200,1,71.4999967269899,2|2,0:0|0:0,0:0:0:0:
260,60,251697,5,10,0:0:0:0:
234,98,251790,1,2,0:0:0:0:
251,143,251884,1,2,0:0:0:0:
294,160,251978,1,2,0:0:0:0:
338,137,252072,5,10,0:0:0:0:
293,96,252165,1,2,0:0:0:0:
234,98,252259,1,2,0:0:0:0:
193,138,252353,1,0,0:0:0:0:
188,198,252447,6,0,B|189:166|189:166|225:253|225:253|236:262|236:262|265:341|265:341|269:293,1,264,14|0,0:0|0:0,0:0:0:0:
494,373,252822,6,0,P|459:357|436:326,1,76.9999976501466,14|0,0:0|0:0,0:0:0:0:
430,124,253009,2,0,P|440:161|430:199,1,76.9999976501466,2|0,0:0|0:0,0:0:0:0:
269,302,253197,2,0,P|282:279|341:252,1,76.9999976501466,10|0,0:0|0:0,0:0:0:0:
101,366,253384,5,2,0:0:0:0:
117,316,253478,1,2,0:0:0:0:
102,265,253572,1,10,0:0:0:0:
59,238,253665,1,2,0:0:0:0:
24,214,253759,1,2,0:0:0:0:
12,172,253853,1,2,0:0:0:0:
21,128,253947,6,0,B|107:157|107:157|106:162|106:162|107:157|107:157|199:189|199:189|182:154,1,230.99999295044,14|0,0:0|0:0,0:0:0:0:
320,31,254322,6,0,P|308:68|298:98,1,71.4999967269899,14|0,0:0|0:0,0:0:0:0:
210,340,254509,1,2,0:0:0:0:
260,344,254603,1,0,0:0:0:0:
305,321,254697,5,10,0:0:0:0:
328,277,254790,1,2,0:0:0:0:
328,226,254884,1,0,0:0:0:0:
301,270,254978,1,2,0:0:0:0:
305,321,255072,5,10,0:0:0:0:
340,358,255165,1,0,0:0:0:0:
390,369,255259,1,0,0:0:0:0:
437,351,255353,1,2,0:0:0:0:
467,309,255447,6,0,P|363:321|253:334,1,214.49999018097,14|2,0:0|0:0,0:0:0:0:
36,374,255822,6,0,P|59:349|86:322,1,71.4999967269899,12|2,0:0|0:0,0:0:0:0:
278,110,256009,1,2,0:0:0:0:
267,148,256103,1,0,0:0:0:0:
256,186,256197,5,10,0:0:0:0:
230,144,256290,1,2,0:0:0:0:
183,127,256384,1,2,0:0:0:0:
136,140,256478,1,0,0:0:0:0:
108,183,256572,5,10,0:0:0:0:
104,219,256665,1,2,0:0:0:0:
122,250,256759,1,2,0:0:0:0:
153,267,256853,1,0,0:0:0:0:
186,265,256947,6,0,B|123:249|123:249|99:252|99:252|41:238|41:238|105:219,1,214.49999018097,14|0,0:0|0:0,0:0:0:0:
45,23,257322,6,0,P|87:35|128:49,1,88,14|0,0:0|0:0,0:0:0:0:
311,186,257509,1,2,3:2:0:0:
372,225,257603,1,0,3:2:0:0:
443,199,257697,1,2,3:2:0:0:
465,128,257790,1,0,3:2:0:0:
424,66,257884,6,0,P|380:77|338:87,1,88,14|0,0:0|0:0,0:0:0:0:
137,263,258072,1,2,3:2:0:0:
61,274,258165,1,0,3:2:0:0:
26,207,258259,1,2,3:2:0:0:
81,153,258353,1,0,3:2:0:0:
148,187,258447,6,0,P|157:230|166:272,1,88,14|0,0:0|0:0,0:0:0:0:
437,341,258634,1,2,3:2:0:0:
375,384,258728,1,0,3:2:0:0:
306,357,258822,1,2,3:2:0:0:
277,287,258915,1,0,3:2:0:0:
319,220,259009,6,0,P|309:176|300:133,1,88,12|0,0:0|0:0,0:0:0:0:
485,18,259197,1,2,3:2:0:0:
414,51,259290,1,0,3:2:0:0:
412,130,259384,1,2,3:2:0:0:
475,177,259477,1,0,3:2:0:0:
456,255,259572,6,0,P|446:299|437:342,1,88,12|0,0:0|0:0,0:0:0:0:
166,273,259759,1,2,3:2:0:0:
91,301,259852,1,2,3:2:0:0:
68,378,259947,6,0,B|61:335|61:335|56:324|56:324|58:306|58:306|44:197|44:197|45:183|45:183|40:166|40:166|34:116,1,264,14|0,0:0|0:0,0:0:0:0:
231,0,260322,6,0,L|247:96,1,76.9999976501466,14|0,0:0|0:0,0:0:0:0:
277,287,260509,1,0,3:2:0:0:
341,312,260603,1,2,3:2:0:0:
399,270,260697,6,0,L|385:194,1,71.4999967269899,14|0,0:0|0:0,0:0:0:0:
475,24,260884,1,0,3:2:0:0:
411,15,260978,1,2,3:2:0:0:
360,47,261072,6,0,L|372:114,1,65.9999979858399,14|0,0:0|0:0,0:0:0:0:
277,287,261259,1,0,3:2:0:0:
226,301,261353,1,2,3:2:0:0:
185,274,261447,6,0,L|189:213,1,60.5000018463135,14|0,0:0|0:0,0:0:0:0:
116,54,261634,1,0,3:2:0:0:
69,41,261728,1,2,3:2:0:0:
30,62,261822,6,0,P|42:140|58:233,1,165,14|0,0:0|0:0,0:0:0:0:
35,250,262197,6,0,P|24:186|14:123,1,123.750004720688,2|0,3:2|0:0,0:0:0:0:
139,345,262572,6,0,P|171:333|200:276,1,73.3333333333333,2|0,3:2|3:2,0:0:0:0:
204,203,262822,1,0,3:2:0:0:
279,77,262947,6,0,P|247:89|218:146,1,73.3333333333333,2|0,3:2|3:2,0:0:0:0:
214,219,263197,1,0,3:2:0:0:
395,323,263322,38,0,B|436:341|447:376|447:376|475:261|367:188|361:265|255:190|281:68,1,453.75001730919,4|0,0:1|0:0,0:0:0:0:
158,32,264447,6,0,L|198:24,1,41.2500015735627,2|0,3:2|0:0,0:0:0:0:
190,126,264634,6,0,L|142:135,1,41.2500015735627,2|0,3:2|0:0,0:0:0:0:
22,237,264822,6,0,B|43:184|19:137|-18:155|-43:96|-6:63|-6:63|30:33|84:60|81:110|58:147|19:137|19:137|33:126|39:105,1,371.250014162064,4|0,0:1|0:0,0:0:0:0:
149,133,265759,6,0,L|190:126,1,41.2500015735627,2|0,3:2|0:0,0:0:0:0:
212,216,265947,6,0,L|171:223,1,41.2500015735627,2|0,3:2|0:0,0:0:0:0:
278,110,266134,6,0,L|272:150,1,41.2500015735627,2|0,3:2|0:0,0:0:0:0:
371,253,266322,6,0,B|344:303|385:355|385:355|388:361|388:361|392:357|392:357|440:345|470:286|470:286|467:281|467:281|472:279|472:279|480:254|486:218|449:154,1,371.250014162064,4|0,0:1|0:0,0:0:0:0:
406,26,267259,6,0,L|412:66,1,41.2500015735627,2|0,3:2|0:0,0:0:0:0:
349,180,267447,6,0,L|355:140,1,41.2500015735627,2|0,3:2|0:0,0:0:0:0:
260,88,267634,6,0,B|278:182|180:182|180:182|189:125,1,206.250007867813,6|0,0:0|0:0,0:0:0:0:
105,0,268197,6,0,B|94:71|94:71|97:93|97:93|82:184,1,181.500005538941,6|0,0:0|0:0,0:0:0:0:
19,340,268572,6,0,P|-7:292|78:289,1,148.49999546814,0|0,3:2|0:0,0:0:0:0:
147,332,268947,2,0,L|95:340,1,49.4999984893799,8|0,0:0|0:0,0:0:0:0:
262,305,269134,2,0,L|213:297,1,49.4999984893799,2|0,3:2|3:2,0:0:0:0:
457,369,269322,6,0,B|437:327|437:327|434:316|434:316|427:307|427:307|410:269|410:269|403:242|403:242|377:184,1,197.99999395752,6|8,0:0|0:0,0:0:0:0:
465,0,269884,1,2,3:2:0:0:
484,39,269978,1,2,3:2:0:0:
503,78,270072,1,10,0:0:0:0:
307,18,270259,1,2,3:2:0:0:
234,210,270447,2,0,B|247:251|247:251|249:251|249:251|247:251|247:251|281:355,1,148.49999546814,14|0,0:0|0:0,0:0:0:0:
74,310,270822,6,0,B|48:241|48:241|44:217|44:217|28:191|28:191|-1:109,1,197.99999395752,14|8,0:0|0:0,0:0:0:0:
180,0,271384,1,2,3:2:0:0:
23,108,271572,1,10,0:0:0:0:
235,176,271759,1,2,3:2:0:0:
278,347,271947,2,0,B|259:295|259:295|256:279|256:279|231:207,1,148.49999546814,14|0,0:0|0:0,0:0:0:0:
403,35,272322,6,0,L|433:129,1,98.9999969787599,14|2,0:0|0:0,0:0:0:0:
512,353,272697,2,0,P|488:299|439:290,1,98.9999969787599,8|0,0:0|3:2,0:0:0:0:
231,207,273072,2,0,P|255:261|304:270,1,98.9999969787599,8|2,0:0|3:2,0:0:0:0:
433,129,273447,1,8,0:0:0:0:
231,207,273634,1,2,3:2:0:0:
373,355,273822,6,0,B|329:211|329:211|331:239|312:264,1,197.99999395752,14|8,2:0|0:0,0:0:0:0:
151,180,274384,1,2,3:2:0:0:
25,325,274572,1,14,0:0:0:0:
47,298,274665,1,0,3:2:0:0:
59,265,274759,1,0,3:2:0:0:
54,230,274853,1,0,3:2:0:0:
33,195,274947,5,8,0:0:0:0:
22,157,275040,1,8,0:0:0:0:
36,120,275134,1,8,0:0:0:0:
71,101,275228,1,8,0:0:0:0:
109,108,275322,6,0,L|151:106,1,22,2|0,3:2|0:0,0:0:0:0:
154,35,275509,2,0,L|112:33,1,22,2|0,3:2|0:0,0:0:0:0:
387,41,275697,6,0,B|354:43|354:43|345:41|345:41|310:44,1,76.9999976501466,4|0,0:1|0:0,0:0:0:0:
278,205,275884,2,0,P|262:151|330:200,1,181.500005538941,2|0,3:2|0:0,0:0:0:0:
376,318,276259,2,0,P|370:288|361:236,1,60.5000018463135,2|0,3:2|0:0,0:0:0:0:
426,143,276447,2,0,P|431:172|437:202,1,60.5000018463135,8|0,0:0|0:0,0:0:0:0:
290,303,276634,6,0,B|244:325|194:308|208:295|162:279|106:303,1,181.500005538941,6|0,0:0|0:0,0:0:0:0:
19,180,277009,2,0,L|26:248,1,60.5000018463135,2|0,3:2|0:0,0:0:0:0:
122,360,277197,2,0,L|114:299,1,60.5000018463135,10|0,0:0|0:0,0:0:0:0:
91,72,277384,6,0,B|95:115|95:115|99:123|99:123|97:131|97:131|114:302,1,230.99999295044,6|0,0:0|0:0,0:0:0:0:
226,109,277759,2,0,L|215:32,1,76.9999976501466,2|0,3:2|0:0,0:0:0:0:
343,174,277947,2,0,L|332:97,1,76.9999976501466,10|0,0:0|0:0,0:0:0:0:
252,295,278134,2,0,L|241:218,1,76.9999976501466,2|0,3:2|0:0,0:0:0:0:
440,346,278322,6,0,B|386:355|386:355|366:364|366:364|343:362|343:362|279:374|279:374|325:356|337:299,1,247.500009441376,4|0,0:0|0:0,0:0:0:0:
104,203,278697,2,0,L|120:283,1,82.5000031471254,10|0,0:0|0:0,0:0:0:0:
8,329,278884,6,0,B|92:318|92:318|113:310|113:310|254:295,1,247.500009441376,2|0,3:2|0:0,0:0:0:0:
445,91,279259,2,0,P|340:71|413:181,1,247.500009441376,14|0,0:0|0:0,0:0:0:0:
440,346,279634,2,0,L|422:263,1,82.5000031471254,2|0,3:2|0:0,0:0:0:0:
311,10,279822,6,0,B|322:60|322:60|330:79|330:79|330:94|330:94|350:178|350:178|304:99|213:138,1,330.000012588501,14|8,0:0|0:0,0:0:0:0:
30,59,280384,2,0,L|47:143,1,82.5000031471254,2|0,3:2|0:0,0:0:0:0:
101,376,280572,2,0,B|95:332|95:332|81:302|81:302|66:219|66:219|88:267|137:270,1,247.500009441376,14|0,0:0|0:0,0:0:0:0:
294,321,280947,1,8,0:0:0:0:
343,328,281041,1,0,3:2:0:0:
387,306,281135,1,2,3:2:0:0:
410,263,281228,1,2,3:2:0:0:
395,215,281322,6,0,B|382:155|382:155|378:124|378:124|363:55|363:55|342:144,1,247.500009441376,6|0,0:0|0:0,0:0:0:0:
438,27,281697,2,0,L|455:108,1,82.5000031471254,10|0,0:0|0:0,0:0:0:0:
272,14,281884,2,0,B|258:67|258:67|258:88|258:88|248:106|248:106|232:163|232:163|216:111|169:102,1,247.500009441376,6|0,0:0|0:0,0:0:0:0:
104,244,282259,2,0,P|137:220|152:183,1,82.5000031471254,2|0,3:2|3:2,0:0:0:0:
107,52,282447,2,0,P|88:88|92:128,1,82.5000031471254,8|0,3:2|0:0,0:0:0:0:
201,293,282634,6,0,L|368:282,1,165.000006294251,6|0,0:0|0:0,0:0:0:0:
492,161,283009,1,2,3:2:0:0:
475,358,283197,2,0,L|480:272,1,82.5000031471254,8|0,0:0|0:0,0:0:0:0:
507,61,283384,6,0,B|441:47|382:106|416:122|364:165|294:165,1,247.500009441376,6|0,0:0|0:0,0:0:0:0:
107,52,283759,2,0,P|149:59|186:94,1,82.5000031471254,2|0,3:2|0:0,0:0:0:0:
131,234,283947,1,8,0:0:0:0:
111,270,284040,1,2,3:2:0:0:
71,283,284134,1,0,3:2:0:0:
30,277,284228,1,0,3:2:0:0:
0,248,284322,6,0,B|68:254|68:254|84:253|84:253|164:261,1,165.000006294251,6|0,0:0|3:2,0:0:0:0:
377,341,284603,1,0,3:2:0:0:
361,373,284697,2,0,P|349:288|331:149,1,214.49999018097,10|0,0:0|3:2,0:0:0:0:
441,21,285072,2,0,B|479:3|528:39|528:39|491:120|413:120|371:69,1,285.99998690796,14|10,0:0|0:0,0:0:0:0:
176,24,285540,1,0,3:2:0:0:
215,56,285634,1,0,3:2:0:0:
213,106,285728,1,0,3:2:0:0:
174,138,285822,6,0,P|181:176|187:211,1,71.4999967269899,14|0,0:0|0:0,0:0:0:0:
125,369,286009,2,0,P|118:333|112:298,1,71.4999967269899
336,355,286197,1,10,3:2:0:0:
324,313,286290,1,0,3:2:0:0:
344,275,286384,1,0,3:2:0:0:
385,262,286478,1,0,3:2:0:0:
429,283,286572,6,0,B|351:271|325:164|416:115|466:156|466:156|439:157|406:174,1,296.99999093628,14|0,0:0|0:0,0:0:0:0:
285,81,288009,6,0,L|290:61,2,20.1666672821045,0|0|0,3:2|3:2|3:2,0:0:0:0:
285,96,288197,1,8,3:2:0:0:
207,279,288822,6,0,B|255:319|327:279|311:199|255:191|255:191|191:183|175:103|247:63|295:103,1,385
292,102,289572,1,4,0:1:0:0:
487,349,300634,5,0,3:2:0:0:
484,332,300728,1,0,3:2:0:0:
481,315,300822,5,10,0:0:0:0:
419,275,301009,1,2,3:2:0:0:
347,316,301197,1,2,3:2:0:0:
253,280,301384,1,2,3:2:0:0:
139,353,301572,6,0,P|191:303|92:195,1,247.500009441376,6|2,0:0|3:2,0:0:0:0:
114,275,302322,2,0,B|101:212|101:212|103:193|103:193|82:80,1,165.000006294251,10|0,0:0|3:2,0:0:0:0:
194,19,302884,1,2,0:0:0:0:
367,115,303072,6,0,B|360:65|323:40|323:40|264:116|320:185,1,247.500009441376,2|2,3:2|3:2,0:0:0:0:
500,313,303822,2,0,P|430:297|407:254,1,123.750004720688,10|0,0:0|0:0,0:0:0:0:
403,214,304197,2,0,P|369:263|310:272,1,123.750004720688,8|0,0:0|0:0,0:0:0:0:
215,357,304572,6,0,B|209:304|209:304|211:283|211:283|204:259|204:259|197:189,1,165.000006294251,6|0,0:0|0:0,0:0:0:0:
198,194,305322,1,10,0:0:0:0:
260,81,305509,1,2,0:0:0:0:
203,182,305697,1,2,3:2:0:0:
89,124,305884,1,2,3:2:0:0:
103,293,306072,6,0,P|99:252|95:205,1,82.5000031471254,2|8,3:2|0:0,0:0:0:0:
89,124,306447,1,0,0:0:0:0:
21,258,306634,1,2,3:2:0:0:
197,193,306822,6,0,P|204:258|211:321,1,123.750004720688,14|0,0:0|0:0,0:0:0:0:
300,364,307197,2,0,L|295:324,1,41.2500015735627,12|0,0:0|3:2,0:0:0:0:
330,245,307384,2,0,L|325:285,1,41.2500015735627,2|0,3:2|3:2,0:0:0:0:
402,178,307572,5,4,0:1:0:0:
508,302,310009,5,0,3:2:0:0:
503,278,310103,1,0,3:2:0:0:
499,256,310197,5,8,0:0:0:0:
495,50,310384,1,2,3:2:0:0:
421,30,310478,1,0,3:2:0:0:
347,50,310572,6,0,B|295:78|251:50|251:50|243:66|243:66|195:34|155:34|107:66|107:66|135:58|155:66|171:82,1,330.000012588501,6|8,0:0|0:0,0:0:0:0:
190,315,311134,2,0,P|186:273|182:233,1,82.5000031471254,0|2,3:2|3:2,0:0:0:0:
347,50,311322,2,0,P|351:92|355:133,1,82.5000031471254,10|0,0:0|0:0,0:0:0:0:
486,327,311509,2,0,P|482:285|477:244,1,82.5000031471254,2|0,3:2|3:2,0:0:0:0:
287,160,311697,2,0,P|314:194|351:206,1,82.5000031471254,10|0,0:0|0:0,0:0:0:0:
253,360,311884,2,0,P|226:326|189:314,1,82.5000031471254,2|0,3:2|3:2,0:0:0:0:
8,88,312072,6,0,B|-5:47|10:7|50:-32|130:15|130:95|50:111|52:164|74:223,1,330,14|0,0:0|3:2,0:0:0:0:
316,301,312447,2,0,B|348:349|348:349|292:336|292:336|269:326|269:326|247:326|247:326|188:313,1,220,12|2,0:0|3:2,0:0:0:0:
95,301,312728,1,0,3:2:0:0:
227,124,312822,6,0,P|217:178|208:233,1,110,14|8,0:0|0:0,0:0:0:0:
449,373,313009,2,0,P|458:318|468:264,1,110,8|8,0:0|0:0,0:0:0:0:
498,64,313197,1,12,0:0:0:0:
433,104,313290,1,8,0:0:0:0:
356,95,313384,2,0,P|346:149|336:203,1,110,10|0,0:0|0:0,0:0:0:0:
105,48,313572,6,0,B|95:99|95:99|90:98|90:98|95:99|95:99|71:227,1,187.000003566742,6|8,0:0|0:0,0:0:0:0:
309,332,313853,1,0,0:0:0:0:
303,276,313947,1,0,3:2:0:0:
265,234,314040,1,0,0:0:0:0:
208,232,314134,2,0,P|217:182|226:141,1,93.500001783371,10|0,0:0|0:0,0:0:0:0:
451,12,314322,6,0,P|441:57|432:103,1,93.500001783371,2|0,3:2|0:0,0:0:0:0:
481,338,314509,1,8,0:0:0:0:
493,302,314603,1,0,0:0:0:0:
506,267,314697,2,0,P|472:234|407:236,1,93.500001783371,0|0,3:2|0:0,0:0:0:0:
231,370,314884,2,0,P|276:363|309:331,1,93.500001783371,10|0,0:0|0:0,0:0:0:0:
332,73,315072,6,0,P|355:149|388:255,1,187.000003566742,2|8,3:2|0:0,0:0:0:0:
153,114,315353,1,0,0:0:0:0:
153,114,315447,2,0,P|139:69|125:24,1,93.500001783371,0|0,3:2|0:0,0:0:0:0:
259,142,315634,2,0,P|272:186|286:231,1,93.500001783371,10|0,0:0|0:0,0:0:0:0:
44,315,315822,6,0,B|98:301|137:336|137:336|137:341|137:341|141:340|141:340|177:384|239:368,1,208.999994419098,6|8,0:0|3:2,0:0:0:0:
453,206,316103,1,0,3:2:0:0:
481,224,316197,2,0,B|433:238|433:238|434:241|434:241|432:238|432:238|387:252,1,104.499997209549,4|0,0:0|0:0,0:0:0:0:
238,44,316384,2,0,B|285:58|285:58|284:61|284:61|286:58|286:58|331:72,1,104.499997209549,8|0,0:0|0:0,0:0:0:0:
392,359,316572,6,0,P|384:273|292:264,1,187.000003566742,6|8,0:0|0:0,0:0:0:0:
44,315,316853,1,0,0:0:0:0:
23,262,316947,1,0,3:2:0:0:
44,210,317040,1,0,0:0:0:0:
95,188,317134,2,0,P|136:199|185:214,1,93.500001783371,8|0,0:0|0:0,0:0:0:0:
422,47,317322,6,0,P|381:58|332:73,1,93.500001783371,2|0,3:2|0:0,0:0:0:0:
228,312,317509,2,0,P|272:298|300:239,1,93.500001783371,10|0,0:0|0:0,0:0:0:0:
164,32,317697,2,0,P|175:73|190:122,1,93.500001783371,2|0,3:2|0:0,0:0:0:0:
440,255,317884,2,0,P|426:209|414:165,1,93.500001783371,10|0,0:0|0:0,0:0:0:0:
218,65,318072,6,0,P|242:146|272:254,1,187.000003566742,2|8,3:2|0:0,0:0:0:0:
494,367,318353,1,0,0:0:0:0:
494,367,318447,2,0,P|481:321|468:277,1,93.500001783371,0|0,3:2|0:0,0:0:0:0:
332,72,318634,2,0,P|344:117|357:161,1,93.500001783371,10|0,0:0|0:0,0:0:0:0:
211,379,318822,6,0,B|168:226|168:226|164:255|145:280,1,208.999994419098,6|8,0:0|3:2,0:0:0:0:
23,65,319103,1,0,3:2:0:0:
23,95,319197,2,0,B|37:143|37:143|40:142|40:142|37:144|37:144|51:189,1,104.499997209549,4|0,0:0|0:0,0:0:0:0:
298,340,319384,2,0,B|284:292|284:292|281:293|281:293|284:291|284:291|270:246,1,104.499997209549,10|0,0:0|0:0,0:0:0:0:
106,60,319572,6,0,B|162:46|206:94|170:94|211:139|266:128,1,187.000003566742,6|8,0:0|0:0,0:0:0:0:
492,27,319853,1,0,0:0:0:0:
436,35,319947,1,0,3:2:0:0:
415,86,320040,1,0,0:0:0:0:
439,136,320134,2,0,P|418:174|424:229,1,93.500001783371,10|0,0:0|0:0,0:0:0:0:
247,371,320322,6,0,P|255:326|266:276,1,93.500001783371,2|0,3:2|0:0,0:0:0:0:
69,157,320509,1,8,0:0:0:0:
52,190,320603,1,0,0:0:0:0:
58,226,320697,2,0,P|83:258|132:271,1,93.500001783371,0|0,3:2|0:0,0:0:0:0:
345,91,320884,2,0,P|299:96|266:128,1,93.500001783371,10|0,0:0|0:0,0:0:0:0:
397,348,321072,6,0,P|418:239|443:116,1,187.000003566742,2|8,3:2|0:0,0:0:0:0:
235,293,321353,1,0,0:0:0:0:
235,293,321447,2,0,P|225:338|216:384,1,93.500001783371,0|0,3:2|0:0,0:0:0:0:
441,298,321634,2,0,P|449:252|460:206,1,93.500001783371,10|0,0:0|0:0,0:0:0:0:
406,22,321822,6,0,B|337:8|294:61|294:61|292:58|292:58|297:64|297:64|294:61|294:61|252:112|179:100,1,264,6|0,0:0|3:2,0:0:0:0:
47,212,322197,5,12,0:0:0:0:
141,236,322290,1,8,0:0:0:0:
150,333,322384,1,10,0:0:0:0:
60,372,322478,1,8,0:0:0:0:
0,297,322572,1,14,0:0:0:0:
0,297,323509,5,8,0:0:0:0:
44,268,323603,1,8,0:0:0:0:
97,269,323697,1,10,0:0:0:0:
126,296,323790,1,2,3:2:0:0:
156,322,323884,1,2,3:2:0:0:
198,324,323978,1,2,3:2:0:0:
238,304,324072,6,0,P|219:254|203:203,1,93.500001783371,4|0,3:2|0:0,0:0:0:0:
66,72,324259,2,0,B|-12:63|-12:63|65:118|65:118|114:110|114:110|119:112|119:112|174:102,1,280.500005350113,10|0,0:0|0:0,0:0:0:0:
375,17,324634,6,0,P|283:37|189:57,1,187.000003566742,10|0,0:0|3:2,0:0:0:0:
35,221,324915,1,0,0:0:0:0:
35,221,325009,2,0,P|80:211|126:201,1,93.500001783371,10|0,0:0|0:0,0:0:0:0:
418,260,325197,1,0,3:2:0:0:
407,224,325290,1,0,3:2:0:0:
413,187,325384,2,0,P|367:196|321:206,1,93.500001783371,10|0,0:0|0:0,0:0:0:0:
188,373,325572,6,0,P|227:347|239:303,1,93.500001783371,0|0,3:2|0:0,0:0:0:0:
91,104,325759,2,0,B|166:303|166:303|165:260|214:229,1,280.500005350113,10|0,0:0|0:0,0:0:0:0:
252,20,326134,6,0,B|270:63|270:63|265:63|265:63|270:64|270:64|317:186,1,187.000003566742,10|0,0:0|3:2,0:0:0:0:
498,354,326415,1,0,0:0:0:0:
498,354,326509,2,0,P|480:311|462:267,1,93.500001783371,10|0,0:0|0:0,0:0:0:0:
385,50,326697,1,0,3:2:0:0:
422,50,326790,1,0,3:2:0:0:
453,69,326884,2,0,P|443:118|402:153,1,93.500001783371,10|0,0:0|0:0,0:0:0:0:
255,289,327072,6,0,P|265:240|306:205,1,93.500001783371,0|0,3:2|0:0,0:0:0:0:
498,354,327259,2,0,B|441:345|441:345|433:342|433:342|422:342|422:342|375:332|375:332|349:335|349:335|292:323|292:323|282:325|282:325|272:321|272:321|220:313,1,280.500005350113,10|0,0:0|0:0,0:0:0:0:
52,119,327634,6,0,B|35:172|35:172|30:175|30:175|6:256|6:256|37:219,1,187.000003566742,10|0,0:0|3:2,0:0:0:0:
203,53,327915,1,0,0:0:0:0:
203,53,328009,2,0,P|188:94|170:151,1,93.500001783371,10|0,0:0|0:0,0:0:0:0:
90,355,328197,1,0,3:2:0:0:
90,355,328290,1,0,3:2:0:0:
90,355,328384,2,0,P|134:340|178:325,1,93.500001783371,10|0,0:0|0:0,0:0:0:0:
447,288,328572,5,0,3:2:0:0:
479,304,328665,1,0,3:2:0:0:
512,285,328759,2,0,P|468:298|393:320,1,93.500001783371,10|0,0:0|0:0,0:0:0:0:
269,144,328947,1,0,3:2:0:0:
221,161,329040,1,0,3:2:0:0:
173,142,329134,6,0,P|216:155|291:177,1,93.500001783371,10|0,0:0|0:0,0:0:0:0:
401,41,329322,1,0,3:2:0:0:
460,52,329415,1,0,3:2:0:0:
512,20,329509,2,0,P|469:33|394:55,1,93.500001783371,10|0,0:0|0:0,0:0:0:0:
264,253,329697,2,0,P|309:242|339:206,1,93.500001783371,0|0,3:2|3:2,0:0:0:0:
174,57,329884,2,0,P|129:68|99:104,1,93.500001783371,10|0,3:2|3:2,0:0:0:0:
152,368,330072,6,0,P|131:328|108:281,1,93.500001783371,4|0,3:2|0:0,0:0:0:0:
21,61,330259,2,0,B|108:40|176:113|120:113|183:183|268:166,1,280.500005350113,10|0,0:0|0:0,0:0:0:0:
477,28,330634,6,0,P|377:38|351:151,1,187.000003566742,10|0,0:0|3:2,0:0:0:0:
291,362,330915,1,0,0:0:0:0:
291,362,331009,2,0,P|303:319|316:268,1,93.500001783371,10|0,0:0|0:0,0:0:0:0:
512,118,331197,1,0,3:2:0:0:
482,140,331290,1,0,3:2:0:0:
444,136,331384,2,0,P|432:181|419:226,1,93.500001783371,10|0,0:0|0:0,0:0:0:0:
185,367,331572,6,0,P|197:324|210:273,1,93.500001783371,0|0,3:2|0:0,0:0:0:0:
65,59,331759,2,0,B|33:158|33:158|34:168|34:168|5:265|5:265|57:223,1,280.500005350113,10|0,0:0|0:0,0:0:0:0:
207,22,332134,6,0,B|196:60|196:60|200:61|200:61|196:60|196:60|150:218,1,187.000003566742,10|0,0:0|3:2,0:0:0:0:
291,362,332415,1,0,0:0:0:0:
291,362,332509,2,0,P|302:316|316:268,1,93.500001783371,10|0,0:0|0:0,0:0:0:0:
471,102,332697,1,0,3:2:0:0:
438,83,332790,1,0,3:2:0:0:
403,98,332884,2,0,P|366:117|345:182,1,93.500001783371,10|0,0:0|0:0,0:0:0:0:
448,334,333072,6,0,P|459:288|473:240,1,93.500001783371,0|0,3:2|0:0,0:0:0:0:
296,41,333259,2,0,B|281:85|281:85|277:85|277:85|280:85|280:85|228:238|228:238|214:175,1,280.500005350113,10|0,0:0|0:0,0:0:0:0:
68,355,333634,6,0,B|115:224|115:224|65:265,1,187.000003566742,10|0,0:0|3:2,0:0:0:0:
5,73,333915,1,0,0:0:0:0:
5,73,334009,2,0,P|17:114|32:162,1,93.500001783371,10|0,0:0|0:0,0:0:0:0:
247,283,334197,1,0,3:2:0:0:
247,283,334290,1,0,3:2:0:0:
247,283,334384,2,0,P|233:238|219:193,1,93.500001783371,10|0,0:0|0:0,0:0:0:0:
82,19,334572,5,0,3:2:0:0:
93,54,334665,1,0,3:2:0:0:
106,88,334759,2,0,P|142:114|192:107,1,93.500001783371,10|0,0:0|0:0,0:0:0:0:
495,171,334947,1,0,3:2:0:0:
479,122,335040,1,0,3:2:0:0:
463,73,335134,6,0,P|427:47|377:54,1,93.500001783371,10|0,0:0|0:0,0:0:0:0:
220,194,335322,1,0,3:2:0:0:
237,251,335415,1,0,3:2:0:0:
254,308,335509,2,0,P|290:334|340:327,1,93.500001783371,10|0,0:0|0:0,0:0:0:0:
286,70,335697,2,0,P|301:112|323:174,1,93.500001783371,8|8,0:0|0:0,0:0:0:0:
172,359,335884,2,0,P|156:314|140:270,1,93.500001783371,10|8,0:0|0:0,0:0:0:0:
