osu file format v14

[General]
AudioFilename: audio.mp3
AudioLeadIn: 0
PreviewTime:63372
Countdown: 0
SampleSet: Normal
StackLeniency: 0.7
Mode: 1
LetterboxInBreaks: 0
WidescreenStoryboard: 1

[Editor]
DistanceSpacing: 1.3
BeatDivisor: 8
GridSize: 32
TimelineZoom: 1.699999

[Metadata]
Title:Shinzou o Sasageyo! (TV Size)
TitleUnicode:心臓を捧げよ! (TV Size)
Artist:Linked Horizon
ArtistUnicode:Linked Horizon
Creator:Hivie
Version:arc's Oni
Source:進撃の巨人
Tags:radar kyex arcpotato axer i love egg motorjam heavenly moon ginjani revo Attack on Titan shingeki no kyojin season 2 two dedicate all your hearts heart snk aot armin arlert levi eren jaeger mikasa ackerman survey corps opening one theme song anime japanese orchestral j-rock jrock rock symphonic
BeatmapID:3690163
BeatmapSetID:1799377

[Difficulty]
HPDrainRate:5
CircleSize:2
OverallDifficulty:5.5
ApproachRate:9
SliderMultiplier:1.4
SliderTickRate:1

[Events]
//Background and Video events
0,0,"sasageyo.jpg",0,0
Video,0,"radar loves men.mp4"
//Break Periods
//Storyboard Layer 0 (Background)
//Storyboard Layer 1 (Fail)
//Storyboard Layer 2 (Pass)
//Storyboard Layer 3 (Foreground)
//Storyboard Layer 4 (Overlay)
//Storyboard Sound Samples

[TimingPoints]
560,375,4,1,0,30,1,0
560,-125,4,1,0,30,0,0
3466,-125,4,1,0,75,0,0
3513,-99.9999999999999,4,1,0,75,0,0
6653,-111.111111111111,4,1,0,50,0,0
17057,-100,4,1,0,50,0,0
17432,-95.2380952380952,4,1,0,50,0,0
17807,-90.9090909090909,4,1,0,50,0,0
18182,-86.9565217391304,4,1,0,52,0,0
18275,-86.9565217391304,4,1,0,54,0,0
18369,-86.9565217391304,4,1,0,56,0,0
18463,-86.9565217391304,4,1,0,58,0,0
18557,-83.3333333333333,4,1,0,60,0,0
18653,-100,4,1,0,60,0,0
21091,-83.3333333333333,4,1,0,60,0,0
21653,-100,4,1,0,60,0,0
24091,-83.3333333333333,4,1,0,60,0,0
24653,-100,4,1,0,60,0,0
25966,-90.9090909090909,4,1,0,60,0,0
26153,-100,4,1,0,60,0,0
27466,-90.9090909090909,4,1,0,60,0,0
27841,-100,4,1,0,60,0,0
28216,-90.9090909090909,4,1,0,60,0,0
28403,-100,4,1,0,60,0,0
29057,-90.9090909090909,4,1,0,60,0,0
29432,-86.9565217391304,4,1,0,60,0,0
29807,-83.3333333333333,4,1,0,60,0,0
30182,-80,4,1,0,60,0,0
30557,-76.9230769230769,4,1,0,60,0,0
30744,-100,4,1,0,60,0,0
32716,-76.9230769230769,4,1,0,60,0,0
33653,-100,4,1,0,60,0,0
35716,-76.9230769230769,4,1,0,60,0,0
36653,-100,4,1,0,60,0,0
38716,-76.9230769230769,4,1,0,60,0,0
39653,-100,4,1,0,60,0,0
41013,-100,4,1,0,70,0,0
41057,-90.9090909090909,4,1,0,70,0,0
41432,-86.9565217391304,4,1,0,70,0,0
41807,-83.3333333333333,4,1,0,70,0,0
42182,-80,4,1,0,70,0,0
42560,-76.9230769230769,4,1,0,70,0,1
42653,-90.9090909090909,4,1,0,70,0,1
45185,-76.9230769230769,4,1,0,70,0,1
45560,-76.9230769230769,4,1,0,70,0,0
45747,-125,4,1,0,60,0,0
47716,-125,4,1,0,70,0,0
47807,-111.111111111111,4,1,0,70,0,0
48182,-105.263157894737,4,1,0,70,0,0
48557,-100,4,1,0,70,0,0
48932,-125,4,1,0,70,0,0
49119,-122.455643844563,4,1,0,70,0,0
49307,-120,4,1,0,70,0,0
49682,-115.384615384615,4,1,0,70,0,0
49966,-115.384615384615,4,1,0,80,0,0
50057,-111.111111111111,4,1,0,80,0,0
50150,-109.601052170101,4,1,0,80,0,0
50244,-108.115900245063,4,1,0,80,0,0
50338,-106.670459394112,4,1,0,80,0,0
50432,-105.263157894737,4,1,0,80,0,0
50619,-102.571115973742,4,1,0,80,0,0
50807,-100,4,1,0,80,0,0
50900,-98.7751876728566,4,1,0,80,0,0
50994,-97.5673214518017,4,1,0,80,0,0
51088,-96.3886389924174,4,1,0,80,0,0
51182,-95.2380952380952,4,1,0,80,0,0
51369,-93.0290250558174,4,1,0,80,0,0
51557,-90.9090909090909,4,1,0,80,0,0
51747,-125,4,1,0,60,0,0
53810,-111.111111111111,4,1,0,60,0,0
53997,-125,4,1,0,60,0,0
54560,-111.111111111111,4,1,0,60,0,0
55685,-125,4,1,0,60,0,0
56807,-111.111111111111,4,1,0,60,0,0
57182,-105.263157894737,4,1,0,60,0,0
57557,-100,4,1,0,60,0,0
57935,-133.333333333333,4,1,0,60,0,0
59994,-111.111111111111,4,1,0,70,0,0
60088,-109.087386165472,4,1,0,70,0,0
60182,-107.136060894386,4,1,0,70,0,0
60369,-103.454612274899,4,1,0,70,0,0
60557,-100,4,1,0,75,0,0
61119,-98.5952524038461,4,1,0,75,0,0
61213,-97.9039236162912,4,1,0,75,0,0
61307,-97.2222222222222,4,1,0,75,0,0
61494,-95.8939139329291,4,1,0,75,0,0
61682,-94.5945945945946,4,1,0,75,0,0
61869,-93.3366519698478,4,1,0,75,0,0
62057,-92.1052631578947,4,1,0,75,0,0
62060,-92.1052631578947,4,1,0,80,0,0
62150,-91.5080527086384,4,1,0,80,0,0
62244,-90.9122393849138,4,1,0,80,0,0
62338,-90.3241346087675,4,1,0,80,0,0
62432,-89.7435897435897,4,1,0,80,0,0
62525,-89.1765185487159,4,1,0,80,0,0
62619,-88.6105860113422,4,1,0,80,0,0
62807,-87.5,4,1,0,80,0,0
62900,-86.9608427747963,4,1,0,80,0,0
62994,-86.4225982748403,4,1,0,80,0,0
63088,-85.8909757214842,4,1,0,80,0,0
63182,-85.3658536585366,4,1,0,80,0,0
63369,-84.3400591183653,4,1,0,80,0,0
63560,-83.3333333333333,4,1,0,75,0,1
63747,-90.9090909090909,4,1,0,75,0,1
72560,-83.3333333333333,4,1,0,65,0,0
72747,-83.3333333333333,4,1,0,40,0,0
73307,-90.9090909090909,4,1,0,40,0,0
73403,-90.9090909090909,4,1,0,65,0,0
73494,-93.0174872876101,4,1,0,65,0,0
73588,-94.1146944409587,4,1,0,65,0,0
73682,-95.2380952380952,4,1,0,65,0,0
73869,-97.5546305931321,4,1,0,65,0,0
74057,-100,4,1,0,65,0,0
74060,-100,4,1,0,75,0,0
79869,-95.2380952380952,4,1,0,75,0,0
80060,-93.0174872876101,4,1,0,85,0,1
80150,-91.9568415890142,4,1,0,85,0,1
86060,-76.9230769230769,4,1,0,85,0,0

[HitObjects]
256,192,560,5,0,0:0:0:0:
256,192,747,1,8,0:0:0:0:
256,192,1122,1,8,0:0:0:0:
256,192,1497,1,8,0:0:0:0:
352,224,1872,1,8,0:0:0:0:
352,224,2060,1,0,0:0:0:0:
256,224,2247,1,8,0:0:0:0:
256,224,2622,1,8,0:0:0:0:
256,224,2997,1,8,0:0:0:0:
256,224,3372,1,8,0:0:0:0:
224,224,3560,1,4,0:0:0:0:
384,224,3747,1,8,0:0:0:0:
352,256,3935,1,0,0:0:0:0:
224,224,4122,1,8,0:0:0:0:
256,160,4216,1,8,0:0:0:0:
320,224,4310,1,0,0:0:0:0:
160,192,4497,1,8,0:0:0:0:
96,160,4591,1,0,0:0:0:0:
288,192,4685,1,8,0:0:0:0:
192,192,4872,1,0,0:0:0:0:
288,192,4966,1,0,0:0:0:0:
192,192,5060,1,8,0:0:0:0:
384,224,5247,1,0,0:0:0:0:
352,224,5341,1,8,0:0:0:0:
384,224,5435,1,8,0:0:0:0:
352,224,5622,1,0,0:0:0:0:
320,160,5716,1,0,0:0:0:0:
320,160,5810,1,8,0:0:0:0:
288,192,5903,1,8,0:0:0:0:
256,128,5997,1,0,0:0:0:0:
192,192,6185,1,8,0:0:0:0:
192,192,6278,1,8,0:0:0:0:
192,192,6372,1,0,0:0:0:0:
192,192,6560,1,12,0:0:0:0:
320,160,6747,1,0,0:0:0:0:
224,224,7122,1,8,0:0:0:0:
224,224,7497,1,0,0:0:0:0:
224,224,7872,1,8,0:0:0:0:
288,160,7966,1,8,0:0:0:0:
224,224,8060,1,0,0:0:0:0:
256,192,8247,1,8,0:0:0:0:
320,192,8435,1,8,0:0:0:0:
320,224,8622,1,0,0:0:0:0:
320,192,8997,1,8,0:0:0:0:
288,160,9185,1,0,0:0:0:0:
320,160,9372,1,8,0:0:0:0:
320,160,9560,1,0,0:0:0:0:
256,160,9653,1,0,0:0:0:0:
256,160,9747,1,8,0:0:0:0:
288,192,9935,1,8,0:0:0:0:
320,192,10122,1,0,0:0:0:0:
320,192,10497,1,8,0:0:0:0:
320,160,10872,1,8,0:0:0:0:
320,160,10966,1,8,0:0:0:0:
224,160,11060,1,8,0:0:0:0:
288,192,11247,1,0,0:0:0:0:
288,192,11435,1,0,0:0:0:0:
256,160,11622,1,8,0:0:0:0:
256,160,11716,1,0,0:0:0:0:
224,192,11810,1,8,0:0:0:0:
128,160,11997,1,0,0:0:0:0:
256,192,12185,1,8,0:0:0:0:
320,192,12278,1,8,0:0:0:0:
256,192,12372,1,0,0:0:0:0:
320,192,12560,1,12,0:0:0:0:
320,192,12747,1,0,0:0:0:0:
256,224,13122,1,0,0:0:0:0:
288,256,13216,1,0,0:0:0:0:
256,224,13310,1,0,0:0:0:0:
256,224,13497,1,8,0:0:0:0:
320,160,13685,1,0,0:0:0:0:
352,256,13872,1,8,0:0:0:0:
192,160,14060,1,8,0:0:0:0:
352,256,14247,1,0,0:0:0:0:
352,256,14435,1,0,0:0:0:0:
352,256,14622,1,8,0:0:0:0:
352,256,14716,1,8,0:0:0:0:
352,256,14810,1,8,0:0:0:0:
256,192,14997,1,0,0:0:0:0:
256,192,15185,1,8,0:0:0:0:
384,224,15278,1,8,0:0:0:0:
384,224,15372,1,8,0:0:0:0:
384,224,15560,1,0,0:0:0:0:
352,192,15747,1,8,0:0:0:0:
224,192,16122,1,8,0:0:0:0:
256,192,16216,1,8,0:0:0:0:
256,160,16310,1,0,0:0:0:0:
256,160,16497,1,8,0:0:0:0:
256,192,16685,1,0,0:0:0:0:
288,160,16872,1,8,0:0:0:0:
256,192,17060,1,4,0:0:0:0:
256,192,17435,1,4,0:0:0:0:
256,192,17810,1,4,0:0:0:0:
256,192,18185,1,4,0:0:0:0:
256,192,18560,1,12,0:0:0:0:
288,224,18747,1,0,0:0:0:0:
288,224,18935,1,8,0:0:0:0:
288,224,19122,1,8,0:0:0:0:
288,224,19216,1,8,0:0:0:0:
288,224,19310,1,0,0:0:0:0:
320,192,19497,1,8,0:0:0:0:
320,192,19685,1,0,0:0:0:0:
320,192,19872,1,8,0:0:0:0:
320,192,19966,1,0,0:0:0:0:
320,192,20060,1,8,0:0:0:0:
320,192,20247,1,0,0:0:0:0:
320,192,20435,1,8,0:0:0:0:
320,192,20622,1,0,0:0:0:0:
320,192,20716,1,0,0:0:0:0:
320,192,20810,1,8,0:0:0:0:
320,192,20997,1,0,0:0:0:0:
320,192,21185,1,12,0:0:0:0:
320,160,21560,1,4,0:0:0:0:
256,192,21747,1,8,0:0:0:0:
352,192,21935,1,0,0:0:0:0:
256,160,22122,1,8,0:0:0:0:
256,160,22216,1,8,0:0:0:0:
288,192,22310,1,0,0:0:0:0:
256,224,22497,1,8,0:0:0:0:
256,224,22685,1,0,0:0:0:0:
256,224,22872,1,8,0:0:0:0:
256,224,22966,1,0,0:0:0:0:
288,192,23060,1,0,0:0:0:0:
288,192,23247,1,8,0:0:0:0:
320,160,23435,1,0,0:0:0:0:
320,160,23622,1,8,0:0:0:0:
256,160,23716,1,0,0:0:0:0:
256,224,23810,1,8,0:0:0:0:
256,224,23997,1,8,0:0:0:0:
288,160,24185,1,4,0:0:0:0:
288,160,24560,1,12,0:0:0:0:
288,192,24747,1,0,0:0:0:0:
288,160,24935,1,8,0:0:0:0:
288,160,25122,1,0,0:0:0:0:
288,160,25216,1,8,0:0:0:0:
288,128,25310,1,0,0:0:0:0:
288,128,25497,1,8,0:0:0:0:
288,128,25685,1,8,0:0:0:0:
288,128,25872,1,0,0:0:0:0:
288,128,26060,1,12,0:0:0:0:
256,128,26247,1,0,0:0:0:0:
192,192,26435,1,0,0:0:0:0:
256,128,26622,1,8,0:0:0:0:
256,160,26716,1,8,0:0:0:0:
256,128,26810,1,0,0:0:0:0:
256,192,26997,1,8,0:0:0:0:
256,192,27185,1,0,0:0:0:0:
256,192,27372,1,0,0:0:0:0:
256,192,27560,1,12,0:0:0:0:
256,160,27935,1,0,0:0:0:0:
256,160,28122,1,0,0:0:0:0:
256,192,28310,1,12,0:0:0:0:
256,160,28497,1,0,0:0:0:0:
256,160,28685,1,8,0:0:0:0:
256,160,28778,1,8,0:0:0:0:
256,160,28872,1,8,0:0:0:0:
256,192,29060,1,4,0:0:0:0:
256,192,29435,1,4,0:0:0:0:
256,192,29810,1,4,0:0:0:0:
256,192,30185,1,4,0:0:0:0:
256,192,30560,1,12,0:0:0:0:
275,198,30747,1,0,0:0:0:0:
273,192,30935,1,8,0:0:0:0:
272,192,31122,1,0,0:0:0:0:
256,192,31216,1,0,0:0:0:0:
272,192,31310,1,8,0:0:0:0:
272,192,31497,1,8,0:0:0:0:
273,192,31685,1,0,0:0:0:0:
273,192,31872,1,8,0:0:0:0:
272,192,32060,1,0,0:0:0:0:
145,172,32153,1,0,0:0:0:0:
145,172,32247,1,0,0:0:0:0:
296,178,32435,1,8,0:0:0:0:
296,178,32622,1,8,0:0:0:0:
304,190,32810,1,4,0:0:0:0:
289,194,33185,1,12,0:0:0:0:
289,194,33560,1,4,0:0:0:0:
256,192,33747,1,8,0:0:0:0:
288,160,33935,1,0,0:0:0:0:
224,192,34122,1,0,0:0:0:0:
288,160,34216,1,8,0:0:0:0:
224,192,34310,1,8,0:0:0:0:
288,160,34497,1,0,0:0:0:0:
288,160,34685,1,8,0:0:0:0:
256,160,34872,1,8,0:0:0:0:
256,160,35060,1,0,0:0:0:0:
288,128,35153,1,0,0:0:0:0:
288,128,35247,1,0,0:0:0:0:
288,128,35435,1,8,0:0:0:0:
288,128,35622,1,8,0:0:0:0:
288,192,35810,1,4,0:0:0:0:
288,192,36185,1,4,0:0:0:0:
288,192,36560,1,12,0:0:0:0:
256,160,36747,1,0,0:0:0:0:
288,64,36935,1,0,0:0:0:0:
256,160,37122,1,8,0:0:0:0:
288,128,37310,1,0,0:0:0:0:
288,128,37403,1,0,0:0:0:0:
288,96,37497,1,8,0:0:0:0:
320,128,37685,1,0,0:0:0:0:
320,128,37872,1,8,0:0:0:0:
320,96,38060,1,0,0:0:0:0:
288,96,38153,1,0,0:0:0:0:
320,96,38247,1,0,0:0:0:0:
288,160,38341,1,0,0:0:0:0:
288,64,38435,1,8,0:0:0:0:
288,64,38622,1,8,0:0:0:0:
288,96,38810,1,4,0:0:0:0:
288,96,39185,1,12,0:0:0:0:
288,96,39560,1,4,0:0:0:0:
256,192,39747,1,8,0:0:0:0:
288,160,39841,1,0,0:0:0:0:
256,192,39935,1,8,0:0:0:0:
256,192,40122,1,0,0:0:0:0:
256,192,40310,1,0,0:0:0:0:
288,160,40403,1,0,0:0:0:0:
256,192,40497,1,8,0:0:0:0:
256,192,40591,1,8,0:0:0:0:
256,192,40685,1,0,0:0:0:0:
224,224,40872,1,8,0:0:0:0:
288,160,41060,1,4,0:0:0:0:
288,160,41435,1,4,0:0:0:0:
288,160,41810,1,4,0:0:0:0:
288,160,42185,1,4,0:0:0:0:
256,192,42560,1,12,0:0:0:0:
256,160,42747,1,0,0:0:0:0:
352,224,42935,1,8,0:0:0:0:
256,224,43028,1,8,0:0:0:0:
256,160,43122,1,0,0:0:0:0:
256,160,43310,1,8,0:0:0:0:
256,160,43497,1,0,0:0:0:0:
256,160,43591,1,8,0:0:0:0:
288,128,43778,1,8,0:0:0:0:
288,128,43872,1,0,0:0:0:0:
288,128,43966,1,0,0:0:0:0:
288,128,44060,1,8,0:0:0:0:
256,192,44247,1,0,0:0:0:0:
256,192,44435,1,8,0:0:0:0:
64,192,44528,1,8,0:0:0:0:
256,192,44622,1,0,0:0:0:0:
256,192,44716,1,0,0:0:0:0:
256,192,44810,1,8,0:0:0:0:
288,160,44903,1,8,0:0:0:0:
256,192,44997,1,0,0:0:0:0:
288,160,45185,1,12,0:0:0:0:
256,160,45560,1,4,0:0:0:0:
320,160,46310,1,8,0:0:0:0:
288,192,47060,1,0,0:0:0:0:
288,192,47435,1,0,0:0:0:0:
288,192,47810,1,12,0:0:0:0:
256,192,48185,1,4,0:0:0:0:
256,192,48560,1,12,0:0:0:0:
256,192,48935,1,0,0:0:0:0:
256,160,49122,1,0,0:0:0:0:
256,192,49310,1,8,0:0:0:0:
256,160,49685,1,0,0:0:0:0:
256,160,50060,1,8,0:0:0:0:
320,192,50153,1,8,0:0:0:0:
320,192,50247,1,0,0:0:0:0:
288,192,50341,1,0,0:0:0:0:
320,192,50435,1,8,0:0:0:0:
320,192,50622,1,0,0:0:0:0:
320,192,50810,1,8,0:0:0:0:
320,192,50903,1,8,0:0:0:0:
320,192,50997,1,8,0:0:0:0:
320,192,51185,1,0,0:0:0:0:
320,192,51372,1,8,0:0:0:0:
320,192,51560,1,4,0:0:0:0:
288,192,52310,1,8,0:0:0:0:
256,192,52872,1,8,0:0:0:0:
320,160,53060,1,8,0:0:0:0:
288,96,53247,1,0,0:0:0:0:
320,160,53622,1,0,0:0:0:0:
320,160,53810,1,12,0:0:0:0:
352,96,54185,1,0,0:0:0:0:
352,96,54560,1,12,0:0:0:0:
256,224,55310,1,4,0:0:0:0:
128,192,55872,1,8,0:0:0:0:
256,192,56060,1,8,0:0:0:0:
256,128,56247,1,0,0:0:0:0:
256,128,56435,1,8,0:0:0:0:
256,128,56622,1,8,0:0:0:0:
288,128,56810,1,4,0:0:0:0:
288,128,57185,1,4,0:0:0:0:
288,128,57560,1,12,0:0:0:0:
288,160,59997,1,8,0:0:0:0:
288,192,60091,1,8,0:0:0:0:
288,192,60185,1,0,0:0:0:0:
288,192,60372,1,0,0:0:0:0:
288,192,60560,1,12,0:0:0:0:
256,192,60935,1,0,0:0:0:0:
256,192,61122,1,8,0:0:0:0:
256,192,61216,1,8,0:0:0:0:
256,192,61310,1,0,0:0:0:0:
256,192,61497,1,8,0:0:0:0:
256,192,61685,1,0,0:0:0:0:
256,192,61872,1,0,0:0:0:0:
256,192,62060,1,8,0:0:0:0:
160,160,62153,1,8,0:0:0:0:
256,192,62247,1,0,0:0:0:0:
256,160,62341,1,0,0:0:0:0:
64,192,62435,1,8,0:0:0:0:
256,160,62622,1,8,0:0:0:0:
128,192,62810,1,0,0:0:0:0:
256,128,62903,1,0,0:0:0:0:
256,160,62997,1,8,0:0:0:0:
256,160,63091,1,8,0:0:0:0:
96,192,63185,1,0,0:0:0:0:
256,160,63372,1,0,0:0:0:0:
96,192,63560,1,12,0:0:0:0:
288,160,63935,1,8,0:0:0:0:
288,160,64122,1,0,0:0:0:0:
288,160,64216,1,0,0:0:0:0:
288,160,64310,1,8,0:0:0:0:
288,160,64403,1,8,0:0:0:0:
288,160,64497,1,8,0:0:0:0:
288,192,64685,1,0,0:0:0:0:
320,160,64872,1,8,0:0:0:0:
320,192,64966,1,8,0:0:0:0:
320,160,65060,1,0,0:0:0:0:
160,192,65153,1,0,0:0:0:0:
320,192,65247,1,8,0:0:0:0:
320,192,65435,1,0,0:0:0:0:
320,192,65622,1,8,0:0:0:0:
320,192,65716,1,8,0:0:0:0:
288,192,65810,1,0,0:0:0:0:
320,160,65997,1,8,0:0:0:0:
256,192,66185,1,0,0:0:0:0:
256,192,66560,1,0,0:0:0:0:
160,192,66747,1,8,0:0:0:0:
256,192,66935,1,0,0:0:0:0:
288,128,67122,1,8,0:0:0:0:
320,160,67216,1,8,0:0:0:0:
320,160,67310,1,0,0:0:0:0:
288,160,67403,1,0,0:0:0:0:
320,160,67497,1,0,0:0:0:0:
320,160,67685,1,8,0:0:0:0:
288,128,67872,1,0,0:0:0:0:
288,192,67966,1,0,0:0:0:0:
320,128,68060,1,8,0:0:0:0:
288,160,68153,1,8,0:0:0:0:
288,160,68247,1,0,0:0:0:0:
288,160,68435,1,8,0:0:0:0:
288,160,68622,1,0,0:0:0:0:
288,160,68716,1,8,0:0:0:0:
288,160,68810,1,0,0:0:0:0:
288,160,68997,1,8,0:0:0:0:
320,128,69185,1,0,0:0:0:0:
352,128,69560,1,0,0:0:0:0:
256,96,69653,1,0,0:0:0:0:
288,160,69747,1,8,0:0:0:0:
256,160,69841,1,8,0:0:0:0:
288,160,69935,1,0,0:0:0:0:
256,192,70122,1,8,0:0:0:0:
256,192,70310,1,8,0:0:0:0:
256,192,70403,1,0,0:0:0:0:
256,192,70497,1,0,0:0:0:0:
192,160,70591,1,0,0:0:0:0:
256,192,70685,1,8,0:0:0:0:
256,192,70872,1,0,0:0:0:0:
256,192,71060,1,8,0:0:0:0:
64,192,71153,1,8,0:0:0:0:
256,128,71247,1,0,0:0:0:0:
224,192,71341,1,0,0:0:0:0:
256,160,71435,1,8,0:0:0:0:
224,192,71622,1,8,0:0:0:0:
288,160,71716,1,8,0:0:0:0:
224,192,71810,1,0,0:0:0:0:
288,160,71997,1,8,0:0:0:0:
256,192,72185,1,0,0:0:0:0:
256,192,72560,1,4,0:0:0:0:
224,192,73310,1,0,0:0:0:0:
256,160,73497,1,8,0:0:0:0:
288,192,73591,1,8,0:0:0:0:
288,192,73685,1,0,0:0:0:0:
256,160,73872,1,8,0:0:0:0:
256,160,74060,1,4,0:0:0:0:
256,128,74247,1,8,0:0:0:0:
256,128,74622,1,8,0:0:0:0:
256,160,74716,1,8,0:0:0:0:
256,96,74810,1,0,0:0:0:0:
256,96,74903,1,0,0:0:0:0:
256,128,74997,1,8,0:0:0:0:
256,224,75185,1,8,0:0:0:0:
256,224,75372,1,0,0:0:0:0:
256,224,75560,1,8,0:0:0:0:
256,192,75653,1,8,0:0:0:0:
256,224,75747,1,0,0:0:0:0:
192,160,75935,1,0,0:0:0:0:
256,224,76122,1,8,0:0:0:0:
288,160,76216,1,8,0:0:0:0:
256,224,76310,1,8,0:0:0:0:
256,128,76403,1,8,0:0:0:0:
256,224,76497,1,0,0:0:0:0:
256,256,76685,1,8,0:0:0:0:
256,256,76872,1,0,0:0:0:0:
256,256,77060,1,8,0:0:0:0:
288,96,77153,1,0,0:0:0:0:
288,224,77247,1,8,0:0:0:0:
320,160,77622,1,0,0:0:0:0:
256,128,77716,1,0,0:0:0:0:
288,128,77810,1,8,0:0:0:0:
320,160,77997,1,0,0:0:0:0:
256,96,78185,1,0,0:0:0:0:
320,160,78372,1,8,0:0:0:0:
320,192,78747,1,8,0:0:0:0:
256,96,78841,1,8,0:0:0:0:
256,96,78935,1,8,0:0:0:0:
320,192,79122,1,0,0:0:0:0:
288,192,79310,1,8,0:0:0:0:
320,192,79497,1,0,0:0:0:0:
320,192,79872,1,8,0:0:0:0:
320,160,80060,1,8,0:0:0:0:
256,224,80153,1,8,0:0:0:0:
256,192,80247,1,0,0:0:0:0:
256,192,80435,1,8,0:0:0:0:
320,160,80622,1,0,0:0:0:0:
320,192,80716,1,0,0:0:0:0:
320,160,80810,1,8,0:0:0:0:
320,128,80903,1,8,0:0:0:0:
320,160,80997,1,8,0:0:0:0:
288,192,81185,1,0,0:0:0:0:
288,192,81372,1,0,0:0:0:0:
288,192,81560,1,8,0:0:0:0:
352,160,81653,1,0,0:0:0:0:
288,192,81747,1,8,0:0:0:0:
256,192,81935,1,8,0:0:0:0:
288,192,82122,1,0,0:0:0:0:
320,128,82216,1,0,0:0:0:0:
288,192,82310,1,8,0:0:0:0:
320,128,82403,1,8,0:0:0:0:
288,192,82497,1,0,0:0:0:0:
320,192,82685,1,0,0:0:0:0:
288,192,82872,1,8,0:0:0:0:
256,192,83060,1,0,0:0:0:0:
320,128,83153,1,0,0:0:0:0:
256,192,83247,1,0,0:0:0:0:
256,192,83435,1,8,0:0:0:0:
256,192,83622,1,8,0:0:0:0:
352,96,83716,1,0,0:0:0:0:
288,160,83810,1,0,0:0:0:0:
320,128,83903,1,0,0:0:0:0:
288,160,83997,1,8,0:0:0:0:
288,160,84185,1,0,0:0:0:0:
288,160,84372,1,8,0:0:0:0:
288,128,84560,1,0,0:0:0:0:
288,96,84653,1,0,0:0:0:0:
256,192,84747,1,8,0:0:0:0:
256,224,84935,1,8,0:0:0:0:
224,192,85122,1,0,0:0:0:0:
288,96,85216,1,8,0:0:0:0:
224,192,85310,1,0,0:0:0:0:
224,192,85497,1,8,0:0:0:0:
224,160,85591,1,8,0:0:0:0:
224,192,85685,1,0,0:0:0:0:
256,160,85778,1,0,0:0:0:0:
320,128,85872,1,8,0:0:0:0:
256,160,86060,1,4,0:0:0:0:
