osu file format v14

[General]
AudioFilename: audio.mp3
AudioLeadIn: 0
PreviewTime:63372
Countdown: 0
SampleSet: Normal
StackLeniency: 0.7
Mode: 1
LetterboxInBreaks: 0
WidescreenStoryboard: 1

[Editor]
Bookmarks: 560,3560,6560,18560,30560,42560,45560,48560,51560,57560,60560,63560,72560,74060,80060,86060
DistanceSpacing: 1
BeatDivisor: 4
GridSize: 32
TimelineZoom: 1.599999

[Metadata]
Title:Shinzou o Sasageyo! (TV Size)
TitleUnicode:心臓を捧げよ! (TV Size)
Artist:Linked Horizon
ArtistUnicode:Linked Horizon
Creator:Hivie
Version:Futsuu
Source:進撃の巨人
Tags:radar kyex arcpotato axer i love egg motorjam heavenly moon ginjani revo Attack on Titan shingeki no kyojin season 2 two dedicate all your hearts heart snk aot armin arlert levi eren jaeger mikasa ackerman survey corps opening one theme song anime japanese orchestral j-rock jrock rock symphonic
BeatmapID:3690183
BeatmapSetID:1799377

[Difficulty]
HPDrainRate:7
CircleSize:3
OverallDifficulty:4
ApproachRate:10
SliderMultiplier:1.4
SliderTickRate:1

[Events]
//Background and Video events
0,0,"sasageyo.jpg",0,0
Video,0,"radar loves men.mp4"
//Break Periods
2,57760,60110
//Storyboard Layer 0 (Background)
//Storyboard Layer 1 (Fail)
//Storyboard Layer 2 (Pass)
//Storyboard Layer 3 (Foreground)
//Storyboard Layer 4 (Overlay)
//Storyboard Sound Samples

[TimingPoints]
560,375,4,1,0,30,1,0
560,-125,4,1,0,30,0,0
3466,-125,4,1,0,75,0,0
3560,-100,4,1,0,75,0,0
6560,-100,4,1,0,75,0,0
6653,-100,4,1,0,50,0,0
6747,-117.647058823529,4,1,0,50,0,0
17060,-117.647058823529,4,1,0,50,0,0
17435,-115.942028985507,4,1,0,50,0,0
17810,-114.285714285714,4,1,0,50,0,0
18182,-114.285714285714,4,1,0,52,0,0
18185,-112.676056338028,4,1,0,52,0,0
18275,-112.676056338028,4,1,0,54,0,0
18369,-112.676056338028,4,1,0,56,0,0
18463,-112.676056338028,4,1,0,58,0,0
18557,-112.676056338028,4,1,0,60,0,0
18560,-111.111111111111,4,1,0,60,0,0
29060,-111.111111111111,4,1,0,60,0,0
29435,-112.676056338028,4,1,0,60,0,0
29810,-114.285714285714,4,1,0,60,0,0
30185,-115.942028985507,4,1,0,60,0,0
30560,-117.647058823529,4,1,0,60,0,0
41013,-117.647058823529,4,1,0,70,0,0
41060,-117.647058823529,4,1,0,70,0,0
41435,-114.285714285714,4,1,0,70,0,0
41810,-111.111111111111,4,1,0,70,0,0
42185,-108.108108108108,4,1,0,70,0,0
42560,-105.263157894737,4,1,0,70,0,0
45747,-117.647058823529,4,1,0,60,0,0
47716,-117.647058823529,4,1,0,70,0,0
48560,-111.111111111111,4,1,0,70,0,0
49966,-111.111111111111,4,1,0,80,0,0
50060,-111.111111111111,4,1,0,80,0,0
50435,-108.108108108108,4,1,0,80,0,0
50810,-105.263157894737,4,1,0,80,0,0
51185,-102.564102564103,4,1,0,80,0,0
51560,-100,4,1,0,80,0,0
51653,-125,4,1,0,80,0,0
51747,-125,4,1,0,60,0,0
59810,-125,4,1,0,60,0,0
59994,-125,4,1,0,70,0,0
59997,-121.22191692258,4,1,0,70,0,0
60091,-119.407737621398,4,1,0,70,0,0
60185,-117.647058823529,4,1,0,70,0,0
60372,-114.294422432185,4,1,0,70,0,0
60557,-114.294422432185,4,1,0,75,0,0
60560,-111.111111111111,4,1,0,75,0,0
62060,-111.111111111111,4,1,0,80,0,0
62435,-108.108108108108,4,1,0,80,0,0
62810,-105.263157894737,4,1,0,80,0,0
63185,-102.564102564103,4,1,0,80,0,0
63560,-100,4,1,0,75,0,1
72560,-100,4,1,0,65,0,0
72747,-100,4,1,0,40,0,0
73403,-100,4,1,0,65,0,0
74060,-100,4,1,0,75,0,0
80060,-100,4,1,0,85,0,1
86060,-100,4,1,0,85,0,0

[HitObjects]
256,192,3560,5,0,0:0:0:0:
256,192,3747,1,8,0:0:0:0:
256,192,4122,1,8,0:0:0:0:
256,192,4497,1,0,0:0:0:0:
256,192,4872,1,8,0:0:0:0:
256,192,5247,1,0,0:0:0:0:
256,192,5622,1,8,0:0:0:0:
256,192,5997,1,0,0:0:0:0:
256,192,6372,1,8,0:0:0:0:
256,192,6560,1,4,0:0:0:0:
256,192,7122,1,8,0:0:0:0:
256,192,7872,1,0,0:0:0:0:
256,192,8247,1,0,0:0:0:0:
256,192,8622,1,8,0:0:0:0:
256,192,8997,1,8,0:0:0:0:
256,192,9560,1,8,0:0:0:0:
256,192,9747,1,0,0:0:0:0:
256,192,10122,1,8,0:0:0:0:
256,192,10872,1,0,0:0:0:0:
256,192,11247,1,8,0:0:0:0:
256,192,11622,1,8,0:0:0:0:
256,192,11997,1,0,0:0:0:0:
256,192,12560,1,0,0:0:0:0:
256,192,12747,1,8,0:0:0:0:
256,192,13122,1,8,0:0:0:0:
256,192,13872,1,8,0:0:0:0:
256,192,14247,1,0,0:0:0:0:
256,192,14622,1,8,0:0:0:0:
256,192,14997,1,0,0:0:0:0:
256,192,15560,1,0,0:0:0:0:
256,192,15747,1,8,0:0:0:0:
256,192,16122,1,8,0:0:0:0:
256,192,16685,1,0,0:0:0:0:
256,192,17060,1,12,0:0:0:0:
256,192,17435,1,4,0:0:0:0:
256,192,17810,1,12,0:0:0:0:
256,192,18185,1,4,0:0:0:0:
256,192,18560,1,12,0:0:0:0:
256,192,19122,1,8,0:0:0:0:
256,192,19872,1,0,0:0:0:0:
256,192,20060,1,0,0:0:0:0:
256,192,20247,1,8,0:0:0:0:
256,192,20622,1,0,0:0:0:0:
256,192,20997,1,8,0:0:0:0:
256,192,21560,1,8,0:0:0:0:
256,192,21747,1,0,0:0:0:0:
256,192,22122,1,0,0:0:0:0:
256,192,22872,1,8,0:0:0:0:
256,192,23060,1,0,0:0:0:0:
256,192,23247,1,8,0:0:0:0:
256,192,23622,1,0,0:0:0:0:
256,192,23997,1,0,0:0:0:0:
256,192,24185,1,8,0:0:0:0:
256,192,24372,1,0,0:0:0:0:
256,192,24560,1,8,0:0:0:0:
256,192,24747,1,0,0:0:0:0:
256,192,25122,1,8,0:0:0:0:
256,192,25872,1,0,0:0:0:0:
256,192,26060,1,8,0:0:0:0:
256,192,26247,1,0,0:0:0:0:
256,192,26622,1,8,0:0:0:0:
256,192,26997,1,0,0:0:0:0:
256,192,27372,1,8,0:0:0:0:
256,192,27560,1,0,0:0:0:0:
256,192,27747,1,8,0:0:0:0:
256,192,28122,1,8,0:0:0:0:
256,192,28685,1,8,0:0:0:0:
256,192,29060,1,4,0:0:0:0:
256,192,29435,1,4,0:0:0:0:
256,192,29810,1,12,0:0:0:0:
256,192,30185,1,12,0:0:0:0:
256,192,30560,1,4,0:0:0:0:
256,192,31310,1,0,0:0:0:0:
256,192,31685,1,8,0:0:0:0:
256,192,31872,1,8,0:0:0:0:
256,192,32060,1,0,0:0:0:0:
256,192,32435,1,8,0:0:0:0:
256,192,32810,1,4,0:0:0:0:
256,192,33185,1,4,0:0:0:0:
256,192,33560,1,12,0:0:0:0:
256,192,34310,1,8,0:0:0:0:
256,192,34685,1,0,0:0:0:0:
256,192,35060,1,8,0:0:0:0:
256,192,35247,1,0,0:0:0:0:
256,192,35435,1,8,0:0:0:0:
256,192,35810,1,4,0:0:0:0:
256,192,36185,1,4,0:0:0:0:
256,192,36560,1,12,0:0:0:0:
256,192,37310,1,0,0:0:0:0:
256,192,37685,1,8,0:0:0:0:
256,192,38060,1,8,0:0:0:0:
256,192,38247,1,0,0:0:0:0:
256,192,38435,1,8,0:0:0:0:
256,192,38810,1,4,0:0:0:0:
256,192,39185,1,4,0:0:0:0:
256,192,39560,1,12,0:0:0:0:
256,192,40310,1,0,0:0:0:0:
256,192,40497,1,0,0:0:0:0:
256,192,40685,1,8,0:0:0:0:
256,192,41060,1,4,0:0:0:0:
256,192,41435,1,4,0:0:0:0:
256,192,41810,1,12,0:0:0:0:
256,192,42185,1,12,0:0:0:0:
256,192,42560,1,4,0:0:0:0:
256,192,42935,1,8,0:0:0:0:
256,192,43122,1,0,0:0:0:0:
256,192,43310,1,8,0:0:0:0:
256,192,43685,1,0,0:0:0:0:
256,192,44060,1,8,0:0:0:0:
256,192,44247,1,0,0:0:0:0:
256,192,44435,1,8,0:0:0:0:
256,192,44622,1,8,0:0:0:0:
256,192,44810,1,0,0:0:0:0:
256,192,45185,1,8,0:0:0:0:
256,192,45560,1,4,0:0:0:0:
256,192,46310,1,8,0:0:0:0:
256,192,47060,1,0,0:0:0:0:
256,192,47622,1,0,0:0:0:0:
256,192,47810,1,8,0:0:0:0:
256,192,48185,1,0,0:0:0:0:
256,192,48560,1,12,0:0:0:0:
256,192,49122,1,8,0:0:0:0:
256,192,49310,1,0,0:0:0:0:
256,192,49497,1,0,0:0:0:0:
256,192,49685,1,8,0:0:0:0:
256,192,49872,1,8,0:0:0:0:
256,192,50060,1,4,0:0:0:0:
256,192,50435,1,4,0:0:0:0:
256,192,50810,1,12,0:0:0:0:
256,192,51185,1,12,0:0:0:0:
256,192,51560,1,4,0:0:0:0:
256,192,52310,1,8,0:0:0:0:
256,192,53060,1,0,0:0:0:0:
256,192,53247,1,8,0:0:0:0:
256,192,53810,1,8,0:0:0:0:
256,192,54560,1,0,0:0:0:0:
256,192,55310,1,8,0:0:0:0:
256,192,56060,1,0,0:0:0:0:
256,192,56247,1,8,0:0:0:0:
256,192,56622,1,0,0:0:0:0:
256,192,56810,1,8,0:0:0:0:
256,192,57185,1,8,0:0:0:0:
256,192,57560,1,4,0:0:0:0:
256,192,60560,5,12,0:0:0:0:
256,192,61122,1,0,0:0:0:0:
256,192,61310,1,8,0:0:0:0:
256,192,61497,1,0,0:0:0:0:
256,192,61685,1,8,0:0:0:0:
256,192,62060,1,4,0:0:0:0:
256,192,62435,1,4,0:0:0:0:
256,192,62810,1,12,0:0:0:0:
256,192,63185,1,12,0:0:0:0:
256,192,63560,1,4,0:0:0:0:
256,192,64310,1,8,0:0:0:0:
256,192,64685,1,0,0:0:0:0:
256,192,64872,1,8,0:0:0:0:
256,192,65060,1,8,0:0:0:0:
256,192,65435,1,0,0:0:0:0:
256,192,65622,1,8,0:0:0:0:
256,192,65810,1,0,0:0:0:0:
256,192,65997,1,0,0:0:0:0:
256,192,66185,1,8,0:0:0:0:
256,192,66560,1,4,0:0:0:0:
256,192,67122,1,0,0:0:0:0:
256,192,67310,1,8,0:0:0:0:
256,192,67497,1,0,0:0:0:0:
256,192,67685,1,8,0:0:0:0:
256,192,68060,1,0,0:0:0:0:
256,192,68247,1,8,0:0:0:0:
256,192,68622,1,8,0:0:0:0:
256,192,68810,1,0,0:0:0:0:
256,192,68997,1,0,0:0:0:0:
256,192,69185,1,8,0:0:0:0:
256,192,69560,1,4,0:0:0:0:
256,192,70122,1,8,0:0:0:0:
256,192,70310,1,8,0:0:0:0:
256,192,70685,1,0,0:0:0:0:
256,192,70872,1,0,0:0:0:0:
256,192,71060,1,8,0:0:0:0:
256,192,71435,1,0,0:0:0:0:
256,192,71622,1,0,0:0:0:0:
256,192,71810,1,8,0:0:0:0:
256,192,71997,1,0,0:0:0:0:
256,192,72185,1,8,0:0:0:0:
256,192,72560,1,4,0:0:0:0:
256,192,73497,1,0,0:0:0:0:
256,192,73685,1,8,0:0:0:0:
256,192,74060,1,4,0:0:0:0:
256,192,74435,1,0,0:0:0:0:
256,192,74622,1,8,0:0:0:0:
256,192,74997,1,0,0:0:0:0:
256,192,75372,1,8,0:0:0:0:
256,192,75560,1,0,0:0:0:0:
256,192,75747,1,8,0:0:0:0:
256,192,76122,1,8,0:0:0:0:
256,192,76497,1,0,0:0:0:0:
256,192,76872,1,8,0:0:0:0:
256,192,77060,1,0,0:0:0:0:
256,192,77247,1,8,0:0:0:0:
256,192,77622,1,8,0:0:0:0:
256,192,77997,1,0,0:0:0:0:
256,192,78372,1,8,0:0:0:0:
256,192,78747,1,0,0:0:0:0:
256,192,79122,1,8,0:0:0:0:
256,192,79872,1,8,0:0:0:0:
256,192,80060,1,4,0:0:0:0:
256,192,80435,1,8,0:0:0:0:
256,192,80622,1,8,0:0:0:0:
256,192,80997,1,0,0:0:0:0:
256,192,81372,1,8,0:0:0:0:
256,192,81560,1,0,0:0:0:0:
256,192,81747,1,8,0:0:0:0:
256,192,81935,1,8,0:0:0:0:
256,192,82122,1,0,0:0:0:0:
256,192,82497,1,8,0:0:0:0:
256,192,82872,1,0,0:0:0:0:
256,192,83060,1,8,0:0:0:0:
256,192,83247,1,8,0:0:0:0:
256,192,83435,1,0,0:0:0:0:
256,192,83622,1,8,0:0:0:0:
256,192,83997,1,0,0:0:0:0:
256,192,84372,1,8,0:0:0:0:
256,192,84747,1,0,0:0:0:0:
256,192,85122,1,8,0:0:0:0:
256,192,85310,1,0,0:0:0:0:
256,192,85497,1,8,0:0:0:0:
256,192,85685,1,8,0:0:0:0:
256,192,86060,1,4,0:0:0:0:
